  0
SECTION
  2
HEADER
  9
$ACADVER
  1
AC1009
  9
$DWGCODEPAGE
  3
ansi_1252
  9
$INSBASE
 10
0.0
 20
0.0
 30
0.0
  9
$EXTMIN
 10
0.0
 20
0.0
 30
0.0
  9
$EXTMAX
 10
420.0
 20
594.0
 30
0.0
  9
$LIMMIN
 10
0.0
 20
0.0
  9
$LIMMAX
 10
420.0
 20
594.0
  9
$ORTHOMODE
 70
     0
  9
$REGENMODE
 70
     1
  9
$FILLMODE
 70
     1
  9
$QTEXTMODE
 70
     0
  9
$MIRRTEXT
 70
     1
  9
$DRAGMODE
 70
     2
  9
$LTSCALE
 40
2.0
  9
$OSMODE
 70
    37
  9
$ATTMODE
 70
     1
  9
$TEXTSIZE
 40
7.0
  9
$TRACEWID
 40
1.0
  9
$TEXTSTYLE
  7
STANDARD
  9
$CLAYER
  8
0
  9
$CELTYPE
  6
BYLAYER
  9
$CECOLOR
 62
   256
  9
$DIMSCALE
 40
1.0
  9
$DIMASZ
 40
6.604
  9
$DIMEXO
 40
2.0
  9
$DIMDLI
 40
3.75
  9
$DIMRND
 40
0.0
  9
$DIMDLE
 40
0.0
  9
$DIMEXE
 40
2.0
  9
$DIMTP
 40
0.0
  9
$DIMTM
 40
0.0
  9
$DIMTXT
 40
7.0
  9
$DIMCEN
 40
2.5
  9
$DIMTSZ
 40
0.0
  9
$DIMTOL
 70
     0
  9
$DIMLIM
 70
     0
  9
$DIMTIH
 70
     1
  9
$DIMTOH
 70
     1
  9
$DIMSE1
 70
     0
  9
$DIMSE2
 70
     0
  9
$DIMTAD
 70
     1
  9
$DIMZIN
 70
     0
  9
$DIMBLK
  1

  9
$DIMASO
 70
     1
  9
$DIMSHO
 70
     1
  9
$DIMPOST
  1

  9
$DIMAPOST
  1

  9
$DIMALT
 70
     0
  9
$DIMALTD
 70
     3
  9
$DIMALTF
 40
0.0393700787
  9
$DIMLFAC
 40
1.0
  9
$DIMTOFL
 70
     1
  9
$DIMTVP
 40
0.0
  9
$DIMTIX
 70
     0
  9
$DIMSOXD
 70
     0
  9
$DIMSAH
 70
     0
  9
$DIMBLK1
  1

  9
$DIMBLK2
  1

  9
$DIMSTYLE
  2
ISO-25
  9
$DIMCLRD
 70
     0
  9
$DIMCLRE
 70
     0
  9
$DIMCLRT
 70
     0
  9
$DIMTFAC
 40
1.0
  9
$DIMGAP
 40
3.048
  9
$LUNITS
 70
     2
  9
$LUPREC
 70
     2
  9
$SKETCHINC
 40
1.0
  9
$FILLETRAD
 40
10.0
  9
$AUNITS
 70
     0
  9
$AUPREC
 70
     2
  9
$MENU
  1
.
  9
$ELEVATION
 40
0.0
  9
$PELEVATION
 40
0.0
  9
$THICKNESS
 40
0.0
  9
$LIMCHECK
 70
     0
  9
$CHAMFERA
 40
0.0
  9
$CHAMFERB
 40
0.0
  9
$SKPOLY
 70
     0
  9
$TDCREATE
 40
2458327.485103553
  9
$TDUPDATE
 40
2458327.485120336
  9
$TDINDWG
 40
0.0000000116
  9
$TDUSRTIMER
 40
0.0000000116
  9
$USRTIMER
 70
     1
  9
$ANGBASE
 50
0.0
  9
$ANGDIR
 70
     0
  9
$PDMODE
 70
     0
  9
$PDSIZE
 40
-1.0
  9
$PLINEWID
 40
0.0
  9
$COORDS
 70
     1
  9
$SPLFRAME
 70
     0
  9
$SPLINETYPE
 70
     6
  9
$SPLINESEGS
 70
     8
  9
$ATTDIA
 70
     0
  9
$ATTREQ
 70
     1
  9
$HANDLING
 70
     1
  9
$HANDSEED
  5
520
  9
$SURFTAB1
 70
     6
  9
$SURFTAB2
 70
     6
  9
$SURFTYPE
 70
     6
  9
$SURFU
 70
     6
  9
$SURFV
 70
     6
  9
$UCSNAME
  2

  9
$UCSORG
 10
0.0
 20
0.0
 30
0.0
  9
$UCSXDIR
 10
1.0
 20
0.0
 30
0.0
  9
$UCSYDIR
 10
0.0
 20
1.0
 30
0.0
  9
$PUCSNAME
  2

  9
$PUCSORG
 10
0.0
 20
0.0
 30
0.0
  9
$PUCSXDIR
 10
1.0
 20
0.0
 30
0.0
  9
$PUCSYDIR
 10
0.0
 20
1.0
 30
0.0
  9
$USERI1
 70
     0
  9
$USERI2
 70
     0
  9
$USERI3
 70
     0
  9
$USERI4
 70
     0
  9
$USERI5
 70
     0
  9
$USERR1
 40
0.0
  9
$USERR2
 40
0.0
  9
$USERR3
 40
0.0
  9
$USERR4
 40
0.0
  9
$USERR5
 40
0.0
  9
$WORLDVIEW
 70
     1
  9
$SHADEDGE
 70
     3
  9
$SHADEDIF
 70
    70
  9
$TILEMODE
 70
     1
  9
$MAXACTVP
 70
    64
  9
$PLIMCHECK
 70
     0
  9
$PEXTMIN
 10
1.0000000000E+20
 20
1.0000000000E+20
 30
1.0000000000E+20
  9
$PEXTMAX
 10
-1.0000000000E+20
 20
-1.0000000000E+20
 30
-1.0000000000E+20
  9
$PLIMMIN
 10
0.0
 20
0.0
  9
$PLIMMAX
 10
420.0
 20
297.0
  9
$UNITMODE
 70
     0
  9
$VISRETAIN
 70
     1
  9
$PLINEGEN
 70
     0
  9
$PSLTSCALE
 70
     1
  0
ENDSEC
  0
SECTION
  2
TABLES
  0
TABLE
  2
VPORT
 70
     1
  0
VPORT
  2
*ACTIVE
 70
     0
 10
0.0
 20
0.0
 11
1.0
 21
1.0
 12
210.0
 22
297.0
 13
0.0
 23
0.0
 14
10.0
 24
10.0
 15
10.0
 25
10.0
 16
0.0
 26
0.0
 36
1.0
 17
0.0
 27
0.0
 37
0.0
 40
594.0
 41
0.7070707071
 42
50.0
 43
0.0
 44
0.0
 50
0.0
 51
0.0
 71
     0
 72
  2000
 73
     1
 74
     3
 75
     0
 76
     0
 77
     0
 78
     0
  0
ENDTAB
  0
TABLE
  2
LTYPE
 70
     6
  0
LTYPE
  2
CONTINUOUS
 70
     0
  3
Solid line
 72
    65
 73
     0
 40
0.0
  0
LTYPE
  2
HIDDEN
 70
     0
  3
Hidden __ __ __ __ __ __ __ __ __ __ __ __ __ __
 72
    65
 73
     2
 40
1.905
 49
1.27
 49
-0.635
  0
LTYPE
  2
PHANTOM
 70
     0
  3
Phantom ______  __  __  ______  __  __  ______
 72
    65
 73
     6
 40
12.7
 49
6.35
 49
-1.27
 49
1.27
 49
-1.27
 49
1.27
 49
-1.27
  0
LTYPE
  2
CENTER
 70
     0
  3
Center ____ _ ____ _ ____ _ ____ _ ____ _ ____
 72
    65
 73
     4
 40
10.16
 49
6.35
 49
-1.27
 49
1.27
 49
-1.27
  0
LTYPE
  2
CENTERX2
 70
     0
  3
Center (2x) ________  __  ________  __  _____
 72
    65
 73
     4
 40
20.32
 49
12.7
 49
-2.54
 49
2.54
 49
-2.54
  0
LTYPE
  2
DOT2
 70
     0
  3
Dot (.5x) ........................................
 72
    65
 73
     2
 40
0.635
 49
0.0
 49
-0.635
  0
ENDTAB
  0
TABLE
  2
LAYER
 70
     1
  0
LAYER
  2
0
 70
     0
 62
     7
  6
CONTINUOUS
  0
ENDTAB
  0
TABLE
  2
STYLE
 70
     1
  0
STYLE
  2
STANDARD
 70
     0
 40
0.0
 41
1.0
 50
0.0
 71
     0
 42
7.0
  3
txt
  4

  0
ENDTAB
  0
TABLE
  2
VIEW
 70
     0
  0
ENDTAB
  0
TABLE
  2
UCS
 70
     0
  0
ENDTAB
  0
TABLE
  2
APPID
 70
     1
  0
APPID
  2
ACAD
 70
     0
  0
ENDTAB
  0
TABLE
  2
DIMSTYLE
 70
     6
  0
DIMSTYLE
  2
ISO-25
 70
     0
  3

  4

  5

  6

  7

 40
1.0
 41
2.5
 42
0.625
 43
3.75
 44
1.25
 45
0.0
 46
0.0
 47
0.0
 48
0.0
140
2.5
141
2.5
142
0.0
143
0.0393700787
144
1.0
145
0.0
146
1.0
147
0.625
 71
     0
 72
     0
 73
     0
 74
     0
 75
     0
 76
     0
 77
     1
 78
     8
170
     0
171
     3
172
     1
173
     0
174
     0
175
     0
176
     0
177
     0
178
     0
  0
DIMSTYLE
  2
SLDDIMSTYLE0
 70
     0
  3

  4

  5

  6

  7

 40
1.0
 41
6.604
 42
0.0625
 43
0.38
 44
0.0
 45
0.000000001
 46
0.0
 47
0.0
 48
0.0
140
7.0
141
0.09
142
0.0
143
25.4
144
1.0
145
0.0
146
1.0
147
1.75
 71
     0
 72
     0
 73
     0
 74
     0
 75
     0
 76
     0
 77
     1
 78
    12
170
     0
171
     2
172
     1
173
     1
174
     0
175
     0
176
     0
177
     0
178
     0
  0
DIMSTYLE
  2
SLDDIMSTYLE1
 70
     0
  3

  4

  5

  6

  7

 40
1.0
 41
6.604
 42
0.0625
 43
0.38
 44
0.0
 45
0.000000001
 46
0.0
 47
0.0
 48
0.0
140
7.0
141
0.09
142
0.0
143
25.4
144
1.0
145
0.0
146
1.0
147
1.75
 71
     0
 72
     0
 73
     0
 74
     0
 75
     0
 76
     0
 77
     1
 78
    12
170
     0
171
     2
172
     0
173
     1
174
     0
175
     0
176
     0
177
     0
178
     0
  0
DIMSTYLE
  2
SLDDIMSTYLE2
 70
     0
  3

  4

  5

  6

  7

 40
1.0
 41
6.604
 42
0.0625
 43
0.38
 44
0.0
 45
0.000000001
 46
0.0
 47
0.0
 48
0.0
140
7.0
141
0.0
142
0.0
143
25.4
144
1.0
145
0.0
146
1.0
147
1.75
 71
     0
 72
     0
 73
     0
 74
     0
 75
     0
 76
     0
 77
     1
 78
    12
170
     0
171
     2
172
     0
173
     1
174
     0
175
     0
176
     0
177
     0
178
     0
  0
DIMSTYLE
  2
SLDDIMSTYLE3
 70
     0
  3

  4

  5

  6

  7

 40
1.0
 41
6.604
 42
0.0625
 43
0.38
 44
0.0
 45
0.000000001
 46
0.0
 47
0.0
 48
0.0
140
7.0
141
0.09
142
0.0
143
25.4
144
1.0
145
0.0
146
1.0
147
1.75
 71
     0
 72
     0
 73
     0
 74
     0
 75
     0
 76
     0
 77
     1
 78
    12
170
     0
171
     2
172
     1
173
     1
174
     0
175
     0
176
     0
177
     0
178
     0
  0
DIMSTYLE
  2
SLDDIMSTYLE4
 70
     0
  3

  4

  5

  6

  7

 40
1.0
 41
6.604
 42
0.0625
 43
0.38
 44
0.0
 45
0.000000001
 46
0.0
 47
0.0
 48
0.0
140
7.0
141
0.09
142
0.0
143
25.4
144
1.0
145
0.0
146
1.0
147
1.75
 71
     0
 72
     0
 73
     0
 74
     0
 75
     0
 76
     0
 77
     1
 78
    12
170
     0
171
     2
172
     1
173
     1
174
     0
175
     0
176
     0
177
     0
178
     0
  0
ENDTAB
  0
ENDSEC
  0
SECTION
  2
BLOCKS
  0
BLOCK
  8
0
  2
$MODEL_SPACE
 70
     0
 10
0.0
 20
0.0
 30
0.0
  3
$MODEL_SPACE
  1

  0
ENDBLK
  5
21
  8
0
  0
BLOCK
 67
     1
  8
0
  2
$PAPER_SPACE
 70
     0
 10
0.0
 20
0.0
 30
0.0
  3
$PAPER_SPACE
  1

  0
ENDBLK
  5
1D
 67
     1
  8
0
  0
BLOCK
  8
0
  2
BLOCK2
 70
     0
 10
0.0
 20
0.0
 30
0.0
  3
BLOCK2
  1

  0
INSERT
  5
84
  8
0
  6
CONTINUOUS
 62
     7
  2
BLOCK1
 10
-258.8262632916
 20
-286.6552837897
 30
0.0
  0
ENDBLK
  5
75
  8
0
  0
BLOCK
  8
0
  2
BLOCK1
 70
     0
 10
0.0
 20
0.0
 30
0.0
  3
BLOCK1
  1

  0
CIRCLE
  5
79
  8
0
  6
CONTINUOUS
 62
     7
 10
288.153184033
 20
301.2034238004
 30
0.0
 40
5.999999999999986
  0
CIRCLE
  5
7A
  8
0
  6
CONTINUOUS
 62
     7
 10
288.153184033
 20
301.2034238004
 30
0.0
 40
2.999999999999974
  0
LINE
  5
7B
  8
0
  6
CENTERX2
 62
     7
 10
251.3831182155
 20
301.2034238004
 30
0.0
 11
300.9232498505
 21
301.2034238004
 31
0.0
  0
LINE
  5
7C
  8
0
  6
CONTINUOUS
 62
     7
 10
276.153184033
 20
307.3771474308
 30
0.0
 11
276.153184033
 21
295.0297001701
 31
0.0
  0
LINE
  5
7D
  8
0
  6
CONTINUOUS
 62
     7
 10
262.5140928444
 20
304.3771474308
 30
0.0
 11
262.5140928444
 21
298.0297001701
 31
0.0
  0
LINE
  5
7E
  8
0
  6
CONTINUOUS
 62
     7
 10
262.5140928444
 20
304.3771474308
 30
0.0
 11
276.153184033
 21
307.3771474308
 31
0.0
  0
LINE
  5
7F
  8
0
  6
CONTINUOUS
 62
     7
 10
262.5140928444
 20
298.0297001701
 30
0.0
 11
276.153184033
 21
295.0297001701
 31
0.0
  0
LINE
  5
80
  8
0
  6
CENTERX2
 62
     7
 10
288.153184033
 20
290.6552837897
 30
0.0
 11
288.153184033
 21
311.4183296725
 31
0.0
  0
ENDBLK
  5
78
  8
0
  0
BLOCK
  8
0
  2
PROJEKTIONSMETHODE_1
 70
     0
 10
0.0
 20
0.0
 30
0.0
  3
PROJEKTIONSMETHODE_1
  1

  0
INSERT
  5
85
  8
0
  6
CONTINUOUS
 62
     7
  2
BLOCK2
 10
7.4431450761
 20
-4.0
 30
0.0
  0
ENDBLK
  5
83
  8
0
  0
BLOCK
  8
0
  2
SW_NOTE_0
 70
     0
 10
0.0
 20
0.0
 30
0.0
  3
SW_NOTE_0
  1

  0
TEXT
  5
C6
  8
0
  6
CONTINUOUS
 62
     0
 10
0.0
 20
1.4954675955
 30
0.0
 40
4.2333333333
  1
IF NOT OTHERWISE DEFINED:
 41
0.658
 11
0.0
 21
0.0
 31
0.0
 73
     1
  0
TEXT
  5
C7
  8
0
  6
CONTINUOUS
 62
     0
 10
0.0
 20
-4.1489767808
 30
0.0
 40
4.2333333333
  1
DIMENSIONS ARE IN MILLIMETERS
 41
0.6637931034
 11
0.0
 21
-5.6444443762
 31
0.0
 73
     1
  0
TEXT
  5
C8
  8
0
  6
CONTINUOUS
 62
     0
 10
0.0
 20
-9.793421157
 30
0.0
 40
4.2333333333
  1
SURFACE CONDITIONS:
 41
0.7
 11
0.0
 21
-11.2888887525
 31
0.0
 73
     1
  0
TEXT
  5
C9
  8
0
  6
CONTINUOUS
 62
     0
 10
0.0
 20
-21.0823099095
 30
0.0
 40
4.2333333333
  1
TOLERANCES: 
 41
0.7
 11
0.0
 21
-22.5777775049
 31
0.0
 73
     1
  0
TEXT
  5
CA
  8
0
  6
CONTINUOUS
 62
     0
 10
40.5959039927
 20
-21.0823099095
 30
0.0
 40
4.2333333333
  1
DIN ISO 2768-m
 41
0.65
 11
40.5959039927
 21
-22.5777775049
 31
0.0
 73
     1
  0
ENDBLK
  5
C5
  8
0
  0
BLOCK
  8
0
  2
SW_NOTE_1
 70
     0
 10
0.0
 20
0.0
 30
0.0
  3
SW_NOTE_1
  1

  0
TEXT
  5
D2
  8
0
  6
CONTINUOUS
 62
     0
 10
0.0
 20
1.7663003096
 30
0.0
 40
5.0
  1
MATERIAL: 
 41
0.7
 11
0.0
 21
0.0
 31
0.0
 73
     1
  0
TEXT
  5
D3
  8
0
  6
CONTINUOUS
 62
     0
 10
37.4140627682
 20
1.8532013339
 30
0.0
 40
6.35
  1
EN AW-6060 (AlMgSi0,5)
 41
0.6681818182
 11
37.4140627682
 21
-0.3900000593
 31
0.0
 73
     1
  0
ENDBLK
  5
D1
  8
0
  0
BLOCK
  8
0
  2
_D
 70
     0
 10
0.0
 20
0.0
 30
0.0
  3
_D
  1

  0
SOLID
  5
1BA
  8
0
  6
CONTINUOUS
 62
   150
 10
74.1650236932
 20
483.66
 30
0.0
 11
75.1810236932
 21
490.264
 31
0.0
 12
73.1490236932
 22
490.264
 32
0.0
 13
73.1490236932
 23
490.264
 33
0.0
  0
SOLID
  5
1BB
  8
0
  6
CONTINUOUS
 62
   150
 10
74.1650236932
 20
434.91
 30
0.0
 11
73.1490236932
 21
428.306
 31
0.0
 12
75.1810236932
 22
428.306
 32
0.0
 13
75.1810236932
 23
428.306
 33
0.0
  0
LINE
  5
1BC
  8
0
  6
CONTINUOUS
 62
   150
 10
85.86
 20
483.66
 30
0.0
 11
72.1650236932
 21
483.66
 31
0.0
  0
LINE
  5
1BD
  8
0
  6
CONTINUOUS
 62
   150
 10
83.86
 20
434.91
 30
0.0
 11
72.1650236932
 21
434.91
 31
0.0
  0
LINE
  5
1BE
  8
0
  6
CONTINUOUS
 62
   150
 10
74.1650236932
 20
483.66
 30
0.0
 11
74.1650236932
 21
496.36
 31
0.0
  0
LINE
  5
1BF
  8
0
  6
CONTINUOUS
 62
   150
 10
74.1650236932
 20
483.66
 30
0.0
 11
74.1650236932
 21
434.91
 31
0.0
  0
LINE
  5
1C0
  8
0
  6
CONTINUOUS
 62
   150
 10
74.1650236932
 20
434.91
 30
0.0
 11
74.1650236932
 21
422.21
 31
0.0
  0
TEXT
  5
1C1
  8
0
  6
CONTINUOUS
 62
   150
 10
71.692203609
 20
444.8488870718
 30
0.0
 40
7.0
  1
5x9,75
 50
90.0
 41
0.7
 11
74.1650240425
 21
444.8488870718
 31
0.0
 73
     1
  0
ENDBLK
  5
1B9
  8
0
  0
BLOCK
  8
0
  2
_D_1
 70
     0
 10
0.0
 20
0.0
 30
0.0
  3
_D_1
  1

  0
SOLID
  5
1C7
  8
0
  6
CONTINUOUS
 62
   150
 10
85.86
 20
409.2082425601
 30
0.0
 11
92.464
 21
408.1922425601
 31
0.0
 12
92.464
 22
410.2242425601
 32
0.0
 13
92.464
 23
410.2242425601
 33
0.0
  0
SOLID
  5
1C8
  8
0
  6
CONTINUOUS
 62
   150
 10
163.86
 20
409.2082425601
 30
0.0
 11
157.256
 21
410.2242425601
 31
0.0
 12
157.256
 22
408.1922425601
 32
0.0
 13
157.256
 23
408.1922425601
 33
0.0
  0
LINE
  5
1C9
  8
0
  6
CONTINUOUS
 62
   150
 10
85.86
 20
432.91
 30
0.0
 11
85.86
 21
407.2082425601
 31
0.0
  0
LINE
  5
1CA
  8
0
  6
CONTINUOUS
 62
   150
 10
163.86
 20
432.91
 30
0.0
 11
163.86
 21
407.2082425601
 31
0.0
  0
LINE
  5
1CB
  8
0
  6
CONTINUOUS
 62
   150
 10
85.86
 20
409.2082425601
 30
0.0
 11
163.86
 21
409.2082425601
 31
0.0
  0
TEXT
  5
1CC
  8
0
  6
CONTINUOUS
 62
   150
 10
119.7157465472
 20
411.6810626443
 30
0.0
 40
7.0
  1
78
 41
0.7
 11
119.7157465472
 21
409.2082422108
 31
0.0
 73
     1
  0
ENDBLK
  5
1C6
  8
0
  0
BLOCK
  8
0
  2
_D_2
 70
     0
 10
0.0
 20
0.0
 30
0.0
  3
_D_2
  1

  0
SOLID
  5
1D1
  8
0
  6
CONTINUOUS
 62
   150
 10
83.86
 20
509.0444207057
 30
0.0
 11
90.464
 21
508.0284207057
 31
0.0
 12
90.464
 22
510.0604207057
 32
0.0
 13
90.464
 23
510.0604207057
 33
0.0
  0
SOLID
  5
1D2
  8
0
  6
CONTINUOUS
 62
   150
 10
165.86
 20
509.0444207057
 30
0.0
 11
159.256
 21
510.0604207057
 31
0.0
 12
159.256
 22
508.0284207057
 32
0.0
 13
159.256
 23
508.0284207057
 33
0.0
  0
LINE
  5
1D3
  8
0
  6
CONTINUOUS
 62
   150
 10
83.86
 20
493.66
 30
0.0
 11
83.86
 21
511.0444207057
 31
0.0
  0
LINE
  5
1D4
  8
0
  6
CONTINUOUS
 62
   150
 10
165.86
 20
493.66
 30
0.0
 11
165.86
 21
511.0444207057
 31
0.0
  0
LINE
  5
1D5
  8
0
  6
CONTINUOUS
 62
   150
 10
83.86
 20
509.0444207057
 30
0.0
 11
165.86
 21
509.0444207057
 31
0.0
  0
TEXT
  5
1D6
  8
0
  6
CONTINUOUS
 62
   150
 10
118.5099238634
 20
511.5172407899
 30
-50.0
 40
7.0
  1
82
 41
0.7
 11
118.5099238634
 21
509.0444203564
 31
-50.0
 73
     1
  0
ENDBLK
  5
1D0
  8
0
  0
BLOCK
  8
0
  2
_D_3
 70
     0
 10
0.0
 20
0.0
 30
0.0
  3
_D_3
  1

  0
SOLID
  5
1DB
  8
0
  6
CONTINUOUS
 62
   150
 10
83.86
 20
503.466381156
 30
0.0
 11
77.256
 21
504.482381156
 31
0.0
 12
77.256
 22
502.450381156
 32
0.0
 13
77.256
 23
502.450381156
 33
0.0
  0
SOLID
  5
1DC
  8
0
  6
CONTINUOUS
 62
   150
 10
87.86
 20
503.466381156
 30
0.0
 11
94.464
 21
502.450381156
 31
0.0
 12
94.464
 22
504.482381156
 32
0.0
 13
94.464
 23
504.482381156
 33
0.0
  0
LINE
  5
1DD
  8
0
  6
CONTINUOUS
 62
   150
 10
83.86
 20
493.66
 30
0.0
 11
83.86
 21
505.466381156
 31
0.0
  0
LINE
  5
1DE
  8
0
  6
CONTINUOUS
 62
   150
 10
87.86
 20
485.66
 30
0.0
 11
87.86
 21
505.466381156
 31
0.0
  0
LINE
  5
1DF
  8
0
  6
CONTINUOUS
 62
   150
 10
83.86
 20
503.466381156
 30
0.0
 11
54.3017897404
 21
503.466381156
 31
0.0
  0
LINE
  5
1E0
  8
0
  6
CONTINUOUS
 62
   150
 10
83.86
 20
503.466381156
 30
0.0
 11
87.86
 21
503.466381156
 31
0.0
  0
LINE
  5
1E1
  8
0
  6
CONTINUOUS
 62
   150
 10
87.86
 20
503.466381156
 30
0.0
 11
100.56
 21
503.466381156
 31
0.0
  0
TEXT
  5
1E2
  8
0
  6
CONTINUOUS
 62
   150
 10
54.3017897404
 20
505.9392012402
 30
-50.0
 40
7.0
  1
4
 41
0.7
 11
54.3017897404
 21
503.4663808068
 31
-50.0
 73
     1
  0
TEXT
  5
1E3
  8
0
  6
CONTINUOUS
 62
   150
 10
59.4740121275
 20
505.9392012402
 30
-50.0
 40
7.0
  1
x45°
 41
0.7
 11
59.4740121275
 21
503.4663808068
 31
-50.0
 73
     1
  0
ENDBLK
  5
1DA
  8
0
  0
BLOCK
  8
0
  2
_D_4
 70
     0
 10
0.0
 20
0.0
 30
0.0
  3
_D_4
  1

  0
SOLID
  5
1E8
  8
0
  6
CONTINUOUS
 62
   150
 10
112.36
 20
498.3815508107
 30
0.0
 11
105.756
 21
499.3975508107
 31
0.0
 12
105.756
 22
497.3655508107
 32
0.0
 13
105.756
 23
497.3655508107
 33
0.0
  0
SOLID
  5
1E9
  8
0
  6
CONTINUOUS
 62
   150
 10
137.36
 20
498.3815508107
 30
0.0
 11
143.964
 21
497.3655508107
 31
0.0
 12
143.964
 22
499.3975508107
 32
0.0
 13
143.964
 23
499.3975508107
 33
0.0
  0
LINE
  5
1EA
  8
0
  6
CONTINUOUS
 62
   150
 10
112.36
 20
479.66
 30
0.0
 11
112.36
 21
500.3815508107
 31
0.0
  0
LINE
  5
1EB
  8
0
  6
CONTINUOUS
 62
   150
 10
137.36
 20
479.5707495993
 30
0.0
 11
137.36
 21
500.3815508107
 31
0.0
  0
LINE
  5
1EC
  8
0
  6
CONTINUOUS
 62
   150
 10
112.36
 20
498.3815508107
 30
0.0
 11
99.66
 21
498.3815508107
 31
0.0
  0
LINE
  5
1ED
  8
0
  6
CONTINUOUS
 62
   150
 10
112.36
 20
498.3815508107
 30
0.0
 11
137.36
 21
498.3815508107
 31
0.0
  0
LINE
  5
1EE
  8
0
  6
CONTINUOUS
 62
   150
 10
137.36
 20
498.3815508107
 30
0.0
 11
150.06
 21
498.3815508107
 31
0.0
  0
TEXT
  5
1EF
  8
0
  6
CONTINUOUS
 62
   150
 10
118.5099238634
 20
500.8543708949
 30
-50.0
 40
7.0
  1
25
 41
0.7
 11
118.5099238634
 21
498.3815504615
 31
-50.0
 73
     1
  0
ENDBLK
  5
1E7
  8
0
  0
BLOCK
  8
0
  2
_D_5
 70
     0
 10
0.0
 20
0.0
 30
0.0
  3
_D_5
  1

  0
SOLID
  5
1F5
  8
0
  6
CONTINUOUS
 62
   150
 10
138.1638475773
 20
480.66
 30
0.0
 11
132.965211079
 21
484.8575291015
 31
0.0
 12
131.9439254067
 22
483.1008277679
 32
0.0
 13
131.9439254067
 23
483.1008277679
 33
0.0
  0
LINE
  5
1F6
  8
0
  6
CONTINUOUS
 62
   150
 10
138.1638475773
 20
480.66
 30
0.0
 11
170.9158783125
 21
461.6190969822
 31
0.0
  0
LINE
  5
1F7
  8
0
  6
CONTINUOUS
 62
   150
 10
138.1638475773
 20
480.66
 30
0.0
 11
127.1844642418
 21
487.0430354513
 31
0.0
  0
TEXT
  5
1F8
  8
0
  6
CONTINUOUS
 62
   150
 10
162.7643321196
 20
469.1807610535
 30
-50.0
 40
7.0
  1
R6
 50
330.0
 41
0.7
 11
161.5279219029
 21
467.0392357391
 31
-50.0
 73
     1
  0
ENDBLK
  5
1F4
  8
0
  0
BLOCK
  8
0
  2
_D_6
 70
     0
 10
0.0
 20
0.0
 30
0.0
  3
_D_6
  1

  0
SOLID
  5
1FE
  8
0
  6
CONTINUOUS
 62
   150
 10
197.86
 20
466.1424484081
 30
0.0
 11
198.876
 21
472.7464484081
 31
0.0
 12
196.844
 22
472.7464484081
 32
0.0
 13
196.844
 23
472.7464484081
 33
0.0
  0
SOLID
  5
1FF
  8
0
  6
CONTINUOUS
 62
   150
 10
197.86
 20
462.2182187189
 30
0.0
 11
196.844
 21
455.6142187189
 31
0.0
 12
198.876
 22
455.6142187189
 32
0.0
 13
198.876
 23
455.6142187189
 33
0.0
  0
LINE
  5
200
  8
0
  6
CONTINUOUS
 62
   150
 10
140.5448992523
 20
466.1424484081
 30
0.0
 11
199.86
 21
466.1424484081
 31
0.0
  0
LINE
  5
201
  8
0
  6
CONTINUOUS
 62
   150
 10
140.7813898325
 20
462.2182187189
 30
0.0
 11
199.86
 21
462.2182187189
 31
0.0
  0
LINE
  5
202
  8
0
  6
CONTINUOUS
 62
   150
 10
197.86
 20
466.1424484081
 30
0.0
 11
197.86
 21
479.3296554494
 31
0.0
  0
LINE
  5
203
  8
0
  6
CONTINUOUS
 62
   150
 10
197.86
 20
466.1424484081
 30
0.0
 11
197.86
 21
462.2182187189
 31
0.0
  0
LINE
  5
204
  8
0
  6
CONTINUOUS
 62
   150
 10
197.86
 20
462.2182187189
 30
0.0
 11
197.86
 21
449.5182187189
 31
0.0
  0
TEXT
  5
205
  8
0
  6
CONTINUOUS
 62
   150
 10
195.3871799158
 20
474.1574330624
 30
-50.0
 40
7.0
  1
4
 50
90.0
 41
0.7
 11
197.8600003492
 21
474.1574330624
 31
-50.0
 73
     1
  0
ENDBLK
  5
1FD
  8
0
  0
BLOCK
  8
0
  2
_D_7
 70
     0
 10
0.0
 20
0.0
 30
0.0
  3
_D_7
  1

  0
SOLID
  5
20B
  8
0
  6
CONTINUOUS
 62
   150
 10
187.5565383453
 20
465.4154580012
 30
0.0
 11
188.5725383453
 21
472.0194580012
 31
0.0
 12
186.5405383453
 22
472.0194580012
 32
0.0
 13
186.5405383453
 23
472.0194580012
 33
0.0
  0
SOLID
  5
20C
  8
0
  6
CONTINUOUS
 62
   150
 10
187.5565383453
 20
462.9045419988
 30
0.0
 11
186.5405383453
 21
456.3005419988
 31
0.0
 12
188.5725383453
 22
456.3005419988
 32
0.0
 13
188.5725383453
 23
456.3005419988
 33
0.0
  0
LINE
  5
20D
  8
0
  6
CONTINUOUS
 62
   150
 10
164.61
 20
465.4154580012
 30
0.0
 11
189.5565383453
 21
465.4154580012
 31
0.0
  0
LINE
  5
20E
  8
0
  6
CONTINUOUS
 62
   150
 10
164.61
 20
462.9045419988
 30
0.0
 11
189.5565383453
 21
462.9045419988
 31
0.0
  0
LINE
  5
20F
  8
0
  6
CONTINUOUS
 62
   150
 10
187.5565383453
 20
465.4154580012
 30
0.0
 11
187.5565383453
 21
487.7329241445
 31
0.0
  0
LINE
  5
210
  8
0
  6
CONTINUOUS
 62
   150
 10
187.5565383453
 20
465.4154580012
 30
0.0
 11
187.5565383453
 21
462.9045419988
 31
0.0
  0
LINE
  5
211
  8
0
  6
CONTINUOUS
 62
   150
 10
187.5565383453
 20
462.9045419988
 30
0.0
 11
187.5565383453
 21
450.2045419988
 31
0.0
  0
TEXT
  5
212
  8
0
  6
CONTINUOUS
 62
   150
 10
185.0837182611
 20
474.8023688754
 30
-50.0
 40
7.0
  1
2,5
 50
90.0
 41
0.7
 11
187.5565386945
 21
474.8023688754
 31
-50.0
 73
     1
  0
ENDBLK
  5
20A
  8
0
  0
BLOCK
  8
0
  2
_D_8
 70
     0
 10
0.0
 20
0.0
 30
0.0
  3
_D_8
  1

  0
SOLID
  5
217
  8
0
  6
CONTINUOUS
 62
   150
 10
74.1650236932
 20
483.66
 30
0.0
 11
73.1490236932
 21
477.056
 31
0.0
 12
75.1810236932
 22
477.056
 32
0.0
 13
75.1810236932
 23
477.056
 33
0.0
  0
SOLID
  5
218
  8
0
  6
CONTINUOUS
 62
   150
 10
74.1650236932
 20
491.66
 30
0.0
 11
75.1810236932
 21
498.264
 31
0.0
 12
73.1490236932
 22
498.264
 32
0.0
 13
73.1490236932
 23
498.264
 33
0.0
  0
LINE
  5
219
  8
0
  6
CONTINUOUS
 62
   150
 10
85.86
 20
483.66
 30
0.0
 11
72.1650236932
 21
483.66
 31
0.0
  0
LINE
  5
21A
  8
0
  6
CONTINUOUS
 62
   150
 10
81.86
 20
491.66
 30
0.0
 11
72.1650236932
 21
491.66
 31
0.0
  0
LINE
  5
21B
  8
0
  6
CONTINUOUS
 62
   150
 10
74.1650236932
 20
483.66
 30
0.0
 11
74.1650236932
 21
470.96
 31
0.0
  0
LINE
  5
21C
  8
0
  6
CONTINUOUS
 62
   150
 10
74.1650236932
 20
483.66
 30
0.0
 11
74.1650236932
 21
491.66
 31
0.0
  0
LINE
  5
21D
  8
0
  6
CONTINUOUS
 62
   150
 10
74.1650236932
 20
491.66
 30
0.0
 11
74.1650236932
 21
504.36
 31
0.0
  0
TEXT
  5
21E
  8
0
  6
CONTINUOUS
 62
   150
 10
71.692203609
 20
485.5355502313
 30
-50.0
 40
7.0
  1
8
 50
90.0
 41
0.7
 11
74.1650240425
 21
485.5355502313
 31
-50.0
 73
     1
  0
ENDBLK
  5
216
  8
0
  0
BLOCK
  8
0
  2
_D_9
 70
     0
 10
0.0
 20
0.0
 30
0.0
  3
_D_9
  1

  0
SOLID
  5
223
  8
0
  6
CONTINUOUS
 62
   150
 10
61.232727366
 20
491.66
 30
0.0
 11
60.216727366
 21
485.056
 31
0.0
 12
62.248727366
 22
485.056
 32
0.0
 13
62.248727366
 23
485.056
 33
0.0
  0
SOLID
  5
224
  8
0
  6
CONTINUOUS
 62
   150
 10
61.232727366
 20
433.66
 30
0.0
 11
62.248727366
 21
440.264
 31
0.0
 12
60.216727366
 22
440.264
 32
0.0
 13
60.216727366
 23
440.264
 33
0.0
  0
LINE
  5
225
  8
0
  6
CONTINUOUS
 62
   150
 10
81.86
 20
491.66
 30
0.0
 11
59.232727366
 21
491.66
 31
0.0
  0
LINE
  5
226
  8
0
  6
CONTINUOUS
 62
   150
 10
85.11
 20
433.66
 30
0.0
 11
59.232727366
 21
433.66
 31
0.0
  0
LINE
  5
227
  8
0
  6
CONTINUOUS
 62
   150
 10
61.232727366
 20
491.66
 30
0.0
 11
61.232727366
 21
433.66
 31
0.0
  0
TEXT
  5
228
  8
0
  6
CONTINUOUS
 62
   150
 10
58.7599072818
 20
457.320414195
 30
-50.0
 40
7.0
  1
58
 50
90.0
 41
0.7
 11
61.2327277153
 21
457.320414195
 31
-50.0
 73
     1
  0
ENDBLK
  5
222
  8
0
  0
BLOCK
  8
0
  2
_D_10
 70
     0
 10
0.0
 20
0.0
 30
0.0
  3
_D_10
  1

  0
SOLID
  5
22D
  8
0
  6
CONTINUOUS
 62
   150
 10
116.86
 20
420.6658780597
 30
0.0
 11
110.256
 21
421.6818780597
 31
0.0
 12
110.256
 22
419.6498780597
 32
0.0
 13
110.256
 23
419.6498780597
 33
0.0
  0
SOLID
  5
22E
  8
0
  6
CONTINUOUS
 62
   150
 10
132.86
 20
420.6658780597
 30
0.0
 11
139.464
 21
419.6498780597
 31
0.0
 12
139.464
 22
421.6818780597
 32
0.0
 13
139.464
 23
421.6818780597
 33
0.0
  0
LINE
  5
22F
  8
0
  6
CONTINUOUS
 62
   150
 10
116.86
 20
436.8602152793
 30
0.0
 11
116.86
 21
418.6658780597
 31
0.0
  0
LINE
  5
230
  8
0
  6
CONTINUOUS
 62
   150
 10
132.86
 20
436.8602152793
 30
0.0
 11
132.86
 21
418.6658780597
 31
0.0
  0
LINE
  5
231
  8
0
  6
CONTINUOUS
 62
   150
 10
116.86
 20
420.6658780597
 30
0.0
 11
104.16
 21
420.6658780597
 31
0.0
  0
LINE
  5
232
  8
0
  6
CONTINUOUS
 62
   150
 10
116.86
 20
420.6658780597
 30
0.0
 11
132.86
 21
420.6658780597
 31
0.0
  0
LINE
  5
233
  8
0
  6
CONTINUOUS
 62
   150
 10
132.86
 20
420.6658780597
 30
0.0
 11
145.56
 21
420.6658780597
 31
0.0
  0
TEXT
  5
234
  8
0
  6
CONTINUOUS
 62
   150
 10
119.7157465472
 20
423.1386981439
 30
-50.0
 40
7.0
  1
16
 50
0.0
 41
0.7
 11
119.7157465472
 21
420.6658777104
 31
-50.0
 73
     1
  0
ENDBLK
  5
22C
  8
0
  0
BLOCK
  8
0
  2
_D_11
 70
     0
 10
0.0
 20
0.0
 30
0.0
  3
_D_11
  1

  0
SOLID
  5
2EE
  8
0
  6
CONTINUOUS
 62
   150
 10
226.66
 20
413.66
 30
0.0
 11
233.264
 21
412.644
 31
0.0
 12
233.264
 22
414.676
 32
0.0
 13
233.264
 23
414.676
 33
0.0
  0
SOLID
  5
2EF
  8
0
  6
CONTINUOUS
 62
   150
 10
326.66
 20
413.66
 30
0.0
 11
320.056
 21
414.676
 31
0.0
 12
320.056
 22
412.644
 32
0.0
 13
320.056
 23
412.644
 33
0.0
  0
LINE
  5
2F0
  8
0
  6
CONTINUOUS
 62
   150
 10
226.66
 20
473.273596241
 30
0.0
 11
226.66
 21
411.66
 31
0.0
  0
LINE
  5
2F1
  8
0
  6
CONTINUOUS
 62
   150
 10
326.66
 20
473.273596241
 30
0.0
 11
326.66
 21
411.66
 31
0.0
  0
LINE
  5
2F2
  8
0
  6
CONTINUOUS
 62
   150
 10
226.66
 20
413.66
 30
0.0
 11
326.66
 21
413.66
 31
0.0
  0
TEXT
  5
2F3
  8
0
  6
CONTINUOUS
 62
   150
 10
271.0725684945
 20
416.1328200842
 30
0.0
 40
7.0
  1
100
 50
0.0
 41
0.7
 11
271.0725684945
 21
413.6599996508
 31
0.0
 73
     1
  0
ENDBLK
  5
2ED
  8
0
  0
ENDSEC
  0
SECTION
  2
ENTITIES
  0
LINE
  5
87
  8
0
  6
CONTINUOUS
 62
     7
 10
35.6
 20
120.5
 30
0.0
 11
35.6
 21
10.0
 31
0.0
  0
LINE
  5
88
  8
0
  6
CONTINUOUS
 62
     7
 10
50.84
 20
86.5
 30
0.0
 11
50.84
 21
10.0
 31
0.0
  0
LINE
  5
89
  8
0
  6
CONTINUOUS
 62
     7
 10
101.64
 20
10.0
 30
0.0
 11
101.64
 21
86.5
 31
0.0
  0
LINE
  5
8A
  8
0
  6
CONTINUOUS
 62
     7
 10
142.28
 20
44.0
 30
0.0
 11
410.0
 21
44.0
 31
0.0
  0
LINE
  5
8B
  8
0
  6
CONTINUOUS
 62
     7
 10
410.0
 20
86.5
 30
0.0
 11
35.6
 21
86.5
 31
0.0
  0
LINE
  5
8C
  8
0
  6
CONTINUOUS
 62
     7
 10
35.6
 20
120.5
 30
0.0
 11
410.0
 21
120.5
 31
0.0
  0
LINE
  5
8D
  8
0
  6
CONTINUOUS
 62
     7
 10
142.28
 20
77.8895423413
 30
0.0
 11
35.6
 21
77.8895423413
 31
0.0
  0
LINE
  5
8E
  8
0
  6
CONTINUOUS
 62
     7
 10
142.28
 20
10.0
 30
0.0
 11
142.28
 21
120.5
 31
0.0
  0
LINE
  5
8F
  8
0
  6
CONTINUOUS
 62
     7
 10
228.64
 20
120.5
 30
0.0
 11
228.64
 21
10.0
 31
0.0
  0
LINE
  5
90
  8
0
  6
CONTINUOUS
 62
     7
 10
127.04
 20
86.5
 30
0.0
 11
127.04
 21
10.0
 31
0.0
  0
LINE
  5
91
  8
0
  6
CONTINUOUS
 62
     7
 10
165.1048038001
 20
44.0
 30
0.0
 11
165.1048038001
 21
86.5
 31
0.0
  0
LINE
  5
92
  8
0
  6
CONTINUOUS
 62
     7
 10
142.28
 20
27.0
 30
0.0
 11
35.6
 21
27.0
 31
0.0
  0
LINE
  5
93
  8
0
  6
CONTINUOUS
 62
     7
 10
193.3938514809
 20
120.5
 30
0.0
 11
193.3938514809
 21
44.0
 31
0.0
  0
LINE
  5
94
  8
0
  6
CONTINUOUS
 62
     7
 10
316.96
 20
10.0
 30
0.0
 11
316.96
 21
18.5
 31
0.0
  0
LINE
  5
95
  8
0
  6
CONTINUOUS
 62
     7
 10
332.56
 20
107.75
 30
0.0
 11
332.56
 21
120.5
 31
0.0
  0
LINE
  5
96
  8
0
  6
CONTINUOUS
 62
     7
 10
35.6
 20
18.46
 30
0.0
 11
142.28
 21
18.46
 31
0.0
  0
LINE
  5
97
  8
0
  6
CONTINUOUS
 62
     7
 10
379.36
 20
18.5
 30
0.0
 11
379.36
 21
44.0
 31
0.0
  0
LINE
  5
98
  8
0
  6
CONTINUOUS
 62
     7
 10
410.0
 20
107.75
 30
0.0
 11
228.64
 21
107.75
 31
0.0
  0
LINE
  5
99
  8
0
  6
CONTINUOUS
 62
     7
 10
410.0
 20
10.0
 30
0.0
 11
410.0
 21
120.5
 31
0.0
  0
LINE
  5
9A
  8
0
  6
CONTINUOUS
 62
     7
 10
35.6
 20
10.0
 30
0.0
 11
410.0
 21
10.0
 31
0.0
  0
LINE
  5
9B
  8
0
  6
CONTINUOUS
 62
     7
 10
142.28
 20
35.5
 30
0.0
 11
35.6
 21
35.5
 31
0.0
  0
LINE
  5
9C
  8
0
  6
CONTINUOUS
 62
     7
 10
142.28
 20
44.0
 30
0.0
 11
35.6
 21
44.0
 31
0.0
  0
LINE
  5
9D
  8
0
  6
CONTINUOUS
 62
     7
 10
228.64
 20
52.5
 30
0.0
 11
35.6
 21
52.5
 31
0.0
  0
LINE
  5
9E
  8
0
  6
CONTINUOUS
 62
     7
 10
228.64
 20
61.0
 30
0.0
 11
35.6
 21
61.0
 31
0.0
  0
LINE
  5
9F
  8
0
  6
CONTINUOUS
 62
     7
 10
228.64
 20
69.5
 30
0.0
 11
35.6
 21
69.5
 31
0.0
  0
LINE
  5
A0
  8
0
  6
CONTINUOUS
 62
     7
 10
228.64
 20
77.8895423413
 30
0.0
 11
142.28
 21
77.8895423413
 31
0.0
  0
LINE
  5
A1
  8
0
  6
CONTINUOUS
 62
     7
 10
35.6
 20
582.6838275312
 30
0.0
 11
410.0
 21
582.6838275312
 31
0.0
  0
LINE
  5
A2
  8
0
  6
CONTINUOUS
 62
     7
 10
410.0
 20
27.0
 30
0.0
 11
379.36
 21
27.0
 31
0.0
  0
LINE
  5
A3
  8
0
  6
CONTINUOUS
 62
     7
 10
228.64
 20
18.46
 30
0.0
 11
410.0
 21
18.46
 31
0.0
  0
LINE
  5
A4
  8
0
  6
CONTINUOUS
 62
     7
 10
25.6
 20
571.5421239083
 30
0.0
 11
25.6
 21
10.0
 31
0.0
  0
LINE
  5
A5
  8
0
  6
CONTINUOUS
 62
     7
 10
35.6
 20
97.0
 30
0.0
 11
25.6
 21
97.0
 31
0.0
  0
LINE
  5
A6
  8
0
  6
CONTINUOUS
 62
     7
 10
25.6
 20
10.0
 30
0.0
 11
35.6
 21
10.0
 31
0.0
  0
LINE
  5
A7
  8
0
  6
CONTINUOUS
 62
     7
 10
35.6
 20
571.5421239083
 30
0.0
 11
35.6
 21
120.5
 31
0.0
  0
LINE
  5
A8
  8
0
  6
CONTINUOUS
 62
     7
 10
410.0
 20
120.5
 30
0.0
 11
410.0
 21
571.5421239083
 31
0.0
  0
LINE
  5
A9
  8
0
  6
CONTINUOUS
 62
     7
 10
410.0
 20
571.5421239083
 30
0.0
 11
35.6
 21
571.5421239083
 31
0.0
  0
LINE
  5
AA
  8
0
  6
CONTINUOUS
 62
     7
 10
25.6
 20
197.0
 30
0.0
 11
35.6
 21
197.0
 31
0.0
  0
LINE
  5
AB
  8
0
  6
CONTINUOUS
 62
     7
 10
25.6
 20
397.0
 30
0.0
 11
35.6
 21
397.0
 31
0.0
  0
LINE
  5
AC
  8
0
  6
CONTINUOUS
 62
     7
 10
35.6
 20
497.0
 30
0.0
 11
25.6
 21
497.0
 31
0.0
  0
LINE
  5
AD
  8
0
  6
CONTINUOUS
 62
     7
 10
117.8
 20
571.5421239083
 30
0.0
 11
117.8
 21
582.6838275312
 31
0.0
  0
LINE
  5
AE
  8
0
  6
CONTINUOUS
 62
     7
 10
317.8
 20
571.5421239083
 30
0.0
 11
317.8
 21
582.6838275312
 31
0.0
  0
LINE
  5
AF
  8
0
  6
CONTINUOUS
 62
     7
 10
35.6
 20
571.5421239083
 30
0.0
 11
25.6
 21
571.5421239083
 31
0.0
  0
LINE
  5
B0
  8
0
  6
CONTINUOUS
 62
     7
 10
35.6
 20
571.5421239083
 30
0.0
 11
35.6
 21
582.6838275312
 31
0.0
  0
LINE
  5
B1
  8
0
  6
CONTINUOUS
 62
     7
 10
410.0
 20
571.5421239083
 30
0.0
 11
410.0
 21
582.6838275312
 31
0.0
  0
LINE
  5
B2
  8
0
  6
CONTINUOUS
 62
     7
 10
217.8
 20
582.6838275312
 30
0.0
 11
217.8
 21
571.5421239083
 31
0.0
  0
LINE
  5
B3
  8
0
  6
CONTINUOUS
 62
     7
 10
25.6
 20
297.0
 30
0.0
 11
35.6
 21
297.0
 31
0.0
  0
INSERT
  5
B4
  8
0
  6
CONTINUOUS
 62
     7
  2
PROJEKTIONSMETHODE_1
 10
142.28
 20
91.121938092
 30
0.0
  0
TEXT
  5
B5
  8
0
  6
CONTINUOUS
 62
     7
 10
28.9333333333
 20
342.9728284716
 30
0.0
 40
7.0
  1
C
 41
0.7
 11
28.9333333333
 21
340.5000080382
 31
0.0
 73
     1
  0
TEXT
  5
B6
  8
0
  6
CONTINUOUS
 62
     7
 10
166.1333393333
 20
574.0193265123
 30
0.0
 40
7.0
  1
2
 41
0.7
 11
166.1333393333
 21
571.5465060789
 31
0.0
 73
     1
  0
TEXT
  5
B7
  8
0
  6
CONTINUOUS
 62
     7
 10
266.1333393333
 20
574.0193265123
 30
0.0
 40
7.0
  1
3
 41
0.7
 11
266.1333393333
 21
571.5465060789
 31
0.0
 73
     1
  0
TEXT
  5
B8
  8
0
  6
CONTINUOUS
 62
     7
 10
66.9666726667
 20
574.0193265123
 30
0.0
 40
7.0
  1
1
 41
0.7
 11
66.9666726667
 21
571.5465060789
 31
0.0
 73
     1
  0
TEXT
  5
B9
  8
0
  6
CONTINUOUS
 62
     7
 10
366.1333213333
 20
574.0193265123
 30
0.0
 40
7.0
  1
4
 41
0.7
 11
366.1333213333
 21
571.5465060789
 31
0.0
 73
     1
  0
TEXT
  5
BA
  8
0
  6
CONTINUOUS
 62
     7
 10
28.9333333333
 20
442.9728284716
 30
0.0
 40
7.0
  1
B
 41
0.7
 11
28.9333333333
 21
440.5000080382
 31
0.0
 73
     1
  0
TEXT
  5
BB
  8
0
  6
CONTINUOUS
 62
     7
 10
28.9333333333
 20
542.9728284716
 30
0.0
 40
7.0
  1
A
 41
0.7
 11
28.9333333333
 21
540.5000080382
 31
0.0
 73
     1
  0
TEXT
  5
BC
  8
0
  6
CONTINUOUS
 62
     7
 10
28.9333333333
 20
242.9728284716
 30
0.0
 40
7.0
  1
D
 41
0.7
 11
28.9333333333
 21
240.5000080382
 31
0.0
 73
     1
  0
TEXT
  5
BD
  8
0
  6
CONTINUOUS
 62
     7
 10
28.9333333333
 20
142.9728284716
 30
0.0
 40
7.0
  1
E
 41
0.7
 11
28.9333333333
 21
140.5000080382
 31
0.0
 73
     1
  0
TEXT
  5
BE
  8
0
  6
CONTINUOUS
 62
     7
 10
28.9333333333
 20
42.9728284716
 30
0.0
 40
7.0
  1
F
 41
0.7
 11
28.9333333333
 21
40.5000080382
 31
0.0
 73
     1
  0
TEXT
  5
BF
  8
0
  6
CONTINUOUS
 62
     7
 10
231.6521285824
 20
25.4128253801
 30
0.0
 40
7.0
  1
PR218
 41
0.7
 11
231.6521285824
 21
22.9400049466
 31
0.0
 73
     1
  0
TEXT
  5
C0
  8
0
  6
CONTINUOUS
 62
     7
 10
334.5422195915
 20
111.6151419011
 30
0.0
 40
5.0
  1
Weight: 
 41
0.7
 11
334.5422195915
 21
109.8488415915
 31
0.0
 73
     1
  0
TEXT
  5
C1
  8
0
  6
CONTINUOUS
 62
     7
 10
143.8692104853
 20
114.0859236658
 30
0.0
 40
4.0
  1
Projectionsmethods
 41
0.7
 11
143.8692104853
 21
112.6728834181
 31
0.0
 73
     1
  0
TEXT
  5
C2
  8
0
  6
CONTINUOUS
 62
     7
 10
195.6464979287
 20
72.5586081072
 30
0.0
 40
3.7041666667
  1
Sommerburg
 41
0.7
 11
195.6464979287
 21
71.2500739612
 31
0.0
 73
     1
  0
INSERT
  5
CB
  8
0
  6
CONTINUOUS
 62
     7
  2
SW_NOTE_0
 10
39.2512041349
 20
113.1479165885
 30
0.0
  0
TEXT
  5
CC
  8
0
  6
CONTINUOUS
 62
     7
 10
199.817693192
 20
114.0970346934
 30
0.0
 40
4.0
  1
Surface
 41
0.7
 11
199.817693192
 21
112.6839944457
 31
0.0
 73
     1
  0
TEXT
  5
CD
  8
0
  6
CONTINUOUS
 62
     7
 10
231.6521285824
 20
37.3463905159
 30
0.0
 40
5.0
  1
Drawing No.:
 41
0.7
 11
231.6521285824
 21
35.5800902063
 31
0.0
 73
     1
  0
TEXT
  5
CE
  8
0
  6
CONTINUOUS
 62
     7
 10
231.6521285824
 20
77.7721380696
 30
0.0
 40
5.0
  1
Title:
 41
0.7
 11
231.6521285824
 21
76.00583776
 31
0.0
 73
     1
  0
INSERT
  5
D4
  8
0
  6
CONTINUOUS
 62
     7
  2
SW_NOTE_1
 10
231.8719748463
 20
95.3143091978
 30
0.0
  0
TEXT
  5
D5
  8
0
  6
CONTINUOUS
 62
     7
 10
319.495609531
 20
12.0253493661
 30
0.0
 40
4.0
  1
replaced by:
 41
0.7
 11
319.495609531
 21
10.6123091184
 31
0.0
 73
     1
  0
TEXT
  5
D6
  8
0
  6
CONTINUOUS
 62
     7
 10
231.5387587919
 20
12.0253493661
 30
0.0
 40
4.0
  1
replaces:
 41
0.7
 11
231.5387587919
 21
10.6123091184
 31
0.0
 73
     1
  0
TEXT
  5
D7
  8
0
  6
CONTINUOUS
 62
     7
 10
383.2228044925
 20
21.4327870454
 30
0.0
 40
4.0
  1
1 von 1
 41
0.6
 11
383.2228044925
 21
20.0197467977
 31
0.0
 73
     1
  0
TEXT
  5
D8
  8
0
  6
CONTINUOUS
 62
     7
 10
383.2228044925
 20
29.8869360306
 30
0.0
 40
4.0
  1
1 (A4)
 41
0.7
 11
383.2228044925
 21
28.473895783
 31
0.0
 73
     1
  0
TEXT
  5
D9
  8
0
  6
CONTINUOUS
 62
     7
 10
381.359984
 20
37.7669651148
 30
0.0
 40
5.0
  1
Page
 41
0.7
 11
381.359984
 21
36.0006648052
 31
0.0
 73
     1
  0
TEXT
  5
DA
  8
0
  6
CONTINUOUS
 62
     7
 10
201.9517210828
 20
80.4799369748
 30
0.0
 40
4.0
  1
Name
 41
0.7
 11
201.9517210828
 21
79.0668967271
 31
0.0
 73
     1
  0
TEXT
  5
DB
  8
0
  6
CONTINUOUS
 62
     7
 10
171.9433421699
 20
80.4799369748
 30
0.0
 40
4.0
  1
Date
 41
0.7
 11
171.9433421699
 21
79.0668967271
 31
0.0
 73
     1
  0
TEXT
  5
DC
  8
0
  6
CONTINUOUS
 62
     7
 10
231.594721075
 20
111.1671465673
 30
0.0
 40
5.0
  1
Scale: 1:2
 41
0.7
 11
231.594721075
 21
109.4008462577
 31
0.0
 73
     1
  0
TEXT
  5
DD
  8
0
  6
CONTINUOUS
 62
     7
 10
142.4140452572
 20
55.3844121821
 30
0.0
 40
4.0
  1
approved
 41
0.7
 11
142.4140452572
 21
53.9713719344
 31
0.0
 73
     1
  0
TEXT
  5
DE
  8
0
  6
CONTINUOUS
 62
     7
 10
142.3504531151
 20
63.5771086417
 30
0.0
 40
4.0
  1
checked
 41
0.7
 11
142.3504531151
 21
62.164068394
 31
0.0
 73
     1
  0
TEXT
  5
DF
  8
0
  6
CONTINUOUS
 62
     7
 10
142.3504531151
 20
72.5982298964
 30
0.0
 40
4.0
  1
drawn
 41
0.7
 11
142.3504531151
 21
71.1851896488
 31
0.0
 73
     1
  0
TEXT
  5
E0
  8
0
  6
CONTINUOUS
 62
     7
 10
127.4974490636
 20
11.6586427104
 30
0.0
 40
4.0
  1
Name
 41
0.7
 11
127.4974490636
 21
10.2456024628
 31
0.0
 73
     1
  0
TEXT
  5
E1
  8
0
  6
CONTINUOUS
 62
     7
 10
108.6943244378
 20
11.6586427104
 30
0.0
 40
4.0
  1
Date
 41
0.7
 11
108.6943244378
 21
10.2456024628
 31
0.0
 73
     1
  0
TEXT
  5
E2
  8
0
  6
CONTINUOUS
 62
     7
 10
64.6472531005
 20
11.6810884944
 30
0.0
 40
4.0
  1
Revision
 41
0.7
 11
64.6472531005
 21
10.2680482467
 31
0.0
 73
     1
  0
TEXT
  5
E3
  8
0
  6
CONTINUOUS
 62
     7
 10
36.0352318007
 20
11.6810884944
 30
0.0
 40
4.0
  1
Agree
 41
0.7
 11
36.0352318007
 21
10.2680482467
 31
0.0
 73
     1
  0
LINE
  5
E4
  8
0
  6
CONTINUOUS
 62
     7
 10
165.86
 20
491.66
 30
0.0
 11
83.86
 21
491.66
 31
0.0
  0
LINE
  5
E5
  8
0
  6
CONTINUOUS
 62
     7
 10
165.86
 20
487.66
 30
0.0
 11
165.86
 21
491.66
 31
0.0
  0
LINE
  5
E6
  8
0
  6
CONTINUOUS
 62
     7
 10
161.86
 20
483.66
 30
0.0
 11
165.86
 21
487.66
 31
0.0
  0
LINE
  5
E7
  8
0
  6
CONTINUOUS
 62
     7
 10
143.36
 20
483.66
 30
0.0
 11
161.86
 21
483.66
 31
0.0
  0
ARC
  5
E8
  8
0
  6
CONTINUOUS
 62
     7
 10
143.36
 20
477.66
 30
0.0
 40
6.0
 50
90.0
 51
180.0
  0
LINE
  5
E9
  8
0
  6
CONTINUOUS
 62
     7
 10
137.36
 20
477.5707495993
 30
0.0
 11
137.36
 21
477.66
 31
0.0
  0
ARC
  5
EA
  8
0
  6
CONTINUOUS
 62
     7
 10
139.11
 20
477.5707495993
 30
0.0
 40
1.749999999999973
 50
180.0
 51
258.5767431938
  0
LINE
  5
EB
  8
0
  6
CONTINUOUS
 62
     7
 10
139.88962098
 20
475.6278545172
 30
0.0
 11
138.7634033583
 21
475.8554155887
 31
0.0
  0
ARC
  5
EC
  8
0
  6
CONTINUOUS
 62
     7
 10
140.4837866515
 20
478.5684271068
 30
0.0
 40
2.999999999999975
 50
258.5767431938
 51
291.8551097038
  0
ARC
  5
ED
  8
0
  6
CONTINUOUS
 62
     7
 10
142.8890014916
 20
473.0748099144
 30
0.0
 40
2.999999999999995
 50
61.1628816688
 51
115.4344091205
  0
ARC
  5
EE
  8
0
  6
CONTINUOUS
 62
     7
 10
145.6160418118
 20
478.4159838842
 30
0.0
 40
3.000000000000186
 50
244.7421810856
 51
291.8551097038
  0
ARC
  5
EF
  8
0
  6
CONTINUOUS
 62
     7
 10
147.8496061546
 20
472.8472146911
 30
0.0
 40
2.999999999999785
 50
64.7421810856
 51
111.8551097038
  0
ARC
  5
F0
  8
0
  6
CONTINUOUS
 62
     7
 10
150.4097591334
 20
478.273596241
 30
0.0
 40
3.000000000000237
 50
244.7421810856
 51
288.6674733172
  0
ARC
  5
F1
  8
0
  6
CONTINUOUS
 62
     7
 10
151.6894762839
 20
474.485755359
 30
0.0
 40
0.998176400831867
 50
88.2986453947
 51
108.6674733172
  0
LINE
  5
F2
  8
0
  6
CONTINUOUS
 62
     7
 10
162.61
 20
475.16
 30
0.0
 11
151.7191120174
 21
475.4834917223
 31
0.0
  0
ARC
  5
F3
  8
0
  6
CONTINUOUS
 62
     7
 10
162.61
 20
473.91
 30
0.0
 40
1.25
 50
270.0
 51
90.0
  0
LINE
  5
F4
  8
0
  6
CONTINUOUS
 62
     7
 10
151.7191120174
 20
472.3365082777
 30
0.0
 11
162.61
 21
472.66
 31
0.0
  0
ARC
  5
F5
  8
0
  6
CONTINUOUS
 62
     7
 10
151.6894762839
 20
473.334244641
 30
0.0
 40
0.9981764008318103
 50
251.3325266828
 51
271.7013546053
  0
ARC
  5
F6
  8
0
  6
CONTINUOUS
 62
     7
 10
150.4097591334
 20
469.546403759
 30
0.0
 40
3.000000000000016
 50
71.3325266828
 51
115.2578189144
  0
ARC
  5
F7
  8
0
  6
CONTINUOUS
 62
     7
 10
147.8496061546
 20
474.9727853089
 30
0.0
 40
3.000000000000027
 50
248.1448902962
 51
295.2578189144
  0
ARC
  5
F8
  8
0
  6
CONTINUOUS
 62
     7
 10
145.6160418118
 20
469.4040161158
 30
0.0
 40
3.000000000000007
 50
68.1448902962
 51
115.2578189144
  0
ARC
  5
F9
  8
0
  6
CONTINUOUS
 62
     7
 10
142.8890014916
 20
474.7451900856
 30
0.0
 40
3.000000000000007
 50
244.5655908795
 51
298.8371183312
  0
ARC
  5
FA
  8
0
  6
CONTINUOUS
 62
     7
 10
140.4837866515
 20
469.2515728932
 30
0.0
 40
2.999999999999975
 50
68.1448902962
 51
101.4232568062
  0
LINE
  5
FB
  8
0
  6
CONTINUOUS
 62
     7
 10
138.5448992523
 20
471.9204339491
 30
0.0
 11
139.88962098
 21
472.1921454828
 31
0.0
  0
ARC
  5
FC
  8
0
  6
CONTINUOUS
 62
     7
 10
138.9410097
 20
469.9600522227
 30
0.0
 40
2.000000000000053
 50
101.4232568062
 51
180.0
  0
LINE
  5
FD
  8
0
  6
CONTINUOUS
 62
     7
 10
136.9410097
 20
468.1028301345
 30
0.0
 11
136.9410097
 21
469.9600522227
 31
0.0
  0
ARC
  5
FE
  8
0
  6
CONTINUOUS
 62
     7
 10
138.9410097
 20
468.1028301345
 30
0.0
 40
2.0
 50
180.0
 51
258.5767431938
  0
LINE
  5
FF
  8
0
  6
CONTINUOUS
 62
     7
 10
139.8882392183
 20
465.8710160702
 30
0.0
 11
138.5448992523
 21
466.1424484081
 31
0.0
  0
ARC
  5
100
  8
0
  6
CONTINUOUS
 62
     7
 10
140.4720021275
 20
468.8136714808
 30
0.0
 40
2.999999999999999
 50
258.7793645279
 51
292.0978130933
  0
ARC
  5
101
  8
0
  6
CONTINUOUS
 62
     7
 10
142.8890014916
 20
463.3248099144
 30
0.0
 40
3.000000000000007
 50
61.1628816688
 51
115.4344091205
  0
ARC
  5
102
  8
0
  6
CONTINUOUS
 62
     7
 10
145.6160418118
 20
468.6659838842
 30
0.0
 40
3.000000000000017
 50
244.7421810856
 51
291.8551097038
  0
ARC
  5
103
  8
0
  6
CONTINUOUS
 62
     7
 10
147.8496061546
 20
463.0972146911
 30
0.0
 40
2.999999999999848
 50
64.7421810856
 51
111.8551097038
  0
ARC
  5
104
  8
0
  6
CONTINUOUS
 62
     7
 10
150.4097591334
 20
468.523596241
 30
0.0
 40
3.000000000000016
 50
244.7421810856
 51
288.6674733172
  0
ARC
  5
105
  8
0
  6
CONTINUOUS
 62
     7
 10
151.6894762839
 20
464.735755359
 30
0.0
 40
0.9981764008318749
 50
92.0887468297
 51
108.6674733172
  0
LINE
  5
106
  8
0
  6
CONTINUOUS
 62
     7
 10
162.61
 20
465.4154580012
 30
0.0
 11
151.6530953143
 21
465.733268543
 31
0.0
  0
ARC
  5
107
  8
0
  6
CONTINUOUS
 62
     7
 10
162.61
 20
464.16
 30
0.0
 40
1.25545800121688
 50
270.0
 51
90.0
  0
LINE
  5
108
  8
0
  6
CONTINUOUS
 62
     7
 10
151.6250657938
 20
462.5881485532
 30
0.0
 11
162.61
 21
462.9045419988
 31
0.0
  0
ARC
  5
109
  8
0
  6
CONTINUOUS
 62
     7
 10
151.6894762839
 20
463.584244641
 30
0.0
 40
0.9981764008318632
 50
251.3325266828
 51
266.3002379694
  0
ARC
  5
10A
  8
0
  6
CONTINUOUS
 62
     7
 10
150.4097591334
 20
459.796403759
 30
0.0
 40
2.999999999999961
 50
71.3325266828
 51
115.2578189144
  0
ARC
  5
10B
  8
0
  6
CONTINUOUS
 62
     7
 10
147.8496061546
 20
465.2227853089
 30
0.0
 40
3.000000000000027
 50
248.1448902962
 51
295.2578189144
  0
ARC
  5
10C
  8
0
  6
CONTINUOUS
 62
     7
 10
145.6160418118
 20
459.6540161158
 30
0.0
 40
3.000000000000007
 50
68.1448902962
 51
115.2578189144
  0
ARC
  5
10D
  8
0
  6
CONTINUOUS
 62
     7
 10
142.8890014916
 20
464.9951900856
 30
0.0
 40
3.000000000000007
 50
244.5655908795
 51
298.8371183312
  0
ARC
  5
10E
  8
0
  6
CONTINUOUS
 62
     7
 10
140.4837866515
 20
459.5015728932
 30
0.0
 40
3.000000000000028
 50
68.1448902962
 51
101.4232568062
  0
LINE
  5
10F
  8
0
  6
CONTINUOUS
 62
     7
 10
138.7813898325
 20
462.2182187189
 30
0.0
 11
139.88962098
 21
462.4421454828
 31
0.0
  0
LINE
  5
110
  8
0
  6
CONTINUOUS
 62
     7
 10
137.6677026126
 20
462.1861417552
 30
0.0
 11
138.7813898325
 21
462.2182187189
 31
0.0
  0
ARC
  5
111
  8
0
  6
CONTINUOUS
 62
     7
 10
137.7252837112
 20
460.1869708227
 30
0.0
 40
2.000000000000015
 50
91.6498049374
 51
180.0
  0
LINE
  5
112
  8
0
  6
CONTINUOUS
 62
     7
 10
135.7252837112
 20
458.3397433359
 30
0.0
 11
135.7252837112
 21
460.1869708227
 31
0.0
  0
ARC
  5
113
  8
0
  6
CONTINUOUS
 62
     7
 10
137.7252837112
 20
458.3397433359
 30
0.0
 40
2.000000000000016
 50
180.0
 51
268.4370276201
  0
LINE
  5
114
  8
0
  6
CONTINUOUS
 62
     7
 10
139.0194084798
 20
456.3036877533
 30
0.0
 11
137.6707324492
 21
456.3404874344
 31
0.0
  0
LINE
  5
115
  8
0
  6
CONTINUOUS
 62
     7
 10
139.88962098
 20
456.1278545172
 30
0.0
 11
139.0194084798
 21
456.3036877533
 31
0.0
  0
ARC
  5
116
  8
0
  6
CONTINUOUS
 62
     7
 10
140.4837866515
 20
459.0684271068
 30
0.0
 40
3.000000000000028
 50
258.5767431938
 51
291.8551097038
  0
ARC
  5
117
  8
0
  6
CONTINUOUS
 62
     7
 10
142.8890014916
 20
453.5748099144
 30
0.0
 40
3.000000000000007
 50
61.1628816688
 51
115.4344091205
  0
ARC
  5
118
  8
0
  6
CONTINUOUS
 62
     7
 10
145.6160418118
 20
458.9159838842
 30
0.0
 40
3.00000000000007
 50
244.7421810856
 51
291.8551097038
  0
ARC
  5
119
  8
0
  6
CONTINUOUS
 62
     7
 10
147.8496061546
 20
453.3472146911
 30
0.0
 40
2.999999999999848
 50
64.7421810856
 51
111.8551097038
  0
ARC
  5
11A
  8
0
  6
CONTINUOUS
 62
     7
 10
150.4097591334
 20
458.773596241
 30
0.0
 40
3.000000000000156
 50
244.7421810856
 51
288.6674733172
  0
ARC
  5
11B
  8
0
  6
CONTINUOUS
 62
     7
 10
151.6894762839
 20
454.985755359
 30
0.0
 40
0.9981764008318978
 50
101.6233262913
 51
108.6674733172
  0
LINE
  5
11C
  8
0
  6
CONTINUOUS
 62
     7
 10
162.61
 20
455.66
 30
0.0
 11
151.4883669869
 21
455.9634624613
 31
0.0
  0
ARC
  5
11D
  8
0
  6
CONTINUOUS
 62
     7
 10
162.61
 20
454.41
 30
0.0
 40
1.249999999970498
 50
270.0
 51
90.0
  0
LINE
  5
11E
  8
0
  6
CONTINUOUS
 62
     7
 10
151.4883669869
 20
452.8565375387
 30
0.0
 11
162.61
 21
453.16
 31
0.0
  0
ARC
  5
11F
  8
0
  6
CONTINUOUS
 62
     7
 10
151.6894762839
 20
453.834244641
 30
0.0
 40
0.9981764008319086
 50
251.3325266828
 51
258.3766737088
  0
ARC
  5
120
  8
0
  6
CONTINUOUS
 62
     7
 10
150.4097591334
 20
450.046403759
 30
0.0
 40
3.000000000000034
 50
71.3325266828
 51
115.2578189144
  0
ARC
  5
121
  8
0
  6
CONTINUOUS
 62
     7
 10
147.8496061546
 20
455.4727853089
 30
0.0
 40
3.000000000000017
 50
248.1448902962
 51
295.2578189144
  0
ARC
  5
122
  8
0
  6
CONTINUOUS
 62
     7
 10
145.6160418118
 20
449.9040161158
 30
0.0
 40
2.999999999999999
 50
68.1448902962
 51
115.2578189144
  0
ARC
  5
123
  8
0
  6
CONTINUOUS
 62
     7
 10
142.8890014916
 20
455.2451900856
 30
0.0
 40
3.000000000000046
 50
244.5655908795
 51
298.8371183312
  0
ARC
  5
124
  8
0
  6
CONTINUOUS
 62
     7
 10
140.4837866515
 20
449.7515728932
 30
0.0
 40
3.000000000000028
 50
68.1448902962
 51
101.4232568062
  0
LINE
  5
125
  8
0
  6
CONTINUOUS
 62
     7
 10
139.0194084798
 20
452.5163122467
 30
0.0
 11
139.88962098
 21
452.6921454828
 31
0.0
  0
LINE
  5
126
  8
0
  6
CONTINUOUS
 62
     7
 10
136.6463411755
 20
452.451561248
 30
0.0
 11
139.0194084798
 21
452.5163122467
 31
0.0
  0
ARC
  5
127
  8
0
  6
CONTINUOUS
 62
     7
 10
136.7008924375
 20
450.4523053464
 30
0.0
 40
2.0
 50
91.5629723799
 51
180.0
  0
LINE
  5
128
  8
0
  6
CONTINUOUS
 62
     7
 10
134.7008924375
 20
448.5921957451
 30
0.0
 11
134.7008924375
 21
450.4523053464
 31
0.0
  0
ARC
  5
129
  8
0
  6
CONTINUOUS
 62
     7
 10
136.7008924375
 20
448.5921957451
 30
0.0
 40
2.000000000000021
 50
180.0
 51
268.493259553
  0
LINE
  5
12A
  8
0
  6
CONTINUOUS
 62
     7
 10
139.151235763
 20
446.5270510205
 30
0.0
 11
136.6483033359
 21
446.592887268
 31
0.0
  0
LINE
  5
12B
  8
0
  6
CONTINUOUS
 62
     7
 10
139.88962098
 20
446.3778545172
 30
0.0
 11
139.151235763
 21
446.5270510205
 31
0.0
  0
ARC
  5
12C
  8
0
  6
CONTINUOUS
 62
     7
 10
140.4837866515
 20
449.3184271068
 30
0.0
 40
2.999999999999975
 50
258.5767431938
 51
291.8551097038
  0
ARC
  5
12D
  8
0
  6
CONTINUOUS
 62
     7
 10
142.8890014916
 20
443.8248099144
 30
0.0
 40
2.999999999999995
 50
61.1628816688
 51
115.4344091205
  0
ARC
  5
12E
  8
0
  6
CONTINUOUS
 62
     7
 10
145.6160418118
 20
449.1659838842
 30
0.0
 40
3.00000000000007
 50
244.7421810856
 51
291.8551097038
  0
ARC
  5
12F
  8
0
  6
CONTINUOUS
 62
     7
 10
147.8496061546
 20
443.5972146911
 30
0.0
 40
2.999999999999732
 50
64.7421810856
 51
111.8551097038
  0
ARC
  5
130
  8
0
  6
CONTINUOUS
 62
     7
 10
150.4097591334
 20
449.023596241
 30
0.0
 40
3.000000000000156
 50
244.7421810856
 51
288.6674733172
  0
ARC
  5
131
  8
0
  6
CONTINUOUS
 62
     7
 10
151.6894762839
 20
445.235755359
 30
0.0
 40
0.9981764008318444
 50
104.1453341887
 51
108.6674733172
  0
LINE
  5
132
  8
0
  6
CONTINUOUS
 62
     7
 10
162.61
 20
445.91
 30
0.0
 11
151.4455396112
 21
446.2036660093
 31
0.0
  0
ARC
  5
133
  8
0
  6
CONTINUOUS
 62
     7
 10
162.61
 20
444.66
 30
0.0
 40
1.249999999999318
 50
270.0
 51
90.0
  0
LINE
  5
134
  8
0
  6
CONTINUOUS
 62
     7
 10
151.4455396112
 20
443.1163339907
 30
0.0
 11
162.61
 21
443.41
 31
0.0
  0
ARC
  5
135
  8
0
  6
CONTINUOUS
 62
     7
 10
151.6894762839
 20
444.084244641
 30
0.0
 40
0.9981764008318094
 50
251.3325266828
 51
255.8546658114
  0
ARC
  5
136
  8
0
  6
CONTINUOUS
 62
     7
 10
150.4097591334
 20
440.296403759
 30
0.0
 40
3.000000000000016
 50
71.3325266828
 51
115.2578189144
  0
ARC
  5
137
  8
0
  6
CONTINUOUS
 62
     7
 10
147.8496061546
 20
445.7227853089
 30
0.0
 40
3.000000000000027
 50
248.1448902962
 51
295.2578189144
  0
ARC
  5
138
  8
0
  6
CONTINUOUS
 62
     7
 10
145.6160418118
 20
440.1540161158
 30
0.0
 40
3.000000000000007
 50
68.1448902962
 51
115.2578189144
  0
ARC
  5
139
  8
0
  6
CONTINUOUS
 62
     7
 10
142.8890014916
 20
445.4951900856
 30
0.0
 40
3.000000000000007
 50
244.5655908795
 51
298.8371183312
  0
ARC
  5
13A
  8
0
  6
CONTINUOUS
 62
     7
 10
140.4837866515
 20
440.0015728932
 30
0.0
 40
2.999999999999975
 50
68.1448902962
 51
101.4232568062
  0
LINE
  5
13B
  8
0
  6
CONTINUOUS
 62
     7
 10
139.151235763
 20
442.7929489795
 30
0.0
 11
139.88962098
 21
442.9421454828
 31
0.0
  0
LINE
  5
13C
  8
0
  6
CONTINUOUS
 62
     7
 10
134.8074108984
 20
442.6786905497
 30
0.0
 11
139.151235763
 21
442.7929489795
 31
0.0
  0
ARC
  5
13D
  8
0
  6
CONTINUOUS
 62
     7
 10
134.86
 20
440.6793820727
 30
0.0
 40
2.000000000000024
 50
91.506740447
 51
180.0
  0
LINE
  5
13E
  8
0
  6
CONTINUOUS
 62
     7
 10
132.86
 20
438.8602152793
 30
0.0
 11
132.86
 21
440.6793820727
 31
0.0
  0
ARC
  5
13F
  8
0
  6
CONTINUOUS
 62
     7
 10
134.86
 20
438.8602152793
 30
0.0
 40
2.000000000000016
 50
180.0
 51
268.5558744691
  0
LINE
  5
140
  8
0
  6
CONTINUOUS
 62
     7
 10
139.2962961644
 20
436.7477404328
 30
0.0
 11
134.8095958465
 21
436.8608505249
 31
0.0
  0
LINE
  5
141
  8
0
  6
CONTINUOUS
 62
     7
 10
139.88962098
 20
436.6278545172
 30
0.0
 11
139.2962961644
 21
436.7477404328
 31
0.0
  0
ARC
  5
142
  8
0
  6
CONTINUOUS
 62
     7
 10
140.4837866515
 20
439.5684271068
 30
0.0
 40
3.000000000000028
 50
258.5767431938
 51
291.8551097038
  0
ARC
  5
143
  8
0
  6
CONTINUOUS
 62
     7
 10
142.8890014916
 20
434.0748099144
 30
0.0
 40
3.000000000000007
 50
61.1628816688
 51
115.4344091205
  0
ARC
  5
144
  8
0
  6
CONTINUOUS
 62
     7
 10
145.6160418118
 20
439.4159838842
 30
0.0
 40
3.00000000000007
 50
244.7421810856
 51
291.8551097038
  0
ARC
  5
145
  8
0
  6
CONTINUOUS
 62
     7
 10
147.8496061546
 20
433.8472146911
 30
0.0
 40
2.999999999999838
 50
64.7421810856
 51
111.8551097038
  0
ARC
  5
146
  8
0
  6
CONTINUOUS
 62
     7
 10
150.4097591334
 20
439.273596241
 30
0.0
 40
3.000000000000207
 50
244.7421810856
 51
288.6674733172
  0
ARC
  5
147
  8
0
  6
CONTINUOUS
 62
     7
 10
151.6894762839
 20
435.485755359
 30
0.0
 40
0.9981764008318853
 50
106.5692081992
 51
108.6674733172
  0
LINE
  5
148
  8
0
  6
CONTINUOUS
 62
     7
 10
162.61
 20
436.16
 30
0.0
 11
151.4048230196
 21
436.4424834533
 31
0.0
  0
ARC
  5
149
  8
0
  6
CONTINUOUS
 62
     7
 10
162.61
 20
434.91
 30
0.0
 40
1.250000000000057
 50
270.0
 51
90.0
  0
LINE
  5
14A
  8
0
  6
CONTINUOUS
 62
     7
 10
87.11
 20
433.66
 30
0.0
 11
162.61
 21
433.66
 31
0.0
  0
ARC
  5
14B
  8
0
  6
CONTINUOUS
 62
     7
 10
87.11
 20
434.91
 30
0.0
 40
1.250000000000057
 50
90.0
 51
270.0
  0
LINE
  5
14C
  8
0
  6
CONTINUOUS
 62
     7
 10
98.3151769804
 20
436.4424834533
 30
0.0
 11
87.11
 21
436.16
 31
0.0
  0
ARC
  5
14D
  8
0
  6
CONTINUOUS
 62
     7
 10
98.0305237161
 20
435.485755359
 30
0.0
 40
0.9981764008318813
 50
71.3325266828
 51
73.4307918008
  0
ARC
  5
14E
  8
0
  6
CONTINUOUS
 62
     7
 10
99.3102408666
 20
439.273596241
 30
0.0
 40
3.000000000000156
 50
251.3325266828
 51
295.2578189144
  0
ARC
  5
14F
  8
0
  6
CONTINUOUS
 62
     7
 10
101.8703938454
 20
433.8472146911
 30
0.0
 40
2.999999999999776
 50
68.1448902962
 51
115.2578189144
  0
ARC
  5
150
  8
0
  6
CONTINUOUS
 62
     7
 10
104.1039581882
 20
439.4159838842
 30
0.0
 40
3.000000000000128
 50
248.1448902962
 51
295.2578189144
  0
ARC
  5
151
  8
0
  6
CONTINUOUS
 62
     7
 10
106.8309985084
 20
434.0748099144
 30
0.0
 40
3.0
 50
64.5655908795
 51
118.8371183312
  0
ARC
  5
152
  8
0
  6
CONTINUOUS
 62
     7
 10
109.2362133485
 20
439.5684271068
 30
0.0
 40
3.000000000000029
 50
248.1448902962
 51
281.4232568062
  0
LINE
  5
153
  8
0
  6
CONTINUOUS
 62
     7
 10
110.4237038356
 20
436.7477404328
 30
0.0
 11
109.83037902
 21
436.6278545172
 31
0.0
  0
LINE
  5
154
  8
0
  6
CONTINUOUS
 62
     7
 10
114.9104041535
 20
436.8608505249
 30
0.0
 11
110.4237038356
 21
436.7477404328
 31
0.0
  0
ARC
  5
155
  8
0
  6
CONTINUOUS
 62
     7
 10
114.86
 20
438.8602152793
 30
0.0
 40
2.000000000000016
 50
271.4441255309
 51
0.0
  0
LINE
  5
156
  8
0
  6
CONTINUOUS
 62
     7
 10
116.86
 20
440.6793820727
 30
0.0
 11
116.86
 21
438.8602152793
 31
0.0
  0
ARC
  5
157
  8
0
  6
CONTINUOUS
 62
     7
 10
114.86
 20
440.6793820727
 30
0.0
 40
2.000000000000024
 50
0.0
 51
88.493259553
  0
LINE
  5
158
  8
0
  6
CONTINUOUS
 62
     7
 10
110.568764237
 20
442.7929489795
 30
0.0
 11
114.9125891016
 21
442.6786905497
 31
0.0
  0
LINE
  5
159
  8
0
  6
CONTINUOUS
 62
     7
 10
109.83037902
 20
442.9421454828
 30
0.0
 11
110.568764237
 21
442.7929489795
 31
0.0
  0
ARC
  5
15A
  8
0
  6
CONTINUOUS
 62
     7
 10
109.2362133485
 20
440.0015728932
 30
0.0
 40
2.999999999999973
 50
78.5767431938
 51
111.8551097038
  0
ARC
  5
15B
  8
0
  6
CONTINUOUS
 62
     7
 10
106.8309985084
 20
445.4951900856
 30
0.0
 40
3.0
 50
241.1628816688
 51
295.4344091205
  0
ARC
  5
15C
  8
0
  6
CONTINUOUS
 62
     7
 10
104.1039581882
 20
440.1540161158
 30
0.0
 40
3.000000000000012
 50
64.7421810856
 51
111.8551097038
  0
ARC
  5
15D
  8
0
  6
CONTINUOUS
 62
     7
 10
101.8703938454
 20
445.7227853089
 30
0.0
 40
3.000000000000015
 50
244.7421810856
 51
291.8551097038
  0
ARC
  5
15E
  8
0
  6
CONTINUOUS
 62
     7
 10
99.3102408666
 20
440.296403759
 30
0.0
 40
3.000000000000016
 50
64.7421810856
 51
108.6674733172
  0
ARC
  5
15F
  8
0
  6
CONTINUOUS
 62
     7
 10
98.0305237161
 20
444.084244641
 30
0.0
 40
0.9981764008318094
 50
284.1453341886
 51
288.6674733172
  0
LINE
  5
160
  8
0
  6
CONTINUOUS
 62
     7
 10
87.11
 20
443.41
 30
0.0
 11
98.2744603888
 21
443.1163339907
 31
0.0
  0
ARC
  5
161
  8
0
  6
CONTINUOUS
 62
     7
 10
87.11
 20
444.66
 30
0.0
 40
1.249999999999318
 50
90.0
 51
270.0
  0
LINE
  5
162
  8
0
  6
CONTINUOUS
 62
     7
 10
98.2744603888
 20
446.2036660093
 30
0.0
 11
87.11
 21
445.91
 31
0.0
  0
ARC
  5
163
  8
0
  6
CONTINUOUS
 62
     7
 10
98.0305237161
 20
445.235755359
 30
0.0
 40
0.998176400831841
 50
71.3325266828
 51
75.8546658113
  0
ARC
  5
164
  8
0
  6
CONTINUOUS
 62
     7
 10
99.3102408666
 20
449.023596241
 30
0.0
 40
3.000000000000156
 50
251.3325266828
 51
295.2578189144
  0
ARC
  5
165
  8
0
  6
CONTINUOUS
 62
     7
 10
101.8703938454
 20
443.5972146911
 30
0.0
 40
2.999999999999725
 50
68.1448902962
 51
115.2578189144
  0
ARC
  5
166
  8
0
  6
CONTINUOUS
 62
     7
 10
104.1039581882
 20
449.1659838842
 30
0.0
 40
3.000000000000075
 50
248.1448902962
 51
295.2578189144
  0
ARC
  5
167
  8
0
  6
CONTINUOUS
 62
     7
 10
106.8309985084
 20
443.8248099144
 30
0.0
 40
3.0
 50
64.5655908795
 51
118.8371183312
  0
ARC
  5
168
  8
0
  6
CONTINUOUS
 62
     7
 10
109.2362133485
 20
449.3184271068
 30
0.0
 40
2.999999999999973
 50
248.1448902962
 51
281.4232568062
  0
LINE
  5
169
  8
0
  6
CONTINUOUS
 62
     7
 10
110.568764237
 20
446.5270510205
 30
0.0
 11
109.83037902
 21
446.3778545172
 31
0.0
  0
LINE
  5
16A
  8
0
  6
CONTINUOUS
 62
     7
 10
113.0716966641
 20
446.592887268
 30
0.0
 11
110.568764237
 21
446.5270510205
 31
0.0
  0
ARC
  5
16B
  8
0
  6
CONTINUOUS
 62
     7
 10
113.0191075625
 20
448.5921957451
 30
0.0
 40
2.000000000000021
 50
271.506740447
 51
0.0
  0
LINE
  5
16C
  8
0
  6
CONTINUOUS
 62
     7
 10
115.0191075625
 20
450.4523053464
 30
0.0
 11
115.0191075625
 21
448.5921957451
 31
0.0
  0
ARC
  5
16D
  8
0
  6
CONTINUOUS
 62
     7
 10
113.0191075625
 20
450.4523053464
 30
0.0
 40
2.0
 50
0.0
 51
88.4370276201
  0
LINE
  5
16E
  8
0
  6
CONTINUOUS
 62
     7
 10
110.7005915202
 20
452.5163122467
 30
0.0
 11
113.0736588245
 21
452.451561248
 31
0.0
  0
LINE
  5
16F
  8
0
  6
CONTINUOUS
 62
     7
 10
109.83037902
 20
452.6921454828
 30
0.0
 11
110.7005915202
 21
452.5163122467
 31
0.0
  0
ARC
  5
170
  8
0
  6
CONTINUOUS
 62
     7
 10
109.2362133485
 20
449.7515728932
 30
0.0
 40
3.000000000000029
 50
78.5767431938
 51
111.8551097038
  0
ARC
  5
171
  8
0
  6
CONTINUOUS
 62
     7
 10
106.8309985084
 20
455.2451900856
 30
0.0
 40
3.000000000000052
 50
241.1628816688
 51
295.4344091205
  0
ARC
  5
172
  8
0
  6
CONTINUOUS
 62
     7
 10
104.1039581882
 20
449.9040161158
 30
0.0
 40
3.000000000000005
 50
64.7421810856
 51
111.8551097038
  0
ARC
  5
173
  8
0
  6
CONTINUOUS
 62
     7
 10
101.8703938454
 20
455.4727853089
 30
0.0
 40
3.000000000000012
 50
244.7421810856
 51
291.8551097038
  0
ARC
  5
174
  8
0
  6
CONTINUOUS
 62
     7
 10
99.3102408666
 20
450.046403759
 30
0.0
 40
3.00000000000004
 50
64.7421810856
 51
108.6674733172
  0
ARC
  5
175
  8
0
  6
CONTINUOUS
 62
     7
 10
98.0305237161
 20
453.834244641
 30
0.0
 40
0.9981764008319115
 50
281.6233262912
 51
288.6674733172
  0
LINE
  5
176
  8
0
  6
CONTINUOUS
 62
     7
 10
87.11
 20
453.16
 30
0.0
 11
98.2316330131
 21
452.8565375387
 31
0.0
  0
ARC
  5
177
  8
0
  6
CONTINUOUS
 62
     7
 10
87.11
 20
454.41
 30
0.0
 40
1.249999999970498
 50
90.0
 51
270.0
  0
LINE
  5
178
  8
0
  6
CONTINUOUS
 62
     7
 10
98.2316330131
 20
455.9634624613
 30
0.0
 11
87.11
 21
455.66
 31
0.0
  0
ARC
  5
179
  8
0
  6
CONTINUOUS
 62
     7
 10
98.0305237161
 20
454.985755359
 30
0.0
 40
0.9981764008319125
 50
71.3325266828
 51
78.3766737087
  0
ARC
  5
17A
  8
0
  6
CONTINUOUS
 62
     7
 10
99.3102408666
 20
458.773596241
 30
0.0
 40
3.000000000000104
 50
251.3325266828
 51
295.2578189144
  0
ARC
  5
17B
  8
0
  6
CONTINUOUS
 62
     7
 10
101.8703938454
 20
453.3472146911
 30
0.0
 40
2.999999999999827
 50
68.1448902962
 51
115.2578189144
  0
ARC
  5
17C
  8
0
  6
CONTINUOUS
 62
     7
 10
104.1039581882
 20
458.9159838842
 30
0.0
 40
3.000000000000181
 50
248.1448902962
 51
295.2578189144
  0
ARC
  5
17D
  8
0
  6
CONTINUOUS
 62
     7
 10
106.8309985084
 20
453.5748099144
 30
0.0
 40
2.999999999999949
 50
64.5655908795
 51
118.8371183312
  0
ARC
  5
17E
  8
0
  6
CONTINUOUS
 62
     7
 10
109.2362133485
 20
459.0684271068
 30
0.0
 40
3.000000000000017
 50
248.1448902962
 51
281.4232568062
  0
LINE
  5
17F
  8
0
  6
CONTINUOUS
 62
     7
 10
110.7005915202
 20
456.3036877533
 30
0.0
 11
109.83037902
 21
456.1278545172
 31
0.0
  0
LINE
  5
180
  8
0
  6
CONTINUOUS
 62
     7
 10
112.0492675508
 20
456.3404874344
 30
0.0
 11
110.7005915202
 21
456.3036877533
 31
0.0
  0
ARC
  5
181
  8
0
  6
CONTINUOUS
 62
     7
 10
111.9947162888
 20
458.3397433359
 30
0.0
 40
2.000000000000016
 50
271.5629723799
 51
0.0
  0
LINE
  5
182
  8
0
  6
CONTINUOUS
 62
     7
 10
113.9947162888
 20
460.1869708227
 30
0.0
 11
113.9947162888
 21
458.3397433359
 31
0.0
  0
ARC
  5
183
  8
0
  6
CONTINUOUS
 62
     7
 10
111.9947162888
 20
460.1869708227
 30
0.0
 40
2.000000000000014
 50
0.0
 51
88.3501950626
  0
LINE
  5
184
  8
0
  6
CONTINUOUS
 62
     7
 10
110.9386101675
 20
462.2182187189
 30
0.0
 11
112.0522973874
 21
462.1861417552
 31
0.0
  0
LINE
  5
185
  8
0
  6
CONTINUOUS
 62
     7
 10
109.83037902
 20
462.4421454828
 30
0.0
 11
110.9386101675
 21
462.2182187189
 31
0.0
  0
ARC
  5
186
  8
0
  6
CONTINUOUS
 62
     7
 10
109.2362133485
 20
459.5015728932
 30
0.0
 40
3.000000000000017
 50
78.5767431938
 51
111.8551097038
  0
ARC
  5
187
  8
0
  6
CONTINUOUS
 62
     7
 10
106.8309985084
 20
464.9951900856
 30
0.0
 40
3.0
 50
241.1628816688
 51
295.4344091205
  0
ARC
  5
188
  8
0
  6
CONTINUOUS
 62
     7
 10
104.1039581882
 20
459.6540161158
 30
0.0
 40
3.000000000000012
 50
64.7421810856
 51
111.8551097038
  0
ARC
  5
189
  8
0
  6
CONTINUOUS
 62
     7
 10
101.8703938454
 20
465.2227853089
 30
0.0
 40
3.000000000000015
 50
244.7421810856
 51
291.8551097038
  0
ARC
  5
18A
  8
0
  6
CONTINUOUS
 62
     7
 10
99.3102408666
 20
459.796403759
 30
0.0
 40
2.999999999999961
 50
64.7421810856
 51
108.6674733172
  0
ARC
  5
18B
  8
0
  6
CONTINUOUS
 62
     7
 10
98.0305237161
 20
463.584244641
 30
0.0
 40
0.9981764008318632
 50
273.6997620306
 51
288.6674733172
  0
LINE
  5
18C
  8
0
  6
CONTINUOUS
 62
     7
 10
87.11
 20
462.9045419988
 30
0.0
 11
98.0949342062
 21
462.5881485532
 31
0.0
  0
ARC
  5
18D
  8
0
  6
CONTINUOUS
 62
     7
 10
87.11
 20
464.16
 30
0.0
 40
1.25545800121688
 50
90.0
 51
270.0
  0
LINE
  5
18E
  8
0
  6
CONTINUOUS
 62
     7
 10
98.0669046857
 20
465.733268543
 30
0.0
 11
87.11
 21
465.4154580012
 31
0.0
  0
ARC
  5
18F
  8
0
  6
CONTINUOUS
 62
     7
 10
98.0305237161
 20
464.735755359
 30
0.0
 40
0.9981764008318749
 50
71.3325266828
 51
87.9112531703
  0
ARC
  5
190
  8
0
  6
CONTINUOUS
 62
     7
 10
99.3102408666
 20
468.523596241
 30
0.0
 40
3.00000000000004
 50
251.3325266828
 51
295.2578189144
  0
ARC
  5
191
  8
0
  6
CONTINUOUS
 62
     7
 10
101.8703938454
 20
463.0972146911
 30
0.0
 40
2.999999999999722
 50
68.1448902962
 51
115.2578189144
  0
ARC
  5
192
  8
0
  6
CONTINUOUS
 62
     7
 10
104.1039581882
 20
468.6659838842
 30
0.0
 40
3.000000000000128
 50
248.1448902962
 51
295.2578189144
  0
ARC
  5
193
  8
0
  6
CONTINUOUS
 62
     7
 10
106.8309985084
 20
463.3248099144
 30
0.0
 40
3.0
 50
64.5655908795
 51
118.8371183312
  0
ARC
  5
194
  8
0
  6
CONTINUOUS
 62
     7
 10
109.2479978725
 20
468.8136714808
 30
0.0
 40
2.999999999999999
 50
247.9021869067
 51
281.2206354721
  0
LINE
  5
195
  8
0
  6
CONTINUOUS
 62
     7
 10
111.1751007477
 20
466.1424484081
 30
0.0
 11
109.8317607817
 21
465.8710160702
 31
0.0
  0
ARC
  5
196
  8
0
  6
CONTINUOUS
 62
     7
 10
110.7789903
 20
468.1028301345
 30
0.0
 40
2.000000000000014
 50
281.4232568062
 51
0.0
  0
LINE
  5
197
  8
0
  6
CONTINUOUS
 62
     7
 10
112.7789903
 20
469.9600522227
 30
0.0
 11
112.7789903
 21
468.1028301345
 31
0.0
  0
ARC
  5
198
  8
0
  6
CONTINUOUS
 62
     7
 10
110.7789903
 20
469.9600522227
 30
0.0
 40
2.000000000000056
 50
0.0
 51
78.5767431938
  0
LINE
  5
199
  8
0
  6
CONTINUOUS
 62
     7
 10
109.83037902
 20
472.1921454828
 30
0.0
 11
111.1751007477
 21
471.9204339491
 31
0.0
  0
ARC
  5
19A
  8
0
  6
CONTINUOUS
 62
     7
 10
109.2362133485
 20
469.2515728932
 30
0.0
 40
2.999999999999973
 50
78.5767431938
 51
111.8551097038
  0
ARC
  5
19B
  8
0
  6
CONTINUOUS
 62
     7
 10
106.8309985084
 20
474.7451900856
 30
0.0
 40
3.0
 50
241.1628816688
 51
295.4344091205
  0
ARC
  5
19C
  8
0
  6
CONTINUOUS
 62
     7
 10
104.1039581882
 20
469.4040161158
 30
0.0
 40
3.000000000000012
 50
64.7421810856
 51
111.8551097038
  0
ARC
  5
19D
  8
0
  6
CONTINUOUS
 62
     7
 10
101.8703938454
 20
474.9727853089
 30
0.0
 40
3.000000000000015
 50
244.7421810856
 51
291.8551097038
  0
ARC
  5
19E
  8
0
  6
CONTINUOUS
 62
     7
 10
99.3102408666
 20
469.546403759
 30
0.0
 40
3.000000000000016
 50
64.7421810856
 51
108.6674733172
  0
ARC
  5
19F
  8
0
  6
CONTINUOUS
 62
     7
 10
98.0305237161
 20
473.334244641
 30
0.0
 40
0.9981764008318098
 50
268.2986453947
 51
288.6674733172
  0
LINE
  5
1A0
  8
0
  6
CONTINUOUS
 62
     7
 10
87.11
 20
472.66
 30
0.0
 11
98.0008879826
 21
472.3365082777
 31
0.0
  0
ARC
  5
1A1
  8
0
  6
CONTINUOUS
 62
     7
 10
87.11
 20
473.91
 30
0.0
 40
1.249999999999886
 50
90.0
 51
270.0
  0
LINE
  5
1A2
  8
0
  6
CONTINUOUS
 62
     7
 10
98.0008879826
 20
475.4834917223
 30
0.0
 11
87.11
 21
475.16
 31
0.0
  0
ARC
  5
1A3
  8
0
  6
CONTINUOUS
 62
     7
 10
98.0305237161
 20
474.485755359
 30
0.0
 40
0.9981764008318665
 50
71.3325266828
 51
91.7013546053
  0
ARC
  5
1A4
  8
0
  6
CONTINUOUS
 62
     7
 10
99.3102408666
 20
478.273596241
 30
0.0
 40
3.00000000000004
 50
251.3325266828
 51
295.2578189144
  0
ARC
  5
1A5
  8
0
  6
CONTINUOUS
 62
     7
 10
101.8703938454
 20
472.8472146911
 30
0.0
 40
2.999999999999964
 50
68.1448902962
 51
115.2578189144
  0
ARC
  5
1A6
  8
0
  6
CONTINUOUS
 62
     7
 10
104.1039581882
 20
478.4159838842
 30
0.0
 40
3.000000000000202
 50
248.1448902962
 51
295.2578189144
  0
ARC
  5
1A7
  8
0
  6
CONTINUOUS
 62
     7
 10
106.8309985084
 20
473.0748099144
 30
0.0
 40
3.0
 50
64.5655908795
 51
118.8371183312
  0
ARC
  5
1A8
  8
0
  6
CONTINUOUS
 62
     7
 10
109.2362133485
 20
478.5684271068
 30
0.0
 40
2.999999999999973
 50
248.1448902962
 51
281.4232568062
  0
LINE
  5
1A9
  8
0
  6
CONTINUOUS
 62
     7
 10
110.9565966417
 20
475.8554155887
 30
0.0
 11
109.83037902
 21
475.6278545172
 31
0.0
  0
ARC
  5
1AA
  8
0
  6
CONTINUOUS
 62
     7
 10
110.61
 20
477.5707495993
 30
0.0
 40
1.75
 50
281.4232568062
 51
0.0
  0
LINE
  5
1AB
  8
0
  6
CONTINUOUS
 62
     7
 10
112.36
 20
477.66
 30
0.0
 11
112.36
 21
477.5707495993
 31
0.0
  0
ARC
  5
1AC
  8
0
  6
CONTINUOUS
 62
     7
 10
106.36
 20
477.66
 30
0.0
 40
6.0
 50
0.0
 51
90.0
  0
LINE
  5
1AD
  8
0
  6
CONTINUOUS
 62
     7
 10
87.86
 20
483.66
 30
0.0
 11
106.36
 21
483.66
 31
0.0
  0
LINE
  5
1AE
  8
0
  6
CONTINUOUS
 62
     7
 10
83.86
 20
487.66
 30
0.0
 11
87.86
 21
483.66
 31
0.0
  0
LINE
  5
1AF
  8
0
  6
CONTINUOUS
 62
     7
 10
83.86
 20
491.66
 30
0.0
 11
83.86
 21
487.66
 31
0.0
  0
LINE
  5
1B0
  8
0
  6
CENTERX2
 62
   150
 10
85.86
 20
473.91
 30
0.0
 11
163.86
 21
473.91
 31
0.0
  0
LINE
  5
1B1
  8
0
  6
CENTERX2
 62
   150
 10
85.8545419988
 20
464.16
 30
0.0
 11
163.8654580012
 21
464.16
 31
0.0
  0
LINE
  5
1B2
  8
0
  6
CENTERX2
 62
   150
 10
85.86
 20
454.41
 30
0.0
 11
163.86
 21
454.41
 31
0.0
  0
LINE
  5
1B3
  8
0
  6
CENTERX2
 62
   150
 10
85.86
 20
444.66
 30
0.0
 11
163.86
 21
444.66
 31
0.0
  0
LINE
  5
1B4
  8
0
  6
CENTERX2
 62
   150
 10
85.86
 20
434.91
 30
0.0
 11
163.86
 21
434.91
 31
0.0
  0
DIMENSION
  5
1B5
  8
0
  6
CONTINUOUS
 62
   150
  2
_D
 10
74.1650236932
 20
434.91
 30
0.0
 11
74.1650236932
 21
458.7273601524
 31
0.0
 70
   160
  1
5x9,75
  3
SLDDIMSTYLE0
 13
87.86
 23
483.66
 33
0.0
 14
85.86
 24
434.91
 34
0.0
 50
90.0
  0
DIMENSION
  5
1C2
  8
0
  6
CONTINUOUS
 62
   150
  2
_D_1
 10
163.86
 20
409.2082425601
 30
0.0
 11
124.8879689342
 21
409.2082425601
 31
0.0
 70
   160
  1
<>
  3
SLDDIMSTYLE1
 13
85.86
 23
434.91
 33
0.0
 14
163.86
 24
434.91
 34
0.0
  0
DIMENSION
  5
1CD
  8
0
  6
CONTINUOUS
 62
   150
  2
_D_2
 10
165.86
 20
509.0444207057
 30
0.0
 11
123.6821462504
 21
509.0444207057
 31
0.0
 70
   160
  1
<>
  3
SLDDIMSTYLE1
 13
83.86
 23
491.66
 33
0.0
 14
165.86
 24
491.66
 34
0.0
  0
DIMENSION
  5
1D7
  8
0
  6
CONTINUOUS
 62
   150
  2
_D_3
 10
87.86
 20
503.466381156
 30
0.0
 11
66.1677622817
 21
503.466381156
 31
0.0
 70
   160
  1
<>x45°
  3
SLDDIMSTYLE0
 13
83.86
 23
491.66
 33
0.0
 14
87.86
 24
483.66
 34
0.0
  0
DIMENSION
  5
1E4
  8
0
  6
CONTINUOUS
 62
   150
  2
_D_4
 10
137.36
 20
498.3815508107
 30
0.0
 11
123.6821462504
 21
498.3815508107
 31
0.0
 70
   160
  1
<>
  3
SLDDIMSTYLE0
 13
112.36
 23
477.66
 33
0.0
 14
137.36
 24
477.5707495993
 34
0.0
  0
DIMENSION
  5
1F0
  8
0
  6
CONTINUOUS
 62
   150
  2
_D_5
 10
143.36
 20
477.66
 30
0.0
 11
166.7584800357
 21
464.1509127998
 31
0.0
 70
   164
  1
<>
  3
SLDDIMSTYLE2
 15
138.1638475773
 25
480.66
 35
0.0
 40
0.0
  0
DIMENSION
  5
1F9
  8
0
  6
CONTINUOUS
 62
   150
  2
_D_6
 10
197.86
 20
462.2182187189
 30
0.0
 11
197.86
 21
476.7435442559
 31
0.0
 70
   160
  1
<>
  3
SLDDIMSTYLE3
 13
138.5448992523
 23
466.1424484081
 33
0.0
 14
138.7813898325
 24
462.2182187189
 34
0.0
 50
90.0
  0
DIMENSION
  5
206
  8
0
  6
CONTINUOUS
 62
   150
  2
_D_7
 10
187.5565383453
 20
462.9045419988
 30
0.0
 11
187.5565383453
 21
481.26764651
 31
0.0
 70
   160
  1
<>
  3
SLDDIMSTYLE4
 13
162.61
 23
465.4154580012
 33
0.0
 14
162.61
 24
462.9045419988
 34
0.0
 50
90.0
  0
DIMENSION
  5
213
  8
0
  6
CONTINUOUS
 62
   150
  2
_D_8
 10
74.1650236932
 20
491.66
 30
0.0
 11
74.1650236932
 21
488.1216614249
 31
0.0
 70
   160
  1
<>
  3
SLDDIMSTYLE0
 13
87.86
 23
483.66
 33
0.0
 14
83.86
 24
491.66
 34
0.0
 50
90.0
  0
DIMENSION
  5
21F
  8
0
  6
CONTINUOUS
 62
   150
  2
_D_9
 10
61.232727366
 20
433.66
 30
0.0
 11
61.232727366
 21
462.492636582
 31
0.0
 70
   160
  1
<>
  3
SLDDIMSTYLE1
 13
83.86
 23
491.66
 33
0.0
 14
87.11
 24
433.66
 34
0.0
 50
90.0
  0
DIMENSION
  5
229
  8
0
  6
CONTINUOUS
 62
   150
  2
_D_10
 10
132.86
 20
420.6658780597
 30
0.0
 11
124.8879689342
 21
420.6658780597
 31
0.0
 70
   160
  1
<>
  3
SLDDIMSTYLE0
 13
116.86
 23
438.8602152793
 33
0.0
 14
132.86
 24
438.8602152793
 34
0.0
  0
LINE
  5
235
  8
0
  6
CONTINUOUS
 62
     7
 10
226.66
 20
472.336068106
 30
0.0
 11
326.6600014901
 21
472.336068106
 31
0.0
  0
LINE
  5
236
  8
0
  6
CONTINUOUS
 62
     7
 10
326.6600014901
 20
475.483931889
 30
0.0
 11
226.66
 21
475.483931889
 31
0.0
  0
LINE
  5
237
  8
0
  6
CONTINUOUS
 62
     7
 10
326.6600014901
 20
436.8472139436
 30
0.0
 11
226.66
 21
436.8472139436
 31
0.0
  0
LINE
  5
238
  8
0
  6
CONTINUOUS
 62
     7
 10
326.6600014901
 20
446.5972150761
 30
0.0
 11
226.66
 21
446.5972150761
 31
0.0
  0
LINE
  5
239
  8
0
  6
CONTINUOUS
 62
     7
 10
326.6600014901
 20
456.3472148116
 30
0.0
 11
226.66
 21
456.3472148116
 31
0.0
  0
LINE
  5
23A
  8
0
  6
CONTINUOUS
 62
     7
 10
226.66
 20
471.9727852467
 30
0.0
 11
326.6600014901
 21
471.9727852467
 31
0.0
  0
LINE
  5
23B
  8
0
  6
CONTINUOUS
 62
     7
 10
226.66
 20
452.4727848444
 30
0.0
 11
326.6600014901
 21
452.4727848444
 31
0.0
  0
LINE
  5
23C
  8
0
  6
CONTINUOUS
 62
     7
 10
326.6600014901
 20
466.0972145471
 30
0.0
 11
226.66
 21
466.0972145471
 31
0.0
  0
LINE
  5
23D
  8
0
  6
CONTINUOUS
 62
     7
 10
226.66
 20
442.7227846432
 30
0.0
 11
326.6600014901
 21
442.7227846432
 31
0.0
  0
LINE
  5
23E
  8
0
  6
CONTINUOUS
 62
     7
 10
326.6600014901
 20
475.8472147483
 30
0.0
 11
226.66
 21
475.8472147483
 31
0.0
  0
LINE
  5
23F
  8
0
  6
CONTINUOUS
 62
     7
 10
226.66
 20
462.2227853366
 30
0.0
 11
326.6600014901
 21
462.2227853366
 31
0.0
  0
LINE
  5
240
  8
0
  6
CONTINUOUS
 62
     7
 10
226.66
 20
471.7451904986
 30
0.0
 11
326.6600014901
 21
471.7451904986
 31
0.0
  0
LINE
  5
241
  8
0
  6
CONTINUOUS
 62
     7
 10
226.66
 20
461.9951900937
 30
0.0
 11
326.6600014901
 21
461.9951900937
 31
0.0
  0
LINE
  5
242
  8
0
  6
CONTINUOUS
 62
     7
 10
226.66
 20
442.4951898951
 30
0.0
 11
326.6600014901
 21
442.4951898951
 31
0.0
  0
LINE
  5
243
  8
0
  6
CONTINUOUS
 62
     7
 10
226.66
 20
452.2451900962
 30
0.0
 11
326.6600014901
 21
452.2451900962
 31
0.0
  0
LINE
  5
244
  8
0
  6
CONTINUOUS
 62
     7
 10
326.6600014901
 20
466.3248097609
 30
0.0
 11
226.66
 21
466.3248097609
 31
0.0
  0
LINE
  5
245
  8
0
  6
CONTINUOUS
 62
     7
 10
326.6600014901
 20
437.0748105544
 30
0.0
 11
226.66
 21
437.0748105544
 31
0.0
  0
LINE
  5
246
  8
0
  6
CONTINUOUS
 62
     7
 10
326.6600014901
 20
456.5748100254
 30
0.0
 11
226.66
 21
456.5748100254
 31
0.0
  0
LINE
  5
247
  8
0
  6
CONTINUOUS
 62
     7
 10
326.6600014901
 20
446.8248098243
 30
0.0
 11
226.66
 21
446.8248098243
 31
0.0
  0
LINE
  5
248
  8
0
  6
CONTINUOUS
 62
     7
 10
326.6600014901
 20
476.0748094964
 30
0.0
 11
226.66
 21
476.0748094964
 31
0.0
  0
LINE
  5
249
  8
0
  6
CONTINUOUS
 62
     7
 10
326.6600014901
 20
491.6599991817
 30
0.0
 11
226.66
 21
491.6599991817
 31
0.0
  0
LINE
  5
24A
  8
0
  6
CONTINUOUS
 62
     7
 10
326.6600014901
 20
491.6599991817
 30
0.0
 11
326.6600014901
 21
487.6600003887
 31
0.0
  0
LINE
  5
24B
  8
0
  6
CONTINUOUS
 62
     7
 10
326.6600014901
 20
487.6600003887
 30
0.0
 11
226.66
 21
487.6600003887
 31
0.0
  0
LINE
  5
24C
  8
0
  6
CONTINUOUS
 62
     7
 10
226.66
 20
491.6599991817
 30
0.0
 11
226.66
 21
487.6600003887
 31
0.0
  0
LINE
  5
24D
  8
0
  6
CONTINUOUS
 62
     7
 10
326.6600014901
 20
487.6600003887
 30
0.0
 11
326.6600014901
 21
483.659999733
 31
0.0
  0
LINE
  5
24E
  8
0
  6
CONTINUOUS
 62
     7
 10
326.6600014901
 20
483.659999733
 30
0.0
 11
226.66
 21
483.659999733
 31
0.0
  0
LINE
  5
24F
  8
0
  6
CONTINUOUS
 62
     7
 10
226.66
 20
487.6600003887
 30
0.0
 11
226.66
 21
483.659999733
 31
0.0
  0
LINE
  5
250
  8
0
  6
CONTINUOUS
 62
     7
 10
326.6600014901
 20
465.4154580172
 30
0.0
 11
226.66
 21
465.4154580172
 31
0.0
  0
LINE
  5
251
  8
0
  6
CONTINUOUS
 62
     7
 10
326.6600014901
 20
462.9045420412
 30
0.0
 11
226.66
 21
462.9045420412
 31
0.0
  0
LINE
  5
252
  8
0
  6
CONTINUOUS
 62
     7
 10
326.6600014901
 20
465.4154580172
 30
0.0
 11
326.6600014901
 21
462.9045420412
 31
0.0
  0
LINE
  5
253
  8
0
  6
CONTINUOUS
 62
     7
 10
226.66
 20
465.4154580172
 30
0.0
 11
226.66
 21
462.9045420412
 31
0.0
  0
LINE
  5
254
  8
0
  6
CONTINUOUS
 62
     7
 10
326.6600014901
 20
436.160000329
 30
0.0
 11
226.66
 21
436.160000329
 31
0.0
  0
LINE
  5
255
  8
0
  6
CONTINUOUS
 62
     7
 10
326.6600014901
 20
433.6600008506
 30
0.0
 11
226.66
 21
433.6600008506
 31
0.0
  0
LINE
  5
256
  8
0
  6
CONTINUOUS
 62
     7
 10
326.6600014901
 20
436.160000329
 30
0.0
 11
326.6600014901
 21
433.6600008506
 31
0.0
  0
LINE
  5
257
  8
0
  6
CONTINUOUS
 62
     7
 10
226.66
 20
436.160000329
 30
0.0
 11
226.66
 21
433.6600008506
 31
0.0
  0
LINE
  5
258
  8
0
  6
CONTINUOUS
 62
     7
 10
326.6600014901
 20
475.1600002024
 30
0.0
 11
226.66
 21
475.1600002024
 31
0.0
  0
LINE
  5
259
  8
0
  6
CONTINUOUS
 62
     7
 10
326.6600014901
 20
472.6599997926
 30
0.0
 11
226.66
 21
472.6599997926
 31
0.0
  0
LINE
  5
25A
  8
0
  6
CONTINUOUS
 62
     7
 10
326.6600014901
 20
475.1600002024
 30
0.0
 11
326.6600014901
 21
472.6599997926
 31
0.0
  0
LINE
  5
25B
  8
0
  6
CONTINUOUS
 62
     7
 10
226.66
 20
475.1600002024
 30
0.0
 11
226.66
 21
472.6599997926
 31
0.0
  0
LINE
  5
25C
  8
0
  6
CONTINUOUS
 62
     7
 10
326.6600014901
 20
445.9099995989
 30
0.0
 11
226.66
 21
445.9099995989
 31
0.0
  0
LINE
  5
25D
  8
0
  6
CONTINUOUS
 62
     7
 10
326.6600014901
 20
443.4100001204
 30
0.0
 11
226.66
 21
443.4100001204
 31
0.0
  0
LINE
  5
25E
  8
0
  6
CONTINUOUS
 62
     7
 10
326.6600014901
 20
445.9099995989
 30
0.0
 11
326.6600014901
 21
443.4100001204
 31
0.0
  0
LINE
  5
25F
  8
0
  6
CONTINUOUS
 62
     7
 10
226.66
 20
445.9099995989
 30
0.0
 11
226.66
 21
443.4100001204
 31
0.0
  0
LINE
  5
260
  8
0
  6
CONTINUOUS
 62
     7
 10
326.6600014901
 20
455.6599998001
 30
0.0
 11
226.66
 21
455.6599998001
 31
0.0
  0
LINE
  5
261
  8
0
  6
CONTINUOUS
 62
     7
 10
326.6600014901
 20
453.1600003216
 30
0.0
 11
226.66
 21
453.1600003216
 31
0.0
  0
LINE
  5
262
  8
0
  6
CONTINUOUS
 62
     7
 10
326.6600014901
 20
455.6599998001
 30
0.0
 11
326.6600014901
 21
453.1600003216
 31
0.0
  0
LINE
  5
263
  8
0
  6
CONTINUOUS
 62
     7
 10
226.66
 20
455.6599998001
 30
0.0
 11
226.66
 21
453.1600003216
 31
0.0
  0
LINE
  5
264
  8
0
  6
CONTINUOUS
 62
     7
 10
326.6600014901
 20
455.9634624134
 30
0.0
 11
226.66
 21
455.9634624134
 31
0.0
  0
LINE
  5
265
  8
0
  6
CONTINUOUS
 62
     7
 10
326.6600014901
 20
455.9634624134
 30
0.0
 11
326.6600014901
 21
455.6599998001
 31
0.0
  0
LINE
  5
266
  8
0
  6
CONTINUOUS
 62
     7
 10
226.66
 20
455.9634624134
 30
0.0
 11
226.66
 21
455.6599998001
 31
0.0
  0
LINE
  5
267
  8
0
  6
CONTINUOUS
 62
     7
 10
326.6600014901
 20
462.5881485959
 30
0.0
 11
226.66
 21
462.5881485959
 31
0.0
  0
LINE
  5
268
  8
0
  6
CONTINUOUS
 62
     7
 10
326.6600014901
 20
462.9045420412
 30
0.0
 11
326.6600014901
 21
462.5881485959
 31
0.0
  0
LINE
  5
269
  8
0
  6
CONTINUOUS
 62
     7
 10
226.66
 20
462.9045420412
 30
0.0
 11
226.66
 21
462.5881485959
 31
0.0
  0
LINE
  5
26A
  8
0
  6
CONTINUOUS
 62
     7
 10
326.6600014901
 20
452.8565372426
 30
0.0
 11
226.66
 21
452.8565372426
 31
0.0
  0
LINE
  5
26B
  8
0
  6
CONTINUOUS
 62
     7
 10
326.6600014901
 20
453.1600003216
 30
0.0
 11
326.6600014901
 21
452.8565372426
 31
0.0
  0
LINE
  5
26C
  8
0
  6
CONTINUOUS
 62
     7
 10
226.66
 20
453.1600003216
 30
0.0
 11
226.66
 21
452.8565372426
 31
0.0
  0
LINE
  5
26D
  8
0
  6
CONTINUOUS
 62
     7
 10
326.6600014901
 20
475.4834913734
 30
0.0
 11
226.66
 21
475.4834913734
 31
0.0
  0
LINE
  5
26E
  8
0
  6
CONTINUOUS
 62
     7
 10
326.6600014901
 20
475.4834913734
 30
0.0
 11
326.6600014901
 21
475.1600002024
 31
0.0
  0
LINE
  5
26F
  8
0
  6
CONTINUOUS
 62
     7
 10
226.66
 20
475.4834913734
 30
0.0
 11
226.66
 21
475.1600002024
 31
0.0
  0
LINE
  5
270
  8
0
  6
CONTINUOUS
 62
     7
 10
326.6600014901
 20
436.4424835044
 30
0.0
 11
226.66
 21
436.4424835044
 31
0.0
  0
LINE
  5
271
  8
0
  6
CONTINUOUS
 62
     7
 10
326.6600014901
 20
436.4424835044
 30
0.0
 11
326.6600014901
 21
436.160000329
 31
0.0
  0
LINE
  5
272
  8
0
  6
CONTINUOUS
 62
     7
 10
226.66
 20
436.4424835044
 30
0.0
 11
226.66
 21
436.160000329
 31
0.0
  0
LINE
  5
273
  8
0
  6
CONTINUOUS
 62
     7
 10
326.6600014901
 20
443.1163336236
 30
0.0
 11
226.66
 21
443.1163336236
 31
0.0
  0
LINE
  5
274
  8
0
  6
CONTINUOUS
 62
     7
 10
326.6600014901
 20
443.4100001204
 30
0.0
 11
326.6600014901
 21
443.1163336236
 31
0.0
  0
LINE
  5
275
  8
0
  6
CONTINUOUS
 62
     7
 10
226.66
 20
443.4100001204
 30
0.0
 11
226.66
 21
443.1163336236
 31
0.0
  0
LINE
  5
276
  8
0
  6
CONTINUOUS
 62
     7
 10
326.6600014901
 20
446.2036660958
 30
0.0
 11
226.66
 21
446.2036660958
 31
0.0
  0
LINE
  5
277
  8
0
  6
CONTINUOUS
 62
     7
 10
326.6600014901
 20
446.2036660958
 30
0.0
 11
326.6600014901
 21
445.9099995989
 31
0.0
  0
LINE
  5
278
  8
0
  6
CONTINUOUS
 62
     7
 10
226.66
 20
446.2036660958
 30
0.0
 11
226.66
 21
445.9099995989
 31
0.0
  0
LINE
  5
279
  8
0
  6
CONTINUOUS
 62
     7
 10
326.6600014901
 20
465.7332685861
 30
0.0
 11
226.66
 21
465.7332685861
 31
0.0
  0
LINE
  5
27A
  8
0
  6
CONTINUOUS
 62
     7
 10
326.6600014901
 20
465.7332685861
 30
0.0
 11
326.6600014901
 21
465.4154580172
 31
0.0
  0
LINE
  5
27B
  8
0
  6
CONTINUOUS
 62
     7
 10
226.66
 20
465.7332685861
 30
0.0
 11
226.66
 21
465.4154580172
 31
0.0
  0
LINE
  5
27C
  8
0
  6
CONTINUOUS
 62
     7
 10
326.6600014901
 20
472.3365086216
 30
0.0
 11
226.66
 21
472.3365086216
 31
0.0
  0
LINE
  5
27D
  8
0
  6
CONTINUOUS
 62
     7
 10
326.6600014901
 20
472.6599997926
 30
0.0
 11
326.6600014901
 21
472.3365086216
 31
0.0
  0
LINE
  5
27E
  8
0
  6
CONTINUOUS
 62
     7
 10
226.66
 20
472.6599997926
 30
0.0
 11
226.66
 21
472.3365086216
 31
0.0
  0
LINE
  5
27F
  8
0
  6
CONTINUOUS
 62
     7
 10
326.6600014901
 20
472.3365086216
 30
0.0
 11
326.6600014901
 21
472.336068106
 31
0.0
  0
LINE
  5
280
  8
0
  6
CONTINUOUS
 62
     7
 10
226.66
 20
472.3365086216
 30
0.0
 11
226.66
 21
472.336068106
 31
0.0
  0
LINE
  5
281
  8
0
  6
CONTINUOUS
 62
     7
 10
326.6600014901
 20
475.483931889
 30
0.0
 11
326.6600014901
 21
475.4834913734
 31
0.0
  0
LINE
  5
282
  8
0
  6
CONTINUOUS
 62
     7
 10
226.66
 20
475.483931889
 30
0.0
 11
226.66
 21
475.4834913734
 31
0.0
  0
LINE
  5
283
  8
0
  6
CONTINUOUS
 62
     7
 10
326.6600014901
 20
456.0604056429
 30
0.0
 11
226.66
 21
456.0604056429
 31
0.0
  0
LINE
  5
284
  8
0
  6
CONTINUOUS
 62
     7
 10
326.6600014901
 20
456.0604056429
 30
0.0
 11
326.6600014901
 21
455.9634624134
 31
0.0
  0
LINE
  5
285
  8
0
  6
CONTINUOUS
 62
     7
 10
226.66
 20
456.0604056429
 30
0.0
 11
226.66
 21
455.9634624134
 31
0.0
  0
LINE
  5
286
  8
0
  6
CONTINUOUS
 62
     7
 10
326.6600014901
 20
436.5604057062
 30
0.0
 11
226.66
 21
436.5604057062
 31
0.0
  0
LINE
  5
287
  8
0
  6
CONTINUOUS
 62
     7
 10
326.6600014901
 20
436.5604057062
 30
0.0
 11
326.6600014901
 21
436.4424835044
 31
0.0
  0
LINE
  5
288
  8
0
  6
CONTINUOUS
 62
     7
 10
226.66
 20
436.5604057062
 30
0.0
 11
226.66
 21
436.4314193923
 31
0.0
  0
LINE
  5
289
  8
0
  6
CONTINUOUS
 62
     7
 10
326.6600014901
 20
446.3104059074
 30
0.0
 11
226.66
 21
446.3104059074
 31
0.0
  0
LINE
  5
28A
  8
0
  6
CONTINUOUS
 62
     7
 10
326.6600014901
 20
446.3104059074
 30
0.0
 11
326.6600014901
 21
446.2036660958
 31
0.0
  0
LINE
  5
28B
  8
0
  6
CONTINUOUS
 62
     7
 10
226.66
 20
446.3104059074
 30
0.0
 11
226.66
 21
446.2036660958
 31
0.0
  0
LINE
  5
28C
  8
0
  6
CONTINUOUS
 62
     7
 10
326.6600014901
 20
443.0095947433
 30
0.0
 11
226.66
 21
443.0095947433
 31
0.0
  0
LINE
  5
28D
  8
0
  6
CONTINUOUS
 62
     7
 10
326.6600014901
 20
443.1163336236
 30
0.0
 11
326.6600014901
 21
443.0095947433
 31
0.0
  0
LINE
  5
28E
  8
0
  6
CONTINUOUS
 62
     7
 10
226.66
 20
443.1163336236
 30
0.0
 11
226.66
 21
443.0095947433
 31
0.0
  0
LINE
  5
28F
  8
0
  6
CONTINUOUS
 62
     7
 10
326.6600014901
 20
475.5604055795
 30
0.0
 11
226.66
 21
475.5604055795
 31
0.0
  0
LINE
  5
290
  8
0
  6
CONTINUOUS
 62
     7
 10
326.6600014901
 20
475.5604055795
 30
0.0
 11
326.6600014901
 21
475.483931889
 31
0.0
  0
LINE
  5
291
  8
0
  6
CONTINUOUS
 62
     7
 10
226.66
 20
475.5604055795
 30
0.0
 11
226.66
 21
475.483931889
 31
0.0
  0
LINE
  5
292
  8
0
  6
CONTINUOUS
 62
     7
 10
326.6600014901
 20
472.2595944155
 30
0.0
 11
226.66
 21
472.2595944155
 31
0.0
  0
LINE
  5
293
  8
0
  6
CONTINUOUS
 62
     7
 10
326.6600014901
 20
472.336068106
 30
0.0
 11
326.6600014901
 21
472.2595944155
 31
0.0
  0
LINE
  5
294
  8
0
  6
CONTINUOUS
 62
     7
 10
226.66
 20
472.3365086216
 30
0.0
 11
226.66
 21
472.2595944155
 31
0.0
  0
LINE
  5
295
  8
0
  6
CONTINUOUS
 62
     7
 10
326.6600014901
 20
452.7595949444
 30
0.0
 11
226.66
 21
452.7595949444
 31
0.0
  0
LINE
  5
296
  8
0
  6
CONTINUOUS
 62
     7
 10
326.6600014901
 20
452.8565372426
 30
0.0
 11
326.6600014901
 21
452.7595949444
 31
0.0
  0
LINE
  5
297
  8
0
  6
CONTINUOUS
 62
     7
 10
226.66
 20
452.8565372426
 30
0.0
 11
226.66
 21
452.7595949444
 31
0.0
  0
LINE
  5
298
  8
0
  6
CONTINUOUS
 62
     7
 10
326.6600014901
 20
465.8104053784
 30
0.0
 11
226.66
 21
465.8104053784
 31
0.0
  0
LINE
  5
299
  8
0
  6
CONTINUOUS
 62
     7
 10
326.6600014901
 20
465.8104053784
 30
0.0
 11
326.6600014901
 21
465.7332685861
 31
0.0
  0
LINE
  5
29A
  8
0
  6
CONTINUOUS
 62
     7
 10
226.66
 20
465.8104053784
 30
0.0
 11
226.66
 21
465.7332685861
 31
0.0
  0
LINE
  5
29B
  8
0
  6
CONTINUOUS
 62
     7
 10
326.6600014901
 20
462.5095945053
 30
0.0
 11
226.66
 21
462.5095945053
 31
0.0
  0
LINE
  5
29C
  8
0
  6
CONTINUOUS
 62
     7
 10
326.6600014901
 20
462.5881485959
 30
0.0
 11
326.6600014901
 21
462.5095945053
 31
0.0
  0
LINE
  5
29D
  8
0
  6
CONTINUOUS
 62
     7
 10
226.66
 20
462.5881485959
 30
0.0
 11
226.66
 21
462.5095945053
 31
0.0
  0
LINE
  5
29E
  8
0
  6
CONTINUOUS
 62
     7
 10
326.6600014901
 20
436.8472139436
 30
0.0
 11
326.6600014901
 21
436.5604057062
 31
0.0
  0
LINE
  5
29F
  8
0
  6
CONTINUOUS
 62
     7
 10
226.66
 20
436.8472139436
 30
0.0
 11
226.66
 21
436.5604057062
 31
0.0
  0
LINE
  5
2A0
  8
0
  6
CONTINUOUS
 62
     7
 10
326.6600014901
 20
446.5972150761
 30
0.0
 11
326.6600014901
 21
446.3104059074
 31
0.0
  0
LINE
  5
2A1
  8
0
  6
CONTINUOUS
 62
     7
 10
226.66
 20
446.5972150761
 30
0.0
 11
226.66
 21
446.3104059074
 31
0.0
  0
LINE
  5
2A2
  8
0
  6
CONTINUOUS
 62
     7
 10
326.6600014901
 20
456.3472148116
 30
0.0
 11
326.6600014901
 21
456.0604056429
 31
0.0
  0
LINE
  5
2A3
  8
0
  6
CONTINUOUS
 62
     7
 10
226.66
 20
456.3472148116
 30
0.0
 11
226.66
 21
456.0604056429
 31
0.0
  0
LINE
  5
2A4
  8
0
  6
CONTINUOUS
 62
     7
 10
326.6600014901
 20
472.2595944155
 30
0.0
 11
326.6600014901
 21
471.9727852467
 31
0.0
  0
LINE
  5
2A5
  8
0
  6
CONTINUOUS
 62
     7
 10
226.66
 20
472.2595944155
 30
0.0
 11
226.66
 21
471.9727852467
 31
0.0
  0
LINE
  5
2A6
  8
0
  6
CONTINUOUS
 62
     7
 10
326.6600014901
 20
452.7595949444
 30
0.0
 11
326.6600014901
 21
452.4727848444
 31
0.0
  0
LINE
  5
2A7
  8
0
  6
CONTINUOUS
 62
     7
 10
226.66
 20
452.7595949444
 30
0.0
 11
226.66
 21
452.4727848444
 31
0.0
  0
LINE
  5
2A8
  8
0
  6
CONTINUOUS
 62
     7
 10
326.6600014901
 20
466.0972145471
 30
0.0
 11
326.6600014901
 21
465.8104053784
 31
0.0
  0
LINE
  5
2A9
  8
0
  6
CONTINUOUS
 62
     7
 10
226.66
 20
466.0972145471
 30
0.0
 11
226.66
 21
465.8104053784
 31
0.0
  0
LINE
  5
2AA
  8
0
  6
CONTINUOUS
 62
     7
 10
326.6600014901
 20
443.0095947433
 30
0.0
 11
326.6600014901
 21
442.7227846432
 31
0.0
  0
LINE
  5
2AB
  8
0
  6
CONTINUOUS
 62
     7
 10
226.66
 20
443.0095947433
 30
0.0
 11
226.66
 21
442.7227846432
 31
0.0
  0
LINE
  5
2AC
  8
0
  6
CONTINUOUS
 62
     7
 10
326.6600014901
 20
475.8472147483
 30
0.0
 11
326.6600014901
 21
475.5604055795
 31
0.0
  0
LINE
  5
2AD
  8
0
  6
CONTINUOUS
 62
     7
 10
226.66
 20
475.8472147483
 30
0.0
 11
226.66
 21
475.5604055795
 31
0.0
  0
LINE
  5
2AE
  8
0
  6
CONTINUOUS
 62
     7
 10
326.6600014901
 20
462.5095945053
 30
0.0
 11
326.6600014901
 21
462.2227853366
 31
0.0
  0
LINE
  5
2AF
  8
0
  6
CONTINUOUS
 62
     7
 10
226.66
 20
462.5095945053
 30
0.0
 11
226.66
 21
462.2227853366
 31
0.0
  0
LINE
  5
2B0
  8
0
  6
CONTINUOUS
 62
     7
 10
326.6600014901
 20
471.9727852467
 30
0.0
 11
326.6600014901
 21
471.7451904986
 31
0.0
  0
LINE
  5
2B1
  8
0
  6
CONTINUOUS
 62
     7
 10
226.66
 20
471.9727852467
 30
0.0
 11
226.66
 21
471.7451904986
 31
0.0
  0
LINE
  5
2B2
  8
0
  6
CONTINUOUS
 62
     7
 10
326.6600014901
 20
462.2227853366
 30
0.0
 11
326.6600014901
 21
461.9951900937
 31
0.0
  0
LINE
  5
2B3
  8
0
  6
CONTINUOUS
 62
     7
 10
226.66
 20
462.2182187127
 30
0.0
 11
226.66
 21
461.9951900937
 31
0.0
  0
LINE
  5
2B4
  8
0
  6
CONTINUOUS
 62
     7
 10
326.6600014901
 20
442.7227846432
 30
0.0
 11
326.6600014901
 21
442.4951898951
 31
0.0
  0
LINE
  5
2B5
  8
0
  6
CONTINUOUS
 62
     7
 10
226.66
 20
442.7227846432
 30
0.0
 11
226.66
 21
442.4951898951
 31
0.0
  0
LINE
  5
2B6
  8
0
  6
CONTINUOUS
 62
     7
 10
326.6600014901
 20
452.4727848444
 30
0.0
 11
326.6600014901
 21
452.2451900962
 31
0.0
  0
LINE
  5
2B7
  8
0
  6
CONTINUOUS
 62
     7
 10
226.66
 20
452.4727848444
 30
0.0
 11
226.66
 21
452.2451900962
 31
0.0
  0
LINE
  5
2B8
  8
0
  6
CONTINUOUS
 62
     7
 10
326.6600014901
 20
466.3248097609
 30
0.0
 11
326.6600014901
 21
466.0972145471
 31
0.0
  0
LINE
  5
2B9
  8
0
  6
CONTINUOUS
 62
     7
 10
226.66
 20
466.3248097609
 30
0.0
 11
226.66
 21
466.0972145471
 31
0.0
  0
LINE
  5
2BA
  8
0
  6
CONTINUOUS
 62
     7
 10
326.6600014901
 20
437.0748105544
 30
0.0
 11
326.6600014901
 21
436.8472139436
 31
0.0
  0
LINE
  5
2BB
  8
0
  6
CONTINUOUS
 62
     7
 10
226.66
 20
437.0748105544
 30
0.0
 11
226.66
 21
436.8472139436
 31
0.0
  0
LINE
  5
2BC
  8
0
  6
CONTINUOUS
 62
     7
 10
326.6600014901
 20
456.5748100254
 30
0.0
 11
326.6600014901
 21
456.3472148116
 31
0.0
  0
LINE
  5
2BD
  8
0
  6
CONTINUOUS
 62
     7
 10
226.66
 20
456.5748100254
 30
0.0
 11
226.66
 21
456.3472148116
 31
0.0
  0
LINE
  5
2BE
  8
0
  6
CONTINUOUS
 62
     7
 10
326.6600014901
 20
446.8248098243
 30
0.0
 11
326.6600014901
 21
446.5972150761
 31
0.0
  0
LINE
  5
2BF
  8
0
  6
CONTINUOUS
 62
     7
 10
226.66
 20
446.8248098243
 30
0.0
 11
226.66
 21
446.5972150761
 31
0.0
  0
LINE
  5
2C0
  8
0
  6
CONTINUOUS
 62
     7
 10
326.6600014901
 20
476.0748094964
 30
0.0
 11
326.6600014901
 21
475.8472147483
 31
0.0
  0
LINE
  5
2C1
  8
0
  6
CONTINUOUS
 62
     7
 10
226.66
 20
476.0748094964
 30
0.0
 11
226.66
 21
475.8472147483
 31
0.0
  0
LINE
  5
2C2
  8
0
  6
CONTINUOUS
 62
     7
 10
326.6600014901
 20
477.6600006122
 30
0.0
 11
226.66
 21
477.6600006122
 31
0.0
  0
LINE
  5
2C3
  8
0
  6
CONTINUOUS
 62
     7
 10
326.6600014901
 20
483.659999733
 30
0.0
 11
326.6600014901
 21
477.6600006122
 31
0.0
  0
LINE
  5
2C4
  8
0
  6
CONTINUOUS
 62
     7
 10
226.66
 20
483.659999733
 30
0.0
 11
226.66
 21
477.6600006122
 31
0.0
  0
LINE
  5
2C5
  8
0
  6
CONTINUOUS
 62
     7
 10
326.6600014901
 20
477.5707501072
 30
0.0
 11
226.66
 21
477.5707501072
 31
0.0
  0
LINE
  5
2C6
  8
0
  6
CONTINUOUS
 62
     7
 10
326.6600014901
 20
477.5707501072
 30
0.0
 11
326.6600014901
 21
476.0748094964
 31
0.0
  0
LINE
  5
2C7
  8
0
  6
CONTINUOUS
 62
     7
 10
226.66
 20
477.5707501072
 30
0.0
 11
226.66
 21
476.0748094964
 31
0.0
  0
LINE
  5
2C8
  8
0
  6
CONTINUOUS
 62
     7
 10
326.6600014901
 20
468.1028302844
 30
0.0
 11
226.66
 21
468.1028302844
 31
0.0
  0
LINE
  5
2C9
  8
0
  6
CONTINUOUS
 62
     7
 10
326.6600014901
 20
468.1028302844
 30
0.0
 11
326.6600014901
 21
466.3248097609
 31
0.0
  0
LINE
  5
2CA
  8
0
  6
CONTINUOUS
 62
     7
 10
226.66
 20
468.1028302844
 30
0.0
 11
226.66
 21
466.3248097609
 31
0.0
  0
LINE
  5
2CB
  8
0
  6
CONTINUOUS
 62
     7
 10
326.6600014901
 20
469.9600518766
 30
0.0
 11
226.66
 21
469.9600518766
 31
0.0
  0
LINE
  5
2CC
  8
0
  6
CONTINUOUS
 62
     7
 10
326.6600014901
 20
471.7451904986
 30
0.0
 11
326.6600014901
 21
469.9600518766
 31
0.0
  0
LINE
  5
2CD
  8
0
  6
CONTINUOUS
 62
     7
 10
226.66
 20
471.7451904986
 30
0.0
 11
226.66
 21
469.9600518766
 31
0.0
  0
LINE
  5
2CE
  8
0
  6
CONTINUOUS
 62
     7
 10
326.6600014901
 20
458.3397433713
 30
0.0
 11
226.66
 21
458.3397433713
 31
0.0
  0
LINE
  5
2CF
  8
0
  6
CONTINUOUS
 62
     7
 10
326.6600014901
 20
458.3397433713
 30
0.0
 11
326.6600014901
 21
456.5748100254
 31
0.0
  0
LINE
  5
2D0
  8
0
  6
CONTINUOUS
 62
     7
 10
226.66
 20
458.3397433713
 30
0.0
 11
226.66
 21
456.5748100254
 31
0.0
  0
LINE
  5
2D1
  8
0
  6
CONTINUOUS
 62
     7
 10
326.6600014901
 20
460.1869708245
 30
0.0
 11
226.66
 21
460.1869708245
 31
0.0
  0
LINE
  5
2D2
  8
0
  6
CONTINUOUS
 62
     7
 10
326.6600014901
 20
461.9951900937
 30
0.0
 11
326.6600014901
 21
460.1869708245
 31
0.0
  0
LINE
  5
2D3
  8
0
  6
CONTINUOUS
 62
     7
 10
226.66
 20
461.9951900937
 30
0.0
 11
226.66
 21
460.1869708245
 31
0.0
  0
LINE
  5
2D4
  8
0
  6
CONTINUOUS
 62
     7
 10
326.6600014901
 20
477.6600006122
 30
0.0
 11
326.6600014901
 21
477.5707501072
 31
0.0
  0
LINE
  5
2D5
  8
0
  6
CONTINUOUS
 62
     7
 10
226.66
 20
477.6600006122
 30
0.0
 11
226.66
 21
477.5707501072
 31
0.0
  0
LINE
  5
2D6
  8
0
  6
CONTINUOUS
 62
     7
 10
326.6600014901
 20
469.9600518766
 30
0.0
 11
326.6600014901
 21
468.1028302844
 31
0.0
  0
LINE
  5
2D7
  8
0
  6
CONTINUOUS
 62
     7
 10
226.66
 20
469.9600518766
 30
0.0
 11
226.66
 21
468.1028302844
 31
0.0
  0
LINE
  5
2D8
  8
0
  6
CONTINUOUS
 62
     7
 10
326.6600014901
 20
448.5921955753
 30
0.0
 11
226.66
 21
448.5921955753
 31
0.0
  0
LINE
  5
2D9
  8
0
  6
CONTINUOUS
 62
     7
 10
326.6600014901
 20
448.5921955753
 30
0.0
 11
326.6600014901
 21
446.8248098243
 31
0.0
  0
LINE
  5
2DA
  8
0
  6
CONTINUOUS
 62
     7
 10
226.66
 20
448.5921955753
 30
0.0
 11
226.66
 21
446.8248098243
 31
0.0
  0
LINE
  5
2DB
  8
0
  6
CONTINUOUS
 62
     7
 10
326.6600014901
 20
450.4523056644
 30
0.0
 11
226.66
 21
450.4523056644
 31
0.0
  0
LINE
  5
2DC
  8
0
  6
CONTINUOUS
 62
     7
 10
326.6600014901
 20
452.2451900962
 30
0.0
 11
326.6600014901
 21
450.4523056644
 31
0.0
  0
LINE
  5
2DD
  8
0
  6
CONTINUOUS
 62
     7
 10
226.66
 20
452.2451900962
 30
0.0
 11
226.66
 21
450.4523056644
 31
0.0
  0
LINE
  5
2DE
  8
0
  6
CONTINUOUS
 62
     7
 10
326.6600014901
 20
460.1869708245
 30
0.0
 11
326.6600014901
 21
458.3397433713
 31
0.0
  0
LINE
  5
2DF
  8
0
  6
CONTINUOUS
 62
     7
 10
226.66
 20
460.1869708245
 30
0.0
 11
226.66
 21
458.3397433713
 31
0.0
  0
LINE
  5
2E0
  8
0
  6
CONTINUOUS
 62
     7
 10
326.6600014901
 20
438.8602155346
 30
0.0
 11
226.66
 21
438.8602155346
 31
0.0
  0
LINE
  5
2E1
  8
0
  6
CONTINUOUS
 62
     7
 10
326.6600014901
 20
438.8602155346
 30
0.0
 11
326.6600014901
 21
437.0748105544
 31
0.0
  0
LINE
  5
2E2
  8
0
  6
CONTINUOUS
 62
     7
 10
226.66
 20
438.8602155346
 30
0.0
 11
226.66
 21
437.0748105544
 31
0.0
  0
LINE
  5
2E3
  8
0
  6
CONTINUOUS
 62
     7
 10
326.6600014901
 20
440.6793828208
 30
0.0
 11
226.66
 21
440.6793828208
 31
0.0
  0
LINE
  5
2E4
  8
0
  6
CONTINUOUS
 62
     7
 10
326.6600014901
 20
442.4951898951
 30
0.0
 11
326.6600014901
 21
440.6793828208
 31
0.0
  0
LINE
  5
2E5
  8
0
  6
CONTINUOUS
 62
     7
 10
226.66
 20
442.4951898951
 30
0.0
 11
226.66
 21
440.6793828208
 31
0.0
  0
LINE
  5
2E6
  8
0
  6
CONTINUOUS
 62
     7
 10
326.6600014901
 20
450.4523056644
 30
0.0
 11
326.6600014901
 21
448.5921955753
 31
0.0
  0
LINE
  5
2E7
  8
0
  6
CONTINUOUS
 62
     7
 10
226.66
 20
450.4523056644
 30
0.0
 11
226.66
 21
448.5921955753
 31
0.0
  0
LINE
  5
2E8
  8
0
  6
CONTINUOUS
 62
     7
 10
326.6600014901
 20
440.6793828208
 30
0.0
 11
326.6600014901
 21
438.8602155346
 31
0.0
  0
LINE
  5
2E9
  8
0
  6
CONTINUOUS
 62
     7
 10
226.66
 20
440.6793828208
 30
0.0
 11
226.66
 21
438.8602155346
 31
0.0
  0
DIMENSION
  5
2EA
  8
0
  6
CONTINUOUS
 62
   150
  2
_D_11
 10
326.66
 20
413.66
 30
0.0
 11
278.8309018422
 21
413.66
 31
0.0
 70
   160
  1
<>
  3
SLDDIMSTYLE1
 13
226.66
 23
475.273596241
 33
0.0
 14
326.66
 24
475.273596241
 34
0.0
 50
0.0
  0
LINE
  5
2F4
  8
0
  6
CONTINUOUS
 62
     7
 10
165.8600011325
 20
248.9799985099
 30
0.0
 11
83.8599988675
 21
248.9799985099
 31
0.0
  0
LINE
  5
2F5
  8
0
  6
CONTINUOUS
 62
     7
 10
165.8600011325
 20
248.9799985099
 30
0.0
 11
165.8600011325
 21
348.98
 31
0.0
  0
LINE
  5
2F6
  8
0
  6
CONTINUOUS
 62
     7
 10
165.8600011325
 20
348.98
 30
0.0
 11
83.8599988675
 21
348.98
 31
0.0
  0
LINE
  5
2F7
  8
0
  6
CONTINUOUS
 62
     7
 10
83.8599988675
 20
248.9799985099
 30
0.0
 11
83.8599988675
 21
348.98
 31
0.0
  0
LINE
  5
2F8
  8
0
  6
CONTINUOUS
 62
     7
 10
329.3428904901
 20
161.7036165164
 30
0.0
 11
400.0535696624
 21
202.5240227158
 31
0.0
  0
LINE
  5
2F9
  8
0
  6
CONTINUOUS
 62
     7
 10
329.3456194985
 20
153.7376163699
 30
0.0
 11
400.0562986708
 21
194.5580225693
 31
0.0
  0
LINE
  5
2FA
  8
0
  6
CONTINUOUS
 62
     7
 10
329.3428904901
 20
145.7810703561
 30
0.0
 11
400.0535696624
 21
186.6014765555
 31
0.0
  0
LINE
  5
2FB
  8
0
  6
CONTINUOUS
 62
     7
 10
329.3428904901
 20
137.8197980365
 30
0.0
 11
400.0535696624
 21
178.6402042359
 31
0.0
  0
LINE
  5
2FC
  8
0
  6
CONTINUOUS
 62
     7
 10
329.3428904901
 20
129.8585241958
 30
0.0
 11
400.0535696624
 21
170.6789303953
 31
0.0
  0
LINE
  5
2FD
  8
0
  6
CONTINUOUS
 62
     7
 10
280.9766896939
 20
198.3078892255
 30
0.0
 11
274.7064292839
 21
194.6881449392
 31
0.0
  0
LINE
  5
2FE
  8
0
  6
CONTINUOUS
 62
     7
 10
279.9499924642
 20
189.7602192252
 30
0.0
 11
274.7037002755
 21
186.7315992107
 31
0.0
  0
LINE
  5
2FF
  8
0
  6
CONTINUOUS
 62
     7
 10
279.9555927266
 20
181.7958767134
 30
0.0
 11
274.7064292839
 21
178.7655991592
 31
0.0
  0
LINE
  5
300
  8
0
  6
CONTINUOUS
 62
     7
 10
279.966176854
 20
173.8407133397
 30
0.0
 11
274.7064292839
 21
170.8043256988
 31
0.0
  0
LINE
  5
301
  8
0
  6
CONTINUOUS
 62
     7
 10
279.9706128098
 20
165.8820018428
 30
0.0
 11
274.7064292839
 21
162.8430533791
 31
0.0
  0
LINE
  5
302
  8
0
  6
CONTINUOUS
 62
     7
 10
331.0160387164
 20
175.953112718
 30
0.0
 11
273.0332810576
 21
209.4258462273
 31
0.0
  0
LINE
  5
303
  8
0
  6
CONTINUOUS
 62
     7
 10
331.0160387164
 20
172.686950456
 30
0.0
 11
331.0160387164
 21
175.953112718
 31
0.0
  0
LINE
  5
304
  8
0
  6
CONTINUOUS
 62
     7
 10
328.1876111281
 20
171.0536031644
 30
0.0
 11
331.0160387164
 21
172.686950456
 31
0.0
  0
LINE
  5
305
  8
0
  6
CONTINUOUS
 62
     7
 10
315.1061355075
 20
178.6053782961
 30
0.0
 11
328.1876111281
 21
171.0536031644
 31
0.0
  0
ARC
  5
306
  8
0
  6
CONTINUOUS
 62
     7
 10
313.4499406867
 20
176.5749216151
 30
0.0
 40
2.620254876499042
 50
50.7966997225
 51
189.2140366291
  0
LINE
  5
307
  8
0
  6
CONTINUOUS
 62
     7
 10
310.8634947835
 20
176.0824818196
 30
0.0
 11
310.8634947835
 21
176.1553584994
 31
0.0
  0
ARC
  5
308
  8
0
  6
CONTINUOUS
 62
     7
 10
313.5998785924
 20
176.2221820384
 30
0.0
 40
2.739947536120416
 50
182.9225760292
 51
230.4672890726
  0
LINE
  5
309
  8
0
  6
CONTINUOUS
 62
     7
 10
312.6522070343
 20
173.4634268679
 30
0.0
 11
311.8558508928
 21
174.1089665066
 31
0.0
  0
ARC
  5
30A
  8
0
  6
CONTINUOUS
 62
     7
 10
314.2563953188
 20
175.2956700488
 30
0.0
 40
2.435269004786774
 50
228.7968023722
 51
260.680509214
  0
ARC
  5
30B
  8
0
  6
CONTINUOUS
 62
     7
 10
313.4530947042
 20
170.0511206196
 30
0.0
 40
2.870700153604982
 50
35.2908226016
 51
81.810295661
  0
ARC
  5
30C
  8
0
  6
CONTINUOUS
 62
     7
 10
318.0599469761
 20
173.5070804793
 30
0.0
 40
2.890548461798107
 50
218.4511454533
 51
258.6500063906
  0
ARC
  5
30D
  8
0
  6
CONTINUOUS
 62
     7
 10
316.9222121516
 20
167.8390356837
 30
0.0
 40
2.890556305980583
 50
38.4511794536
 51
78.6499349702
  0
ARC
  5
30E
  8
0
  6
CONTINUOUS
 62
     7
 10
321.5271042925
 20
171.5329239004
 30
0.0
 40
3.012888837397787
 50
219.0080861527
 51
255.4472162908
  0
ARC
  5
30F
  8
0
  6
CONTINUOUS
 62
     7
 10
320.6196566278
 20
167.8906779416
 30
0.0
 40
0.7414341870315989
 50
57.601533372
 51
78.2968259478
  0
LINE
  5
310
  8
0
  6
CONTINUOUS
 62
     7
 10
328.7179396545
 20
163.8068545049
 30
0.0
 11
321.0169201782
 21
168.5167021626
 31
0.0
  0
POLYLINE
  5
311
  8
0
  6
CONTINUOUS
 62
     7
 66
     1
 10
0.0
 20
0.0
 30
0.0
 70
   128
  0
VERTEX
  5
449
  8
0
  6
CONTINUOUS
 62
     7
 10
328.7179396545
 20
161.7655021406
 30
0.0
  0
VERTEX
  5
44A
  8
0
  6
CONTINUOUS
 62
     7
 10
328.9669590406
 20
161.6630911554
 30
0.0
  0
VERTEX
  5
44B
  8
0
  6
CONTINUOUS
 62
     7
 10
329.1958032571
 20
161.6516661412
 30
0.0
  0
VERTEX
  5
44C
  8
0
  6
CONTINUOUS
 62
     7
 10
329.3859355933
 20
161.7321516022
 30
0.0
  0
VERTEX
  5
44D
  8
0
  6
CONTINUOUS
 62
     7
 10
329.5219487418
 20
161.8980296864
 30
0.0
  0
VERTEX
  5
44E
  8
0
  6
CONTINUOUS
 62
     7
 10
329.5928265701
 20
162.1358596994
 30
0.0
  0
VERTEX
  5
44F
  8
0
  6
CONTINUOUS
 62
     7
 10
329.5928265701
 20
162.4263740145
 30
0.0
  0
VERTEX
  5
450
  8
0
  6
CONTINUOUS
 62
     7
 10
329.5219487418
 20
162.7460378261
 30
0.0
  0
VERTEX
  5
451
  8
0
  6
CONTINUOUS
 62
     7
 10
329.3859355933
 20
163.068953349
 30
0.0
  0
VERTEX
  5
452
  8
0
  6
CONTINUOUS
 62
     7
 10
329.1958032571
 20
163.3689609327
 30
0.0
  0
VERTEX
  5
453
  8
0
  6
CONTINUOUS
 62
     7
 10
328.9669590406
 20
163.6217538268
 30
0.0
  0
VERTEX
  5
454
  8
0
  6
CONTINUOUS
 62
     7
 10
328.7179396545
 20
163.8068545049
 30
0.0
  0
SEQEND
  5
50E
  8
0
  6
CONTINUOUS
 62
     7
  0
LINE
  5
312
  8
0
  6
CONTINUOUS
 62
     7
 10
321.0169201782
 20
165.9470623114
 30
0.0
 11
328.7179396545
 21
161.7655021406
 31
0.0
  0
ARC
  5
313
  8
0
  6
CONTINUOUS
 62
     7
 10
321.5759949919
 20
166.9501782832
 30
0.0
 40
1.148392920643826
 50
225.4282235472
 51
240.8674077033
  0
ARC
  5
314
  8
0
  6
CONTINUOUS
 62
     7
 10
318.8904307176
 20
164.4075766586
 30
0.0
 40
2.550869454435407
 50
42.5358503256
 51
83.3480565285
  0
ARC
  5
315
  8
0
  6
CONTINUOUS
 62
     7
 10
319.518134477
 20
169.5739001063
 30
0.0
 40
2.653504853018873
 50
220.1894308369
 51
262.8077345203
  0
ARC
  5
316
  8
0
  6
CONTINUOUS
 62
     7
 10
315.4640311843
 20
166.1492025409
 30
0.0
 40
2.653500604139743
 50
40.1893709908
 51
82.8077546575
  0
ARC
  5
317
  8
0
  6
CONTINUOUS
 62
     7
 10
315.9734027935
 20
171.4143021094
 30
0.0
 40
2.638431866538796
 50
216.8471525243
 51
266.1500087593
  0
ARC
  5
318
  8
0
  6
CONTINUOUS
 62
     7
 10
311.5119797246
 20
167.6888355967
 30
0.0
 40
3.180602572770262
 50
42.3648216814
 51
68.9922566595
  0
LINE
  5
319
  8
0
  6
CONTINUOUS
 62
     7
 10
311.701345156
 20
170.9850871829
 30
0.0
 11
312.6522070343
 21
170.6580298322
 31
0.0
  0
POLYLINE
  5
31A
  8
0
  6
CONTINUOUS
 62
     7
 66
     1
 10
0.0
 20
0.0
 30
0.0
 70
   128
  0
VERTEX
  5
455
  8
0
  6
CONTINUOUS
 62
     7
 10
310.5672235119
 20
170.0390698719
 30
0.0
  0
VERTEX
  5
456
  8
0
  6
CONTINUOUS
 62
     7
 10
310.587953176
 20
170.3056893463
 30
0.0
  0
VERTEX
  5
457
  8
0
  6
CONTINUOUS
 62
     7
 10
310.6495330144
 20
170.5405599059
 30
0.0
  0
VERTEX
  5
458
  8
0
  6
CONTINUOUS
 62
     7
 10
310.7501586152
 20
170.73679539
 30
0.0
  0
VERTEX
  5
459
  8
0
  6
CONTINUOUS
 62
     7
 10
310.8868803576
 20
170.8886422399
 30
0.0
  0
VERTEX
  5
45A
  8
0
  6
CONTINUOUS
 62
     7
 10
311.0556890226
 20
170.991650611
 30
0.0
  0
VERTEX
  5
45B
  8
0
  6
CONTINUOUS
 62
     7
 10
311.2516369653
 20
171.0427998606
 30
0.0
  0
VERTEX
  5
45C
  8
0
  6
CONTINUOUS
 62
     7
 10
311.468979702
 20
171.0405901971
 30
0.0
  0
VERTEX
  5
45D
  8
0
  6
CONTINUOUS
 62
     7
 10
311.701345156
 20
170.9850871829
 30
0.0
  0
SEQEND
  5
50F
  8
0
  6
CONTINUOUS
 62
     7
  0
LINE
  5
31B
  8
0
  6
CONTINUOUS
 62
     7
 10
310.5672235119
 20
168.5225726452
 30
0.0
 11
310.5672235119
 21
170.0390698719
 31
0.0
  0
ARC
  5
31C
  8
0
  6
CONTINUOUS
 62
     7
 10
313.6945267064
 20
168.6822338655
 30
0.0
 40
3.131376211056037
 50
182.9226390534
 51
230.467236879
  0
LINE
  5
31D
  8
0
  6
CONTINUOUS
 62
     7
 10
312.6512297543
 20
165.4971338805
 30
0.0
 11
311.701345156
 21
166.267126356
 31
0.0
  0
ARC
  5
31E
  8
0
  6
CONTINUOUS
 62
     7
 10
314.2415237857
 20
167.3216252632
 30
0.0
 40
2.420290046990401
 50
228.9233915386
 51
260.9789558218
  0
ARC
  5
31F
  8
0
  6
CONTINUOUS
 62
     7
 10
313.4530928199
 20
162.0898448386
 30
0.0
 40
2.870703471667706
 50
35.2908510672
 51
81.8102671954
  0
ARC
  5
320
  8
0
  6
CONTINUOUS
 62
     7
 10
318.0599495143
 20
165.54581089
 30
0.0
 40
2.89055238388382
 50
218.4511624534
 51
258.6499706804
  0
ARC
  5
321
  8
0
  6
CONTINUOUS
 62
     7
 10
316.9222121516
 20
159.8777626035
 30
0.0
 40
2.890556305980743
 50
38.4511794536
 51
78.6499349702
  0
ARC
  5
322
  8
0
  6
CONTINUOUS
 62
     7
 10
321.5271042925
 20
163.5716508202
 30
0.0
 40
3.012888837397787
 50
219.0080861527
 51
255.4472162908
  0
ARC
  5
323
  8
0
  6
CONTINUOUS
 62
     7
 10
320.631851766
 20
159.9673901812
 30
0.0
 40
0.7017776299655825
 50
61.1716552006
 51
78.6427216958
  0
LINE
  5
324
  8
0
  6
CONTINUOUS
 62
     7
 10
328.7179396545
 20
155.8500381176
 30
0.0
 11
320.9702399093
 21
160.5821952774
 31
0.0
  0
POLYLINE
  5
325
  8
0
  6
CONTINUOUS
 62
     7
 66
     1
 10
0.0
 20
0.0
 30
0.0
 70
   128
  0
VERTEX
  5
45E
  8
0
  6
CONTINUOUS
 62
     7
 10
328.7179396545
 20
153.7997727479
 30
0.0
  0
VERTEX
  5
45F
  8
0
  6
CONTINUOUS
 62
     7
 10
328.9680469561
 20
153.6969139522
 30
0.0
  0
VERTEX
  5
460
  8
0
  6
CONTINUOUS
 62
     7
 10
329.1978921603
 20
153.6854381759
 30
0.0
  0
VERTEX
  5
461
  8
0
  6
CONTINUOUS
 62
     7
 10
329.3888516284
 20
153.7662770446
 30
0.0
  0
VERTEX
  5
462
  8
0
  6
CONTINUOUS
 62
     7
 10
329.5254601011
 20
153.9328781948
 30
0.0
  0
VERTEX
  5
463
  8
0
  6
CONTINUOUS
 62
     7
 10
329.5966487624
 20
154.1717458885
 30
0.0
  0
VERTEX
  5
464
  8
0
  6
CONTINUOUS
 62
     7
 10
329.5966487624
 20
154.463529036
 30
0.0
  0
VERTEX
  5
465
  8
0
  6
CONTINUOUS
 62
     7
 10
329.5254601011
 20
154.7845892184
 30
0.0
  0
VERTEX
  5
466
  8
0
  6
CONTINUOUS
 62
     7
 10
329.3888516284
 20
155.1089153441
 30
0.0
  0
VERTEX
  5
467
  8
0
  6
CONTINUOUS
 62
     7
 10
329.1978921603
 20
155.4102312266
 30
0.0
  0
VERTEX
  5
468
  8
0
  6
CONTINUOUS
 62
     7
 10
328.9680469561
 20
155.6641291695
 30
0.0
  0
VERTEX
  5
469
  8
0
  6
CONTINUOUS
 62
     7
 10
328.7179396545
 20
155.8500381176
 30
0.0
  0
SEQEND
  5
510
  8
0
  6
CONTINUOUS
 62
     7
  0
LINE
  5
326
  8
0
  6
CONTINUOUS
 62
     7
 10
320.9504190367
 20
158.0255187933
 30
0.0
 11
328.7179396545
 21
153.7997727479
 31
0.0
  0
ARC
  5
327
  8
0
  6
CONTINUOUS
 62
     7
 10
321.6211275495
 20
159.0426816535
 30
0.0
 40
1.218388358963583
 50
225.6910490937
 51
236.5994824937
  0
ARC
  5
328
  8
0
  6
CONTINUOUS
 62
     7
 10
318.8904310336
 20
156.4463039281
 30
0.0
 40
2.550869306553858
 50
42.535857202
 51
83.3480632855
  0
ARC
  5
329
  8
0
  6
CONTINUOUS
 62
     7
 10
319.5181341127
 20
161.6126262391
 30
0.0
 40
2.653503790796569
 50
220.1894158754
 51
262.8077395546
  0
ARC
  5
32A
  8
0
  6
CONTINUOUS
 62
     7
 10
315.4640301307
 20
158.1879261806
 30
0.0
 40
2.653503801784398
 50
40.1894174716
 51
82.8077404401
  0
ARC
  5
32B
  8
0
  6
CONTINUOUS
 62
     7
 10
315.9734051733
 20
163.4530330788
 30
0.0
 40
2.638436256350741
 50
216.847193556
 51
266.1499633783
  0
ARC
  5
32C
  8
0
  6
CONTINUOUS
 62
     7
 10
311.5119837099
 20
159.7275699678
 30
0.0
 40
3.180594543065146
 50
42.3647696177
 51
68.9922780167
  0
LINE
  5
32D
  8
0
  6
CONTINUOUS
 62
     7
 10
311.8685693629
 20
162.9662961659
 30
0.0
 11
312.6522070343
 21
162.6967571323
 31
0.0
  0
LINE
  5
32E
  8
0
  6
CONTINUOUS
 62
     7
 10
311.0810732792
 20
163.3947158303
 30
0.0
 11
311.8685693629
 21
162.9662961659
 31
0.0
  0
ARC
  5
32F
  8
0
  6
CONTINUOUS
 62
     7
 10
310.5625803288
 20
162.6996841452
 30
0.0
 40
0.8671239720348253
 50
53.2770977559
 51
189.5906632003
  0
LINE
  5
330
  8
0
  6
CONTINUOUS
 62
     7
 10
309.7075759748
 20
161.0468776905
 30
0.0
 11
309.7075759748
 21
162.5552142949
 31
0.0
  0
ARC
  5
331
  8
0
  6
CONTINUOUS
 62
     7
 10
312.7898707989
 20
161.1909908801
 30
0.0
 40
3.085662002557429
 50
182.6769238858
 51
236.4205963946
  0
LINE
  5
332
  8
0
  6
CONTINUOUS
 62
     7
 10
312.0368735828
 20
158.0396801617
 30
0.0
 11
311.0832155245
 21
158.6202637907
 31
0.0
  0
LINE
  5
333
  8
0
  6
CONTINUOUS
 62
     7
 10
312.6522070343
 20
157.5408807076
 30
0.0
 11
312.0368735828
 21
158.0396801617
 31
0.0
  0
ARC
  5
334
  8
0
  6
CONTINUOUS
 62
     7
 10
314.2563904928
 20
159.3731168625
 30
0.0
 40
2.435260539604775
 50
228.7967789074
 51
260.6805915906
  0
ARC
  5
335
  8
0
  6
CONTINUOUS
 62
     7
 10
313.4530918709
 20
154.1285705871
 30
0.0
 40
2.870705142612782
 50
35.2908654022
 51
81.8102528604
  0
ARC
  5
336
  8
0
  6
CONTINUOUS
 62
     7
 10
318.0599520525
 20
157.5845413007
 30
0.0
 40
2.89055630598123
 50
218.4511794536
 51
258.6499349702
  0
ARC
  5
337
  8
0
  6
CONTINUOUS
 62
     7
 10
316.9222146898
 20
151.9164930142
 30
0.0
 40
2.890552383883413
 50
38.4511624534
 51
78.6499706804
  0
ARC
  5
338
  8
0
  6
CONTINUOUS
 62
     7
 10
321.5271046001
 20
155.6103775109
 30
0.0
 40
3.012888692854119
 50
219.0080734648
 51
255.4472095331
  0
ARC
  5
339
  8
0
  6
CONTINUOUS
 62
     7
 10
320.656580007
 20
152.0963374825
 30
0.0
 40
0.6084887514940357
 50
71.0921293864
 51
79.2526359882
  0
LINE
  5
33A
  8
0
  6
CONTINUOUS
 62
     7
 10
328.7179396545
 20
147.8843083446
 30
0.0
 11
320.8537591909
 21
152.6719927006
 31
0.0
  0
POLYLINE
  5
33B
  8
0
  6
CONTINUOUS
 62
     7
 66
     1
 10
0.0
 20
0.0
 30
0.0
 70
   128
  0
VERTEX
  5
46A
  8
0
  6
CONTINUOUS
 62
     7
 10
328.7179396545
 20
145.8429567408
 30
0.0
  0
VERTEX
  5
46B
  8
0
  6
CONTINUOUS
 62
     7
 10
328.9669590406
 20
145.7405449951
 30
0.0
  0
VERTEX
  5
46C
  8
0
  6
CONTINUOUS
 62
     7
 10
329.1958032571
 20
145.7291207413
 30
0.0
  0
VERTEX
  5
46D
  8
0
  6
CONTINUOUS
 62
     7
 10
329.3859355933
 20
145.8096062024
 30
0.0
  0
VERTEX
  5
46E
  8
0
  6
CONTINUOUS
 62
     7
 10
329.5219487418
 20
145.9754839064
 30
0.0
  0
VERTEX
  5
46F
  8
0
  6
CONTINUOUS
 62
     7
 10
329.5928265701
 20
146.2133135391
 30
0.0
  0
VERTEX
  5
470
  8
0
  6
CONTINUOUS
 62
     7
 10
329.5928265701
 20
146.5038282344
 30
0.0
  0
VERTEX
  5
471
  8
0
  6
CONTINUOUS
 62
     7
 10
329.5219487418
 20
146.8234920461
 30
0.0
  0
VERTEX
  5
472
  8
0
  6
CONTINUOUS
 62
     7
 10
329.3859355933
 20
147.1464071887
 30
0.0
  0
VERTEX
  5
473
  8
0
  6
CONTINUOUS
 62
     7
 10
329.1958032571
 20
147.4464151527
 30
0.0
  0
VERTEX
  5
474
  8
0
  6
CONTINUOUS
 62
     7
 10
328.9669590406
 20
147.6992080468
 30
0.0
  0
VERTEX
  5
475
  8
0
  6
CONTINUOUS
 62
     7
 10
328.7179396545
 20
147.8843083446
 30
0.0
  0
SEQEND
  5
511
  8
0
  6
CONTINUOUS
 62
     7
  0
LINE
  5
33C
  8
0
  6
CONTINUOUS
 62
     7
 10
320.8537591909
 20
150.1350614991
 30
0.0
 11
328.7179396545
 21
145.8429567408
 31
0.0
  0
ARC
  5
33D
  8
0
  6
CONTINUOUS
 62
     7
 10
321.6869461393
 20
151.1556609856
 30
0.0
 40
1.317506661385532
 50
225.8984186571
 51
230.7728264111
  0
ARC
  5
33E
  8
0
  6
CONTINUOUS
 62
     7
 10
318.890428538
 20
148.4850269917
 30
0.0
 40
2.550873945275205
 50
42.535887851
 51
83.3480190032
  0
ARC
  5
33F
  8
0
  6
CONTINUOUS
 62
     7
 10
319.5181323908
 20
153.6513508643
 30
0.0
 40
2.653500779953615
 50
220.1893965313
 51
262.8077688259
  0
ARC
  5
340
  8
0
  6
CONTINUOUS
 62
     7
 10
315.4640297271
 20
150.2266522819
 30
0.0
 40
2.653504853018722
 50
40.1894308369
 51
82.8077345203
  0
ARC
  5
341
  8
0
  6
CONTINUOUS
 62
     7
 10
315.9734059545
 20
155.4917617707
 30
0.0
 40
2.638437887182961
 50
216.8472125252
 51
266.1499487584
  0
ARC
  5
342
  8
0
  6
CONTINUOUS
 62
     7
 10
311.5119852562
 20
151.7663002728
 30
0.0
 40
3.180591183572303
 50
42.3647445962
 51
68.9922846144
  0
LINE
  5
343
  8
0
  6
CONTINUOUS
 62
     7
 10
312.0368735828
 20
154.9471334789
 30
0.0
 11
312.6522070343
 21
154.7354844324
 31
0.0
  0
LINE
  5
344
  8
0
  6
CONTINUOUS
 62
     7
 10
310.3588613467
 20
155.8629573806
 30
0.0
 11
312.0368735828
 21
154.9471334789
 31
0.0
  0
ARC
  5
345
  8
0
  6
CONTINUOUS
 62
     7
 10
309.8385843945
 20
155.1688659572
 30
0.0
 40
0.8674393414402312
 50
53.1455116869
 51
189.5719001474
  0
LINE
  5
346
  8
0
  6
CONTINUOUS
 62
     7
 10
308.9832217971
 20
153.5057678653
 30
0.0
 11
308.9832217971
 21
155.0246236677
 31
0.0
  0
ARC
  5
347
  8
0
  6
CONTINUOUS
 62
     7
 10
312.0651111598
 20
153.6497324478
 30
0.0
 40
3.085250045823419
 50
182.6745188046
 51
236.4554780375
  0
LINE
  5
348
  8
0
  6
CONTINUOUS
 62
     7
 10
312.1300898994
 20
150.0028448285
 30
0.0
 11
310.3602489
 21
151.078310172
 31
0.0
  0
LINE
  5
349
  8
0
  6
CONTINUOUS
 62
     7
 10
312.6522070343
 20
149.5796076275
 30
0.0
 11
312.1300898994
 21
150.0028448285
 31
0.0
  0
ARC
  5
34A
  8
0
  6
CONTINUOUS
 62
     7
 10
314.2563922206
 20
151.4118474439
 30
0.0
 40
2.435264432581071
 50
228.7968050706
 51
260.6805654274
  0
ARC
  5
34B
  8
0
  6
CONTINUOUS
 62
     7
 10
313.4530909355
 20
146.1672959775
 30
0.0
 40
2.870706789743245
 50
35.2908795329
 51
81.8102387297
  0
ARC
  5
34C
  8
0
  6
CONTINUOUS
 62
     7
 10
318.0599520525
 20
149.6232682205
 30
0.0
 40
2.890556305981053
 50
218.4511794536
 51
258.6499349702
  0
ARC
  5
34D
  8
0
  6
CONTINUOUS
 62
     7
 10
316.922217228
 20
143.9552234249
 30
0.0
 40
2.890548461797534
 50
38.4511454533
 51
78.6500063906
  0
ARC
  5
34E
  8
0
  6
CONTINUOUS
 62
     7
 10
321.5271049077
 20
147.6491042015
 30
0.0
 40
3.012888548314754
 50
219.0080607768
 51
255.4472027753
  0
ARC
  5
34F
  8
0
  6
CONTINUOUS
 62
     7
 10
320.661724897
 20
144.1574228426
 30
0.0
 40
0.5855637572266297
 50
73.9646531657
 51
79.3392569746
  0
LINE
  5
350
  8
0
  6
CONTINUOUS
 62
     7
 10
328.7179396545
 20
139.9230352645
 30
0.0
 11
320.8234753631
 21
144.7202031732
 31
0.0
  0
POLYLINE
  5
351
  8
0
  6
CONTINUOUS
 62
     7
 66
     1
 10
0.0
 20
0.0
 30
0.0
 70
   128
  0
VERTEX
  5
476
  8
0
  6
CONTINUOUS
 62
     7
 10
328.7179396545
 20
137.8816836606
 30
0.0
  0
VERTEX
  5
477
  8
0
  6
CONTINUOUS
 62
     7
 10
328.9669590406
 20
137.7792726755
 30
0.0
  0
VERTEX
  5
478
  8
0
  6
CONTINUOUS
 62
     7
 10
329.1958032571
 20
137.7678476612
 30
0.0
  0
VERTEX
  5
479
  8
0
  6
CONTINUOUS
 62
     7
 10
329.3859355933
 20
137.8483331223
 30
0.0
  0
VERTEX
  5
47A
  8
0
  6
CONTINUOUS
 62
     7
 10
329.5219487418
 20
138.014210446
 30
0.0
  0
VERTEX
  5
47B
  8
0
  6
CONTINUOUS
 62
     7
 10
329.5928265701
 20
138.2520412194
 30
0.0
  0
VERTEX
  5
47C
  8
0
  6
CONTINUOUS
 62
     7
 10
329.5928265701
 20
138.5425547741
 30
0.0
  0
VERTEX
  5
47D
  8
0
  6
CONTINUOUS
 62
     7
 10
329.5219487418
 20
138.8622193462
 30
0.0
  0
VERTEX
  5
47E
  8
0
  6
CONTINUOUS
 62
     7
 10
329.3859355933
 20
139.1851341085
 30
0.0
  0
VERTEX
  5
47F
  8
0
  6
CONTINUOUS
 62
     7
 10
329.1958032571
 20
139.4851416923
 30
0.0
  0
VERTEX
  5
480
  8
0
  6
CONTINUOUS
 62
     7
 10
328.9669590406
 20
139.7379345864
 30
0.0
  0
VERTEX
  5
481
  8
0
  6
CONTINUOUS
 62
     7
 10
328.7179396545
 20
139.9230352645
 30
0.0
  0
SEQEND
  5
512
  8
0
  6
CONTINUOUS
 62
     7
  0
LINE
  5
352
  8
0
  6
CONTINUOUS
 62
     7
 10
320.8234753631
 20
142.1992702098
 30
0.0
 11
328.7179396545
 21
137.8816836606
 31
0.0
  0
ARC
  5
353
  8
0
  6
CONTINUOUS
 62
     7
 10
321.7069342397
 20
143.215987483
 30
0.0
 40
1.346927466567565
 50
225.927247798
 51
229.0115562967
  0
ARC
  5
354
  8
0
  6
CONTINUOUS
 62
     7
 10
318.8904308273
 20
140.5237567725
 30
0.0
 40
2.550870838343881
 50
42.535887848
 51
83.3480626328
  0
ARC
  5
355
  8
0
  6
CONTINUOUS
 62
     7
 10
319.518132874
 20
145.690078674
 30
0.0
 40
2.653501723275396
 50
220.1894044765
 51
262.8077608807
  0
ARC
  5
356
  8
0
  6
CONTINUOUS
 62
     7
 10
315.4640313302
 20
142.265382154
 30
0.0
 40
2.653501723275258
 50
40.1894044765
 51
82.8077608807
  0
ARC
  5
357
  8
0
  6
CONTINUOUS
 62
     7
 10
315.97340343
 20
147.5304828955
 30
0.0
 40
2.638431935753615
 50
216.8471314816
 51
266.1499950074
  0
ARC
  5
358
  8
0
  6
CONTINUOUS
 62
     7
 10
311.5119962713
 20
143.8050386201
 30
0.0
 40
3.180575856856513
 50
42.3647363268
 51
68.9923911447
  0
LINE
  5
359
  8
0
  6
CONTINUOUS
 62
     7
 10
312.1300898994
 20
146.9537977638
 30
0.0
 11
312.6522070343
 21
146.7742105918
 31
0.0
  0
LINE
  5
35A
  8
0
  6
CONTINUOUS
 62
     7
 10
309.0585415081
 20
148.6336682778
 30
0.0
 11
312.1300898994
 21
146.9537977638
 31
0.0
  0
ARC
  5
35B
  8
0
  6
CONTINUOUS
 62
     7
 10
308.5371102789
 20
147.9401866589
 30
0.0
 40
0.8676446753296978
 50
53.0603675344
 51
189.5596604913
  0
LINE
  5
35C
  8
0
  6
CONTINUOUS
 62
     7
 10
307.6815144052
 20
146.3106686637
 30
0.0
 11
307.6815144052
 21
147.7960929965
 31
0.0
  0
ARC
  5
35D
  8
0
  6
CONTINUOUS
 62
     7
 10
310.762951323
 20
146.4544668314
 30
0.0
 40
3.084790331901618
 50
182.6718233711
 51
236.4943201923
  0
LINE
  5
35E
  8
0
  6
CONTINUOUS
 62
     7
 10
312.2326628163
 20
141.9584251362
 30
0.0
 11
309.0600864535
 21
143.8822727042
 31
0.0
  0
LINE
  5
35F
  8
0
  6
CONTINUOUS
 62
     7
 10
312.6522070343
 20
141.6183345473
 30
0.0
 11
312.2326628163
 21
141.9584251362
 31
0.0
  0
ARC
  5
360
  8
0
  6
CONTINUOUS
 62
     7
 10
314.2563948021
 20
143.4505798345
 30
0.0
 40
2.435270249219891
 50
228.7968441617
 51
260.6805263362
  0
ARC
  5
361
  8
0
  6
CONTINUOUS
 62
     7
 10
313.4530930548
 20
138.2060252963
 30
0.0
 40
2.870704113313854
 50
35.2908772761
 51
81.8102737754
  0
ARC
  5
362
  8
0
  6
CONTINUOUS
 62
     7
 10
318.0599501412
 20
141.6619927757
 30
0.0
 40
2.890552865845797
 50
218.4511545007
 51
258.6499599231
  0
ARC
  5
363
  8
0
  6
CONTINUOUS
 62
     7
 10
316.9222102403
 20
135.9939409984
 30
0.0
 40
2.890559746141075
 50
38.4512044067
 51
78.6499100171
  0
ARC
  5
364
  8
0
  6
CONTINUOUS
 62
     7
 10
321.5271080488
 20
139.6878360006
 30
0.0
 40
3.012894060210959
 50
219.0080952792
 51
255.4471682729
  0
ARC
  5
365
  8
0
  6
CONTINUOUS
 62
     7
 10
320.6660440027
 20
136.2165134393
 30
0.0
 40
0.5647527580452364
 50
76.833550929
 51
79.3876918673
  0
LINE
  5
366
  8
0
  6
CONTINUOUS
 62
     7
 10
328.7179396545
 20
131.9617629448
 30
0.0
 11
320.7946837973
 21
136.7664202323
 31
0.0
  0
POLYLINE
  5
367
  8
0
  6
CONTINUOUS
 62
     7
 66
     1
 10
0.0
 20
0.0
 30
0.0
 70
   128
  0
VERTEX
  5
482
  8
0
  6
CONTINUOUS
 62
     7
 10
328.7179396545
 20
129.920411341
 30
0.0
  0
VERTEX
  5
483
  8
0
  6
CONTINUOUS
 62
     7
 10
328.9669590406
 20
129.8179988348
 30
0.0
  0
VERTEX
  5
484
  8
0
  6
CONTINUOUS
 62
     7
 10
329.1958032571
 20
129.8065738206
 30
0.0
  0
VERTEX
  5
485
  8
0
  6
CONTINUOUS
 62
     7
 10
329.3859355933
 20
129.8870608026
 30
0.0
  0
VERTEX
  5
486
  8
0
  6
CONTINUOUS
 62
     7
 10
329.5219487418
 20
130.0529381263
 30
0.0
  0
VERTEX
  5
487
  8
0
  6
CONTINUOUS
 62
     7
 10
329.5928265701
 20
130.2907673788
 30
0.0
  0
VERTEX
  5
488
  8
0
  6
CONTINUOUS
 62
     7
 10
329.5928265701
 20
130.5812824544
 30
0.0
  0
VERTEX
  5
489
  8
0
  6
CONTINUOUS
 62
     7
 10
329.5219487418
 20
130.9009455056
 30
0.0
  0
VERTEX
  5
48A
  8
0
  6
CONTINUOUS
 62
     7
 10
329.3859355933
 20
131.2238617888
 30
0.0
  0
VERTEX
  5
48B
  8
0
  6
CONTINUOUS
 62
     7
 10
329.1958032571
 20
131.5238693726
 30
0.0
  0
VERTEX
  5
48C
  8
0
  6
CONTINUOUS
 62
     7
 10
328.9669590406
 20
131.7766622667
 30
0.0
  0
VERTEX
  5
48D
  8
0
  6
CONTINUOUS
 62
     7
 10
328.7179396545
 20
131.9617629448
 30
0.0
  0
SEQEND
  5
513
  8
0
  6
CONTINUOUS
 62
     7
  0
LINE
  5
368
  8
0
  6
CONTINUOUS
 62
     7
 10
275.3313801195
 20
160.7398161511
 30
0.0
 11
328.7179396545
 21
129.920411341
 31
0.0
  0
POLYLINE
  5
369
  8
0
  6
CONTINUOUS
 62
     7
 66
     1
 10
0.0
 20
0.0
 30
0.0
 70
   128
  0
VERTEX
  5
48E
  8
0
  6
CONTINUOUS
 62
     7
 10
275.3313801195
 20
162.7811677549
 30
0.0
  0
VERTEX
  5
48F
  8
0
  6
CONTINUOUS
 62
     7
 10
275.0823607334
 20
162.8835787401
 30
0.0
  0
VERTEX
  5
490
  8
0
  6
CONTINUOUS
 62
     7
 10
274.8535165169
 20
162.8950037544
 30
0.0
  0
VERTEX
  5
491
  8
0
  6
CONTINUOUS
 62
     7
 10
274.6633841807
 20
162.8145182933
 30
0.0
  0
VERTEX
  5
492
  8
0
  6
CONTINUOUS
 62
     7
 10
274.5273710322
 20
162.6486394486
 30
0.0
  0
VERTEX
  5
493
  8
0
  6
CONTINUOUS
 62
     7
 10
274.4564932039
 20
162.4108101961
 30
0.0
  0
VERTEX
  5
494
  8
0
  6
CONTINUOUS
 62
     7
 10
274.4564932039
 20
162.1202951206
 30
0.0
  0
VERTEX
  5
495
  8
0
  6
CONTINUOUS
 62
     7
 10
274.5273710322
 20
161.8006320694
 30
0.0
  0
VERTEX
  5
496
  8
0
  6
CONTINUOUS
 62
     7
 10
274.6633841807
 20
161.477717307
 30
0.0
  0
VERTEX
  5
497
  8
0
  6
CONTINUOUS
 62
     7
 10
274.8535165169
 20
161.1777082024
 30
0.0
  0
VERTEX
  5
498
  8
0
  6
CONTINUOUS
 62
     7
 10
275.0823607334
 20
160.9249153083
 30
0.0
  0
VERTEX
  5
499
  8
0
  6
CONTINUOUS
 62
     7
 10
275.3313801195
 20
160.7398161511
 30
0.0
  0
SEQEND
  5
514
  8
0
  6
CONTINUOUS
 62
     7
  0
LINE
  5
36A
  8
0
  6
CONTINUOUS
 62
     7
 10
283.2546359767
 20
158.4378285502
 30
0.0
 11
275.3313801195
 21
162.7811677549
 31
0.0
  0
ARC
  5
36B
  8
0
  6
CONTINUOUS
 62
     7
 10
282.3223242481
 20
157.4255734507
 30
0.0
 40
1.37617787576236
 50
45.9437294996
 51
47.3541694743
  0
ARC
  5
36C
  8
0
  6
CONTINUOUS
 62
     7
 10
285.1588889467
 20
160.139094643
 30
0.0
 40
2.550870838344256
 50
222.535887848
 51
263.3480626328
  0
ARC
  5
36D
  8
0
  6
CONTINUOUS
 62
     7
 10
284.5311836939
 20
154.972766837
 30
0.0
 40
2.653507982785303
 50
40.1894571974
 51
82.8077081598
  0
ARC
  5
36E
  8
0
  6
CONTINUOUS
 62
     7
 10
288.5852884438
 20
158.3974692616
 30
0.0
 40
2.653501723275119
 50
220.1894044765
 51
262.8077608807
  0
ARC
  5
36F
  8
0
  6
CONTINUOUS
 62
     7
 10
288.0759132056
 20
153.1323627402
 30
0.0
 40
2.638437913308174
 50
36.8471910531
 51
86.149935436
  0
ARC
  5
370
  8
0
  6
CONTINUOUS
 62
     7
 10
292.5373449567
 20
156.8578387529
 30
0.0
 40
3.180609199958154
 50
222.3648213986
 51
248.9922078119
  0
LINE
  5
371
  8
0
  6
CONTINUOUS
 62
     7
 10
291.8166569577
 20
153.7443344482
 30
0.0
 11
291.3971127397
 21
153.8886393029
 31
0.0
  0
LINE
  5
372
  8
0
  6
CONTINUOUS
 62
     7
 10
294.9892333205
 20
152.0052033164
 30
0.0
 11
291.8166569577
 21
153.7443344482
 31
0.0
  0
ARC
  5
373
  8
0
  6
CONTINUOUS
 62
     7
 10
295.5119485235
 20
152.6980056589
 30
0.0
 40
0.8678745699756987
 50
232.9656660888
 51
9.5460279359
  0
LINE
  5
374
  8
0
  6
CONTINUOUS
 62
     7
 10
296.3678053688
 20
154.3273582013
 30
0.0
 11
296.3678053688
 21
152.8419338685
 31
0.0
  0
ARC
  5
375
  8
0
  6
CONTINUOUS
 62
     7
 10
293.2859169237
 20
154.1833933337
 30
0.0
 40
3.085249142497322
 50
2.6745248871
 51
56.4554873615
  0
LINE
  5
376
  8
0
  6
CONTINUOUS
 62
     7
 10
291.9192298746
 20
158.6212789068
 30
0.0
 11
294.9907782659
 21
156.754815134
 31
0.0
  0
LINE
  5
377
  8
0
  6
CONTINUOUS
 62
     7
 10
291.3971127397
 20
159.0445153473
 30
0.0
 11
291.9192298746
 21
158.6212789068
 31
0.0
  0
ARC
  5
378
  8
0
  6
CONTINUOUS
 62
     7
 10
289.7929306678
 20
157.2122885334
 30
0.0
 40
2.435252598250838
 50
48.796658684
 51
80.6805939905
  0
ARC
  5
379
  8
0
  6
CONTINUOUS
 62
     7
 10
290.5962229776
 20
162.4568200013
 30
0.0
 40
2.870697524796474
 50
215.2908207533
 51
261.8103302982
  0
ARC
  5
37A
  8
0
  6
CONTINUOUS
 62
     7
 10
285.9893696328
 20
159.0008586398
 30
0.0
 40
2.890552865846204
 50
38.4511545007
 51
78.6499599231
  0
ARC
  5
37B
  8
0
  6
CONTINUOUS
 62
     7
 10
287.1271057111
 20
164.6689041669
 30
0.0
 40
2.890552865845863
 50
218.4511545007
 51
258.6499599231
  0
ARC
  5
37C
  8
0
  6
CONTINUOUS
 62
     7
 10
282.5222117252
 20
160.975015415
 30
0.0
 40
3.012894060210447
 50
39.0080952792
 51
75.4471682729
  0
ARC
  5
37D
  8
0
  6
CONTINUOUS
 62
     7
 10
283.3875426023
 20
164.4665150909
 30
0.0
 40
0.5853707449132663
 50
253.9645471346
 51
259.340907192
  0
LINE
  5
37E
  8
0
  6
CONTINUOUS
 62
     7
 10
275.3313801195
 20
168.7010884708
 30
0.0
 11
283.2258444109
 21
163.9039205621
 31
0.0
  0
POLYLINE
  5
37F
  8
0
  6
CONTINUOUS
 62
     7
 66
     1
 10
0.0
 20
0.0
 30
0.0
 70
   128
  0
VERTEX
  5
49A
  8
0
  6
CONTINUOUS
 62
     7
 10
275.3313801195
 20
170.7424400746
 30
0.0
  0
VERTEX
  5
49B
  8
0
  6
CONTINUOUS
 62
     7
 10
275.0823607334
 20
170.8448510598
 30
0.0
  0
VERTEX
  5
49C
  8
0
  6
CONTINUOUS
 62
     7
 10
274.8535165169
 20
170.8562760741
 30
0.0
  0
VERTEX
  5
49D
  8
0
  6
CONTINUOUS
 62
     7
 10
274.6633841807
 20
170.775790613
 30
0.0
  0
VERTEX
  5
49E
  8
0
  6
CONTINUOUS
 62
     7
 10
274.5273710322
 20
170.6099132892
 30
0.0
  0
VERTEX
  5
49F
  8
0
  6
CONTINUOUS
 62
     7
 10
274.4564932039
 20
170.3720825158
 30
0.0
  0
VERTEX
  5
4A0
  8
0
  6
CONTINUOUS
 62
     7
 10
274.4564932039
 20
170.0815689612
 30
0.0
  0
VERTEX
  5
4A1
  8
0
  6
CONTINUOUS
 62
     7
 10
274.5273710322
 20
169.7619043891
 30
0.0
  0
VERTEX
  5
4A2
  8
0
  6
CONTINUOUS
 62
     7
 10
274.6633841807
 20
169.4389896267
 30
0.0
  0
VERTEX
  5
4A3
  8
0
  6
CONTINUOUS
 62
     7
 10
274.8535165169
 20
169.138982043
 30
0.0
  0
VERTEX
  5
4A4
  8
0
  6
CONTINUOUS
 62
     7
 10
275.0823607334
 20
168.8861891489
 30
0.0
  0
VERTEX
  5
4A5
  8
0
  6
CONTINUOUS
 62
     7
 10
275.3313801195
 20
168.7010884708
 30
0.0
  0
SEQEND
  5
515
  8
0
  6
CONTINUOUS
 62
     7
  0
LINE
  5
380
  8
0
  6
CONTINUOUS
 62
     7
 10
283.2258444109
 20
166.4248535255
 30
0.0
 11
275.3313801195
 21
170.7424400746
 31
0.0
  0
ARC
  5
381
  8
0
  6
CONTINUOUS
 62
     7
 10
282.3421207028
 20
165.4078325282
 30
0.0
 40
1.347330435024856
 50
45.9281629704
 51
49.0115269026
  0
ARC
  5
382
  8
0
  6
CONTINUOUS
 62
     7
 10
285.1588867179
 20
168.1003633599
 30
0.0
 40
2.550866246204818
 50
222.5358494761
 51
263.3481010047
  0
ARC
  5
383
  8
0
  6
CONTINUOUS
 62
     7
 10
284.5311867542
 20
162.9340469681
 30
0.0
 40
2.65350060413994
 50
40.1893709908
 51
82.8077546575
  0
ARC
  5
384
  8
0
  6
CONTINUOUS
 62
     7
 10
288.5852900469
 20
166.3587445335
 30
0.0
 40
2.653504853018559
 50
220.1894308369
 51
262.8077345203
  0
ARC
  5
385
  8
0
  6
CONTINUOUS
 62
     7
 10
288.0759138195
 20
161.0936350447
 30
0.0
 40
2.638437887182636
 50
36.8472125251
 51
86.1499487584
  0
ARC
  5
386
  8
0
  6
CONTINUOUS
 62
     7
 10
292.5373404954
 20
164.8191052983
 30
0.0
 40
3.180601500206746
 50
222.3647885753
 51
248.9922406352
  0
LINE
  5
387
  8
0
  6
CONTINUOUS
 62
     7
 10
291.9192298746
 20
161.6703259714
 30
0.0
 11
291.3971127397
 21
161.849912383
 31
0.0
  0
LINE
  5
388
  8
0
  6
CONTINUOUS
 62
     7
 10
293.689070874
 20
160.7023763924
 30
0.0
 11
291.9192298746
 21
161.6703259714
 31
0.0
  0
ARC
  5
389
  8
0
  6
CONTINUOUS
 62
     7
 10
294.2105019286
 20
161.3958584293
 30
0.0
 40
0.867644904408143
 50
233.0603933353
 51
9.5596808835
  0
LINE
  5
38A
  8
0
  6
CONTINUOUS
 62
     7
 10
295.0660979769
 20
163.0588082366
 30
0.0
 11
295.0660979769
 21
161.5399524342
 31
0.0
  0
ARC
  5
38B
  8
0
  6
CONTINUOUS
 62
     7
 10
291.9838042838
 20
162.9146950839
 30
0.0
 40
3.085660871096805
 50
2.6769241817
 51
56.4206076537
  0
LINE
  5
38C
  8
0
  6
CONTINUOUS
 62
     7
 10
292.0124461912
 20
166.5069893536
 30
0.0
 11
293.6904584273
 21
165.485421566
 31
0.0
  0
LINE
  5
38D
  8
0
  6
CONTINUOUS
 62
     7
 10
291.3971127397
 20
167.0057891879
 30
0.0
 11
292.0124461912
 21
166.5069893536
 31
0.0
  0
ARC
  5
38E
  8
0
  6
CONTINUOUS
 62
     7
 10
289.7929310089
 20
165.1735566945
 30
0.0
 40
2.435256646667414
 50
48.7967527444
 51
80.6806177535
  0
ARC
  5
38F
  8
0
  6
CONTINUOUS
 62
     7
 10
290.5962288385
 20
170.4181008379
 30
0.0
 40
2.870706789743366
 50
215.2908795329
 51
261.8102387297
  0
ARC
  5
390
  8
0
  6
CONTINUOUS
 62
     7
 10
285.9893677215
 20
166.9621285949
 30
0.0
 40
2.89055630598099
 50
38.4511794536
 51
78.6499349702
  0
ARC
  5
391
  8
0
  6
CONTINUOUS
 62
     7
 10
287.1271051336
 20
172.6301763028
 30
0.0
 40
2.890551826398189
 50
218.4511469611
 51
258.6499674628
  0
ARC
  5
392
  8
0
  6
CONTINUOUS
 62
     7
 10
282.52221241
 20
168.9362873843
 30
0.0
 40
3.012894227313357
 50
39.0081198915
 51
75.447182552
  0
ARC
  5
393
  8
0
  6
CONTINUOUS
 62
     7
 10
283.3927427158
 20
172.4503534295
 30
0.0
 40
0.6085099492139354
 50
251.0925195682
 51
259.2527322283
  0
LINE
  5
394
  8
0
  6
CONTINUOUS
 62
     7
 10
275.3313801195
 20
176.6623615509
 30
0.0
 11
283.1955605831
 21
171.8746768147
 31
0.0
  0
POLYLINE
  5
395
  8
0
  6
CONTINUOUS
 62
     7
 66
     1
 10
0.0
 20
0.0
 30
0.0
 70
   128
  0
VERTEX
  5
4A6
  8
0
  6
CONTINUOUS
 62
     7
 10
275.3313801195
 20
178.7037131548
 30
0.0
  0
VERTEX
  5
4A7
  8
0
  6
CONTINUOUS
 62
     7
 10
275.0823607334
 20
178.8061245202
 30
0.0
  0
VERTEX
  5
4A8
  8
0
  6
CONTINUOUS
 62
     7
 10
274.8535165169
 20
178.8175495344
 30
0.0
  0
VERTEX
  5
4A9
  8
0
  6
CONTINUOUS
 62
     7
 10
274.6633841807
 20
178.7370636931
 30
0.0
  0
VERTEX
  5
4AA
  8
0
  6
CONTINUOUS
 62
     7
 10
274.5273710322
 20
178.5711859892
 30
0.0
  0
VERTEX
  5
4AB
  8
0
  6
CONTINUOUS
 62
     7
 10
274.4564932039
 20
178.3333559762
 30
0.0
  0
VERTEX
  5
4AC
  8
0
  6
CONTINUOUS
 62
     7
 10
274.4564932039
 20
178.0428412809
 30
0.0
  0
VERTEX
  5
4AD
  8
0
  6
CONTINUOUS
 62
     7
 10
274.5273710322
 20
177.7231778495
 30
0.0
  0
VERTEX
  5
4AE
  8
0
  6
CONTINUOUS
 62
     7
 10
274.6633841807
 20
177.4002627069
 30
0.0
  0
VERTEX
  5
4AF
  8
0
  6
CONTINUOUS
 62
     7
 10
274.8535165169
 20
177.1002551231
 30
0.0
  0
VERTEX
  5
4B0
  8
0
  6
CONTINUOUS
 62
     7
 10
275.0823607334
 20
176.8474614686
 30
0.0
  0
VERTEX
  5
4B1
  8
0
  6
CONTINUOUS
 62
     7
 10
275.3313801195
 20
176.6623615509
 30
0.0
  0
SEQEND
  5
516
  8
0
  6
CONTINUOUS
 62
     7
  0
LINE
  5
396
  8
0
  6
CONTINUOUS
 62
     7
 10
283.1955605831
 20
174.4116080162
 30
0.0
 11
275.3313801195
 21
178.7037131548
 31
0.0
  0
ARC
  5
397
  8
0
  6
CONTINUOUS
 62
     7
 10
282.3624155974
 20
173.3910508573
 30
0.0
 40
1.317447335492011
 50
45.8984595876
 51
50.7730759706
  0
ARC
  5
398
  8
0
  6
CONTINUOUS
 62
     7
 10
285.1588878872
 20
176.0616375384
 30
0.0
 40
2.550867850318329
 50
222.5358499009
 51
263.3480787666
  0
ARC
  5
399
  8
0
  6
CONTINUOUS
 62
     7
 10
284.5311860256
 20
170.8953176187
 30
0.0
 40
2.65350272857621
 50
40.1894009138
 51
82.8077445889
  0
ARC
  5
39A
  8
0
  6
CONTINUOUS
 62
     7
 10
288.5852900469
 20
174.3200176137
 30
0.0
 40
2.653504853018541
 50
220.1894308369
 51
262.8077345203
  0
ARC
  5
39B
  8
0
  6
CONTINUOUS
 62
     7
 10
288.0759146041
 20
169.0549095698
 30
0.0
 40
2.638436392794298
 50
36.8471976323
 51
86.1499636512
  0
ARC
  5
39C
  8
0
  6
CONTINUOUS
 62
     7
 10
292.5373375066
 20
172.7803740006
 30
0.0
 40
3.180596341863836
 50
222.3647665857
 51
248.9922626249
  0
LINE
  5
39D
  8
0
  6
CONTINUOUS
 62
     7
 10
292.0124461912
 20
169.5995360364
 30
0.0
 11
291.3971127397
 21
169.8111854632
 31
0.0
  0
LINE
  5
39E
  8
0
  6
CONTINUOUS
 62
     7
 10
292.9661042496
 20
169.0790495082
 30
0.0
 11
292.0124461912
 21
169.5995360364
 31
0.0
  0
ARC
  5
39F
  8
0
  6
CONTINUOUS
 62
     7
 10
293.4863809799
 20
169.7731413939
 30
0.0
 40
0.8674395782198431
 50
233.1455417269
 51
9.5719047515
  0
LINE
  5
3A0
  8
0
  6
CONTINUOUS
 62
     7
 10
294.3417437992
 20
171.4257203959
 30
0.0
 11
294.3417437992
 21
169.9173837915
 31
0.0
  0
ARC
  5
3A1
  8
0
  6
CONTINUOUS
 62
     7
 10
291.2588261652
 20
171.2813788171
 30
0.0
 40
3.08629480591122
 50
2.6806192047
 51
56.3667644032
  0
LINE
  5
3A2
  8
0
  6
CONTINUOUS
 62
     7
 10
292.1807504111
 20
174.3318321245
 30
0.0
 11
292.9682464948
 21
173.851028164
 31
0.0
  0
LINE
  5
3A3
  8
0
  6
CONTINUOUS
 62
     7
 10
291.3971127397
 20
174.9670618878
 30
0.0
 11
292.1807504111
 21
174.3318321245
 31
0.0
  0
ARC
  5
3A4
  8
0
  6
CONTINUOUS
 62
     7
 10
289.7929288569
 20
173.1348260344
 30
0.0
 40
2.435260592266136
 50
48.7967667265
 51
80.6805816796
  0
ARC
  5
3A5
  8
0
  6
CONTINUOUS
 62
     7
 10
290.5962275506
 20
178.3793718505
 30
0.0
 40
2.870704653940723
 50
215.290863798
 51
261.8102585633
  0
ARC
  5
3A6
  8
0
  6
CONTINUOUS
 62
     7
 10
285.9893688289
 20
174.9234029057
 30
0.0
 40
2.890554555218007
 50
38.4511710478
 51
78.6499503923
  0
ARC
  5
3A7
  8
0
  6
CONTINUOUS
 62
     7
 10
287.1271063533
 20
180.5914513742
 30
0.0
 40
2.890554344931142
 50
218.4511709535
 51
258.6499528253
  0
ARC
  5
3A8
  8
0
  6
CONTINUOUS
 62
     7
 10
282.5222147046
 20
176.8975641856
 30
0.0
 40
3.012889772910245
 50
39.0080846442
 51
75.4472056457
  0
ARC
  5
3A9
  8
0
  6
CONTINUOUS
 62
     7
 10
283.4126866788
 20
180.4859901149
 30
0.0
 40
0.685312468150989
 50
242.7500716016
 51
258.7739220079
  0
LINE
  5
3AA
  8
0
  6
CONTINUOUS
 62
     7
 10
275.3313801195
 20
184.619177558
 30
0.0
 11
283.0989007373
 21
179.8767351913
 31
0.0
  0
POLYLINE
  5
3AB
  8
0
  6
CONTINUOUS
 62
     7
 66
     1
 10
0.0
 20
0.0
 30
0.0
 70
   128
  0
VERTEX
  5
4B2
  8
0
  6
CONTINUOUS
 62
     7
 10
275.3313801195
 20
186.6694429277
 30
0.0
  0
VERTEX
  5
4B3
  8
0
  6
CONTINUOUS
 62
     7
 10
275.0812728179
 20
186.7723017234
 30
0.0
  0
VERTEX
  5
4B4
  8
0
  6
CONTINUOUS
 62
     7
 10
274.8514276137
 20
186.7837774047
 30
0.0
  0
VERTEX
  5
4B5
  8
0
  6
CONTINUOUS
 62
     7
 10
274.6604681456
 20
186.702938631
 30
0.0
  0
VERTEX
  5
4B6
  8
0
  6
CONTINUOUS
 62
     7
 10
274.5238596729
 20
186.5363372907
 30
0.0
  0
VERTEX
  5
4B7
  8
0
  6
CONTINUOUS
 62
     7
 10
274.4526710116
 20
186.2974697871
 30
0.0
  0
VERTEX
  5
4B8
  8
0
  6
CONTINUOUS
 62
     7
 10
274.4526710116
 20
186.0056866396
 30
0.0
  0
VERTEX
  5
4B9
  8
0
  6
CONTINUOUS
 62
     7
 10
274.5238596729
 20
185.6846262671
 30
0.0
  0
VERTEX
  5
4BA
  8
0
  6
CONTINUOUS
 62
     7
 10
274.6604681456
 20
185.3603003315
 30
0.0
  0
VERTEX
  5
4BB
  8
0
  6
CONTINUOUS
 62
     7
 10
274.8514276137
 20
185.0589843539
 30
0.0
  0
VERTEX
  5
4BC
  8
0
  6
CONTINUOUS
 62
     7
 10
275.0812728179
 20
184.8050865061
 30
0.0
  0
VERTEX
  5
4BD
  8
0
  6
CONTINUOUS
 62
     7
 10
275.3313801195
 20
184.619177558
 30
0.0
  0
SEQEND
  5
517
  8
0
  6
CONTINUOUS
 62
     7
  0
LINE
  5
3AC
  8
0
  6
CONTINUOUS
 62
     7
 10
283.0790798647
 20
182.4562963678
 30
0.0
 11
275.3313801195
 21
186.6694429277
 31
0.0
  0
ARC
  5
3AD
  8
0
  6
CONTINUOUS
 62
     7
 10
282.4416759316
 20
181.4423457245
 30
0.0
 40
1.197655910933941
 50
45.6242589733
 51
57.8451317488
  0
ARC
  5
3AE
  8
0
  6
CONTINUOUS
 62
     7
 10
285.1588890564
 20
184.0229117169
 30
0.0
 40
2.550869454435885
 50
222.5358503256
 51
263.3480565285
  0
ARC
  5
3AF
  8
0
  6
CONTINUOUS
 62
     7
 10
284.531185297
 20
178.8565882692
 30
0.0
 40
2.653504853018969
 50
40.1894308369
 51
82.8077345203
  0
ARC
  5
3B0
  8
0
  6
CONTINUOUS
 62
     7
 10
288.5852893183
 20
182.2812882642
 30
0.0
 40
2.65350272857559
 50
220.1894009138
 51
262.8077445889
  0
ARC
  5
3B1
  8
0
  6
CONTINUOUS
 62
     7
 10
288.0759154
 20
177.0161837355
 30
0.0
 40
2.63843487685451
 50
36.8471825247
 51
86.1499787589
  0
ARC
  5
3B2
  8
0
  6
CONTINUOUS
 62
     7
 10
292.5549442081
 20
180.7466448387
 30
0.0
 40
3.196983831695206
 50
222.2183223735
 51
248.7856536619
  0
LINE
  5
3B3
  8
0
  6
CONTINUOUS
 62
     7
 10
292.347974618
 20
177.439589355
 30
0.0
 11
291.3980900197
 21
177.7663102926
 31
0.0
  0
POLYLINE
  5
3B4
  8
0
  6
CONTINUOUS
 62
     7
 66
     1
 10
0.0
 20
0.0
 30
0.0
 70
   128
  0
VERTEX
  5
4BE
  8
0
  6
CONTINUOUS
 62
     7
 10
293.4820962621
 20
178.3856066659
 30
0.0
  0
VERTEX
  5
4BF
  8
0
  6
CONTINUOUS
 62
     7
 10
293.461366598
 20
178.1189871916
 30
0.0
  0
VERTEX
  5
4C0
  8
0
  6
CONTINUOUS
 62
     7
 10
293.3997867596
 20
177.884116632
 30
0.0
  0
VERTEX
  5
4C1
  8
0
  6
CONTINUOUS
 62
     7
 10
293.2991611588
 20
177.6878815281
 30
0.0
  0
VERTEX
  5
4C2
  8
0
  6
CONTINUOUS
 62
     7
 10
293.1624394164
 20
177.536034298
 30
0.0
  0
VERTEX
  5
4C3
  8
0
  6
CONTINUOUS
 62
     7
 10
292.9936307514
 20
177.4330259269
 30
0.0
  0
VERTEX
  5
4C4
  8
0
  6
CONTINUOUS
 62
     7
 10
292.7976828087
 20
177.3818770575
 30
0.0
  0
VERTEX
  5
4C5
  8
0
  6
CONTINUOUS
 62
     7
 10
292.580340072
 20
177.3840863408
 30
0.0
  0
VERTEX
  5
4C6
  8
0
  6
CONTINUOUS
 62
     7
 10
292.347974618
 20
177.439589355
 30
0.0
  0
SEQEND
  5
518
  8
0
  6
CONTINUOUS
 62
     7
  0
LINE
  5
3B5
  8
0
  6
CONTINUOUS
 62
     7
 10
293.4820962621
 20
179.9021038927
 30
0.0
 11
293.4820962621
 21
178.3856066659
 31
0.0
  0
ARC
  5
3B6
  8
0
  6
CONTINUOUS
 62
     7
 10
290.3547942196
 20
179.7424432516
 30
0.0
 40
3.13137503105017
 50
2.9226295431
 51
50.4672463893
  0
LINE
  5
3B7
  8
0
  6
CONTINUOUS
 62
     7
 10
291.3971127397
 20
182.9283345877
 30
0.0
 11
292.347974618
 21
182.1575501819
 31
0.0
  0
ARC
  5
3B8
  8
0
  6
CONTINUOUS
 62
     7
 10
289.7929244552
 20
181.0960914069
 30
0.0
 40
2.435269004787469
 50
48.7968023722
 51
80.680509214
  0
ARC
  5
3B9
  8
0
  6
CONTINUOUS
 62
     7
 10
290.5962250698
 20
186.3406408361
 30
0.0
 40
2.870700153604937
 50
215.2908226016
 51
261.810295661
  0
ARC
  5
3BA
  8
0
  6
CONTINUOUS
 62
     7
 10
285.9893727979
 20
182.8846809764
 30
0.0
 40
2.890548461797708
 50
38.4511454533
 51
78.6500063906
  0
ARC
  5
3BB
  8
0
  6
CONTINUOUS
 62
     7
 10
287.1271076224
 20
188.552725772
 30
0.0
 40
2.890556305980966
 50
218.4511794536
 51
258.6499349702
  0
ARC
  5
3BC
  8
0
  6
CONTINUOUS
 62
     7
 10
282.5222154815
 20
184.8588375553
 30
0.0
 40
3.012888837397592
 50
39.0080861527
 51
75.4472162908
  0
ARC
  5
3BD
  8
0
  6
CONTINUOUS
 62
     7
 10
283.4296631462
 20
188.5010835141
 30
0.0
 40
0.7414341870337818
 50
237.6015333721
 51
258.2968259478
  0
LINE
  5
3BE
  8
0
  6
CONTINUOUS
 62
     7
 10
275.3313801195
 20
192.5849069507
 30
0.0
 11
283.0323995958
 21
187.8750592931
 31
0.0
  0
POLYLINE
  5
3BF
  8
0
  6
CONTINUOUS
 62
     7
 66
     1
 10
0.0
 20
0.0
 30
0.0
 70
   128
  0
VERTEX
  5
4C7
  8
0
  6
CONTINUOUS
 62
     7
 10
275.3313801195
 20
194.626259315
 30
0.0
  0
VERTEX
  5
4C8
  8
0
  6
CONTINUOUS
 62
     7
 10
275.0823607334
 20
194.7286703002
 30
0.0
  0
VERTEX
  5
4C9
  8
0
  6
CONTINUOUS
 62
     7
 10
274.8535165169
 20
194.7400953145
 30
0.0
  0
VERTEX
  5
4CA
  8
0
  6
CONTINUOUS
 62
     7
 10
274.6633841807
 20
194.6596098534
 30
0.0
  0
VERTEX
  5
4CB
  8
0
  6
CONTINUOUS
 62
     7
 10
274.5273710322
 20
194.4937317692
 30
0.0
  0
VERTEX
  5
4CC
  8
0
  6
CONTINUOUS
 62
     7
 10
274.4564932039
 20
194.2559017563
 30
0.0
  0
VERTEX
  5
4CD
  8
0
  6
CONTINUOUS
 62
     7
 10
274.4564932039
 20
193.9653874412
 30
0.0
  0
VERTEX
  5
4CE
  8
0
  6
CONTINUOUS
 62
     7
 10
274.5273710322
 20
193.6457236295
 30
0.0
  0
VERTEX
  5
4CF
  8
0
  6
CONTINUOUS
 62
     7
 10
274.6633841807
 20
193.3228081067
 30
0.0
  0
VERTEX
  5
4D0
  8
0
  6
CONTINUOUS
 62
     7
 10
274.8535165169
 20
193.0228005229
 30
0.0
  0
VERTEX
  5
4D1
  8
0
  6
CONTINUOUS
 62
     7
 10
275.0823607334
 20
192.7700076288
 30
0.0
  0
VERTEX
  5
4D2
  8
0
  6
CONTINUOUS
 62
     7
 10
275.3313801195
 20
192.5849069507
 30
0.0
  0
SEQEND
  5
519
  8
0
  6
CONTINUOUS
 62
     7
  0
LINE
  5
3C0
  8
0
  6
CONTINUOUS
 62
     7
 10
283.0323995958
 20
190.4446991442
 30
0.0
 11
275.3313801195
 21
194.626259315
 31
0.0
  0
ARC
  5
3C1
  8
0
  6
CONTINUOUS
 62
     7
 10
282.4733247821
 20
189.4415831725
 30
0.0
 40
1.148392920639662
 50
45.4282235472
 51
60.8674077033
  0
ARC
  5
3C2
  8
0
  6
CONTINUOUS
 62
     7
 10
285.1588890564
 20
191.9841847971
 30
0.0
 40
2.550869454435885
 50
222.5358503256
 51
263.3480565285
  0
ARC
  5
3C3
  8
0
  6
CONTINUOUS
 62
     7
 10
284.531185297
 20
186.8178613494
 30
0.0
 40
2.653504853019145
 50
40.1894308369
 51
82.8077345203
  0
ARC
  5
3C4
  8
0
  6
CONTINUOUS
 62
     7
 10
288.5852885897
 20
190.2425589148
 30
0.0
 40
2.653500604139462
 50
220.1893709908
 51
262.8077546575
  0
ARC
  5
3C5
  8
0
  6
CONTINUOUS
 62
     7
 10
288.0759169805
 20
184.9774593462
 30
0.0
 40
2.638431866538366
 50
36.8471525243
 51
86.1500087593
  0
ARC
  5
3C6
  8
0
  6
CONTINUOUS
 62
     7
 10
292.5373400495
 20
188.7029258589
 30
0.0
 40
3.180602572771655
 50
222.3648216815
 51
248.9922566595
  0
LINE
  5
3C7
  8
0
  6
CONTINUOUS
 62
     7
 10
292.1934688812
 20
185.4598180323
 30
0.0
 11
291.3971127397
 21
185.7337316235
 31
0.0
  0
POLYLINE
  5
3C8
  8
0
  6
CONTINUOUS
 62
     7
 66
     1
 10
0.0
 20
0.0
 30
0.0
 70
   128
  0
VERTEX
  5
4D3
  8
0
  6
CONTINUOUS
 62
     7
 10
293.1858249905
 20
186.2875833694
 30
0.0
  0
VERTEX
  5
4D4
  8
0
  6
CONTINUOUS
 62
     7
 10
293.1676866991
 20
186.0542910443
 30
0.0
  0
VERTEX
  5
4D5
  8
0
  6
CONTINUOUS
 62
     7
 10
293.1138045874
 20
185.8487792571
 30
0.0
  0
VERTEX
  5
4D6
  8
0
  6
CONTINUOUS
 62
     7
 10
293.0257571867
 20
185.6770736837
 30
0.0
  0
VERTEX
  5
4D7
  8
0
  6
CONTINUOUS
 62
     7
 10
292.9061259914
 20
185.5442065494
 30
0.0
  0
VERTEX
  5
4D8
  8
0
  6
CONTINUOUS
 62
     7
 10
292.758417751
 20
185.4540751753
 30
0.0
  0
VERTEX
  5
4D9
  8
0
  6
CONTINUOUS
 62
     7
 10
292.5869637127
 20
185.4093191542
 30
0.0
  0
VERTEX
  5
4DA
  8
0
  6
CONTINUOUS
 62
     7
 10
292.3967885711
 20
185.411252277
 30
0.0
  0
VERTEX
  5
4DB
  8
0
  6
CONTINUOUS
 62
     7
 10
292.1934688812
 20
185.4598180323
 30
0.0
  0
SEQEND
  5
51A
  8
0
  6
CONTINUOUS
 62
     7
  0
LINE
  5
3C9
  8
0
  6
CONTINUOUS
 62
     7
 10
293.1858249905
 20
186.3604600492
 30
0.0
 11
293.1858249905
 21
186.2875833694
 31
0.0
  0
ARC
  5
3CA
  8
0
  6
CONTINUOUS
 62
     7
 10
283.974530355
 20
185.9412953134
 30
0.0
 40
9.220826857567877
 50
2.6054766984
 51
57.3945285822
  0
LINE
  5
3CB
  8
0
  6
CONTINUOUS
 62
     7
 10
275.8617086459
 20
201.2607036911
 30
0.0
 11
288.9431842665
 21
193.7089285594
 31
0.0
  0
LINE
  5
3CC
  8
0
  6
CONTINUOUS
 62
     7
 10
273.0332810576
 20
206.1596839653
 30
0.0
 11
275.8617086459
 21
201.2607036911
 31
0.0
  0
LINE
  5
3CD
  8
0
  6
CONTINUOUS
 62
     7
 10
273.0332810576
 20
209.4258462273
 30
0.0
 11
273.0332810576
 21
206.1596839653
 31
0.0
  0
LINE
  5
3CE
  8
0
  6
CONTINUOUS
 62
     7
 10
331.0160387164
 20
172.686950456
 30
0.0
 11
401.7267178888
 21
213.5073566554
 31
0.0
  0
LINE
  5
3CF
  8
0
  6
CONTINUOUS
 62
     7
 10
331.0160387164
 20
175.953112718
 30
0.0
 11
401.7267178888
 21
216.7735189174
 31
0.0
  0
LINE
  5
3D0
  8
0
  6
CONTINUOUS
 62
     7
 10
401.7267178888
 20
213.5073566554
 30
0.0
 11
401.7267178888
 21
216.7735189174
 31
0.0
  0
LINE
  5
3D1
  8
0
  6
CONTINUOUS
 62
     7
 10
273.0332810576
 20
209.4258462273
 30
0.0
 11
343.7439602299
 21
250.2462524267
 31
0.0
  0
LINE
  5
3D2
  8
0
  6
CONTINUOUS
 62
     7
 10
401.7267178888
 20
216.7735189174
 30
0.0
 11
343.7439602299
 21
250.2462524267
 31
0.0
  0
LINE
  5
3D3
  8
0
  6
CONTINUOUS
 62
     7
 10
328.1876111281
 20
171.0536031644
 30
0.0
 11
398.8982903004
 21
211.8740093638
 31
0.0
  0
LINE
  5
3D4
  8
0
  6
CONTINUOUS
 62
     7
 10
398.8982903004
 20
211.8740093638
 30
0.0
 11
401.7267178888
 21
213.5073566554
 31
0.0
  0
LINE
  5
3D5
  8
0
  6
CONTINUOUS
 62
     7
 10
328.7179396545
 20
163.8068545049
 30
0.0
 11
399.4286188269
 21
204.6272607043
 31
0.0
  0
POLYLINE
  5
3D6
  8
0
  6
CONTINUOUS
 62
     7
 66
     1
 10
0.0
 20
0.0
 30
0.0
 70
   128
  0
VERTEX
  5
4DC
  8
0
  6
CONTINUOUS
 62
     7
 10
400.0535696624
 20
202.5240227158
 30
0.0
  0
VERTEX
  5
4DD
  8
0
  6
CONTINUOUS
 62
     7
 10
400.0966147656
 20
202.5525578016
 30
0.0
  0
VERTEX
  5
4DE
  8
0
  6
CONTINUOUS
 62
     7
 10
400.2326279141
 20
202.7184358858
 30
0.0
  0
VERTEX
  5
4DF
  8
0
  6
CONTINUOUS
 62
     7
 10
400.3035057424
 20
202.9562658988
 30
0.0
  0
VERTEX
  5
4E0
  8
0
  6
CONTINUOUS
 62
     7
 10
400.3035057424
 20
203.2467802139
 30
0.0
  0
VERTEX
  5
4E1
  8
0
  6
CONTINUOUS
 62
     7
 10
400.2326279141
 20
203.5664440255
 30
0.0
  0
VERTEX
  5
4E2
  8
0
  6
CONTINUOUS
 62
     7
 10
400.0966147656
 20
203.8893595484
 30
0.0
  0
VERTEX
  5
4E3
  8
0
  6
CONTINUOUS
 62
     7
 10
399.9064824295
 20
204.1893671321
 30
0.0
  0
VERTEX
  5
4E4
  8
0
  6
CONTINUOUS
 62
     7
 10
399.6776382129
 20
204.4421600262
 30
0.0
  0
VERTEX
  5
4E5
  8
0
  6
CONTINUOUS
 62
     7
 10
399.4286188269
 20
204.6272607043
 30
0.0
  0
SEQEND
  5
51B
  8
0
  6
CONTINUOUS
 62
     7
  0
LINE
  5
3D7
  8
0
  6
CONTINUOUS
 62
     7
 10
399.4286188269
 20
204.6272607043
 30
0.0
 11
393.0756386413
 21
208.5126641793
 31
0.0
  0
LINE
  5
3D8
  8
0
  6
CONTINUOUS
 62
     7
 10
328.7179396545
 20
155.8500381176
 30
0.0
 11
399.4286188269
 21
196.670444317
 31
0.0
  0
POLYLINE
  5
3D9
  8
0
  6
CONTINUOUS
 62
     7
 66
     1
 10
0.0
 20
0.0
 30
0.0
 70
   128
  0
VERTEX
  5
4E6
  8
0
  6
CONTINUOUS
 62
     7
 10
400.0562986708
 20
194.5580225693
 30
0.0
  0
VERTEX
  5
4E7
  8
0
  6
CONTINUOUS
 62
     7
 10
400.0995308007
 20
194.586683244
 30
0.0
  0
VERTEX
  5
4E8
  8
0
  6
CONTINUOUS
 62
     7
 10
400.2361392734
 20
194.7532843942
 30
0.0
  0
VERTEX
  5
4E9
  8
0
  6
CONTINUOUS
 62
     7
 10
400.3073279348
 20
194.992152088
 30
0.0
  0
VERTEX
  5
4EA
  8
0
  6
CONTINUOUS
 62
     7
 10
400.3073279348
 20
195.2839352354
 30
0.0
  0
VERTEX
  5
4EB
  8
0
  6
CONTINUOUS
 62
     7
 10
400.2361392734
 20
195.6049954178
 30
0.0
  0
VERTEX
  5
4EC
  8
0
  6
CONTINUOUS
 62
     7
 10
400.0995308007
 20
195.9293215435
 30
0.0
  0
VERTEX
  5
4ED
  8
0
  6
CONTINUOUS
 62
     7
 10
399.9085713326
 20
196.230637426
 30
0.0
  0
VERTEX
  5
4EE
  8
0
  6
CONTINUOUS
 62
     7
 10
399.6787261285
 20
196.4845353689
 30
0.0
  0
VERTEX
  5
4EF
  8
0
  6
CONTINUOUS
 62
     7
 10
399.4286188269
 20
196.670444317
 30
0.0
  0
SEQEND
  5
51C
  8
0
  6
CONTINUOUS
 62
     7
  0
LINE
  5
3DA
  8
0
  6
CONTINUOUS
 62
     7
 10
320.9702399093
 20
160.5821952774
 30
0.0
 11
325.7817504771
 21
163.3598212048
 31
0.0
  0
LINE
  5
3DB
  8
0
  6
CONTINUOUS
 62
     7
 10
399.4286188269
 20
196.670444317
 30
0.0
 11
394.8053202795
 21
199.4942727174
 31
0.0
  0
LINE
  5
3DC
  8
0
  6
CONTINUOUS
 62
     7
 10
315.796246688
 20
171.7096012957
 30
0.0
 11
321.4237571214
 21
174.9582939185
 31
0.0
  0
LINE
  5
3DD
  8
0
  6
CONTINUOUS
 62
     7
 10
313.8620290281
 20
172.8925449263
 30
0.0
 11
319.432077502
 21
176.108065466
 31
0.0
  0
LINE
  5
3DE
  8
0
  6
CONTINUOUS
 62
     7
 10
328.7179396545
 20
147.8843083446
 30
0.0
 11
399.4286188269
 21
188.704714544
 31
0.0
  0
POLYLINE
  5
3DF
  8
0
  6
CONTINUOUS
 62
     7
 66
     1
 10
0.0
 20
0.0
 30
0.0
 70
   128
  0
VERTEX
  5
4F0
  8
0
  6
CONTINUOUS
 62
     7
 10
400.0535696624
 20
186.6014765555
 30
0.0
  0
VERTEX
  5
4F1
  8
0
  6
CONTINUOUS
 62
     7
 10
400.0966147656
 20
186.6300124018
 30
0.0
  0
VERTEX
  5
4F2
  8
0
  6
CONTINUOUS
 62
     7
 10
400.2326279141
 20
186.7958901058
 30
0.0
  0
VERTEX
  5
4F3
  8
0
  6
CONTINUOUS
 62
     7
 10
400.3035057424
 20
187.0337197385
 30
0.0
  0
VERTEX
  5
4F4
  8
0
  6
CONTINUOUS
 62
     7
 10
400.3035057424
 20
187.3242344338
 30
0.0
  0
VERTEX
  5
4F5
  8
0
  6
CONTINUOUS
 62
     7
 10
400.2326279141
 20
187.6438982455
 30
0.0
  0
VERTEX
  5
4F6
  8
0
  6
CONTINUOUS
 62
     7
 10
400.0966147656
 20
187.9668133881
 30
0.0
  0
VERTEX
  5
4F7
  8
0
  6
CONTINUOUS
 62
     7
 10
399.9064824295
 20
188.2668213521
 30
0.0
  0
VERTEX
  5
4F8
  8
0
  6
CONTINUOUS
 62
     7
 10
399.6776382129
 20
188.5196142462
 30
0.0
  0
VERTEX
  5
4F9
  8
0
  6
CONTINUOUS
 62
     7
 10
399.4286188269
 20
188.704714544
 30
0.0
  0
SEQEND
  5
51D
  8
0
  6
CONTINUOUS
 62
     7
  0
LINE
  5
3E0
  8
0
  6
CONTINUOUS
 62
     7
 10
320.8537591909
 20
152.6719927006
 30
0.0
 11
325.6749846073
 21
155.4552268907
 31
0.0
  0
LINE
  5
3E1
  8
0
  6
CONTINUOUS
 62
     7
 10
399.4286188269
 20
188.704714544
 30
0.0
 11
394.7991352294
 21
191.5231274881
 31
0.0
  0
LINE
  5
3E2
  8
0
  6
CONTINUOUS
 62
     7
 10
315.796246688
 20
163.7483285957
 30
0.0
 11
320.4318363101
 21
166.4243975229
 31
0.0
  0
LINE
  5
3E3
  8
0
  6
CONTINUOUS
 62
     7
 10
313.8620290281
 20
164.9312722264
 30
0.0
 11
318.0723095335
 21
167.3618154266
 31
0.0
  0
LINE
  5
3E4
  8
0
  6
CONTINUOUS
 62
     7
 10
328.7179396545
 20
139.9230352645
 30
0.0
 11
399.4286188269
 21
180.7434414639
 31
0.0
  0
POLYLINE
  5
3E5
  8
0
  6
CONTINUOUS
 62
     7
 66
     1
 10
0.0
 20
0.0
 30
0.0
 70
   128
  0
VERTEX
  5
4FA
  8
0
  6
CONTINUOUS
 62
     7
 10
400.0535696624
 20
178.6402042359
 30
0.0
  0
VERTEX
  5
4FB
  8
0
  6
CONTINUOUS
 62
     7
 10
400.0966147656
 20
178.6687393217
 30
0.0
  0
VERTEX
  5
4FC
  8
0
  6
CONTINUOUS
 62
     7
 10
400.2326279141
 20
178.8346166454
 30
0.0
  0
VERTEX
  5
4FD
  8
0
  6
CONTINUOUS
 62
     7
 10
400.3035057424
 20
179.0724474188
 30
0.0
  0
VERTEX
  5
4FE
  8
0
  6
CONTINUOUS
 62
     7
 10
400.3035057424
 20
179.3629609735
 30
0.0
  0
VERTEX
  5
4FF
  8
0
  6
CONTINUOUS
 62
     7
 10
400.2326279141
 20
179.6826255456
 30
0.0
  0
VERTEX
  5
500
  8
0
  6
CONTINUOUS
 62
     7
 10
400.0966147656
 20
180.0055403079
 30
0.0
  0
VERTEX
  5
501
  8
0
  6
CONTINUOUS
 62
     7
 10
399.9064824295
 20
180.3055478917
 30
0.0
  0
VERTEX
  5
502
  8
0
  6
CONTINUOUS
 62
     7
 10
399.6776382129
 20
180.5583407858
 30
0.0
  0
VERTEX
  5
503
  8
0
  6
CONTINUOUS
 62
     7
 10
399.4286188269
 20
180.7434414639
 30
0.0
  0
SEQEND
  5
51E
  8
0
  6
CONTINUOUS
 62
     7
  0
LINE
  5
3E6
  8
0
  6
CONTINUOUS
 62
     7
 10
320.8234753631
 20
144.7202031732
 30
0.0
 11
325.6596839842
 21
147.5120869832
 31
0.0
  0
LINE
  5
3E7
  8
0
  6
CONTINUOUS
 62
     7
 10
399.4286188269
 20
180.7434414639
 30
0.0
 11
394.7893861365
 21
183.5625280237
 31
0.0
  0
LINE
  5
3E8
  8
0
  6
CONTINUOUS
 62
     7
 10
315.796246688
 20
155.7870558958
 30
0.0
 11
320.4318363101
 21
158.4631248229
 31
0.0
  0
LINE
  5
3E9
  8
0
  6
CONTINUOUS
 62
     7
 10
313.8620290281
 20
156.9699995264
 30
0.0
 11
318.0723095335
 21
159.4005427267
 31
0.0
  0
LINE
  5
3EA
  8
0
  6
CONTINUOUS
 62
     7
 10
328.7179396545
 20
131.9617629448
 30
0.0
 11
399.4286188269
 21
172.7821691442
 31
0.0
  0
POLYLINE
  5
3EB
  8
0
  6
CONTINUOUS
 62
     7
 66
     1
 10
0.0
 20
0.0
 30
0.0
 70
   128
  0
VERTEX
  5
504
  8
0
  6
CONTINUOUS
 62
     7
 10
400.0535696624
 20
170.6789303953
 30
0.0
  0
VERTEX
  5
505
  8
0
  6
CONTINUOUS
 62
     7
 10
400.0966147656
 20
170.707467002
 30
0.0
  0
VERTEX
  5
506
  8
0
  6
CONTINUOUS
 62
     7
 10
400.2326279141
 20
170.8733443257
 30
0.0
  0
VERTEX
  5
507
  8
0
  6
CONTINUOUS
 62
     7
 10
400.3035057424
 20
171.1111735782
 30
0.0
  0
VERTEX
  5
508
  8
0
  6
CONTINUOUS
 62
     7
 10
400.3035057424
 20
171.4016886538
 30
0.0
  0
VERTEX
  5
509
  8
0
  6
CONTINUOUS
 62
     7
 10
400.2326279141
 20
171.721351705
 30
0.0
  0
VERTEX
  5
50A
  8
0
  6
CONTINUOUS
 62
     7
 10
400.0966147656
 20
172.0442679883
 30
0.0
  0
VERTEX
  5
50B
  8
0
  6
CONTINUOUS
 62
     7
 10
399.9064824295
 20
172.344275572
 30
0.0
  0
VERTEX
  5
50C
  8
0
  6
CONTINUOUS
 62
     7
 10
399.6776382129
 20
172.5970684661
 30
0.0
  0
VERTEX
  5
50D
  8
0
  6
CONTINUOUS
 62
     7
 10
399.4286188269
 20
172.7821691442
 30
0.0
  0
SEQEND
  5
51F
  8
0
  6
CONTINUOUS
 62
     7
  0
LINE
  5
3EC
  8
0
  6
CONTINUOUS
 62
     7
 10
320.7946837973
 20
136.7664202323
 30
0.0
 11
325.6413237633
 21
139.5643259296
 31
0.0
  0
LINE
  5
3ED
  8
0
  6
CONTINUOUS
 62
     7
 10
399.4286188269
 20
172.7821691442
 30
0.0
 11
394.784436516
 21
175.5983981805
 31
0.0
  0
LINE
  5
3EE
  8
0
  6
CONTINUOUS
 62
     7
 10
312.0368735828
 20
158.0396801617
 30
0.0
 11
316.520212983
 21
160.6278569065
 31
0.0
  0
LINE
  5
3EF
  8
0
  6
CONTINUOUS
 62
     7
 10
315.796246688
 20
147.8257828157
 30
0.0
 11
320.4318363101
 21
150.5018517428
 31
0.0
  0
LINE
  5
3F0
  8
0
  6
CONTINUOUS
 62
     7
 10
313.8620290281
 20
149.0087264463
 30
0.0
 11
318.0723095335
 21
151.4392696465
 31
0.0
  0
LINE
  5
3F1
  8
0
  6
CONTINUOUS
 62
     7
 10
312.1300898994
 20
150.0028448285
 30
0.0
 11
316.6391019987
 21
152.6058421071
 31
0.0
  0
LINE
  5
3F2
  8
0
  6
CONTINUOUS
 62
     7
 10
290.1872907459
 20
186.5596804235
 30
0.0
 11
292.9393271713
 21
188.1483972351
 31
0.0
  0
LINE
  5
3F3
  8
0
  6
CONTINUOUS
 62
     7
 10
288.253073086
 20
187.6099369679
 30
0.0
 11
292.2702683417
 21
189.929014426
 31
0.0
  0
LINE
  5
3F4
  8
0
  6
CONTINUOUS
 62
     7
 10
315.796246688
 20
139.864510496
 30
0.0
 11
320.4318363101
 21
142.5405794231
 31
0.0
  0
LINE
  5
3F5
  8
0
  6
CONTINUOUS
 62
     7
 10
313.8620290281
 20
141.0474533662
 30
0.0
 11
318.0723095335
 21
143.4779965664
 31
0.0
  0
LINE
  5
3F6
  8
0
  6
CONTINUOUS
 62
     7
 10
312.2326628163
 20
141.9584251362
 30
0.0
 11
316.7624427752
 21
144.5734114449
 31
0.0
  0
LINE
  5
3F7
  8
0
  6
CONTINUOUS
 62
     7
 10
290.1872907459
 20
178.5984077235
 30
0.0
 11
293.4099283451
 21
180.4587968101
 31
0.0
  0
LINE
  5
3F8
  8
0
  6
CONTINUOUS
 62
     7
 10
288.253073086
 20
179.648664268
 30
0.0
 11
292.4491606402
 21
182.0710140518
 31
0.0
  0
LINE
  5
3F9
  8
0
  6
CONTINUOUS
 62
     7
 10
275.3313801195
 20
194.626259315
 30
0.0
 11
281.3427640492
 21
198.0965573903
 31
0.0
  0
LINE
  5
3FA
  8
0
  6
CONTINUOUS
 62
     7
 10
292.0124461912
 20
169.5995360364
 30
0.0
 11
294.3417444577
 21
170.9442113034
 31
0.0
  0
LINE
  5
3FB
  8
0
  6
CONTINUOUS
 62
     7
 10
290.1872907459
 20
170.6371350236
 30
0.0
 11
293.9375594732
 21
172.802119077
 31
0.0
  0
LINE
  5
3FC
  8
0
  6
CONTINUOUS
 62
     7
 10
288.253073086
 20
171.6873915681
 30
0.0
 11
292.4981721567
 21
174.1380350981
 31
0.0
  0
LINE
  5
3FD
  8
0
  6
CONTINUOUS
 62
     7
 10
283.0790798647
 20
182.4562963678
 30
0.0
 11
287.7569638493
 21
185.1567813107
 31
0.0
  0
LINE
  5
3FE
  8
0
  6
CONTINUOUS
 62
     7
 10
275.3313801195
 20
186.6694429277
 30
0.0
 11
280.3070631989
 21
189.5418436287
 31
0.0
  0
LINE
  5
3FF
  8
0
  6
CONTINUOUS
 62
     7
 10
291.9192298746
 20
161.6703259714
 30
0.0
 11
295.0267170154
 21
163.4642401132
 31
0.0
  0
LINE
  5
400
  8
0
  6
CONTINUOUS
 62
     7
 10
290.1872907459
 20
162.6758619435
 30
0.0
 11
294.243229492
 21
165.0173055426
 31
0.0
  0
LINE
  5
401
  8
0
  6
CONTINUOUS
 62
     7
 10
288.253073086
 20
163.7261184879
 30
0.0
 11
292.5272745556
 21
166.1935624753
 31
0.0
  0
LINE
  5
402
  8
0
  6
CONTINUOUS
 62
     7
 10
283.1955605831
 20
174.4116080162
 30
0.0
 11
287.8636190836
 21
177.1064208278
 31
0.0
  0
LINE
  5
403
  8
0
  6
CONTINUOUS
 62
     7
 10
275.3313801195
 20
178.7037131548
 30
0.0
 11
280.3114201294
 21
181.5786290582
 31
0.0
  0
LINE
  5
404
  8
0
  6
CONTINUOUS
 62
     7
 10
291.8166569577
 20
153.7443344482
 30
0.0
 11
295.7595051726
 21
156.0204922733
 31
0.0
  0
LINE
  5
405
  8
0
  6
CONTINUOUS
 62
     7
 10
290.1872907459
 20
154.7145888633
 30
0.0
 11
294.372383241
 21
157.1305913347
 31
0.0
  0
LINE
  5
406
  8
0
  6
CONTINUOUS
 62
     7
 10
288.253073086
 20
155.7648461682
 30
0.0
 11
292.5437328999
 21
158.2417913555
 31
0.0
  0
LINE
  5
407
  8
0
  6
CONTINUOUS
 62
     7
 10
283.2258444109
 20
166.4248535255
 30
0.0
 11
287.8931916833
 21
169.1192557539
 31
0.0
  0
LINE
  5
408
  8
0
  6
CONTINUOUS
 62
     7
 10
275.3313801195
 20
170.7424400746
 30
0.0
 11
280.3225310923
 21
173.6237702004
 31
0.0
  0
LINE
  5
409
  8
0
  6
CONTINUOUS
 62
     7
 10
283.2546359767
 20
158.4378285502
 30
0.0
 11
287.922009591
 21
161.1322459854
 31
0.0
  0
LINE
  5
40A
  8
0
  6
CONTINUOUS
 62
     7
 10
275.3313801195
 20
162.7811677549
 30
0.0
 11
280.3273042229
 21
165.6652533504
 31
0.0
  0
LINE
  5
40B
  8
0
  6
CONTINUOUS
 62
     8
 10
321.0169201782
 20
168.5167021626
 30
0.0
 11
326.7995257458
 21
171.8549293006
 31
0.0
  0
LINE
  5
40C
  8
0
  6
CONTINUOUS
 62
     8
 10
320.7700502814
 20
168.6166988798
 30
0.0
 11
326.5894816579
 21
171.9761851047
 31
0.0
  0
LINE
  5
40D
  8
0
  6
CONTINUOUS
 62
     8
 10
310.8634947835
 20
176.1553584994
 30
0.0
 11
315.1068236866
 21
178.6049801334
 31
0.0
  0
LINE
  5
40E
  8
0
  6
CONTINUOUS
 62
     8
 10
319.1859175162
 20
169.6365210885
 30
0.0
 11
324.9141273074
 21
172.9433462132
 31
0.0
  0
LINE
  5
40F
  8
0
  6
CONTINUOUS
 62
     8
 10
317.4910821021
 20
170.6730615723
 30
0.0
 11
323.1689422144
 21
173.9508204461
 31
0.0
  0
LINE
  5
410
  8
0
  6
CONTINUOUS
 62
     8
 10
320.7700502814
 20
160.6554257996
 30
0.0
 11
325.6132184008
 21
163.4513272425
 31
0.0
  0
LINE
  5
411
  8
0
  6
CONTINUOUS
 62
     8
 10
312.6522070343
 20
173.4634268679
 30
0.0
 11
318.3327171298
 21
176.7427155444
 31
0.0
  0
LINE
  5
412
  8
0
  6
CONTINUOUS
 62
     8
 10
319.1859175162
 20
161.6752480083
 30
0.0
 11
323.8865713357
 21
164.3888776971
 31
0.0
  0
LINE
  5
413
  8
0
  6
CONTINUOUS
 62
     8
 10
311.8558508928
 20
174.1089665066
 30
0.0
 11
317.3754232472
 21
177.2953478028
 31
0.0
  0
LINE
  5
414
  8
0
  6
CONTINUOUS
 62
     8
 10
310.8634947835
 20
176.0824818196
 30
0.0
 11
315.1699438606
 21
178.5685419545
 31
0.0
  0
LINE
  5
415
  8
0
  6
CONTINUOUS
 62
     8
 10
317.4910821021
 20
162.7117884922
 30
0.0
 11
322.0879545755
 21
165.3655064851
 31
0.0
  0
LINE
  5
416
  8
0
  6
CONTINUOUS
 62
     8
 10
310.5672235119
 20
170.0390698719
 30
0.0
 11
312.0175492528
 21
170.8763251006
 31
0.0
  0
LINE
  5
417
  8
0
  6
CONTINUOUS
 62
     8
 10
312.6512297543
 20
165.4971338805
 30
0.0
 11
317.2097011803
 21
168.1286834207
 31
0.0
  0
LINE
  5
418
  8
0
  6
CONTINUOUS
 62
     8
 10
320.7700502814
 20
152.6941527195
 30
0.0
 11
325.6121225827
 21
155.48942156
 31
0.0
  0
LINE
  5
419
  8
0
  6
CONTINUOUS
 62
     8
 10
319.1859175162
 20
153.7139753084
 30
0.0
 11
323.8870770978
 21
156.4278969675
 31
0.0
  0
LINE
  5
41A
  8
0
  6
CONTINUOUS
 62
     8
 10
310.5672235119
 20
168.5225726452
 30
0.0
 11
313.4646981749
 21
170.1952491642
 31
0.0
  0
LINE
  5
41B
  8
0
  6
CONTINUOUS
 62
     8
 10
311.701345156
 20
166.267126356
 30
0.0
 11
316.0157968659
 21
168.7578063125
 31
0.0
  0
LINE
  5
41C
  8
0
  6
CONTINUOUS
 62
     8
 10
317.4910821021
 20
154.750515412
 30
0.0
 11
322.0901251382
 21
157.4054864441
 31
0.0
  0
LINE
  5
41D
  8
0
  6
CONTINUOUS
 62
     8
 10
309.7075759748
 20
162.5552142949
 30
0.0
 11
311.1226300718
 21
163.372107637
 31
0.0
  0
LINE
  5
41E
  8
0
  6
CONTINUOUS
 62
     8
 10
312.6522070343
 20
157.5408807076
 30
0.0
 11
317.2066060211
 21
160.1700792787
 31
0.0
  0
LINE
  5
41F
  8
0
  6
CONTINUOUS
 62
     8
 10
320.7700502814
 20
144.7328796393
 30
0.0
 11
325.6209365424
 21
147.5332366705
 31
0.0
  0
LINE
  5
420
  8
0
  6
CONTINUOUS
 62
     8
 10
319.1859175162
 20
145.7527026085
 30
0.0
 11
323.8985779191
 21
148.4732635504
 31
0.0
  0
LINE
  5
421
  8
0
  6
CONTINUOUS
 62
     8
 10
311.0832155245
 20
158.6202637907
 30
0.0
 11
315.1091351778
 21
160.9443777365
 31
0.0
  0
LINE
  5
422
  8
0
  6
CONTINUOUS
 62
     8
 10
309.7075759748
 20
161.0468776905
 30
0.0
 11
312.5979120153
 21
162.7154331705
 31
0.0
  0
LINE
  5
423
  8
0
  6
CONTINUOUS
 62
     8
 10
317.4910821021
 20
146.7892423319
 30
0.0
 11
322.1044287249
 21
149.4524706488
 31
0.0
  0
LINE
  5
424
  8
0
  6
CONTINUOUS
 62
     8
 10
292.1934688812
 20
185.4598180323
 30
0.0
 11
293.1612711585
 21
186.0185183947
 31
0.0
  0
LINE
  5
425
  8
0
  6
CONTINUOUS
 62
     8
 10
308.9832217971
 20
155.0246236677
 30
0.0
 11
310.3982126738
 21
155.8414805135
 31
0.0
  0
LINE
  5
426
  8
0
  6
CONTINUOUS
 62
     8
 10
312.6522070343
 20
149.5796076275
 30
0.0
 11
317.2066060211
 21
152.2088061985
 31
0.0
  0
LINE
  5
427
  8
0
  6
CONTINUOUS
 62
     8
 10
320.7700502814
 20
136.7716065592
 30
0.0
 11
325.6240606775
 21
139.5737671152
 31
0.0
  0
LINE
  5
428
  8
0
  6
CONTINUOUS
 62
     8
 10
319.1859175162
 20
137.7914295284
 30
0.0
 11
323.9034406118
 21
140.5147976429
 31
0.0
  0
LINE
  5
429
  8
0
  6
CONTINUOUS
 62
     8
 10
291.3971127397
 20
185.7337316235
 30
0.0
 11
293.1723432673
 21
186.7585503932
 31
0.0
  0
LINE
  5
42A
  8
0
  6
CONTINUOUS
 62
     8
 10
317.4910821021
 20
138.8279700122
 30
0.0
 11
322.111103732
 21
141.4950517287
 31
0.0
  0
LINE
  5
42B
  8
0
  6
CONTINUOUS
 62
     8
 10
310.3602489
 20
151.078310172
 30
0.0
 11
314.3921692109
 21
153.4058882236
 31
0.0
  0
LINE
  5
42C
  8
0
  6
CONTINUOUS
 62
     8
 10
308.9832217971
 20
153.5057678653
 30
0.0
 11
311.7506312855
 21
155.1033593572
 31
0.0
  0
LINE
  5
42D
  8
0
  6
CONTINUOUS
 62
     8
 10
286.5582376719
 20
188.5302125617
 30
0.0
 11
291.4304238965
 21
191.3428658001
 31
0.0
  0
LINE
  5
42E
  8
0
  6
CONTINUOUS
 62
     8
 10
292.347974618
 20
177.439589355
 30
0.0
 11
293.4540343635
 21
178.0781040549
 31
0.0
  0
LINE
  5
42F
  8
0
  6
CONTINUOUS
 62
     8
 10
284.8634022578
 20
189.450487395
 30
0.0
 11
290.3511379366
 21
192.6184897695
 31
0.0
  0
LINE
  5
430
  8
0
  6
CONTINUOUS
 62
     8
 10
312.6522070343
 20
141.6183345473
 30
0.0
 11
317.2066060211
 21
144.2475331184
 31
0.0
  0
LINE
  5
431
  8
0
  6
CONTINUOUS
 62
     8
 10
307.6815144052
 20
147.7960929965
 30
0.0
 11
309.0964684034
 21
148.6129285528
 31
0.0
  0
LINE
  5
432
  8
0
  6
CONTINUOUS
 62
     8
 10
291.3980900197
 20
177.7663102926
 30
0.0
 11
293.4820988962
 21
178.9693830089
 31
0.0
  0
LINE
  5
433
  8
0
  6
CONTINUOUS
 62
     8
 10
309.0600864535
 20
143.8822727042
 30
0.0
 11
313.3804439905
 21
146.3763620221
 31
0.0
  0
LINE
  5
434
  8
0
  6
CONTINUOUS
 62
     8
 10
283.2792694926
 20
190.2596659456
 30
0.0
 11
289.0959507872
 21
193.6175645821
 31
0.0
  0
LINE
  5
435
  8
0
  6
CONTINUOUS
 62
     8
 10
283.0323995958
 20
190.4446991442
 30
0.0
 11
288.8150051634
 21
193.7829262822
 31
0.0
  0
LINE
  5
436
  8
0
  6
CONTINUOUS
 62
     8
 10
307.6815144052
 20
146.3106686637
 30
0.0
 11
310.4177826409
 21
147.8902826931
 31
0.0
  0
LINE
  5
437
  8
0
  6
CONTINUOUS
 62
     8
 10
292.9661042496
 20
169.0790495082
 30
0.0
 11
294.3412136708
 21
169.8728832799
 31
0.0
  0
LINE
  5
438
  8
0
  6
CONTINUOUS
 62
     8
 10
286.5582376719
 20
180.5689394815
 30
0.0
 11
291.0615336049
 21
183.1686368875
 31
0.0
  0
LINE
  5
439
  8
0
  6
CONTINUOUS
 62
     8
 10
284.8634022578
 20
181.4892143148
 30
0.0
 11
289.070600775
 21
183.9179783211
 31
0.0
  0
LINE
  5
43A
  8
0
  6
CONTINUOUS
 62
     8
 10
291.3971127397
 20
169.8111854632
 30
0.0
 11
294.3399058015
 21
171.510023737
 31
0.0
  0
LINE
  5
43B
  8
0
  6
CONTINUOUS
 62
     8
 10
283.2792694926
 20
182.2983928655
 30
0.0
 11
287.9472120893
 21
184.9931387673
 31
0.0
  0
LINE
  5
43C
  8
0
  6
CONTINUOUS
 62
     8
 10
293.689070874
 20
160.7023763924
 30
0.0
 11
295.0656027515
 21
161.4970313305
 31
0.0
  0
LINE
  5
43D
  8
0
  6
CONTINUOUS
 62
     8
 10
286.5582376719
 20
172.6076664014
 30
0.0
 11
291.0615336049
 21
175.2073638074
 31
0.0
  0
LINE
  5
43E
  8
0
  6
CONTINUOUS
 62
     8
 10
284.8634022578
 20
173.5279416149
 30
0.0
 11
289.070600775
 21
175.9567056212
 31
0.0
  0
LINE
  5
43F
  8
0
  6
CONTINUOUS
 62
     8
 10
291.3971127397
 20
161.849912383
 30
0.0
 11
294.9149310608
 21
163.8807056732
 31
0.0
  0
LINE
  5
440
  8
0
  6
CONTINUOUS
 62
     8
 10
283.2792694926
 20
174.3371197853
 30
0.0
 11
287.9472120893
 21
177.0318656871
 31
0.0
  0
LINE
  5
441
  8
0
  6
CONTINUOUS
 62
     8
 10
294.9892333205
 20
152.0052033164
 30
0.0
 11
296.3673509731
 21
152.8007737031
 31
0.0
  0
LINE
  5
442
  8
0
  6
CONTINUOUS
 62
     8
 10
286.5582376719
 20
164.6463933212
 30
0.0
 11
291.0615336049
 21
167.2460907272
 31
0.0
  0
LINE
  5
443
  8
0
  6
CONTINUOUS
 62
     8
 10
284.8634022578
 20
165.566668915
 30
0.0
 11
289.070600775
 21
167.9954329212
 31
0.0
  0
LINE
  5
444
  8
0
  6
CONTINUOUS
 62
     8
 10
291.3971127397
 20
153.8886393029
 30
0.0
 11
295.5465490009
 21
156.2840578686
 31
0.0
  0
LINE
  5
445
  8
0
  6
CONTINUOUS
 62
     8
 10
283.2792694926
 20
166.3758467052
 30
0.0
 11
287.9472120893
 21
169.070592607
 31
0.0
  0
LINE
  5
446
  8
0
  6
CONTINUOUS
 62
     8
 10
286.5582376719
 20
156.6851210016
 30
0.0
 11
291.0615336049
 21
159.2848184075
 31
0.0
  0
LINE
  5
447
  8
0
  6
CONTINUOUS
 62
     8
 10
284.8634022578
 20
157.6053958349
 30
0.0
 11
289.070600775
 21
160.0341598411
 31
0.0
  0
LINE
  5
448
  8
0
  6
CONTINUOUS
 62
     8
 10
283.2792694926
 20
158.414573625
 30
0.0
 11
287.9472120893
 21
161.1093195268
 31
0.0
  0
ENDSEC
  0
EOF
