  0
SECTION
  2
HEADER
  9
$ACADVER
  1
AC1015
  9
$ACADMAINTVER
 70
     6
  9
$DWGCODEPAGE
  3
ANSI_1252
  9
$INSBASE
 10
0.0
 20
0.0
 30
0.0
  9
$EXTMIN
 10
0.0
 20
0.0
 30
0.0
  9
$EXTMAX
 10
420.0
 20
297.0
 30
0.0
  9
$LIMMIN
 10
0.0
 20
0.0
  9
$LIMMAX
 10
420.0
 20
297.0
  9
$ORTHOMODE
 70
     0
  9
$REGENMODE
 70
     1
  9
$FILLMODE
 70
     1
  9
$QTEXTMODE
 70
     0
  9
$MIRRTEXT
 70
     1
  9
$LTSCALE
 40
1.0
  9
$ATTMODE
 70
     1
  9
$TEXTSIZE
 40
3.5
  9
$TRACEWID
 40
1.0
  9
$TEXTSTYLE
  7
Standard
  9
$CLAYER
  8
0
  9
$CELTYPE
  6
ByLayer
  9
$CECOLOR
 62
   256
  9
$CELTSCALE
 40
1.0
  9
$DISPSILH
 70
     0
  9
$DIMSCALE
 40
1.0
  9
$DIMASZ
 40
3.302
  9
$DIMEXO
 40
1.0
  9
$DIMDLI
 40
3.75
  9
$DIMRND
 40
0.0
  9
$DIMDLE
 40
0.0
  9
$DIMEXE
 40
1.0
  9
$DIMTP
 40
0.0
  9
$DIMTM
 40
0.0
  9
$DIMTXT
 40
3.5
  9
$DIMCEN
 40
2.5
  9
$DIMTSZ
 40
0.0
  9
$DIMTOL
 70
     0
  9
$DIMLIM
 70
     0
  9
$DIMTIH
 70
     1
  9
$DIMTOH
 70
     1
  9
$DIMSE1
 70
     0
  9
$DIMSE2
 70
     0
  9
$DIMTAD
 70
     1
  9
$DIMZIN
 70
     0
  9
$DIMBLK
  1

  9
$DIMASO
 70
     1
  9
$DIMSHO
 70
     1
  9
$DIMPOST
  1

  9
$DIMAPOST
  1

  9
$DIMALT
 70
     0
  9
$DIMALTD
 70
     3
  9
$DIMALTF
 40
0.0393700787
  9
$DIMLFAC
 40
2.0
  9
$DIMTOFL
 70
     1
  9
$DIMTVP
 40
0.0
  9
$DIMTIX
 70
     0
  9
$DIMSOXD
 70
     0
  9
$DIMSAH
 70
     0
  9
$DIMBLK1
  1

  9
$DIMBLK2
  1

  9
$DIMSTYLE
  2
ISO-25
  9
$DIMCLRD
 70
     0
  9
$DIMCLRE
 70
     0
  9
$DIMCLRT
 70
     0
  9
$DIMTFAC
 40
1.0
  9
$DIMGAP
 40
1.524
  9
$DIMJUST
 70
     0
  9
$DIMSD1
 70
     0
  9
$DIMSD2
 70
     0
  9
$DIMTOLJ
 70
     0
  9
$DIMTZIN
 70
     0
  9
$DIMALTZ
 70
     0
  9
$DIMALTTZ
 70
     0
  9
$DIMUPT
 70
     0
  9
$DIMDEC
 70
     2
  9
$DIMTDEC
 70
     2
  9
$DIMALTU
 70
     2
  9
$DIMALTTD
 70
     3
  9
$DIMTXSTY
  7
Standard
  9
$DIMAUNIT
 70
     0
  9
$DIMADEC
 70
     2
  9
$DIMALTRND
 40
0.0
  9
$DIMAZIN
 70
     0
  9
$DIMDSEP
 70
    44
  9
$DIMATFIT
 70
     3
  9
$DIMFRAC
 70
     0
  9
$DIMLDRBLK
  1

  9
$DIMLUNIT
 70
     2
  9
$DIMLWD
 70
    -2
  9
$DIMLWE
 70
    -2
  9
$DIMTMOVE
 70
     0
  9
$LUNITS
 70
     2
  9
$LUPREC
 70
     2
  9
$SKETCHINC
 40
1.0
  9
$FILLETRAD
 40
10.0
  9
$AUNITS
 70
     0
  9
$AUPREC
 70
     2
  9
$MENU
  1
.
  9
$ELEVATION
 40
0.0
  9
$PELEVATION
 40
0.0
  9
$THICKNESS
 40
0.0
  9
$LIMCHECK
 70
     0
  9
$CHAMFERA
 40
10.0
  9
$CHAMFERB
 40
10.0
  9
$CHAMFERC
 40
20.0
  9
$CHAMFERD
 40
0.0
  9
$SKPOLY
 70
     0
  9
$TDCREATE
 40
2456406.464748368
  9
$TDUCREATE
 40
2456406.381415035
  9
$TDUPDATE
 40
2456406.464749525
  9
$TDUUPDATE
 40
2456406.381416192
  9
$TDINDWG
 40
0.0000000116
  9
$TDUSRTIMER
 40
0.0000000116
  9
$USRTIMER
 70
     1
  9
$ANGBASE
 50
0.0
  9
$ANGDIR
 70
     0
  9
$PDMODE
 70
     0
  9
$PDSIZE
 40
-1.0
  9
$PLINEWID
 40
0.0
  9
$SPLFRAME
 70
     0
  9
$SPLINETYPE
 70
     6
  9
$SPLINESEGS
 70
     8
  9
$HANDSEED
  5
4A5
  9
$SURFTAB1
 70
     6
  9
$SURFTAB2
 70
     6
  9
$SURFTYPE
 70
     6
  9
$SURFU
 70
     6
  9
$SURFV
 70
     6
  9
$UCSBASE
  2

  9
$UCSNAME
  2

  9
$UCSORG
 10
0.0
 20
0.0
 30
0.0
  9
$UCSXDIR
 10
1.0
 20
0.0
 30
0.0
  9
$UCSYDIR
 10
0.0
 20
1.0
 30
0.0
  9
$UCSORTHOREF
  2

  9
$UCSORTHOVIEW
 70
     0
  9
$UCSORGTOP
 10
0.0
 20
0.0
 30
0.0
  9
$UCSORGBOTTOM
 10
0.0
 20
0.0
 30
0.0
  9
$UCSORGLEFT
 10
0.0
 20
0.0
 30
0.0
  9
$UCSORGRIGHT
 10
0.0
 20
0.0
 30
0.0
  9
$UCSORGFRONT
 10
0.0
 20
0.0
 30
0.0
  9
$UCSORGBACK
 10
0.0
 20
0.0
 30
0.0
  9
$PUCSBASE
  2

  9
$PUCSNAME
  2

  9
$PUCSORG
 10
0.0
 20
0.0
 30
0.0
  9
$PUCSXDIR
 10
1.0
 20
0.0
 30
0.0
  9
$PUCSYDIR
 10
0.0
 20
1.0
 30
0.0
  9
$PUCSORTHOREF
  2

  9
$PUCSORTHOVIEW
 70
     0
  9
$PUCSORGTOP
 10
0.0
 20
0.0
 30
0.0
  9
$PUCSORGBOTTOM
 10
0.0
 20
0.0
 30
0.0
  9
$PUCSORGLEFT
 10
0.0
 20
0.0
 30
0.0
  9
$PUCSORGRIGHT
 10
0.0
 20
0.0
 30
0.0
  9
$PUCSORGFRONT
 10
0.0
 20
0.0
 30
0.0
  9
$PUCSORGBACK
 10
0.0
 20
0.0
 30
0.0
  9
$USERI1
 70
     0
  9
$USERI2
 70
     0
  9
$USERI3
 70
     0
  9
$USERI4
 70
     0
  9
$USERI5
 70
     0
  9
$USERR1
 40
0.0
  9
$USERR2
 40
0.0
  9
$USERR3
 40
0.0
  9
$USERR4
 40
0.0
  9
$USERR5
 40
0.0
  9
$WORLDVIEW
 70
     1
  9
$SHADEDGE
 70
     3
  9
$SHADEDIF
 70
    70
  9
$TILEMODE
 70
     1
  9
$MAXACTVP
 70
    64
  9
$PINSBASE
 10
0.0
 20
0.0
 30
0.0
  9
$PLIMCHECK
 70
     0
  9
$PEXTMIN
 10
1.0000000000E+20
 20
1.0000000000E+20
 30
1.0000000000E+20
  9
$PEXTMAX
 10
-1.0000000000E+20
 20
-1.0000000000E+20
 30
-1.0000000000E+20
  9
$PLIMMIN
 10
0.0
 20
0.0
  9
$PLIMMAX
 10
420.0
 20
297.0
  9
$UNITMODE
 70
     0
  9
$VISRETAIN
 70
     1
  9
$PLINEGEN
 70
     0
  9
$PSLTSCALE
 70
     1
  9
$TREEDEPTH
 70
  3020
  9
$CMLSTYLE
  2
Standard
  9
$CMLJUST
 70
     0
  9
$CMLSCALE
 40
20.0
  9
$PROXYGRAPHICS
 70
     1
  9
$MEASUREMENT
 70
     1
  9
$CELWEIGHT
370
    -1
  9
$ENDCAPS
280
     0
  9
$JOINSTYLE
280
     0
  9
$LWDISPLAY
290
     1
  9
$INSUNITS
 70
     4
  9
$HYPERLINKBASE
  1

  9
$STYLESHEET
  1

  9
$XEDIT
290
     1
  9
$CEPSNTYPE
380
     0
  9
$PSTYLEMODE
290
     1
  9
$FINGERPRINTGUID
  2
{03D7E250-8F95-434C-94E3-8A2BBEBBC6DB}
  9
$VERSIONGUID
  2
{FAEB1C32-E019-11D5-929B-00C0DF256EC4}
  9
$EXTNAMES
290
     1
  9
$PSVPSCALE
 40
0.0
  9
$OLESTARTUP
290
     0
  0
ENDSEC
  0
SECTION
  2
CLASSES
  0
CLASS
  1
ACDBDICTIONARYWDFLT
  2
AcDbDictionaryWithDefault
  3
ObjectDBX Classes
 90
        0
280
     0
281
     0
  0
CLASS
  1
VISUALSTYLE
  2
AcDbVisualStyle
  3
ObjectDBX Classes
 90
     4095
280
     0
281
     0
  0
CLASS
  1
MATERIAL
  2
AcDbMaterial
  3
ObjectDBX Classes
 90
     1153
280
     0
281
     0
  0
CLASS
  1
ACDBPLACEHOLDER
  2
AcDbPlaceHolder
  3
ObjectDBX Classes
 90
        0
280
     0
281
     0
  0
CLASS
  1
LAYOUT
  2
AcDbLayout
  3
ObjectDBX Classes
 90
        0
280
     0
281
     0
  0
ENDSEC
  0
SECTION
  2
TABLES
  0
TABLE
  2
VPORT
  5
8
330
0
100
AcDbSymbolTable
 70
     1
  0
VPORT
  5
29
330
8
100
AcDbSymbolTableRecord
100
AcDbViewportTableRecord
  2
*Active
 70
     0
 10
0.0
 20
0.0
 11
1.0
 21
1.0
 12
210.0
 22
148.5
 13
0.0
 23
0.0
 14
10.0
 24
10.0
 15
10.0
 25
10.0
 16
0.0
 26
0.0
 36
1.0
 17
0.0
 27
0.0
 37
0.0
 40
297.0
 41
1.4141414141
 42
50.0
 43
0.0
 44
0.0
 50
0.0
 51
0.0
 71
     0
 72
  2000
 73
     1
 74
     3
 75
     0
 76
     0
 77
     0
 78
     0
281
     0
 65
     1
110
0.0
120
0.0
130
0.0
111
1.0
121
0.0
131
0.0
112
0.0
122
1.0
132
0.0
 79
     0
146
0.0
  0
ENDTAB
  0
TABLE
  2
LTYPE
  5
5
330
0
100
AcDbSymbolTable
 70
     6
  0
LTYPE
  5
14
330
5
100
AcDbSymbolTableRecord
100
AcDbLinetypeTableRecord
  2
ByBlock
 70
     0
  3

 72
    65
 73
     0
 40
0.0
  0
LTYPE
  5
15
330
5
100
AcDbSymbolTableRecord
100
AcDbLinetypeTableRecord
  2
ByLayer
 70
     0
  3

 72
    65
 73
     0
 40
0.0
  0
LTYPE
  5
16
330
5
100
AcDbSymbolTableRecord
100
AcDbLinetypeTableRecord
  2
Continuous
 70
     0
  3
Solid line
 72
    65
 73
     0
 40
0.0
  0
LTYPE
  5
3F
330
5
100
AcDbSymbolTableRecord
100
AcDbLinetypeTableRecord
  2
HIDDEN
 70
     0
  3
Hidden __ __ __ __ __ __ __ __ __ __ __ __ __ __
 72
    65
 73
     2
 40
1.905
 49
1.27
 74
     0
 49
-0.635
 74
     0
  0
LTYPE
  5
40
330
5
100
AcDbSymbolTableRecord
100
AcDbLinetypeTableRecord
  2
PHANTOM
 70
     0
  3
Phantom ______  __  __  ______  __  __  ______
 72
    65
 73
     6
 40
12.7
 49
6.35
 74
     0
 49
-1.27
 74
     0
 49
1.27
 74
     0
 49
-1.27
 74
     0
 49
1.27
 74
     0
 49
-1.27
 74
     0
  0
LTYPE
  5
41
330
5
100
AcDbSymbolTableRecord
100
AcDbLinetypeTableRecord
  2
CENTER
 70
     0
  3
Center ____ _ ____ _ ____ _ ____ _ ____ _ ____
 72
    65
 73
     4
 40
10.16
 49
6.35
 74
     0
 49
-1.27
 74
     0
 49
1.27
 74
     0
 49
-1.27
 74
     0
  0
LTYPE
  5
42
330
5
100
AcDbSymbolTableRecord
100
AcDbLinetypeTableRecord
  2
CENTERX2
 70
     0
  3
Center (2x) ________  __  ________  __  _____
 72
    65
 73
     4
 40
20.32
 49
12.7
 74
     0
 49
-2.54
 74
     0
 49
2.54
 74
     0
 49
-2.54
 74
     0
  0
LTYPE
  5
43
330
5
100
AcDbSymbolTableRecord
100
AcDbLinetypeTableRecord
  2
DOT2
 70
     0
  3
Dot (.5x) ........................................
 72
    65
 73
     2
 40
0.635
 49
0.0
 74
     0
 49
-0.635
 74
     0
  0
ENDTAB
  0
TABLE
  2
LAYER
  5
2
330
0
100
AcDbSymbolTable
 70
     1
  0
LAYER
  5
10
330
2
100
AcDbSymbolTableRecord
100
AcDbLayerTableRecord
  2
0
 70
     0
 62
     7
  6
Continuous
370
    -3
390
F
  0
ENDTAB
  0
TABLE
  2
STYLE
  5
3
330
0
100
AcDbSymbolTable
 70
     2
  0
STYLE
  5
11
330
3
100
AcDbSymbolTableRecord
100
AcDbTextStyleTableRecord
  2
Standard
 70
     0
 40
0.0
 41
1.0
 50
0.0
 71
     0
 42
3.5
  3
txt
  4

  0
STYLE
  5
483
330
3
100
AcDbSymbolTableRecord
100
AcDbTextStyleTableRecord
  2
SLDTEXTSTYLE0
 70
     0
 40
0.0
 41
0.75
 50
0.0
 71
     0
 42
0.2
  3
TXT
  4

  0
ENDTAB
  0
TABLE
  2
VIEW
  5
6
330
0
100
AcDbSymbolTable
 70
     0
  0
ENDTAB
  0
TABLE
  2
UCS
  5
7
330
0
100
AcDbSymbolTable
 70
     0
  0
ENDTAB
  0
TABLE
  2
APPID
  5
9
330
0
100
AcDbSymbolTable
 70
     1
  0
APPID
  5
12
330
9
100
AcDbSymbolTableRecord
100
AcDbRegAppTableRecord
  2
ACAD
 70
     0
  0
ENDTAB
  0
TABLE
  2
DIMSTYLE
  5
A
330
0
100
AcDbSymbolTable
 70
     3
100
AcDbDimStyleTable
  0
DIMSTYLE
105
27
330
A
100
AcDbSymbolTableRecord
100
AcDbDimStyleTableRecord
  2
ISO-25
 70
     0
 41
2.5
 42
0.625
 43
3.75
 44
1.25
 73
     0
 74
     0
 77
     1
 78
     8
140
2.5
141
2.5
143
0.0393700787
147
0.625
171
     3
172
     1
178
     0
271
     2
272
     2
274
     3
278
    44
283
     0
284
     8
340
11
  0
DIMSTYLE
105
484
102
{ACAD_REACTORS
330
482
330
48E
102
}
330
A
100
AcDbSymbolTableRecord
100
AcDbDimStyleTableRecord
  2
SLDDIMSTYLE0
 70
     0
 41
3.302
 44
0.0
 45
0.000000001
 73
     0
 74
     0
 77
     1
 78
    12
 79
     3
140
4.2333333333
147
1.0583333333
173
     1
178
     0
271
     2
272
     2
276
     2
284
    12
340
483
  0
DIMSTYLE
105
499
102
{ACAD_REACTORS
330
498
102
}
330
A
100
AcDbSymbolTableRecord
100
AcDbDimStyleTableRecord
  2
SLDDIMSTYLE1
 70
     0
 41
3.302
 44
0.0
 45
0.000000001
 73
     0
 74
     0
 77
     1
 78
    12
 79
     3
140
4.2333333333
147
1.0583333333
172
     1
173
     1
178
     0
271
     2
272
     2
276
     2
284
    12
289
     0
340
483
  0
ENDTAB
  0
TABLE
  2
BLOCK_RECORD
  5
1
330
0
100
AcDbSymbolTable
 70
     4
  0
BLOCK_RECORD
  5
1F
330
1
100
AcDbSymbolTableRecord
100
AcDbBlockTableRecord
  2
*Model_Space
340
22
  0
BLOCK_RECORD
  5
1B
330
1
100
AcDbSymbolTableRecord
100
AcDbBlockTableRecord
  2
*Paper_Space
340
1E
  0
BLOCK_RECORD
  5
23
330
1
100
AcDbSymbolTableRecord
100
AcDbBlockTableRecord
  2
*Paper_Space0
340
26
  0
BLOCK_RECORD
  5
485
330
1
100
AcDbSymbolTableRecord
100
AcDbBlockTableRecord
  2
_D
340
0
  0
BLOCK_RECORD
  5
48F
330
1
100
AcDbSymbolTableRecord
100
AcDbBlockTableRecord
  2
_D_1
340
0
  0
BLOCK_RECORD
  5
49A
330
1
100
AcDbSymbolTableRecord
100
AcDbBlockTableRecord
  2
_D_2
340
0
  0
ENDTAB
  0
ENDSEC
  0
SECTION
  2
BLOCKS
  0
BLOCK
  5
20
330
1F
100
AcDbEntity
  8
0
100
AcDbBlockBegin
  2
*Model_Space
 70
     0
 10
0.0
 20
0.0
 30
0.0
  3
*Model_Space
  1

  0
ENDBLK
  5
21
330
1F
100
AcDbEntity
  8
0
100
AcDbBlockEnd
  0
BLOCK
  5
1C
330
1B
100
AcDbEntity
 67
     1
  8
0
100
AcDbBlockBegin
  2
*Paper_Space
 70
     0
 10
0.0
 20
0.0
 30
0.0
  3
*Paper_Space
  1

  0
ENDBLK
  5
1D
330
1B
100
AcDbEntity
 67
     1
  8
0
100
AcDbBlockEnd
  0
BLOCK
  5
24
330
23
100
AcDbEntity
  8
0
100
AcDbBlockBegin
  2
*Paper_Space0
 70
     0
 10
0.0
 20
0.0
 30
0.0
  3
*Paper_Space0
  1

  0
ENDBLK
  5
25
330
23
100
AcDbEntity
  8
0
100
AcDbBlockEnd
  0
BLOCK
  5
486
330
485
100
AcDbEntity
  8
0
100
AcDbBlockBegin
  2
_D
 70
     0
 10
0.0
 20
0.0
 30
0.0
  3
_D
  1

  0
SOLID
  5
488
330
485
100
AcDbEntity
  8
0
  6
Continuous
 62
     7
370
     0
100
AcDbTrace
 10
102.4429284165
 20
103.7285032538
 30
0.0
 11
105.7449284165
 21
103.2205032538
 31
0.0
 12
105.7449284165
 22
104.2365032538
 32
0.0
 13
105.7449284165
 23
104.2365032538
 33
0.0
  0
SOLID
  5
489
330
485
100
AcDbEntity
  8
0
  6
Continuous
 62
     7
370
     0
100
AcDbTrace
 10
302.4429284165
 20
103.7285032538
 30
0.0
 11
299.1409284165
 21
104.2365032538
 31
0.0
 12
299.1409284165
 22
103.2205032538
 32
0.0
 13
299.1409284165
 23
103.2205032538
 33
0.0
  0
LINE
  5
48A
330
485
100
AcDbEntity
  8
0
  6
Continuous
 62
     7
370
     0
100
AcDbLine
 10
102.4429284165
 20
113.2285032538
 30
0.0
 11
102.4429284165
 21
102.7285032538
 31
0.0
  0
LINE
  5
48B
330
485
100
AcDbEntity
  8
0
  6
Continuous
 62
     7
370
     0
100
AcDbLine
 10
302.4429284165
 20
113.2285032538
 30
0.0
 11
302.4429284165
 21
102.7285032538
 31
0.0
  0
LINE
  5
48C
330
485
100
AcDbEntity
  8
0
  6
Continuous
 62
     7
370
     0
100
AcDbLine
 10
102.4429284165
 20
103.7285032538
 30
0.0
 11
302.4429284165
 21
103.7285032538
 31
0.0
  0
MTEXT
  5
48D
330
485
100
AcDbEntity
  8
0
  6
Continuous
 62
     7
370
     0
100
AcDbMText
 10
187.4825176449
 20
109.1855564527
 30
-99.9
 40
4.2333333333
 41
0.0
 71
     1
 72
     1
  1
200
  7
SLDTEXTSTYLE0
 73
     1
 44
1.0
  0
ENDBLK
  5
487
330
485
100
AcDbEntity
  8
0
100
AcDbBlockEnd
  0
BLOCK
  5
490
330
48F
100
AcDbEntity
  8
0
100
AcDbBlockBegin
  2
_D_1
 70
     0
 10
0.0
 20
0.0
 30
0.0
  3
_D_1
  1

  0
SOLID
  5
492
330
48F
100
AcDbEntity
  8
0
  6
Continuous
 62
     7
370
     0
100
AcDbTrace
 10
330.4429284165
 20
113.7285032538
 30
0.0
 11
330.9509284165
 21
117.0305032538
 31
0.0
 12
329.9349284165
 22
117.0305032538
 32
0.0
 13
329.9349284165
 23
117.0305032538
 33
0.0
  0
SOLID
  5
493
330
48F
100
AcDbEntity
  8
0
  6
Continuous
 62
     7
370
     0
100
AcDbTrace
 10
330.4429284165
 20
197.7285032538
 30
0.0
 11
329.9349284165
 21
194.4265032538
 31
0.0
 12
330.9509284165
 22
194.4265032538
 32
0.0
 13
330.9509284165
 23
194.4265032538
 33
0.0
  0
LINE
  5
494
330
48F
100
AcDbEntity
  8
0
  6
Continuous
 62
     7
370
     0
100
AcDbLine
 10
302.9429284165
 20
113.7285032538
 30
0.0
 11
331.4429284165
 21
113.7285032538
 31
0.0
  0
LINE
  5
495
330
48F
100
AcDbEntity
  8
0
  6
Continuous
 62
     7
370
     0
100
AcDbLine
 10
302.9429284166
 20
197.7285032538
 30
0.0
 11
331.4429284165
 21
197.7285032538
 31
0.0
  0
LINE
  5
496
330
48F
100
AcDbEntity
  8
0
  6
Continuous
 62
     7
370
     0
100
AcDbLine
 10
330.4429284165
 20
113.7285032538
 30
0.0
 11
330.4429284165
 21
197.7285032538
 31
0.0
  0
MTEXT
  5
497
330
48F
100
AcDbEntity
  8
0
  6
Continuous
 62
     7
370
     0
100
AcDbMText
 10
324.9858752176
 20
150.7187746819
 30
-99.9
 40
4.2333333333
 41
0.0
 71
     1
 72
     1
  1
84
  7
SLDTEXTSTYLE0
 11
6.123233995736766E-17
 21
1.0
 31
0.0
 73
     1
 44
1.0
  0
ENDBLK
  5
491
330
48F
100
AcDbEntity
  8
0
100
AcDbBlockEnd
  0
BLOCK
  5
49B
330
49A
100
AcDbEntity
  8
0
100
AcDbBlockBegin
  2
_D_2
 70
     0
 10
0.0
 20
0.0
 30
0.0
  3
_D_2
  1

  0
SOLID
  5
49D
330
49A
100
AcDbEntity
  8
0
  6
Continuous
 62
     7
370
     0
100
AcDbTrace
 10
318.4429284165
 20
113.7285032538
 30
0.0
 11
317.9349284165
 21
110.4265032538
 31
0.0
 12
318.9509284165
 22
110.4265032538
 32
0.0
 13
318.9509284165
 23
110.4265032538
 33
0.0
  0
SOLID
  5
49E
330
49A
100
AcDbEntity
  8
0
  6
Continuous
 62
     7
370
     0
100
AcDbTrace
 10
318.4429284165
 20
128.7285018537
 30
0.0
 11
318.9509284165
 21
132.0305018537
 31
0.0
 12
317.9349284165
 22
132.0305018537
 32
0.0
 13
317.9349284165
 23
132.0305018537
 33
0.0
  0
LINE
  5
49F
330
49A
100
AcDbEntity
  8
0
  6
Continuous
 62
     7
370
     0
100
AcDbLine
 10
302.9429284165
 20
113.7285032538
 30
0.0
 11
319.4429284165
 21
113.7285032538
 31
0.0
  0
LINE
  5
4A0
330
49A
100
AcDbEntity
  8
0
  6
Continuous
 62
     7
370
     0
100
AcDbLine
 10
293.9429312128
 20
128.7285018537
 30
0.0
 11
319.4429284165
 21
128.7285018537
 31
0.0
  0
LINE
  5
4A1
330
49A
100
AcDbEntity
  8
0
  6
Continuous
 62
     7
370
     0
100
AcDbLine
 10
318.4429284165
 20
113.7285032538
 30
0.0
 11
318.4429284165
 21
107.3785032538
 31
0.0
  0
LINE
  5
4A2
330
49A
100
AcDbEntity
  8
0
  6
Continuous
 62
     7
370
     0
100
AcDbLine
 10
318.4429284165
 20
113.7285032538
 30
0.0
 11
318.4429284165
 21
128.7285018537
 31
0.0
  0
LINE
  5
4A3
330
49A
100
AcDbEntity
  8
0
  6
Continuous
 62
     7
370
     0
100
AcDbLine
 10
318.4429284165
 20
128.7285018537
 30
0.0
 11
318.4429284165
 21
135.0785018537
 31
0.0
  0
MTEXT
  5
4A4
330
49A
100
AcDbEntity
  8
0
  6
Continuous
 62
     7
370
     0
100
AcDbMText
 10
312.9858752176
 20
116.265267004
 30
-99.9
 40
4.2333333333
 41
0.0
 71
     1
 72
     1
  1
15
  7
SLDTEXTSTYLE0
 11
6.123233995736766E-17
 21
1.0
 31
0.0
 73
     1
 44
1.0
  0
ENDBLK
  5
49C
330
49A
100
AcDbEntity
  8
0
100
AcDbBlockEnd
  0
ENDSEC
  0
SECTION
  2
ENTITIES
  0
ARC
  5
44
330
1F
100
AcDbEntity
  8
0
  6
Continuous
 62
     7
370
    15
100
AcDbCircle
 10
297.9429284165
 20
136.7229175584
 30
0.0
 40
1.000000000002413
100
AcDbArc
 50
126.8737757428
 51
233.1263621156
  0
ARC
  5
45
330
1F
100
AcDbEntity
  8
0
  6
Continuous
 62
     7
370
    15
100
AcDbCircle
 10
296.4426019845
 20
138.7230807678
 30
0.0
 40
1.500326432012369
100
AcDbArc
 50
306.8735459988
 51
53.1263621156
  0
ARC
  5
46
330
1F
100
AcDbEntity
  8
0
  6
Continuous
 62
     7
370
    15
100
AcDbCircle
 10
297.9429284165
 20
140.7232439771
 30
0.0
 40
1.000000000002419
100
AcDbArc
 50
126.8737757428
 51
233.1263621156
  0
ARC
  5
47
330
1F
100
AcDbEntity
  8
0
  6
Continuous
 62
     7
370
    15
100
AcDbCircle
 10
296.4426019845
 20
142.7234071865
 30
0.0
 40
1.500326432012348
100
AcDbArc
 50
306.8735459988
 51
53.1263621156
  0
ARC
  5
48
330
1F
100
AcDbEntity
  8
0
  6
Continuous
 62
     7
370
    15
100
AcDbCircle
 10
297.9429284165
 20
144.7235703958
 30
0.0
 40
1.000000000002447
100
AcDbArc
 50
126.8737757428
 51
233.1263621156
  0
ARC
  5
49
330
1F
100
AcDbEntity
  8
0
  6
Continuous
 62
     7
370
    15
100
AcDbCircle
 10
296.4426019845
 20
146.7237336051
 30
0.0
 40
1.500326432012382
100
AcDbArc
 50
306.8735459988
 51
53.1263621156
  0
ARC
  5
4A
330
1F
100
AcDbEntity
  8
0
  6
Continuous
 62
     7
370
    15
100
AcDbCircle
 10
297.9429284165
 20
148.7238968145
 30
0.0
 40
1.000000000002385
100
AcDbArc
 50
126.8737757428
 51
233.1263621156
  0
ARC
  5
4B
330
1F
100
AcDbEntity
  8
0
  6
Continuous
 62
     7
370
    15
100
AcDbCircle
 10
296.4426019845
 20
150.7240600238
 30
0.0
 40
1.500326432012382
100
AcDbArc
 50
306.8735459988
 51
53.1263621156
  0
ARC
  5
4C
330
1F
100
AcDbEntity
  8
0
  6
Continuous
 62
     7
370
    15
100
AcDbCircle
 10
297.9429284165
 20
152.7242232332
 30
0.0
 40
1.000000000002413
100
AcDbArc
 50
126.8737757428
 51
233.1263621156
  0
ARC
  5
4D
330
1F
100
AcDbEntity
  8
0
  6
Continuous
 62
     7
370
    15
100
AcDbCircle
 10
296.4426019845
 20
154.7243864425
 30
0.0
 40
1.500326432012369
100
AcDbArc
 50
306.8735459988
 51
53.1263621156
  0
ARC
  5
4E
330
1F
100
AcDbEntity
  8
0
  6
Continuous
 62
     7
370
    15
100
AcDbCircle
 10
297.9429284165
 20
156.7245496519
 30
0.0
 40
1.000000000002419
100
AcDbArc
 50
126.8737757428
 51
233.1263621156
  0
ARC
  5
4F
330
1F
100
AcDbEntity
  8
0
  6
Continuous
 62
     7
370
    15
100
AcDbCircle
 10
296.4426019845
 20
158.7247128612
 30
0.0
 40
1.50032643201238
100
AcDbArc
 50
306.8735459988
 51
53.1263621156
  0
ARC
  5
50
330
1F
100
AcDbEntity
  8
0
  6
Continuous
 62
     7
370
    15
100
AcDbCircle
 10
297.9429284165
 20
160.7248760706
 30
0.0
 40
1.000000000002413
100
AcDbArc
 50
126.8737757428
 51
233.1263621156
  0
ARC
  5
51
330
1F
100
AcDbEntity
  8
0
  6
Continuous
 62
     7
370
    15
100
AcDbCircle
 10
296.4426019845
 20
162.7250392799
 30
0.0
 40
1.500326432012382
100
AcDbArc
 50
306.8735459988
 51
53.1263621156
  0
ARC
  5
52
330
1F
100
AcDbEntity
  8
0
  6
Continuous
 62
     7
370
    15
100
AcDbCircle
 10
297.9429284165
 20
164.7252024893
 30
0.0
 40
1.000000000002379
100
AcDbArc
 50
126.8737757428
 51
233.1263621156
  0
ARC
  5
53
330
1F
100
AcDbEntity
  8
0
  6
Continuous
 62
     7
370
    15
100
AcDbCircle
 10
296.4426019845
 20
166.7253656986
 30
0.0
 40
1.500326432012359
100
AcDbArc
 50
306.8735459988
 51
53.1263621156
  0
ARC
  5
54
330
1F
100
AcDbEntity
  8
0
  6
Continuous
 62
     7
370
    15
100
AcDbCircle
 10
297.9429284165
 20
168.725528908
 30
0.0
 40
1.000000000002402
100
AcDbArc
 50
126.8737757428
 51
233.1263621156
  0
ARC
  5
55
330
1F
100
AcDbEntity
  8
0
  6
Continuous
 62
     7
370
    15
100
AcDbCircle
 10
296.4426019845
 20
170.7256921173
 30
0.0
 40
1.500326432012405
100
AcDbArc
 50
306.8735459988
 51
53.1263621156
  0
ARC
  5
56
330
1F
100
AcDbEntity
  8
0
  6
Continuous
 62
     7
370
    15
100
AcDbCircle
 10
297.9429284165
 20
172.7258553267
 30
0.0
 40
1.000000000002385
100
AcDbArc
 50
126.8737757428
 51
233.1263621156
  0
ARC
  5
57
330
1F
100
AcDbEntity
  8
0
  6
Continuous
 62
     7
370
    15
100
AcDbCircle
 10
296.4426019845
 20
174.726018536
 30
0.0
 40
1.500326432012403
100
AcDbArc
 50
306.8735459988
 51
53.1263621156
  0
ARC
  5
58
330
1F
100
AcDbEntity
  8
0
  6
Continuous
 62
     7
370
    15
100
AcDbCircle
 10
297.9429284165
 20
176.7261817454
 30
0.0
 40
1.000000000002419
100
AcDbArc
 50
126.8737757428
 51
233.1263621156
  0
ARC
  5
59
330
1F
100
AcDbEntity
  8
0
  6
Continuous
 62
     7
370
    15
100
AcDbCircle
 10
296.4426019845
 20
178.7263449547
 30
0.0
 40
1.500326432012405
100
AcDbArc
 50
306.8735459988
 51
53.1263621156
  0
ARC
  5
5A
330
1F
100
AcDbEntity
  8
0
  6
Continuous
 62
     7
370
    15
100
AcDbCircle
 10
297.9429284165
 20
180.726508164
 30
0.0
 40
1.000000000002413
100
AcDbArc
 50
126.8737757428
 51
233.1263621156
  0
ARC
  5
5B
330
1F
100
AcDbEntity
  8
0
  6
Continuous
 62
     7
370
    15
100
AcDbCircle
 10
296.4426019845
 20
182.7266713734
 30
0.0
 40
1.500326432012416
100
AcDbArc
 50
306.8735459988
 51
53.1263621156
  0
ARC
  5
5C
330
1F
100
AcDbEntity
  8
0
  6
Continuous
 62
     7
370
    15
100
AcDbCircle
 10
297.9429284166
 20
184.7268345827
 30
0.0
 40
1.000000000002356
100
AcDbArc
 50
126.8737757428
 51
233.1263621156
  0
ARC
  5
5D
330
1F
100
AcDbEntity
  8
0
  6
Continuous
 62
     7
370
    15
100
AcDbCircle
 10
296.4426019845
 20
186.7269977921
 30
0.0
 40
1.500326432012416
100
AcDbArc
 50
306.8735459988
 51
53.1263621156
  0
ARC
  5
5E
330
1F
100
AcDbEntity
  8
0
  6
Continuous
 62
     7
370
    15
100
AcDbCircle
 10
297.9429284166
 20
188.7271610014
 30
0.0
 40
1.000000000000043
100
AcDbArc
 50
126.8736378844
 51
233.1263621156
  0
ARC
  5
5F
330
1F
100
AcDbEntity
  8
0
  6
Continuous
 62
     7
370
    15
100
AcDbCircle
 10
296.4426019845
 20
190.7273242108
 30
0.0
 40
1.500326432012382
100
AcDbArc
 50
306.8736378844
 51
53.1263621156
  0
ARC
  5
60
330
1F
100
AcDbEntity
  8
0
  6
Continuous
 62
     7
370
    15
100
AcDbCircle
 10
297.9429284166
 20
192.7274874201
 30
0.0
 40
0.9999999999999636
100
AcDbArc
 50
180.0
 51
233.1263621156
  0
LINE
  5
61
330
1F
100
AcDbEntity
  8
0
  6
Continuous
 62
     7
370
    15
100
AcDbLine
 10
296.9429349806
 20
195.7285031392
 30
0.0
 11
296.9429349806
 21
192.7274837806
 31
0.0
  0
ARC
  5
62
330
1F
100
AcDbEntity
  8
0
  6
Continuous
 62
     7
370
    15
100
AcDbCircle
 10
298.9429284166
 20
195.7285032538
 30
0.0
 40
2.0
100
AcDbArc
 50
90.0
 51
180.0
  0
LINE
  5
63
330
1F
100
AcDbEntity
  8
0
  6
Continuous
 62
     7
370
    15
100
AcDbLine
 10
298.9429390337
 20
197.7285071923
 30
0.0
 11
301.9429302122
 21
197.7285071923
 31
0.0
  0
ARC
  5
64
330
1F
100
AcDbEntity
  8
0
  6
Continuous
 62
     7
370
    15
100
AcDbCircle
 10
301.9429284165
 20
197.2285032538
 30
0.0
 40
0.5
100
AcDbArc
 50
0.0
 51
89.9999999922
  0
LINE
  5
65
330
1F
100
AcDbEntity
  8
0
  6
Continuous
 62
     7
370
    15
100
AcDbLine
 10
302.4429237749
 20
197.2284987285
 30
0.0
 11
302.4429237749
 21
114.2285093381
 31
0.0
  0
ARC
  5
66
330
1F
100
AcDbEntity
  8
0
  6
Continuous
 62
     7
370
    15
100
AcDbCircle
 10
301.9429284165
 20
114.2285032538
 30
0.0
 40
0.5
100
AcDbArc
 50
270.0
 51
0.0
  0
LINE
  5
67
330
1F
100
AcDbEntity
  8
0
  6
Continuous
 62
     7
370
    15
100
AcDbLine
 10
301.9429302122
 20
113.7285008742
 30
0.0
 11
102.9429292586
 21
113.7285008742
 31
0.0
  0
ARC
  5
68
330
1F
100
AcDbEntity
  8
0
  6
Continuous
 62
     7
370
    15
100
AcDbCircle
 10
102.9429284165
 20
114.2285032538
 30
0.0
 40
0.5
100
AcDbArc
 50
180.0
 51
270.0
  0
LINE
  5
69
330
1F
100
AcDbEntity
  8
0
  6
Continuous
 62
     7
370
    15
100
AcDbLine
 10
102.4429282453
 20
197.2284987285
 30
0.0
 11
102.4429282453
 21
114.2285093381
 31
0.0
  0
ARC
  5
6A
330
1F
100
AcDbEntity
  8
0
  6
Continuous
 62
     7
370
    15
100
AcDbCircle
 10
102.9429284165
 20
197.2285032538
 30
0.0
 40
0.5
100
AcDbArc
 50
90.0
 51
180.0
  0
LINE
  5
6B
330
1F
100
AcDbEntity
  8
0
  6
Continuous
 62
     7
370
    15
100
AcDbLine
 10
105.9429278877
 20
197.7285071923
 30
0.0
 11
102.9429292586
 21
197.7285071923
 31
0.0
  0
ARC
  5
6C
330
1F
100
AcDbEntity
  8
0
  6
Continuous
 62
     7
370
    15
100
AcDbCircle
 10
105.9429284165
 20
195.7285032538
 30
0.0
 40
2.000000000000014
100
AcDbArc
 50
0.0
 51
90.0
  0
LINE
  5
6D
330
1F
100
AcDbEntity
  8
0
  6
Continuous
 62
     7
370
    15
100
AcDbLine
 10
107.9429319408
 20
195.7285031392
 30
0.0
 11
107.9429319408
 21
192.7274837806
 31
0.0
  0
ARC
  5
6E
330
1F
100
AcDbEntity
  8
0
  6
Continuous
 62
     7
370
    15
100
AcDbCircle
 10
106.9429284165
 20
192.7274874201
 30
0.0
 40
1.0
100
AcDbArc
 50
306.8736378844
 51
0.0
  0
ARC
  5
6F
330
1F
100
AcDbEntity
  8
0
  6
Continuous
 62
     7
370
    15
100
AcDbCircle
 10
108.4432548485
 20
190.7273242108
 30
0.0
 40
1.500326432012407
100
AcDbArc
 50
126.8736378844
 51
233.1263621156
  0
ARC
  5
70
330
1F
100
AcDbEntity
  8
0
  6
Continuous
 62
     7
370
    15
100
AcDbCircle
 10
106.9429284165
 20
188.7271610014
 30
0.0
 40
1.000000000000023
100
AcDbArc
 50
306.8736378844
 51
53.1263621156
  0
ARC
  5
71
330
1F
100
AcDbEntity
  8
0
  6
Continuous
 62
     7
370
    15
100
AcDbCircle
 10
108.4432548485
 20
186.7269977921
 30
0.0
 40
1.500326432012397
100
AcDbArc
 50
126.8736378844
 51
233.1264540012
  0
ARC
  5
72
330
1F
100
AcDbEntity
  8
0
  6
Continuous
 62
     7
370
    15
100
AcDbCircle
 10
106.9429284165
 20
184.7268345827
 30
0.0
 40
1.00000000000482
100
AcDbArc
 50
306.8736378844
 51
53.1262242572
  0
ARC
  5
73
330
1F
100
AcDbEntity
  8
0
  6
Continuous
 62
     7
370
    15
100
AcDbCircle
 10
108.4432548485
 20
182.7266713734
 30
0.0
 40
1.500326432012435
100
AcDbArc
 50
126.8736378844
 51
233.1264540012
  0
ARC
  5
74
330
1F
100
AcDbEntity
  8
0
  6
Continuous
 62
     7
370
    15
100
AcDbCircle
 10
106.9429284165
 20
180.726508164
 30
0.0
 40
1.000000000004783
100
AcDbArc
 50
306.8736378844
 51
53.1262242572
  0
ARC
  5
75
330
1F
100
AcDbEntity
  8
0
  6
Continuous
 62
     7
370
    15
100
AcDbCircle
 10
108.4432548485
 20
178.7263449547
 30
0.0
 40
1.500326432012397
100
AcDbArc
 50
126.8736378844
 51
233.1264540012
  0
ARC
  5
76
330
1F
100
AcDbEntity
  8
0
  6
Continuous
 62
     7
370
    15
100
AcDbCircle
 10
106.9429284165
 20
176.7261817454
 30
0.0
 40
1.00000000000482
100
AcDbArc
 50
306.8736378844
 51
53.1262242572
  0
ARC
  5
77
330
1F
100
AcDbEntity
  8
0
  6
Continuous
 62
     7
370
    15
100
AcDbCircle
 10
108.4432548485
 20
174.726018536
 30
0.0
 40
1.500326432012435
100
AcDbArc
 50
126.8736378844
 51
233.1264540012
  0
ARC
  5
78
330
1F
100
AcDbEntity
  8
0
  6
Continuous
 62
     7
370
    15
100
AcDbCircle
 10
106.9429284165
 20
172.7258553267
 30
0.0
 40
1.000000000004806
100
AcDbArc
 50
306.8736378844
 51
53.1262242572
  0
ARC
  5
79
330
1F
100
AcDbEntity
  8
0
  6
Continuous
 62
     7
370
    15
100
AcDbCircle
 10
108.4432548485
 20
170.7256921173
 30
0.0
 40
1.500326432012397
100
AcDbArc
 50
126.8736378844
 51
233.1264540012
  0
ARC
  5
7A
330
1F
100
AcDbEntity
  8
0
  6
Continuous
 62
     7
370
    15
100
AcDbCircle
 10
106.9429284165
 20
168.725528908
 30
0.0
 40
1.000000000004797
100
AcDbArc
 50
306.8736378844
 51
53.1262242572
  0
ARC
  5
7B
330
1F
100
AcDbEntity
  8
0
  6
Continuous
 62
     7
370
    15
100
AcDbCircle
 10
108.4432548485
 20
166.7253656986
 30
0.0
 40
1.500326432012412
100
AcDbArc
 50
126.8736378844
 51
233.1264540012
  0
ARC
  5
7C
330
1F
100
AcDbEntity
  8
0
  6
Continuous
 62
     7
370
    15
100
AcDbCircle
 10
106.9429284165
 20
164.7252024893
 30
0.0
 40
1.000000000004829
100
AcDbArc
 50
306.8736378844
 51
53.1262242572
  0
ARC
  5
7D
330
1F
100
AcDbEntity
  8
0
  6
Continuous
 62
     7
370
    15
100
AcDbCircle
 10
108.4432548485
 20
162.7250392799
 30
0.0
 40
1.500326432012397
100
AcDbArc
 50
126.8736378844
 51
233.1264540012
  0
ARC
  5
7E
330
1F
100
AcDbEntity
  8
0
  6
Continuous
 62
     7
370
    15
100
AcDbCircle
 10
106.9429284165
 20
160.7248760706
 30
0.0
 40
1.000000000004797
100
AcDbArc
 50
306.8736378844
 51
53.1262242572
  0
ARC
  5
7F
330
1F
100
AcDbEntity
  8
0
  6
Continuous
 62
     7
370
    15
100
AcDbCircle
 10
108.4432548485
 20
158.7247128612
 30
0.0
 40
1.500326432012412
100
AcDbArc
 50
126.8736378844
 51
233.1264540012
  0
ARC
  5
80
330
1F
100
AcDbEntity
  8
0
  6
Continuous
 62
     7
370
    15
100
AcDbCircle
 10
106.9429284165
 20
156.7245496519
 30
0.0
 40
1.000000000004829
100
AcDbArc
 50
306.8736378844
 51
53.1262242572
  0
ARC
  5
81
330
1F
100
AcDbEntity
  8
0
  6
Continuous
 62
     7
370
    15
100
AcDbCircle
 10
108.4432548485
 20
154.7243864425
 30
0.0
 40
1.500326432012412
100
AcDbArc
 50
126.8736378844
 51
233.1264540012
  0
ARC
  5
82
330
1F
100
AcDbEntity
  8
0
  6
Continuous
 62
     7
370
    15
100
AcDbCircle
 10
106.9429284165
 20
152.7242232332
 30
0.0
 40
1.000000000004783
100
AcDbArc
 50
306.8736378844
 51
53.1262242572
  0
ARC
  5
83
330
1F
100
AcDbEntity
  8
0
  6
Continuous
 62
     7
370
    15
100
AcDbCircle
 10
108.4432548485
 20
150.7240600238
 30
0.0
 40
1.500326432012397
100
AcDbArc
 50
126.8736378844
 51
233.1264540012
  0
ARC
  5
84
330
1F
100
AcDbEntity
  8
0
  6
Continuous
 62
     7
370
    15
100
AcDbCircle
 10
106.9429284165
 20
148.7238968145
 30
0.0
 40
1.00000000000482
100
AcDbArc
 50
306.8736378844
 51
53.1262242572
  0
ARC
  5
85
330
1F
100
AcDbEntity
  8
0
  6
Continuous
 62
     7
370
    15
100
AcDbCircle
 10
108.4432548485
 20
146.7237336051
 30
0.0
 40
1.500326432012435
100
AcDbArc
 50
126.8736378844
 51
233.1264540012
  0
ARC
  5
86
330
1F
100
AcDbEntity
  8
0
  6
Continuous
 62
     7
370
    15
100
AcDbCircle
 10
106.9429284165
 20
144.7235703958
 30
0.0
 40
1.000000000004783
100
AcDbArc
 50
306.8736378844
 51
53.1262242572
  0
ARC
  5
87
330
1F
100
AcDbEntity
  8
0
  6
Continuous
 62
     7
370
    15
100
AcDbCircle
 10
108.4432548485
 20
142.7234071865
 30
0.0
 40
1.500326432012397
100
AcDbArc
 50
126.8736378844
 51
233.1264540012
  0
ARC
  5
88
330
1F
100
AcDbEntity
  8
0
  6
Continuous
 62
     7
370
    15
100
AcDbCircle
 10
106.9429284165
 20
140.7232439771
 30
0.0
 40
1.00000000000482
100
AcDbArc
 50
306.8736378844
 51
53.1262242572
  0
ARC
  5
89
330
1F
100
AcDbEntity
  8
0
  6
Continuous
 62
     7
370
    15
100
AcDbCircle
 10
108.4432548485
 20
138.7230807678
 30
0.0
 40
1.500326432012435
100
AcDbArc
 50
126.8736378844
 51
233.1264540012
  0
ARC
  5
8A
330
1F
100
AcDbEntity
  8
0
  6
Continuous
 62
     7
370
    15
100
AcDbCircle
 10
106.9429284165
 20
136.7229175584
 30
0.0
 40
1.000000000004783
100
AcDbArc
 50
306.8736378844
 51
53.1262242572
  0
ARC
  5
8B
330
1F
100
AcDbEntity
  8
0
  6
Continuous
 62
     7
370
    15
100
AcDbCircle
 10
108.4432548485
 20
134.7227543491
 30
0.0
 40
1.500326432012397
100
AcDbArc
 50
126.8736378844
 51
233.1264540012
  0
ARC
  5
8C
330
1F
100
AcDbEntity
  8
0
  6
Continuous
 62
     7
370
    15
100
AcDbCircle
 10
106.9429273678
 20
132.7225897417
 30
0.0
 40
1.000001747656956
100
AcDbArc
 50
0.0677478053
 51
53.1262242572
  0
ARC
  5
8D
330
1F
100
AcDbEntity
  8
0
  6
Continuous
 62
     7
370
    15
100
AcDbCircle
 10
111.9429248153
 20
132.7285018527
 30
0.0
 40
3.999999195127799
100
AcDbArc
 50
180.0677478053
 51
270.0
  0
LINE
  5
8E
330
1F
100
AcDbEntity
  8
0
  6
Continuous
 62
     7
370
    15
100
AcDbLine
 10
116.1930194404
 20
128.7285014703
 30
0.0
 11
111.9429251459
 21
128.7285014703
 31
0.0
  0
ARC
  5
8F
330
1F
100
AcDbEntity
  8
0
  6
Continuous
 62
     7
370
    15
100
AcDbCircle
 10
116.193020181
 20
131.7284973042
 30
0.0
 40
2.999995320510219
100
AcDbArc
 50
269.9999892754
 51
359.9999758696
  0
LINE
  5
90
330
1F
100
AcDbEntity
  8
0
  6
Continuous
 62
     7
370
    15
100
AcDbLine
 10
119.1930180695
 20
132.9347416474
 30
0.0
 11
119.1930180695
 21
131.7284926488
 31
0.0
  0
ARC
  5
91
330
1F
100
AcDbEntity
  8
0
  6
Continuous
 62
     7
370
    15
100
AcDbCircle
 10
119.9716885984
 20
132.934746397
 30
0.0
 40
0.7786725889157528
100
AcDbArc
 50
122.5781099429
 51
179.9999758696
  0
ARC
  5
92
330
1F
100
AcDbEntity
  8
0
  6
Continuous
 62
     7
370
    15
100
AcDbCircle
 10
118.8255072191
 20
134.7284897556
 30
0.0
 40
1.349999999999991
100
AcDbArc
 50
302.5781099429
 51
69.4824657628
  0
ARC
  5
93
330
1F
100
AcDbEntity
  8
0
  6
Continuous
 62
     7
370
    15
100
AcDbCircle
 10
119.5715942209
 20
136.7221299378
 30
0.0
 40
0.7786725889152187
100
AcDbArc
 50
109.5173531116
 51
249.4824657628
  0
ARC
  5
94
330
1F
100
AcDbEntity
  8
0
  6
Continuous
 62
     7
370
    15
100
AcDbCircle
 10
118.860421013
 20
138.7284897408
 30
0.0
 40
1.35
100
AcDbArc
 50
289.5173531116
 51
70.8140647064
  0
ARC
  5
95
330
1F
100
AcDbEntity
  8
0
  6
Continuous
 62
     7
370
    15
100
AcDbCircle
 10
119.5542898828
 20
140.7225857064
 30
0.0
 40
0.7613675019380423
100
AcDbArc
 50
108.185754168
 51
250.8140647064
  0
ARC
  5
96
330
1F
100
AcDbEntity
  8
0
  6
Continuous
 62
     7
370
    15
100
AcDbCircle
 10
118.895334807
 20
142.7284897261
 30
0.0
 40
1.349999999999994
100
AcDbArc
 50
288.185754168
 51
72.1238235638
  0
ARC
  5
97
330
1F
100
AcDbEntity
  8
0
  6
Continuous
 62
     7
370
    15
100
AcDbCircle
 10
119.5386370893
 20
144.7230270596
 30
0.0
 40
0.745713959671549
100
AcDbArc
 50
106.8759953106
 51
252.1238235638
  0
ARC
  5
98
330
1F
100
AcDbEntity
  8
0
  6
Continuous
 62
     7
370
    15
100
AcDbCircle
 10
118.930248601
 20
146.7284897114
 30
0.0
 40
1.350000000000015
100
AcDbArc
 50
286.8759953106
 51
73.4119415679
  0
ARC
  5
99
330
1F
100
AcDbEntity
  8
0
  6
Continuous
 62
     7
370
    15
100
AcDbCircle
 10
119.52452087
 20
148.7234550008
 30
0.0
 40
0.7315969916106223
100
AcDbArc
 50
105.5878773066
 51
253.4119415679
  0
ARC
  5
9A
330
1F
100
AcDbEntity
  8
0
  6
Continuous
 62
     7
370
    15
100
AcDbCircle
 10
118.965162395
 20
150.7284896967
 30
0.0
 40
1.350000000000033
100
AcDbArc
 50
285.5878773066
 51
74.6786332805
  0
ARC
  5
9B
330
1F
100
AcDbEntity
  8
0
  6
Continuous
 62
     7
370
    15
100
AcDbCircle
 10
119.5118366842
 20
152.7238704426
 30
0.0
 40
0.7189120569702142
100
AcDbArc
 50
104.321185594
 51
254.6786332805
  0
ARC
  5
9C
330
1F
100
AcDbEntity
  8
0
  6
Continuous
 62
     7
370
    15
100
AcDbCircle
 10
119.000076189
 20
154.728489682
 30
0.0
 40
1.349999999999995
100
AcDbArc
 50
284.321185594
 51
75.9241271146
  0
ARC
  5
9D
330
1F
100
AcDbEntity
  8
0
  6
Continuous
 62
     7
370
    15
100
AcDbCircle
 10
119.5004892642
 20
156.7242742165
 30
0.0
 40
0.7075638881958835
100
AcDbArc
 50
103.0756917598
 51
255.9241271146
  0
ARC
  5
9E
330
1F
100
AcDbEntity
  8
0
  6
Continuous
 62
     7
370
    15
100
AcDbCircle
 10
119.034989983
 20
158.7284896673
 30
0.0
 40
1.350000000000037
100
AcDbArc
 50
283.0756917598
 51
77.1486639236
  0
ARC
  5
9F
330
1F
100
AcDbEntity
  8
0
  6
Continuous
 62
     7
370
    15
100
AcDbCircle
 10
119.4903916098
 20
160.7246670819
 30
0.0
 40
0.697465485017458
100
AcDbArc
 50
101.8511549508
 51
257.1486639236
  0
ARC
  5
A0
330
1F
100
AcDbEntity
  8
0
  6
Continuous
 62
     7
370
    15
100
AcDbCircle
 10
119.069903777
 20
162.7284896526
 30
0.0
 40
1.350000000000015
100
AcDbArc
 50
281.8511549508
 51
78.3524956579
  0
ARC
  5
A1
330
1F
100
AcDbEntity
  8
0
  6
Continuous
 62
     7
370
    15
100
AcDbCircle
 10
119.4814641103
 20
164.7250497337
 30
0.0
 40
0.6885372366820267
100
AcDbArc
 50
100.6473232165
 51
258.3524956579
  0
ARC
  5
A2
330
1F
100
AcDbEntity
  8
0
  6
Continuous
 62
     7
370
    15
100
AcDbCircle
 10
119.104817571
 20
166.7284896379
 30
0.0
 40
1.350000000000001
100
AcDbArc
 50
280.6473232165
 51
79.5358840917
  0
ARC
  5
A3
330
1F
100
AcDbEntity
  8
0
  6
Continuous
 62
     7
370
    15
100
AcDbCircle
 10
119.4736337761
 20
168.7254228089
 30
0.0
 40
0.680706153688522
100
AcDbArc
 50
99.4639347827
 51
259.5358840917
  0
ARC
  5
A4
330
1F
100
AcDbEntity
  8
0
  6
Continuous
 62
     7
370
    15
100
AcDbCircle
 10
119.139731365
 20
170.7284896232
 30
0.0
 40
1.350000000000027
100
AcDbArc
 50
279.4639347827
 51
80.6990996181
  0
ARC
  5
A5
330
1F
100
AcDbEntity
  8
0
  6
Continuous
 62
     7
370
    15
100
AcDbCircle
 10
119.4668335646
 20
172.7257868928
 30
0.0
 40
0.6739051934327918
100
AcDbArc
 50
98.3007192563
 51
260.6990996181
  0
ARC
  5
A6
330
1F
100
AcDbEntity
  8
0
  6
Continuous
 62
     7
370
    15
100
AcDbCircle
 10
119.174645159
 20
174.7284896085
 30
0.0
 40
1.35000000000002
100
AcDbArc
 50
278.3007192563
 51
81.8424201135
  0
ARC
  5
A7
330
1F
100
AcDbEntity
  8
0
  6
Continuous
 62
     7
370
    15
100
AcDbCircle
 10
119.4610017866
 20
176.7261425237
 30
0.0
 40
0.6680726666160298
100
AcDbArc
 50
97.1573987609
 51
261.8424201135
  0
ARC
  5
A8
330
1F
100
AcDbEntity
  8
0
  6
Continuous
 62
     7
370
    15
100
AcDbCircle
 10
119.209558953
 20
178.7284895938
 30
0.0
 40
1.350000000000019
100
AcDbArc
 50
277.1573987609
 51
82.9661298691
  0
ARC
  5
A9
330
1F
100
AcDbEntity
  8
0
  6
Continuous
 62
     7
370
    15
100
AcDbCircle
 10
119.4560815821
 20
180.726490198
 30
0.0
 40
0.6631517133715042
100
AcDbArc
 50
96.0336890053
 51
262.9661298691
  0
ARC
  5
AA
330
1F
100
AcDbEntity
  8
0
  6
Continuous
 62
     7
370
    15
100
AcDbCircle
 10
119.244472747
 20
182.7284895791
 30
0.0
 40
1.350000000000032
100
AcDbArc
 50
276.0336890053
 51
84.0705185898
  0
ARC
  5
AB
330
1F
100
AcDbEntity
  8
0
  6
Continuous
 62
     7
370
    15
100
AcDbCircle
 10
119.4520204573
 20
184.7268303739
 30
0.0
 40
0.6590898397248309
100
AcDbArc
 50
94.9293002846
 51
264.0705185898
  0
ARC
  5
AC
330
1F
100
AcDbEntity
  8
0
  6
Continuous
 62
     7
370
    15
100
AcDbCircle
 10
119.2793865409
 20
186.7284895644
 30
0.0
 40
1.350000000000007
100
AcDbArc
 50
274.9293002846
 51
85.1558804569
  0
ARC
  5
AD
330
1F
100
AcDbEntity
  8
0
  6
Continuous
 62
     7
370
    15
100
AcDbCircle
 10
119.4487698728
 20
188.727163475
 30
0.0
 40
0.6558385064442256
100
AcDbArc
 50
93.8439384175
 51
265.1558804569
  0
ARC
  5
AE
330
1F
100
AcDbEntity
  8
0
  6
Continuous
 62
     7
370
    15
100
AcDbCircle
 10
119.3143003349
 20
190.7284895497
 30
0.0
 40
1.350000000000027
100
AcDbArc
 50
273.8439384175
 51
86.2225132557
  0
ARC
  5
AF
330
1F
100
AcDbEntity
  8
0
  6
Continuous
 62
     7
370
    15
100
AcDbCircle
 10
119.4462848786
 20
192.7274898937
 30
0.0
 40
0.6533527634917592
100
AcDbArc
 50
101.9340237361
 51
266.2225132557
  0
ARC
  5
B0
330
1F
100
AcDbEntity
  8
0
  6
Continuous
 62
     7
370
    15
100
AcDbCircle
 10
119.0320211501
 20
194.687542918
 30
0.0
 40
1.350000000000024
100
AcDbArc
 50
281.9340237361
 51
359.4999973188
  0
LINE
  5
B1
330
1F
100
AcDbEntity
  8
0
  6
Continuous
 62
     7
370
    15
100
AcDbLine
 10
120.392963877
 20
195.9354802682
 30
0.0
 11
120.38196682
 21
194.6757659032
 31
0.0
  0
ARC
  5
B2
330
1F
100
AcDbEntity
  8
0
  6
Continuous
 62
     7
370
    15
100
AcDbCircle
 10
121.1929327143
 20
195.9284963684
 30
0.0
 40
0.7999999999999972
100
AcDbArc
 50
21.3275979095
 51
179.4999973189
  0
ARC
  5
B3
330
1F
100
AcDbEntity
  8
0
  6
Continuous
 62
     7
370
    15
100
AcDbCircle
 10
123.1956924383
 20
196.7104512826
 30
0.0
 40
1.349999999999565
100
AcDbArc
 50
201.3275979095
 51
261.6220224683
  0
ARC
  5
B4
330
1F
100
AcDbEntity
  8
0
  6
Continuous
 62
     7
370
    15
100
AcDbCircle
 10
122.9036291482
 20
194.7273284006
 30
0.0
 40
0.6545142380960934
100
AcDbArc
 50
274.3119004389
 51
81.6220224683
  0
ARC
  5
B5
330
1F
100
AcDbEntity
  8
0
  6
Continuous
 62
     7
370
    15
100
AcDbCircle
 10
123.0543402397
 20
192.7284878623
 30
0.0
 40
1.350000000000019
100
AcDbArc
 50
94.3119004389
 51
266.6846873738
  0
ARC
  5
B6
330
1F
100
AcDbEntity
  8
0
  6
Continuous
 62
     7
370
    15
100
AcDbCircle
 10
122.9384175026
 20
190.7273283859
 30
0.0
 40
0.6545142380956267
100
AcDbArc
 50
274.3119004389
 51
86.6846873738
  0
ARC
  5
B7
330
1F
100
AcDbEntity
  8
0
  6
Continuous
 62
     7
370
    15
100
AcDbCircle
 10
123.0891285942
 20
188.7284878476
 30
0.0
 40
1.350000000000012
100
AcDbArc
 50
94.3119004389
 51
265.6123234309
  0
ARC
  5
B8
330
1F
100
AcDbEntity
  8
0
  6
Continuous
 62
     7
370
    15
100
AcDbCircle
 10
122.9355551575
 20
186.7269951696
 30
0.0
 40
0.6573758344473458
100
AcDbArc
 50
275.3877611732
 51
85.6123234309
  0
ARC
  5
B9
330
1F
100
AcDbEntity
  8
0
  6
Continuous
 62
     7
370
    15
100
AcDbCircle
 10
123.124039019
 20
184.7284878329
 30
0.0
 40
1.350000000000014
100
AcDbArc
 50
95.3877611732
 51
264.5174853148
  0
ARC
  5
BA
330
1F
100
AcDbEntity
  8
0
  6
Continuous
 62
     7
370
    15
100
AcDbCircle
 10
122.9319013426
 20
182.7266585814
 30
0.0
 40
0.6610289005896731
100
AcDbArc
 50
276.4825992893
 51
84.5174853148
  0
ARC
  5
BB
330
1F
100
AcDbEntity
  8
0
  6
Continuous
 62
     7
370
    15
100
AcDbCircle
 10
123.1589494437
 20
180.7284878182
 30
0.0
 40
1.349999999999994
100
AcDbArc
 50
96.4825992893
 51
263.4034739099
  0
ARC
  5
BC
330
1F
100
AcDbEntity
  8
0
  6
Continuous
 62
     7
370
    15
100
AcDbCircle
 10
122.9274131296
 20
178.7263147109
 30
0.0
 40
0.6655163647193564
100
AcDbArc
 50
277.5966106942
 51
83.4034739099
  0
ARC
  5
BD
330
1F
100
AcDbEntity
  8
0
  6
Continuous
 62
     7
370
    15
100
AcDbCircle
 10
123.1938598685
 20
176.7284878035
 30
0.0
 40
1.349999999999994
100
AcDbArc
 50
97.5966106942
 51
262.2699972202
  0
ARC
  5
BE
330
1F
100
AcDbEntity
  8
0
  6
Continuous
 62
     7
370
    15
100
AcDbCircle
 10
122.9220400467
 20
174.7259631176
 30
0.0
 40
0.6708886988712999
100
AcDbArc
 50
278.7300873839
 51
82.2699972202
  0
ARC
  5
BF
330
1F
100
AcDbEntity
  8
0
  6
Continuous
 62
     7
370
    15
100
AcDbCircle
 10
123.2287702932
 20
172.7284877888
 30
0.0
 40
1.350000000000018
100
AcDbArc
 50
98.7300873839
 51
261.1167681891
  0
ARC
  5
C0
330
1F
100
AcDbEntity
  8
0
  6
Continuous
 62
     7
370
    15
100
AcDbCircle
 10
122.9157274672
 20
170.7256033247
 30
0.0
 40
0.6772005296360201
100
AcDbArc
 50
279.883316415
 51
81.1167681891
  0
ARC
  5
C1
330
1F
100
AcDbEntity
  8
0
  6
Continuous
 62
     7
370
    15
100
AcDbCircle
 10
123.263680718
 20
168.7284877741
 30
0.0
 40
1.350000000000008
100
AcDbArc
 50
99.883316415
 51
259.9435056674
  0
ARC
  5
C2
330
1F
100
AcDbEntity
  8
0
  6
Continuous
 62
     7
370
    15
100
AcDbCircle
 10
122.9084161734
 20
166.7252348155
 30
0.0
 40
0.6845110746291274
100
AcDbArc
 50
281.0565789368
 51
79.9435056674
  0
ARC
  5
C3
330
1F
100
AcDbEntity
  8
0
  6
Continuous
 62
     7
370
    15
100
AcDbCircle
 10
123.2985911427
 20
164.7284877594
 30
0.0
 40
1.350000000000005
100
AcDbArc
 50
101.0565789367
 51
258.7499354481
  0
ARC
  5
C4
330
1F
100
AcDbEntity
  8
0
  6
Continuous
 62
     7
370
    15
100
AcDbCircle
 10
122.9000418641
 20
162.7248570287
 30
0.0
 40
0.6928846351639728
100
AcDbArc
 50
282.250149156
 51
78.7499354481
  0
ARC
  5
C5
330
1F
100
AcDbEntity
  8
0
  6
Continuous
 62
     7
370
    15
100
AcDbCircle
 10
123.3335015675
 20
160.7284877447
 30
0.0
 40
1.350000000000023
100
AcDbArc
 50
102.250149156
 51
257.5357913683
  0
ARC
  5
C6
330
1F
100
AcDbEntity
  8
0
  6
Continuous
 62
     7
370
    15
100
AcDbCircle
 10
122.8905345967
 20
158.7244693539
 30
0.0
 40
0.7023911537650736
100
AcDbArc
 50
283.4642932359
 51
77.5357913683
  0
ARC
  5
C7
330
1F
100
AcDbEntity
  8
0
  6
Continuous
 62
     7
370
    15
100
AcDbCircle
 10
123.3684119923
 20
156.72848773
 30
0.0
 40
1.35000000000001
100
AcDbArc
 50
103.4642932359
 51
256.3008164789
  0
ARC
  5
C8
330
1F
100
AcDbEntity
  8
0
  6
Continuous
 62
     7
370
    15
100
AcDbCircle
 10
122.8798181549
 20
154.7240711258
 30
0.0
 40
0.7131068466952071
100
AcDbArc
 50
284.6992681252
 51
76.3008164789
  0
ARC
  5
C9
330
1F
100
AcDbEntity
  8
0
  6
Continuous
 62
     7
370
    15
100
AcDbCircle
 10
123.403322417
 20
152.7284877153
 30
0.0
 40
1.350000000000005
100
AcDbArc
 50
104.6992681252
 51
255.0447642848
  0
ARC
  5
CA
330
1F
100
AcDbEntity
  8
0
  6
Continuous
 62
     7
370
    15
100
AcDbCircle
 10
122.8678093293
 20
150.7236616184
 30
0.0
 40
0.7251149235410221
100
AcDbArc
 50
285.9553203194
 51
75.0447642848
  0
ARC
  5
CB
330
1F
100
AcDbEntity
  8
0
  6
Continuous
 62
     7
370
    15
100
AcDbCircle
 10
123.4382328418
 20
148.7284877006
 30
0.0
 40
1.350000000000005
100
AcDbArc
 50
105.9553203194
 51
253.7674000508
  0
ARC
  5
CC
330
1F
100
AcDbEntity
  8
0
  6
Continuous
 62
     7
370
    15
100
AcDbCircle
 10
122.8544170959
 20
146.7232400371
 30
0.0
 40
0.7385064081873781
100
AcDbArc
 50
287.2326845533
 51
73.7674000508
  0
ARC
  5
CD
330
1F
100
AcDbEntity
  8
0
  6
Continuous
 62
     7
370
    15
100
AcDbCircle
 10
123.4731432665
 20
144.7284876859
 30
0.0
 40
1.350000000000011
100
AcDbArc
 50
107.2326845533
 51
252.4685021807
  0
ARC
  5
CE
330
1F
100
AcDbEntity
  8
0
  6
Continuous
 62
     7
370
    15
100
AcDbCircle
 10
122.839541677
 20
142.7228055112
 30
0.0
 40
0.7533810782030285
100
AcDbArc
 50
288.5315824234
 51
72.4685021807
  0
ARC
  5
CF
330
1F
100
AcDbEntity
  8
0
  6
Continuous
 62
     7
370
    15
100
AcDbCircle
 10
123.5080536913
 20
140.7284876712
 30
0.0
 40
1.350000000000005
100
AcDbArc
 50
108.5315824234
 51
251.1478636606
  0
ARC
  5
D0
330
1F
100
AcDbEntity
  8
0
  6
Continuous
 62
     7
370
    15
100
AcDbCircle
 10
122.8230734633
 20
138.7223570839
 30
0.0
 40
0.7698485431034517
100
AcDbArc
 50
289.8522209436
 51
71.1478636606
  0
ARC
  5
D1
330
1F
100
AcDbEntity
  8
0
  6
Continuous
 62
     7
370
    15
100
AcDbCircle
 10
123.542964116
 20
136.7284876565
 30
0.0
 40
1.350000000000028
100
AcDbArc
 50
109.8522209436
 51
249.8052935692
  0
ARC
  5
D2
330
1F
100
AcDbEntity
  8
0
  6
Continuous
 62
     7
370
    15
100
AcDbCircle
 10
122.8048917716
 20
134.7218937022
 30
0.0
 40
0.7880294860201184
100
AcDbArc
 50
318.1372298695
 51
69.8052935692
  0
ARC
  5
D3
330
1F
100
AcDbEntity
  8
0
  6
Continuous
 62
     7
370
    15
100
AcDbCircle
 10
123.9716858346
 20
133.6763569949
 30
0.0
 40
0.7786725889138238
100
AcDbArc
 50
138.1372298691
 51
179.9999758693
  0
LINE
  5
D4
330
1F
100
AcDbEntity
  8
0
  6
Continuous
 62
     7
370
    15
100
AcDbLine
 10
123.1930112746
 20
133.6763575389
 30
0.0
 11
123.1930112746
 21
131.7284926488
 31
0.0
  0
ARC
  5
D5
330
1F
100
AcDbEntity
  8
0
  6
Continuous
 62
     7
370
    15
100
AcDbCircle
 10
126.1930124253
 20
131.7284954325
 30
0.0
 40
3.00000000000001
100
AcDbArc
 50
179.9999758696
 51
269.9999892754
  0
LINE
  5
D6
330
1F
100
AcDbEntity
  8
0
  6
Continuous
 62
     7
370
    15
100
AcDbLine
 10
128.6930149701
 20
128.7285014703
 30
0.0
 11
126.1930099037
 21
128.7285014703
 31
0.0
  0
ARC
  5
D7
330
1F
100
AcDbEntity
  8
0
  6
Continuous
 62
     7
370
    15
100
AcDbCircle
 10
128.6930155015
 20
131.7284949645
 30
0.0
 40
2.999999999999968
100
AcDbArc
 50
269.9999892754
 51
359.9999758696
  0
LINE
  5
D8
330
1F
100
AcDbEntity
  8
0
  6
Continuous
 62
     7
370
    15
100
AcDbLine
 10
131.6930135991
 20
132.9347416474
 30
0.0
 11
131.6930135991
 21
131.7284926488
 31
0.0
  0
ARC
  5
D9
330
1F
100
AcDbEntity
  8
0
  6
Continuous
 62
     7
370
    15
100
AcDbCircle
 10
132.4716885984
 20
132.9347440572
 30
0.0
 40
0.7786725889157375
100
AcDbArc
 50
122.5781099429
 51
179.9999758696
  0
ARC
  5
DA
330
1F
100
AcDbEntity
  8
0
  6
Continuous
 62
     7
370
    15
100
AcDbCircle
 10
131.3255072191
 20
134.7284874158
 30
0.0
 40
1.350000000000011
100
AcDbArc
 50
302.5781099429
 51
69.4824657628
  0
ARC
  5
DB
330
1F
100
AcDbEntity
  8
0
  6
Continuous
 62
     7
370
    15
100
AcDbCircle
 10
132.0715942209
 20
136.7221275981
 30
0.0
 40
0.7786725889152039
100
AcDbArc
 50
109.5173531116
 51
249.4824657628
  0
ARC
  5
DC
330
1F
100
AcDbEntity
  8
0
  6
Continuous
 62
     7
370
    15
100
AcDbCircle
 10
131.360421013
 20
138.7284874011
 30
0.0
 40
1.350000000000017
100
AcDbArc
 50
289.5173531116
 51
70.8140647064
  0
ARC
  5
DD
330
1F
100
AcDbEntity
  8
0
  6
Continuous
 62
     7
370
    15
100
AcDbCircle
 10
132.0542898828
 20
140.7225833667
 30
0.0
 40
0.7613675019380107
100
AcDbArc
 50
108.185754168
 51
250.8140647064
  0
ARC
  5
DE
330
1F
100
AcDbEntity
  8
0
  6
Continuous
 62
     7
370
    15
100
AcDbCircle
 10
131.395334807
 20
142.7284873864
 30
0.0
 40
1.349999999999998
100
AcDbArc
 50
288.185754168
 51
72.1238235638
  0
ARC
  5
DF
330
1F
100
AcDbEntity
  8
0
  6
Continuous
 62
     7
370
    15
100
AcDbCircle
 10
132.0386370893
 20
144.7230247198
 30
0.0
 40
0.7457139596715323
100
AcDbArc
 50
106.8759953106
 51
252.1238235638
  0
ARC
  5
E0
330
1F
100
AcDbEntity
  8
0
  6
Continuous
 62
     7
370
    15
100
AcDbCircle
 10
131.430248601
 20
146.7284873717
 30
0.0
 40
1.350000000000027
100
AcDbArc
 50
286.8759953106
 51
73.4119415679
  0
ARC
  5
E1
330
1F
100
AcDbEntity
  8
0
  6
Continuous
 62
     7
370
    15
100
AcDbCircle
 10
132.02452087
 20
148.7234526611
 30
0.0
 40
0.7315969916106374
100
AcDbArc
 50
105.5878773066
 51
253.4119415679
  0
ARC
  5
E2
330
1F
100
AcDbEntity
  8
0
  6
Continuous
 62
     7
370
    15
100
AcDbCircle
 10
131.465162395
 20
150.728487357
 30
0.0
 40
1.350000000000009
100
AcDbArc
 50
285.5878773066
 51
74.6786332805
  0
ARC
  5
E3
330
1F
100
AcDbEntity
  8
0
  6
Continuous
 62
     7
370
    15
100
AcDbCircle
 10
132.0118366842
 20
152.7238681029
 30
0.0
 40
0.7189120569702052
100
AcDbArc
 50
104.321185594
 51
254.6786332805
  0
ARC
  5
E4
330
1F
100
AcDbEntity
  8
0
  6
Continuous
 62
     7
370
    15
100
AcDbCircle
 10
131.500076189
 20
154.7284873423
 30
0.0
 40
1.349999999999996
100
AcDbArc
 50
284.321185594
 51
75.9241271146
  0
ARC
  5
E5
330
1F
100
AcDbEntity
  8
0
  6
Continuous
 62
     7
370
    15
100
AcDbCircle
 10
132.0004892642
 20
156.7242718768
 30
0.0
 40
0.7075638881958671
100
AcDbArc
 50
103.0756917598
 51
255.9241271146
  0
ARC
  5
E6
330
1F
100
AcDbEntity
  8
0
  6
Continuous
 62
     7
370
    15
100
AcDbCircle
 10
131.534989983
 20
158.7284873276
 30
0.0
 40
1.350000000000037
100
AcDbArc
 50
283.0756917598
 51
77.1486639236
  0
ARC
  5
E7
330
1F
100
AcDbEntity
  8
0
  6
Continuous
 62
     7
370
    15
100
AcDbCircle
 10
131.9903916098
 20
160.7246647422
 30
0.0
 40
0.6974654850174735
100
AcDbArc
 50
101.8511549508
 51
257.1486639236
  0
ARC
  5
E8
330
1F
100
AcDbEntity
  8
0
  6
Continuous
 62
     7
370
    15
100
AcDbCircle
 10
131.569903777
 20
162.7284873129
 30
0.0
 40
1.35000000000001
100
AcDbArc
 50
281.8511549508
 51
78.3524956579
  0
ARC
  5
E9
330
1F
100
AcDbEntity
  8
0
  6
Continuous
 62
     7
370
    15
100
AcDbCircle
 10
131.9814641103
 20
164.725047394
 30
0.0
 40
0.688537236682032
100
AcDbArc
 50
100.6473232165
 51
258.3524956579
  0
ARC
  5
EA
330
1F
100
AcDbEntity
  8
0
  6
Continuous
 62
     7
370
    15
100
AcDbCircle
 10
131.604817571
 20
166.7284872982
 30
0.0
 40
1.349999999999999
100
AcDbArc
 50
280.6473232165
 51
79.5358840917
  0
ARC
  5
EB
330
1F
100
AcDbEntity
  8
0
  6
Continuous
 62
     7
370
    15
100
AcDbCircle
 10
131.9736337761
 20
168.7254204692
 30
0.0
 40
0.6807061536885475
100
AcDbArc
 50
99.4639347827
 51
259.5358840917
  0
ARC
  5
EC
330
1F
100
AcDbEntity
  8
0
  6
Continuous
 62
     7
370
    15
100
AcDbCircle
 10
131.639731365
 20
170.7284872835
 30
0.0
 40
1.35000000000003
100
AcDbArc
 50
279.4639347827
 51
80.6990996181
  0
ARC
  5
ED
330
1F
100
AcDbEntity
  8
0
  6
Continuous
 62
     7
370
    15
100
AcDbCircle
 10
131.9668335646
 20
172.725784553
 30
0.0
 40
0.6739051934328152
100
AcDbArc
 50
98.3007192563
 51
260.6990996181
  0
ARC
  5
EE
330
1F
100
AcDbEntity
  8
0
  6
Continuous
 62
     7
370
    15
100
AcDbCircle
 10
131.674645159
 20
174.7284872688
 30
0.0
 40
1.349999999999996
100
AcDbArc
 50
278.3007192563
 51
81.8424201135
  0
ARC
  5
EF
330
1F
100
AcDbEntity
  8
0
  6
Continuous
 62
     7
370
    15
100
AcDbCircle
 10
131.9610017866
 20
176.726140184
 30
0.0
 40
0.6680726666160598
100
AcDbArc
 50
97.1573987609
 51
261.8424201135
  0
ARC
  5
F0
330
1F
100
AcDbEntity
  8
0
  6
Continuous
 62
     7
370
    15
100
AcDbCircle
 10
131.709558953
 20
178.7284872541
 30
0.0
 40
1.350000000000004
100
AcDbArc
 50
277.1573987609
 51
82.9661298691
  0
ARC
  5
F1
330
1F
100
AcDbEntity
  8
0
  6
Continuous
 62
     7
370
    15
100
AcDbCircle
 10
131.9560815821
 20
180.7264878583
 30
0.0
 40
0.6631517133715042
100
AcDbArc
 50
96.0336890053
 51
262.9661298691
  0
ARC
  5
F2
330
1F
100
AcDbEntity
  8
0
  6
Continuous
 62
     7
370
    15
100
AcDbCircle
 10
131.744472747
 20
182.7284872394
 30
0.0
 40
1.350000000000003
100
AcDbArc
 50
276.0336890053
 51
84.0705185898
  0
ARC
  5
F3
330
1F
100
AcDbEntity
  8
0
  6
Continuous
 62
     7
370
    15
100
AcDbCircle
 10
131.9520204573
 20
184.7268280341
 30
0.0
 40
0.6590898397248323
100
AcDbArc
 50
94.9293002846
 51
264.0705185898
  0
ARC
  5
F4
330
1F
100
AcDbEntity
  8
0
  6
Continuous
 62
     7
370
    15
100
AcDbCircle
 10
131.7793865409
 20
186.7284872247
 30
0.0
 40
1.350000000000009
100
AcDbArc
 50
274.9293002846
 51
85.1558804569
  0
ARC
  5
F5
330
1F
100
AcDbEntity
  8
0
  6
Continuous
 62
     7
370
    15
100
AcDbCircle
 10
131.9487698728
 20
188.7271611352
 30
0.0
 40
0.6558385064442246
100
AcDbArc
 50
93.8439384175
 51
265.1558804569
  0
ARC
  5
F6
330
1F
100
AcDbEntity
  8
0
  6
Continuous
 62
     7
370
    15
100
AcDbCircle
 10
131.8143003349
 20
190.72848721
 30
0.0
 40
1.350000000000003
100
AcDbArc
 50
273.8439384175
 51
86.2225132557
  0
ARC
  5
F7
330
1F
100
AcDbEntity
  8
0
  6
Continuous
 62
     7
370
    15
100
AcDbCircle
 10
131.9462848786
 20
192.7274875539
 30
0.0
 40
0.6533527634917563
100
AcDbArc
 50
101.9340237361
 51
266.2225132557
  0
ARC
  5
F8
330
1F
100
AcDbEntity
  8
0
  6
Continuous
 62
     7
370
    15
100
AcDbCircle
 10
131.5320211501
 20
194.6875405783
 30
0.0
 40
1.350000000000021
100
AcDbArc
 50
281.9340237361
 51
359.4999973188
  0
LINE
  5
F9
330
1F
100
AcDbEntity
  8
0
  6
Continuous
 62
     7
370
    15
100
AcDbLine
 10
132.8929668572
 20
195.9354802682
 30
0.0
 11
132.8819698002
 21
194.6757659032
 31
0.0
  0
ARC
  5
FA
330
1F
100
AcDbEntity
  8
0
  6
Continuous
 62
     7
370
    15
100
AcDbCircle
 10
133.6929327143
 20
195.9284940286
 30
0.0
 40
0.8000000000000063
100
AcDbArc
 50
21.3275979095
 51
179.4999973189
  0
ARC
  5
FB
330
1F
100
AcDbEntity
  8
0
  6
Continuous
 62
     7
370
    15
100
AcDbCircle
 10
135.6956924383
 20
196.7104489429
 30
0.0
 40
1.349999999999572
100
AcDbArc
 50
201.3275979095
 51
261.6220224683
  0
ARC
  5
FC
330
1F
100
AcDbEntity
  8
0
  6
Continuous
 62
     7
370
    15
100
AcDbCircle
 10
135.4036291482
 20
194.7273260608
 30
0.0
 40
0.6545142380960841
100
AcDbArc
 50
274.3119004389
 51
81.6220224683
  0
ARC
  5
FD
330
1F
100
AcDbEntity
  8
0
  6
Continuous
 62
     7
370
    15
100
AcDbCircle
 10
135.5543402397
 20
192.7284855225
 30
0.0
 40
1.350000000000017
100
AcDbArc
 50
94.3119004389
 51
266.6846873738
  0
ARC
  5
FE
330
1F
100
AcDbEntity
  8
0
  6
Continuous
 62
     7
370
    15
100
AcDbCircle
 10
135.4384175026
 20
190.7273260462
 30
0.0
 40
0.6545142380956568
100
AcDbArc
 50
274.3119004389
 51
86.6846873738
  0
ARC
  5
FF
330
1F
100
AcDbEntity
  8
0
  6
Continuous
 62
     7
370
    15
100
AcDbCircle
 10
135.5891285942
 20
188.7284855079
 30
0.0
 40
1.35000000000001
100
AcDbArc
 50
94.3119004389
 51
265.6123234309
  0
ARC
  5
100
330
1F
100
AcDbEntity
  8
0
  6
Continuous
 62
     7
370
    15
100
AcDbCircle
 10
135.4355551575
 20
186.7269928298
 30
0.0
 40
0.6573758344473253
100
AcDbArc
 50
275.3877611732
 51
85.6123234309
  0
ARC
  5
101
330
1F
100
AcDbEntity
  8
0
  6
Continuous
 62
     7
370
    15
100
AcDbCircle
 10
135.6240390189
 20
184.7284854932
 30
0.0
 40
1.350000000000017
100
AcDbArc
 50
95.3877611732
 51
264.5174853148
  0
ARC
  5
102
330
1F
100
AcDbEntity
  8
0
  6
Continuous
 62
     7
370
    15
100
AcDbCircle
 10
135.4319013425
 20
182.7266562416
 30
0.0
 40
0.6610289005896313
100
AcDbArc
 50
276.4825992893
 51
84.5174853148
  0
ARC
  5
103
330
1F
100
AcDbEntity
  8
0
  6
Continuous
 62
     7
370
    15
100
AcDbCircle
 10
135.6589494437
 20
180.7284854785
 30
0.0
 40
1.349999999999994
100
AcDbArc
 50
96.4825992893
 51
263.4034739099
  0
ARC
  5
104
330
1F
100
AcDbEntity
  8
0
  6
Continuous
 62
     7
370
    15
100
AcDbCircle
 10
135.4274131296
 20
178.7263123711
 30
0.0
 40
0.6655163647193545
100
AcDbArc
 50
277.5966106942
 51
83.4034739099
  0
ARC
  5
105
330
1F
100
AcDbEntity
  8
0
  6
Continuous
 62
     7
370
    15
100
AcDbCircle
 10
135.6938598685
 20
176.7284854638
 30
0.0
 40
1.349999999999998
100
AcDbArc
 50
97.5966106942
 51
262.2699972202
  0
ARC
  5
106
330
1F
100
AcDbEntity
  8
0
  6
Continuous
 62
     7
370
    15
100
AcDbCircle
 10
135.4220400467
 20
174.7259607778
 30
0.0
 40
0.6708886988713193
100
AcDbArc
 50
278.7300873839
 51
82.2699972202
  0
ARC
  5
107
330
1F
100
AcDbEntity
  8
0
  6
Continuous
 62
     7
370
    15
100
AcDbCircle
 10
135.7287702932
 20
172.7284854491
 30
0.0
 40
1.35
100
AcDbArc
 50
98.7300873839
 51
261.1167681891
  0
ARC
  5
108
330
1F
100
AcDbEntity
  8
0
  6
Continuous
 62
     7
370
    15
100
AcDbCircle
 10
135.4157274672
 20
170.725600985
 30
0.0
 40
0.6772005296360201
100
AcDbArc
 50
279.883316415
 51
81.1167681891
  0
ARC
  5
109
330
1F
100
AcDbEntity
  8
0
  6
Continuous
 62
     7
370
    15
100
AcDbCircle
 10
135.763680718
 20
168.7284854343
 30
0.0
 40
1.350000000000011
100
AcDbArc
 50
99.883316415
 51
259.9435056674
  0
ARC
  5
10A
330
1F
100
AcDbEntity
  8
0
  6
Continuous
 62
     7
370
    15
100
AcDbCircle
 10
135.4084161734
 20
166.7252324758
 30
0.0
 40
0.6845110746291054
100
AcDbArc
 50
281.0565789367
 51
79.9435056674
  0
ARC
  5
10B
330
1F
100
AcDbEntity
  8
0
  6
Continuous
 62
     7
370
    15
100
AcDbCircle
 10
135.7985911427
 20
164.7284854196
 30
0.0
 40
1.350000000000033
100
AcDbArc
 50
101.0565789367
 51
258.7499354481
  0
ARC
  5
10C
330
1F
100
AcDbEntity
  8
0
  6
Continuous
 62
     7
370
    15
100
AcDbCircle
 10
135.400041864
 20
162.7248546889
 30
0.0
 40
0.6928846351639383
100
AcDbArc
 50
282.250149156
 51
78.7499354481
  0
ARC
  5
10D
330
1F
100
AcDbEntity
  8
0
  6
Continuous
 62
     7
370
    15
100
AcDbCircle
 10
135.8335015675
 20
160.7284854049
 30
0.0
 40
1.349999999999999
100
AcDbArc
 50
102.250149156
 51
257.5357913683
  0
ARC
  5
10E
330
1F
100
AcDbEntity
  8
0
  6
Continuous
 62
     7
370
    15
100
AcDbCircle
 10
135.3905345967
 20
158.7244670141
 30
0.0
 40
0.7023911537650712
100
AcDbArc
 50
283.4642932359
 51
77.5357913683
  0
ARC
  5
10F
330
1F
100
AcDbEntity
  8
0
  6
Continuous
 62
     7
370
    15
100
AcDbCircle
 10
135.8684119923
 20
156.7284853902
 30
0.0
 40
1.350000000000038
100
AcDbArc
 50
103.4642932359
 51
256.3008164789
  0
ARC
  5
110
330
1F
100
AcDbEntity
  8
0
  6
Continuous
 62
     7
370
    15
100
AcDbCircle
 10
135.3798181549
 20
154.7240687861
 30
0.0
 40
0.7131068466952137
100
AcDbArc
 50
284.6992681252
 51
76.3008164789
  0
ARC
  5
111
330
1F
100
AcDbEntity
  8
0
  6
Continuous
 62
     7
370
    15
100
AcDbCircle
 10
135.903322417
 20
152.7284853755
 30
0.0
 40
1.350000000000043
100
AcDbArc
 50
104.6992681252
 51
255.0447642848
  0
ARC
  5
112
330
1F
100
AcDbEntity
  8
0
  6
Continuous
 62
     7
370
    15
100
AcDbCircle
 10
135.3678093293
 20
150.7236592786
 30
0.0
 40
0.7251149235409917
100
AcDbArc
 50
285.9553203194
 51
75.0447642848
  0
ARC
  5
113
330
1F
100
AcDbEntity
  8
0
  6
Continuous
 62
     7
370
    15
100
AcDbCircle
 10
135.9382328418
 20
148.7284853608
 30
0.0
 40
1.350000000000001
100
AcDbArc
 50
105.9553203194
 51
253.7674000508
  0
ARC
  5
114
330
1F
100
AcDbEntity
  8
0
  6
Continuous
 62
     7
370
    15
100
AcDbCircle
 10
135.3544170958
 20
146.7232376974
 30
0.0
 40
0.7385064081873924
100
AcDbArc
 50
287.2326845533
 51
73.7674000508
  0
ARC
  5
115
330
1F
100
AcDbEntity
  8
0
  6
Continuous
 62
     7
370
    15
100
AcDbCircle
 10
135.9731432665
 20
144.7284853461
 30
0.0
 40
1.350000000000007
100
AcDbArc
 50
107.2326845533
 51
252.4685021807
  0
ARC
  5
116
330
1F
100
AcDbEntity
  8
0
  6
Continuous
 62
     7
370
    15
100
AcDbCircle
 10
135.339541677
 20
142.7228031714
 30
0.0
 40
0.7533810782030256
100
AcDbArc
 50
288.5315824234
 51
72.4685021807
  0
ARC
  5
117
330
1F
100
AcDbEntity
  8
0
  6
Continuous
 62
     7
370
    15
100
AcDbCircle
 10
136.0080536913
 20
140.7284853314
 30
0.0
 40
1.35
100
AcDbArc
 50
108.5315824234
 51
251.1478636606
  0
ARC
  5
118
330
1F
100
AcDbEntity
  8
0
  6
Continuous
 62
     7
370
    15
100
AcDbCircle
 10
135.3230734633
 20
138.7223547442
 30
0.0
 40
0.7698485431034691
100
AcDbArc
 50
289.8522209436
 51
71.1478636606
  0
ARC
  5
119
330
1F
100
AcDbEntity
  8
0
  6
Continuous
 62
     7
370
    15
100
AcDbCircle
 10
136.042964116
 20
136.7284853167
 30
0.0
 40
1.350000000000001
100
AcDbArc
 50
109.8522209436
 51
249.8052935692
  0
ARC
  5
11A
330
1F
100
AcDbEntity
  8
0
  6
Continuous
 62
     7
370
    15
100
AcDbCircle
 10
135.3048917716
 20
134.7218913624
 30
0.0
 40
0.7880294860201451
100
AcDbArc
 50
318.1372298695
 51
69.8052935692
  0
ARC
  5
11B
330
1F
100
AcDbEntity
  8
0
  6
Continuous
 62
     7
370
    15
100
AcDbCircle
 10
136.4716858346
 20
133.6763546552
 30
0.0
 40
0.778672588913805
100
AcDbArc
 50
138.1372298691
 51
179.9999758693
  0
LINE
  5
11C
330
1F
100
AcDbEntity
  8
0
  6
Continuous
 62
     7
370
    15
100
AcDbLine
 10
135.6930142548
 20
133.6763575389
 30
0.0
 11
135.6930142548
 21
131.7284926488
 31
0.0
  0
ARC
  5
11D
330
1F
100
AcDbEntity
  8
0
  6
Continuous
 62
     7
370
    15
100
AcDbCircle
 10
138.6930124253
 20
131.7284930927
 30
0.0
 40
3.000000000000039
100
AcDbArc
 50
179.9999758696
 51
269.9999892754
  0
LINE
  5
11E
330
1F
100
AcDbEntity
  8
0
  6
Continuous
 62
     7
370
    15
100
AcDbLine
 10
141.1930179503
 20
128.7284865691
 30
0.0
 11
138.6930128839
 21
128.7284865691
 31
0.0
  0
ARC
  5
11F
330
1F
100
AcDbEntity
  8
0
  6
Continuous
 62
     7
370
    15
100
AcDbCircle
 10
141.1930155015
 20
131.7284926248
 30
0.0
 40
2.999999999999982
100
AcDbArc
 50
269.9999892754
 51
359.9999758696
  0
LINE
  5
120
330
1F
100
AcDbEntity
  8
0
  6
Continuous
 62
     7
370
    15
100
AcDbLine
 10
144.1930165794
 20
132.9347416474
 30
0.0
 11
144.1930165794
 21
131.7284926488
 31
0.0
  0
ARC
  5
121
330
1F
100
AcDbEntity
  8
0
  6
Continuous
 62
     7
370
    15
100
AcDbCircle
 10
144.9716885984
 20
132.9347417175
 30
0.0
 40
0.7786725889157451
100
AcDbArc
 50
122.5781099429
 51
179.9999758696
  0
ARC
  5
122
330
1F
100
AcDbEntity
  8
0
  6
Continuous
 62
     7
370
    15
100
AcDbCircle
 10
143.825507219
 20
134.7284850761
 30
0.0
 40
1.349999999999991
100
AcDbArc
 50
302.5781099429
 51
69.4824657628
  0
ARC
  5
123
330
1F
100
AcDbEntity
  8
0
  6
Continuous
 62
     7
370
    15
100
AcDbCircle
 10
144.5715942209
 20
136.7221252583
 30
0.0
 40
0.7786725889152062
100
AcDbArc
 50
109.5173531116
 51
249.4824657628
  0
ARC
  5
124
330
1F
100
AcDbEntity
  8
0
  6
Continuous
 62
     7
370
    15
100
AcDbCircle
 10
143.860421013
 20
138.7284850614
 30
0.0
 40
1.35
100
AcDbArc
 50
289.5173531116
 51
70.8140647064
  0
ARC
  5
125
330
1F
100
AcDbEntity
  8
0
  6
Continuous
 62
     7
370
    15
100
AcDbCircle
 10
144.5542898828
 20
140.7225810269
 30
0.0
 40
0.7613675019380279
100
AcDbArc
 50
108.185754168
 51
250.8140647064
  0
ARC
  5
126
330
1F
100
AcDbEntity
  8
0
  6
Continuous
 62
     7
370
    15
100
AcDbCircle
 10
143.895334807
 20
142.7284850467
 30
0.0
 40
1.350000000000007
100
AcDbArc
 50
288.185754168
 51
72.1238235638
  0
ARC
  5
127
330
1F
100
AcDbEntity
  8
0
  6
Continuous
 62
     7
370
    15
100
AcDbCircle
 10
144.5386370893
 20
144.7230223801
 30
0.0
 40
0.7457139596715323
100
AcDbArc
 50
106.8759953106
 51
252.1238235638
  0
ARC
  5
128
330
1F
100
AcDbEntity
  8
0
  6
Continuous
 62
     7
370
    15
100
AcDbCircle
 10
143.930248601
 20
146.728485032
 30
0.0
 40
1.349999999999992
100
AcDbArc
 50
286.8759953106
 51
73.4119415679
  0
ARC
  5
129
330
1F
100
AcDbEntity
  8
0
  6
Continuous
 62
     7
370
    15
100
AcDbCircle
 10
144.52452087
 20
148.7234503213
 30
0.0
 40
0.7315969916106617
100
AcDbArc
 50
105.5878773066
 51
253.4119415679
  0
ARC
  5
12A
330
1F
100
AcDbEntity
  8
0
  6
Continuous
 62
     7
370
    15
100
AcDbCircle
 10
143.965162395
 20
150.7284850173
 30
0.0
 40
1.350000000000002
100
AcDbArc
 50
285.5878773066
 51
74.6786332805
  0
ARC
  5
12B
330
1F
100
AcDbEntity
  8
0
  6
Continuous
 62
     7
370
    15
100
AcDbCircle
 10
144.5118366842
 20
152.7238657631
 30
0.0
 40
0.7189120569702142
100
AcDbArc
 50
104.321185594
 51
254.6786332805
  0
ARC
  5
12C
330
1F
100
AcDbEntity
  8
0
  6
Continuous
 62
     7
370
    15
100
AcDbCircle
 10
144.000076189
 20
154.7284850025
 30
0.0
 40
1.349999999999996
100
AcDbArc
 50
284.321185594
 51
75.9241271146
  0
ARC
  5
12D
330
1F
100
AcDbEntity
  8
0
  6
Continuous
 62
     7
370
    15
100
AcDbCircle
 10
144.5004892642
 20
156.7242695371
 30
0.0
 40
0.7075638881958835
100
AcDbArc
 50
103.0756917598
 51
255.9241271146
  0
ARC
  5
12E
330
1F
100
AcDbEntity
  8
0
  6
Continuous
 62
     7
370
    15
100
AcDbCircle
 10
144.034989983
 20
158.7284849878
 30
0.0
 40
1.350000000000009
100
AcDbArc
 50
283.0756917598
 51
77.1486639236
  0
ARC
  5
12F
330
1F
100
AcDbEntity
  8
0
  6
Continuous
 62
     7
370
    15
100
AcDbCircle
 10
144.4903916098
 20
160.7246624025
 30
0.0
 40
0.6974654850174798
100
AcDbArc
 50
101.8511549508
 51
257.1486639236
  0
ARC
  5
130
330
1F
100
AcDbEntity
  8
0
  6
Continuous
 62
     7
370
    15
100
AcDbCircle
 10
144.069903777
 20
162.7284849731
 30
0.0
 40
1.349999999999999
100
AcDbArc
 50
281.8511549508
 51
78.3524956579
  0
ARC
  5
131
330
1F
100
AcDbEntity
  8
0
  6
Continuous
 62
     7
370
    15
100
AcDbCircle
 10
144.4814641103
 20
164.7250450542
 30
0.0
 40
0.6885372366820495
100
AcDbArc
 50
100.6473232165
 51
258.3524956579
  0
ARC
  5
132
330
1F
100
AcDbEntity
  8
0
  6
Continuous
 62
     7
370
    15
100
AcDbCircle
 10
144.104817571
 20
166.7284849584
 30
0.0
 40
1.349999999999999
100
AcDbArc
 50
280.6473232165
 51
79.5358840917
  0
ARC
  5
133
330
1F
100
AcDbEntity
  8
0
  6
Continuous
 62
     7
370
    15
100
AcDbCircle
 10
144.4736337761
 20
168.7254181294
 30
0.0
 40
0.6807061536885313
100
AcDbArc
 50
99.4639347827
 51
259.5358840917
  0
ARC
  5
134
330
1F
100
AcDbEntity
  8
0
  6
Continuous
 62
     7
370
    15
100
AcDbCircle
 10
144.139731365
 20
170.7284849437
 30
0.0
 40
1.350000000000002
100
AcDbArc
 50
279.4639347827
 51
80.6990996181
  0
ARC
  5
135
330
1F
100
AcDbEntity
  8
0
  6
Continuous
 62
     7
370
    15
100
AcDbCircle
 10
144.4668335646
 20
172.7257822133
 30
0.0
 40
0.6739051934327963
100
AcDbArc
 50
98.3007192563
 51
260.6990996181
  0
ARC
  5
136
330
1F
100
AcDbEntity
  8
0
  6
Continuous
 62
     7
370
    15
100
AcDbCircle
 10
144.174645159
 20
174.728484929
 30
0.0
 40
1.349999999999988
100
AcDbArc
 50
278.3007192563
 51
81.8424201135
  0
ARC
  5
137
330
1F
100
AcDbEntity
  8
0
  6
Continuous
 62
     7
370
    15
100
AcDbCircle
 10
144.4610017866
 20
176.7261378442
 30
0.0
 40
0.6680726666160417
100
AcDbArc
 50
97.1573987609
 51
261.8424201135
  0
ARC
  5
138
330
1F
100
AcDbEntity
  8
0
  6
Continuous
 62
     7
370
    15
100
AcDbCircle
 10
144.209558953
 20
178.7284849143
 30
0.0
 40
1.350000000000001
100
AcDbArc
 50
277.1573987609
 51
82.9661298691
  0
ARC
  5
139
330
1F
100
AcDbEntity
  8
0
  6
Continuous
 62
     7
370
    15
100
AcDbCircle
 10
144.4560815821
 20
180.7264855185
 30
0.0
 40
0.6631517133714906
100
AcDbArc
 50
96.0336890053
 51
262.9661298691
  0
ARC
  5
13A
330
1F
100
AcDbEntity
  8
0
  6
Continuous
 62
     7
370
    15
100
AcDbCircle
 10
144.244472747
 20
182.7284848996
 30
0.0
 40
1.350000000000014
100
AcDbArc
 50
276.0336890053
 51
84.0705185898
  0
ARC
  5
13B
330
1F
100
AcDbEntity
  8
0
  6
Continuous
 62
     7
370
    15
100
AcDbCircle
 10
144.4520204573
 20
184.7268256944
 30
0.0
 40
0.6590898397248309
100
AcDbArc
 50
94.9293002846
 51
264.0705185898
  0
ARC
  5
13C
330
1F
100
AcDbEntity
  8
0
  6
Continuous
 62
     7
370
    15
100
AcDbCircle
 10
144.2793865409
 20
186.7284848849
 30
0.0
 40
1.350000000000029
100
AcDbArc
 50
274.9293002846
 51
85.1558804569
  0
ARC
  5
13D
330
1F
100
AcDbEntity
  8
0
  6
Continuous
 62
     7
370
    15
100
AcDbCircle
 10
144.4487698728
 20
188.7271587955
 30
0.0
 40
0.6558385064442548
100
AcDbArc
 50
93.8439384175
 51
265.1558804569
  0
ARC
  5
13E
330
1F
100
AcDbEntity
  8
0
  6
Continuous
 62
     7
370
    15
100
AcDbCircle
 10
144.3143003349
 20
190.7284848702
 30
0.0
 40
1.349999999999999
100
AcDbArc
 50
273.8439384175
 51
86.2225132557
  0
ARC
  5
13F
330
1F
100
AcDbEntity
  8
0
  6
Continuous
 62
     7
370
    15
100
AcDbCircle
 10
144.4462848786
 20
192.7274852142
 30
0.0
 40
0.65335276349176
100
AcDbArc
 50
101.9340237361
 51
266.2225132557
  0
ARC
  5
140
330
1F
100
AcDbEntity
  8
0
  6
Continuous
 62
     7
370
    15
100
AcDbCircle
 10
144.0320211501
 20
194.6875382385
 30
0.0
 40
1.350000000000055
100
AcDbArc
 50
281.9340237361
 51
359.4999973189
  0
LINE
  5
141
330
1F
100
AcDbEntity
  8
0
  6
Continuous
 62
     7
370
    15
100
AcDbLine
 10
145.3929623868
 20
195.9354802682
 30
0.0
 11
145.3819727805
 21
194.675751002
 31
0.0
  0
ARC
  5
142
330
1F
100
AcDbEntity
  8
0
  6
Continuous
 62
     7
370
    15
100
AcDbCircle
 10
146.1929327143
 20
195.9284916889
 30
0.0
 40
0.8000000000000369
100
AcDbArc
 50
21.3275979095
 51
179.4999973189
  0
ARC
  5
143
330
1F
100
AcDbEntity
  8
0
  6
Continuous
 62
     7
370
    15
100
AcDbCircle
 10
148.1956924383
 20
196.7104466031
 30
0.0
 40
1.349999999999604
100
AcDbArc
 50
201.3275979095
 51
261.6220224683
  0
ARC
  5
144
330
1F
100
AcDbEntity
  8
0
  6
Continuous
 62
     7
370
    15
100
AcDbCircle
 10
147.9036291482
 20
194.7273237211
 30
0.0
 40
0.6545142380960612
100
AcDbArc
 50
274.3119004389
 51
81.6220224683
  0
ARC
  5
145
330
1F
100
AcDbEntity
  8
0
  6
Continuous
 62
     7
370
    15
100
AcDbCircle
 10
148.0543402397
 20
192.7284831828
 30
0.0
 40
1.350000000000021
100
AcDbArc
 50
94.3119004389
 51
266.6846873738
  0
ARC
  5
146
330
1F
100
AcDbEntity
  8
0
  6
Continuous
 62
     7
370
    15
100
AcDbCircle
 10
147.9384175026
 20
190.7273237064
 30
0.0
 40
0.6545142380956285
100
AcDbArc
 50
274.3119004389
 51
86.6846873738
  0
ARC
  5
147
330
1F
100
AcDbEntity
  8
0
  6
Continuous
 62
     7
370
    15
100
AcDbCircle
 10
148.0891285942
 20
188.7284831681
 30
0.0
 40
1.350000000000012
100
AcDbArc
 50
94.3119004389
 51
265.6123234309
  0
ARC
  5
148
330
1F
100
AcDbEntity
  8
0
  6
Continuous
 62
     7
370
    15
100
AcDbCircle
 10
147.9355551575
 20
186.7269904901
 30
0.0
 40
0.6573758344473414
100
AcDbArc
 50
275.3877611732
 51
85.6123234309
  0
ARC
  5
149
330
1F
100
AcDbEntity
  8
0
  6
Continuous
 62
     7
370
    15
100
AcDbCircle
 10
148.1240390189
 20
184.7284831534
 30
0.0
 40
1.350000000000017
100
AcDbArc
 50
95.3877611732
 51
264.5174853148
  0
ARC
  5
14A
330
1F
100
AcDbEntity
  8
0
  6
Continuous
 62
     7
370
    15
100
AcDbCircle
 10
147.9319013425
 20
182.7266539019
 30
0.0
 40
0.6610289005896313
100
AcDbArc
 50
276.4825992893
 51
84.5174853148
  0
ARC
  5
14B
330
1F
100
AcDbEntity
  8
0
  6
Continuous
 62
     7
370
    15
100
AcDbCircle
 10
148.1589494437
 20
180.7284831387
 30
0.0
 40
1.350000000000016
100
AcDbArc
 50
96.4825992893
 51
263.4034739099
  0
ARC
  5
14C
330
1F
100
AcDbEntity
  8
0
  6
Continuous
 62
     7
370
    15
100
AcDbCircle
 10
147.9274131296
 20
178.7263100314
 30
0.0
 40
0.6655163647193545
100
AcDbArc
 50
277.5966106942
 51
83.4034739099
  0
ARC
  5
14D
330
1F
100
AcDbEntity
  8
0
  6
Continuous
 62
     7
370
    15
100
AcDbCircle
 10
148.1938598685
 20
176.728483124
 30
0.0
 40
1.34999999999999
100
AcDbArc
 50
97.5966106942
 51
262.2699972202
  0
ARC
  5
14E
330
1F
100
AcDbEntity
  8
0
  6
Continuous
 62
     7
370
    15
100
AcDbCircle
 10
147.9220400467
 20
174.7259584381
 30
0.0
 40
0.670888698871328
100
AcDbArc
 50
278.7300873839
 51
82.2699972202
  0
ARC
  5
14F
330
1F
100
AcDbEntity
  8
0
  6
Continuous
 62
     7
370
    15
100
AcDbCircle
 10
148.2287702932
 20
172.7284831093
 30
0.0
 40
1.350000000000014
100
AcDbArc
 50
98.7300873839
 51
261.1167681891
  0
ARC
  5
150
330
1F
100
AcDbEntity
  8
0
  6
Continuous
 62
     7
370
    15
100
AcDbCircle
 10
147.9157274671
 20
170.7255986452
 30
0.0
 40
0.677200529636024
100
AcDbArc
 50
279.883316415
 51
81.1167681891
  0
ARC
  5
151
330
1F
100
AcDbEntity
  8
0
  6
Continuous
 62
     7
370
    15
100
AcDbCircle
 10
148.263680718
 20
168.7284830946
 30
0.0
 40
1.350000000000001
100
AcDbArc
 50
99.883316415
 51
259.9435056674
  0
ARC
  5
152
330
1F
100
AcDbEntity
  8
0
  6
Continuous
 62
     7
370
    15
100
AcDbCircle
 10
147.9084161734
 20
166.725230136
 30
0.0
 40
0.6845110746291019
100
AcDbArc
 50
281.0565789368
 51
79.9435056674
  0
ARC
  5
153
330
1F
100
AcDbEntity
  8
0
  6
Continuous
 62
     7
370
    15
100
AcDbCircle
 10
148.2985911427
 20
164.7284830799
 30
0.0
 40
1.350000000000005
100
AcDbArc
 50
101.0565789367
 51
258.7499354481
  0
ARC
  5
154
330
1F
100
AcDbEntity
  8
0
  6
Continuous
 62
     7
370
    15
100
AcDbCircle
 10
147.900041864
 20
162.7248523492
 30
0.0
 40
0.6928846351639717
100
AcDbArc
 50
282.250149156
 51
78.7499354481
  0
ARC
  5
155
330
1F
100
AcDbEntity
  8
0
  6
Continuous
 62
     7
370
    15
100
AcDbCircle
 10
148.3335015675
 20
160.7284830652
 30
0.0
 40
1.349999999999996
100
AcDbArc
 50
102.250149156
 51
257.5357913683
  0
ARC
  5
156
330
1F
100
AcDbEntity
  8
0
  6
Continuous
 62
     7
370
    15
100
AcDbCircle
 10
147.8905345967
 20
158.7244646744
 30
0.0
 40
0.7023911537650651
100
AcDbArc
 50
283.4642932359
 51
77.5357913683
  0
ARC
  5
157
330
1F
100
AcDbEntity
  8
0
  6
Continuous
 62
     7
370
    15
100
AcDbCircle
 10
148.3684119923
 20
156.7284830505
 30
0.0
 40
1.350000000000017
100
AcDbArc
 50
103.4642932359
 51
256.3008164789
  0
ARC
  5
158
330
1F
100
AcDbEntity
  8
0
  6
Continuous
 62
     7
370
    15
100
AcDbCircle
 10
147.8798181549
 20
154.7240664463
 30
0.0
 40
0.7131068466952003
100
AcDbArc
 50
284.6992681252
 51
76.300816479
  0
ARC
  5
159
330
1F
100
AcDbEntity
  8
0
  6
Continuous
 62
     7
370
    15
100
AcDbCircle
 10
148.403322417
 20
152.7284830358
 30
0.0
 40
1.350000000000005
100
AcDbArc
 50
104.6992681252
 51
255.0447642848
  0
ARC
  5
15A
330
1F
100
AcDbEntity
  8
0
  6
Continuous
 62
     7
370
    15
100
AcDbCircle
 10
147.8678093293
 20
150.7236569389
 30
0.0
 40
0.725114923541019
100
AcDbArc
 50
285.9553203194
 51
75.0447642848
  0
ARC
  5
15B
330
1F
100
AcDbEntity
  8
0
  6
Continuous
 62
     7
370
    15
100
AcDbCircle
 10
148.4382328418
 20
148.7284830211
 30
0.0
 40
1.350000000000001
100
AcDbArc
 50
105.9553203194
 51
253.7674000508
  0
ARC
  5
15C
330
1F
100
AcDbEntity
  8
0
  6
Continuous
 62
     7
370
    15
100
AcDbCircle
 10
147.8544170958
 20
146.7232353576
 30
0.0
 40
0.7385064081873924
100
AcDbArc
 50
287.2326845533
 51
73.7674000508
  0
ARC
  5
15D
330
1F
100
AcDbEntity
  8
0
  6
Continuous
 62
     7
370
    15
100
AcDbCircle
 10
148.4731432665
 20
144.7284830064
 30
0.0
 40
1.350000000000033
100
AcDbArc
 50
107.2326845533
 51
252.4685021807
  0
ARC
  5
15E
330
1F
100
AcDbEntity
  8
0
  6
Continuous
 62
     7
370
    15
100
AcDbCircle
 10
147.839541677
 20
142.7228008317
 30
0.0
 40
0.7533810782029835
100
AcDbArc
 50
288.5315824234
 51
72.4685021807
  0
ARC
  5
15F
330
1F
100
AcDbEntity
  8
0
  6
Continuous
 62
     7
370
    15
100
AcDbCircle
 10
148.5080536913
 20
140.7284829917
 30
0.0
 40
1.350000000000021
100
AcDbArc
 50
108.5315824234
 51
251.1478636606
  0
ARC
  5
160
330
1F
100
AcDbEntity
  8
0
  6
Continuous
 62
     7
370
    15
100
AcDbCircle
 10
147.8230734633
 20
138.7223524045
 30
0.0
 40
0.7698485431034594
100
AcDbArc
 50
289.8522209436
 51
71.1478636606
  0
ARC
  5
161
330
1F
100
AcDbEntity
  8
0
  6
Continuous
 62
     7
370
    15
100
AcDbCircle
 10
148.542964116
 20
136.728482977
 30
0.0
 40
1.349999999999991
100
AcDbArc
 50
109.8522209436
 51
249.8052935692
  0
ARC
  5
162
330
1F
100
AcDbEntity
  8
0
  6
Continuous
 62
     7
370
    15
100
AcDbCircle
 10
147.8048917716
 20
134.7218890227
 30
0.0
 40
0.788029486020162
100
AcDbArc
 50
318.1372298695
 51
69.8052935692
  0
ARC
  5
163
330
1F
100
AcDbEntity
  8
0
  6
Continuous
 62
     7
370
    15
100
AcDbCircle
 10
148.9716858346
 20
133.6763523154
 30
0.0
 40
0.7786725889138684
100
AcDbArc
 50
138.1372298691
 51
179.9999758693
  0
LINE
  5
164
330
1F
100
AcDbEntity
  8
0
  6
Continuous
 62
     7
370
    15
100
AcDbLine
 10
148.1930097844
 20
133.6763575389
 30
0.0
 11
148.1930097844
 21
131.7284926488
 31
0.0
  0
ARC
  5
165
330
1F
100
AcDbEntity
  8
0
  6
Continuous
 62
     7
370
    15
100
AcDbCircle
 10
151.1930124253
 20
131.728490753
 30
0.0
 40
2.999999999999982
100
AcDbArc
 50
179.9999758696
 51
269.9999892754
  0
LINE
  5
166
330
1F
100
AcDbEntity
  8
0
  6
Continuous
 62
     7
370
    15
100
AcDbLine
 10
153.6930134799
 20
128.7284865691
 30
0.0
 11
151.1930084135
 21
128.7284865691
 31
0.0
  0
ARC
  5
167
330
1F
100
AcDbEntity
  8
0
  6
Continuous
 62
     7
370
    15
100
AcDbCircle
 10
153.6930155015
 20
131.728490285
 30
0.0
 40
2.999999999999968
100
AcDbArc
 50
269.9999892754
 51
359.9999758696
  0
LINE
  5
168
330
1F
100
AcDbEntity
  8
0
  6
Continuous
 62
     7
370
    15
100
AcDbLine
 10
156.6930195596
 20
132.9347416474
 30
0.0
 11
156.693012109
 21
131.7284926488
 31
0.0
  0
ARC
  5
169
330
1F
100
AcDbEntity
  8
0
  6
Continuous
 62
     7
370
    15
100
AcDbCircle
 10
157.4716885984
 20
132.9347393778
 30
0.0
 40
0.7786725889158228
100
AcDbArc
 50
122.5781099429
 51
179.9999758696
  0
ARC
  5
16A
330
1F
100
AcDbEntity
  8
0
  6
Continuous
 62
     7
370
    15
100
AcDbCircle
 10
156.325507219
 20
134.7284827363
 30
0.0
 40
1.350000000000011
100
AcDbArc
 50
302.5781099429
 51
69.4824657628
  0
ARC
  5
16B
330
1F
100
AcDbEntity
  8
0
  6
Continuous
 62
     7
370
    15
100
AcDbCircle
 10
157.0715942209
 20
136.7221229186
 30
0.0
 40
0.7786725889152425
100
AcDbArc
 50
109.5173531116
 51
249.4824657628
  0
ARC
  5
16C
330
1F
100
AcDbEntity
  8
0
  6
Continuous
 62
     7
370
    15
100
AcDbCircle
 10
156.360421013
 20
138.7284827216
 30
0.0
 40
1.349999999999994
100
AcDbArc
 50
289.5173531116
 51
70.8140647064
  0
ARC
  5
16D
330
1F
100
AcDbEntity
  8
0
  6
Continuous
 62
     7
370
    15
100
AcDbCircle
 10
157.0542898828
 20
140.7225786872
 30
0.0
 40
0.7613675019379835
100
AcDbArc
 50
108.185754168
 51
250.8140647064
  0
ARC
  5
16E
330
1F
100
AcDbEntity
  8
0
  6
Continuous
 62
     7
370
    15
100
AcDbCircle
 10
156.395334807
 20
142.7284827069
 30
0.0
 40
1.350000000000025
100
AcDbArc
 50
288.185754168
 51
72.1238235638
  0
ARC
  5
16F
330
1F
100
AcDbEntity
  8
0
  6
Continuous
 62
     7
370
    15
100
AcDbCircle
 10
157.0386370893
 20
144.7230200403
 30
0.0
 40
0.74571395967152
100
AcDbArc
 50
106.8759953106
 51
252.1238235638
  0
ARC
  5
170
330
1F
100
AcDbEntity
  8
0
  6
Continuous
 62
     7
370
    15
100
AcDbCircle
 10
156.430248601
 20
146.7284826922
 30
0.0
 40
1.349999999999984
100
AcDbArc
 50
286.8759953106
 51
73.4119415679
  0
ARC
  5
171
330
1F
100
AcDbEntity
  8
0
  6
Continuous
 62
     7
370
    15
100
AcDbCircle
 10
157.02452087
 20
148.7234479816
 30
0.0
 40
0.7315969916106536
100
AcDbArc
 50
105.5878773066
 51
253.4119415679
  0
ARC
  5
172
330
1F
100
AcDbEntity
  8
0
  6
Continuous
 62
     7
370
    15
100
AcDbCircle
 10
156.465162395
 20
150.7284826775
 30
0.0
 40
1.350000000000009
100
AcDbArc
 50
285.5878773066
 51
74.6786332805
  0
ARC
  5
173
330
1F
100
AcDbEntity
  8
0
  6
Continuous
 62
     7
370
    15
100
AcDbCircle
 10
157.0118366842
 20
152.7238634234
 30
0.0
 40
0.7189120569702142
100
AcDbArc
 50
104.321185594
 51
254.6786332805
  0
ARC
  5
174
330
1F
100
AcDbEntity
  8
0
  6
Continuous
 62
     7
370
    15
100
AcDbCircle
 10
156.500076189
 20
154.7284826628
 30
0.0
 40
1.349999999999988
100
AcDbArc
 50
284.321185594
 51
75.9241271146
  0
ARC
  5
175
330
1F
100
AcDbEntity
  8
0
  6
Continuous
 62
     7
370
    15
100
AcDbCircle
 10
157.0004892642
 20
156.7242671973
 30
0.0
 40
0.707563888195874
100
AcDbArc
 50
103.0756917598
 51
255.9241271146
  0
ARC
  5
176
330
1F
100
AcDbEntity
  8
0
  6
Continuous
 62
     7
370
    15
100
AcDbCircle
 10
156.534989983
 20
158.7284826481
 30
0.0
 40
1.35000000000003
100
AcDbArc
 50
283.0756917598
 51
77.1486639236
  0
ARC
  5
177
330
1F
100
AcDbEntity
  8
0
  6
Continuous
 62
     7
370
    15
100
AcDbCircle
 10
156.9903916098
 20
160.7246600627
 30
0.0
 40
0.6974654850174735
100
AcDbArc
 50
101.8511549508
 51
257.1486639236
  0
ARC
  5
178
330
1F
100
AcDbEntity
  8
0
  6
Continuous
 62
     7
370
    15
100
AcDbCircle
 10
156.569903777
 20
162.7284826334
 30
0.0
 40
1.35000000000001
100
AcDbArc
 50
281.8511549508
 51
78.3524956579
  0
ARC
  5
179
330
1F
100
AcDbEntity
  8
0
  6
Continuous
 62
     7
370
    15
100
AcDbCircle
 10
156.9814641103
 20
164.7250427145
 30
0.0
 40
0.6885372366820215
100
AcDbArc
 50
100.6473232165
 51
258.3524956579
  0
ARC
  5
17A
330
1F
100
AcDbEntity
  8
0
  6
Continuous
 62
     7
370
    15
100
AcDbCircle
 10
156.604817571
 20
166.7284826187
 30
0.0
 40
1.349999999999999
100
AcDbArc
 50
280.6473232165
 51
79.5358840917
  0
ARC
  5
17B
330
1F
100
AcDbEntity
  8
0
  6
Continuous
 62
     7
370
    15
100
AcDbCircle
 10
156.9736337761
 20
168.7254157897
 30
0.0
 40
0.6807061536885546
100
AcDbArc
 50
99.4639347827
 51
259.5358840917
  0
ARC
  5
17C
330
1F
100
AcDbEntity
  8
0
  6
Continuous
 62
     7
370
    15
100
AcDbCircle
 10
156.639731365
 20
170.728482604
 30
0.0
 40
1.34999999999999
100
AcDbArc
 50
279.4639347827
 51
80.6990996181
  0
ARC
  5
17D
330
1F
100
AcDbEntity
  8
0
  6
Continuous
 62
     7
370
    15
100
AcDbCircle
 10
156.9668335646
 20
172.7257798735
 30
0.0
 40
0.6739051934327963
100
AcDbArc
 50
98.3007192563
 51
260.6990996181
  0
ARC
  5
17E
330
1F
100
AcDbEntity
  8
0
  6
Continuous
 62
     7
370
    15
100
AcDbCircle
 10
156.674645159
 20
174.7284825893
 30
0.0
 40
1.350000000000009
100
AcDbArc
 50
278.3007192563
 51
81.8424201135
  0
ARC
  5
17F
330
1F
100
AcDbEntity
  8
0
  6
Continuous
 62
     7
370
    15
100
AcDbCircle
 10
156.9610017866
 20
176.7261355045
 30
0.0
 40
0.6680726666160698
100
AcDbArc
 50
97.1573987609
 51
261.8424201135
  0
ARC
  5
180
330
1F
100
AcDbEntity
  8
0
  6
Continuous
 62
     7
370
    15
100
AcDbCircle
 10
156.709558953
 20
178.7284825746
 30
0.0
 40
1.350000000000019
100
AcDbArc
 50
277.1573987609
 51
82.9661298691
  0
ARC
  5
181
330
1F
100
AcDbEntity
  8
0
  6
Continuous
 62
     7
370
    15
100
AcDbCircle
 10
156.9560815821
 20
180.7264831788
 30
0.0
 40
0.6631517133715326
100
AcDbArc
 50
96.0336890053
 51
262.9661298691
  0
ARC
  5
182
330
1F
100
AcDbEntity
  8
0
  6
Continuous
 62
     7
370
    15
100
AcDbCircle
 10
156.7444727469
 20
182.7284825599
 30
0.0
 40
1.349999999999999
100
AcDbArc
 50
276.0336890053
 51
84.0705185898
  0
ARC
  5
183
330
1F
100
AcDbEntity
  8
0
  6
Continuous
 62
     7
370
    15
100
AcDbCircle
 10
156.9520204572
 20
184.7268233546
 30
0.0
 40
0.6590898397248728
100
AcDbArc
 50
94.9293002846
 51
264.0705185898
  0
ARC
  5
184
330
1F
100
AcDbEntity
  8
0
  6
Continuous
 62
     7
370
    15
100
AcDbCircle
 10
156.7793865409
 20
186.7284825452
 30
0.0
 40
1.350000000000001
100
AcDbArc
 50
274.9293002846
 51
85.1558804569
  0
ARC
  5
185
330
1F
100
AcDbEntity
  8
0
  6
Continuous
 62
     7
370
    15
100
AcDbCircle
 10
156.9487698728
 20
188.7271564558
 30
0.0
 40
0.6558385064442265
100
AcDbArc
 50
93.8439384175
 51
265.1558804569
  0
ARC
  5
186
330
1F
100
AcDbEntity
  8
0
  6
Continuous
 62
     7
370
    15
100
AcDbCircle
 10
156.8143003349
 20
190.7284825305
 30
0.0
 40
1.350000000000001
100
AcDbArc
 50
273.8439384175
 51
86.2225132557
  0
ARC
  5
187
330
1F
100
AcDbEntity
  8
0
  6
Continuous
 62
     7
370
    15
100
AcDbCircle
 10
156.9462848786
 20
192.7274828744
 30
0.0
 40
0.6533527634917883
100
AcDbArc
 50
101.9340237361
 51
266.2225132557
  0
ARC
  5
188
330
1F
100
AcDbEntity
  8
0
  6
Continuous
 62
     7
370
    15
100
AcDbCircle
 10
156.5320211501
 20
194.6875358988
 30
0.0
 40
1.350000000000027
100
AcDbArc
 50
281.9340237361
 51
359.4999973189
  0
LINE
  5
189
330
1F
100
AcDbEntity
  8
0
  6
Continuous
 62
     7
370
    15
100
AcDbLine
 10
157.8929579165
 20
195.935465367
 30
0.0
 11
157.8819757607
 21
194.675751002
 31
0.0
  0
ARC
  5
18A
330
1F
100
AcDbEntity
  8
0
  6
Continuous
 62
     7
370
    15
100
AcDbCircle
 10
158.6929327142
 20
195.9284893491
 30
0.0
 40
0.8000000000000063
100
AcDbArc
 50
21.3275979095
 51
179.4999973189
  0
ARC
  5
18B
330
1F
100
AcDbEntity
  8
0
  6
Continuous
 62
     7
370
    15
100
AcDbCircle
 10
160.6956924382
 20
196.7104442634
 30
0.0
 40
1.349999999999579
100
AcDbArc
 50
201.3275979095
 51
261.6220224683
  0
ARC
  5
18C
330
1F
100
AcDbEntity
  8
0
  6
Continuous
 62
     7
370
    15
100
AcDbCircle
 10
160.4036291482
 20
194.7273213813
 30
0.0
 40
0.6545142380960798
100
AcDbArc
 50
274.3119004389
 51
81.6220224683
  0
ARC
  5
18D
330
1F
100
AcDbEntity
  8
0
  6
Continuous
 62
     7
370
    15
100
AcDbCircle
 10
160.5543402397
 20
192.728480843
 30
0.0
 40
1.350000000000021
100
AcDbArc
 50
94.3119004389
 51
266.6846873738
  0
ARC
  5
18E
330
1F
100
AcDbEntity
  8
0
  6
Continuous
 62
     7
370
    15
100
AcDbCircle
 10
160.4384175026
 20
190.7273213667
 30
0.0
 40
0.6545142380956243
100
AcDbArc
 50
274.3119004389
 51
86.6846873738
  0
ARC
  5
18F
330
1F
100
AcDbEntity
  8
0
  6
Continuous
 62
     7
370
    15
100
AcDbCircle
 10
160.5891285942
 20
188.7284808284
 30
0.0
 40
1.350000000000012
100
AcDbArc
 50
94.3119004389
 51
265.6123234309
  0
ARC
  5
190
330
1F
100
AcDbEntity
  8
0
  6
Continuous
 62
     7
370
    15
100
AcDbCircle
 10
160.4355551575
 20
186.7269881503
 30
0.0
 40
0.6573758344473163
100
AcDbArc
 50
275.3877611732
 51
85.6123234309
  0
ARC
  5
191
330
1F
100
AcDbEntity
  8
0
  6
Continuous
 62
     7
370
    15
100
AcDbCircle
 10
160.6240390189
 20
184.7284808137
 30
0.0
 40
1.350000000000017
100
AcDbArc
 50
95.3877611732
 51
264.5174853148
  0
ARC
  5
192
330
1F
100
AcDbEntity
  8
0
  6
Continuous
 62
     7
370
    15
100
AcDbCircle
 10
160.4319013425
 20
182.7266515621
 30
0.0
 40
0.661028900589644
100
AcDbArc
 50
276.4825992894
 51
84.5174853148
  0
ARC
  5
193
330
1F
100
AcDbEntity
  8
0
  6
Continuous
 62
     7
370
    15
100
AcDbCircle
 10
160.6589494437
 20
180.728480799
 30
0.0
 40
1.350000000000019
100
AcDbArc
 50
96.4825992893
 51
263.4034739099
  0
ARC
  5
194
330
1F
100
AcDbEntity
  8
0
  6
Continuous
 62
     7
370
    15
100
AcDbCircle
 10
160.4274131296
 20
178.7263076916
 30
0.0
 40
0.6655163647193789
100
AcDbArc
 50
277.5966106942
 51
83.4034739099
  0
ARC
  5
195
330
1F
100
AcDbEntity
  8
0
  6
Continuous
 62
     7
370
    15
100
AcDbCircle
 10
160.6938598685
 20
176.7284807843
 30
0.0
 40
1.34999999999999
100
AcDbArc
 50
97.5966106942
 51
262.2699972202
  0
ARC
  5
196
330
1F
100
AcDbEntity
  8
0
  6
Continuous
 62
     7
370
    15
100
AcDbCircle
 10
160.4220400467
 20
174.7259560983
 30
0.0
 40
0.6708886988713193
100
AcDbArc
 50
278.7300873839
 51
82.2699972202
  0
ARC
  5
197
330
1F
100
AcDbEntity
  8
0
  6
Continuous
 62
     7
370
    15
100
AcDbCircle
 10
160.7287702932
 20
172.7284807696
 30
0.0
 40
1.350000000000004
100
AcDbArc
 50
98.7300873839
 51
261.1167681891
  0
ARC
  5
198
330
1F
100
AcDbEntity
  8
0
  6
Continuous
 62
     7
370
    15
100
AcDbCircle
 10
160.4157274671
 20
170.7255963055
 30
0.0
 40
0.6772005296360347
100
AcDbArc
 50
279.883316415
 51
81.1167681891
  0
ARC
  5
199
330
1F
100
AcDbEntity
  8
0
  6
Continuous
 62
     7
370
    15
100
AcDbCircle
 10
160.763680718
 20
168.7284807549
 30
0.0
 40
1.350000000000018
100
AcDbArc
 50
99.883316415
 51
259.9435056674
  0
ARC
  5
19A
330
1F
100
AcDbEntity
  8
0
  6
Continuous
 62
     7
370
    15
100
AcDbCircle
 10
160.4084161734
 20
166.7252277963
 30
0.0
 40
0.6845110746291054
100
AcDbArc
 50
281.0565789367
 51
79.9435056674
  0
ARC
  5
19B
330
1F
100
AcDbEntity
  8
0
  6
Continuous
 62
     7
370
    15
100
AcDbCircle
 10
160.7985911427
 20
164.7284807402
 30
0.0
 40
1.350000000000005
100
AcDbArc
 50
101.0565789367
 51
258.7499354481
  0
ARC
  5
19C
330
1F
100
AcDbEntity
  8
0
  6
Continuous
 62
     7
370
    15
100
AcDbCircle
 10
160.400041864
 20
162.7248500094
 30
0.0
 40
0.692884635163954
100
AcDbArc
 50
282.250149156
 51
78.7499354481
  0
ARC
  5
19D
330
1F
100
AcDbEntity
  8
0
  6
Continuous
 62
     7
370
    15
100
AcDbCircle
 10
160.8335015675
 20
160.7284807255
 30
0.0
 40
1.349999999999996
100
AcDbArc
 50
102.250149156
 51
257.5357913683
  0
ARC
  5
19E
330
1F
100
AcDbEntity
  8
0
  6
Continuous
 62
     7
370
    15
100
AcDbCircle
 10
160.3905345967
 20
158.7244623346
 30
0.0
 40
0.702391153765046
100
AcDbArc
 50
283.4642932359
 51
77.5357913683
  0
ARC
  5
19F
330
1F
100
AcDbEntity
  8
0
  6
Continuous
 62
     7
370
    15
100
AcDbCircle
 10
160.8684119923
 20
156.7284807108
 30
0.0
 40
1.35000000000001
100
AcDbArc
 50
103.4642932359
 51
256.3008164789
  0
ARC
  5
1A0
330
1F
100
AcDbEntity
  8
0
  6
Continuous
 62
     7
370
    15
100
AcDbCircle
 10
160.3798181549
 20
154.7240641066
 30
0.0
 40
0.713106846695223
100
AcDbArc
 50
284.6992681252
 51
76.3008164789
  0
ARC
  5
1A1
330
1F
100
AcDbEntity
  8
0
  6
Continuous
 62
     7
370
    15
100
AcDbCircle
 10
160.903322417
 20
152.7284806961
 30
0.0
 40
1.350000000000016
100
AcDbArc
 50
104.6992681252
 51
255.0447642848
  0
ARC
  5
1A2
330
1F
100
AcDbEntity
  8
0
  6
Continuous
 62
     7
370
    15
100
AcDbCircle
 10
160.3678093293
 20
150.7236545992
 30
0.0
 40
0.7251149235409909
100
AcDbArc
 50
285.9553203194
 51
75.0447642848
  0
ARC
  5
1A3
330
1F
100
AcDbEntity
  8
0
  6
Continuous
 62
     7
370
    15
100
AcDbCircle
 10
160.9382328418
 20
148.7284806813
 30
0.0
 40
1.349999999999975
100
AcDbArc
 50
105.9553203194
 51
253.7674000508
  0
ARC
  5
1A4
330
1F
100
AcDbEntity
  8
0
  6
Continuous
 62
     7
370
    15
100
AcDbCircle
 10
160.3544170958
 20
146.7232330179
 30
0.0
 40
0.7385064081874003
100
AcDbArc
 50
287.2326845533
 51
73.7674000508
  0
ARC
  5
1A5
330
1F
100
AcDbEntity
  8
0
  6
Continuous
 62
     7
370
    15
100
AcDbCircle
 10
160.9731432665
 20
144.7284806666
 30
0.0
 40
1.350000000000016
100
AcDbArc
 50
107.2326845533
 51
252.4685021807
  0
ARC
  5
1A6
330
1F
100
AcDbEntity
  8
0
  6
Continuous
 62
     7
370
    15
100
AcDbCircle
 10
160.339541677
 20
142.7227984919
 30
0.0
 40
0.7533810782030256
100
AcDbArc
 50
288.5315824234
 51
72.4685021807
  0
ARC
  5
1A7
330
1F
100
AcDbEntity
  8
0
  6
Continuous
 62
     7
370
    15
100
AcDbCircle
 10
161.0080536913
 20
140.7284806519
 30
0.0
 40
1.35
100
AcDbArc
 50
108.5315824234
 51
251.1478636606
  0
ARC
  5
1A8
330
1F
100
AcDbEntity
  8
0
  6
Continuous
 62
     7
370
    15
100
AcDbCircle
 10
160.3230734633
 20
138.7223500647
 30
0.0
 40
0.7698485431034833
100
AcDbArc
 50
289.8522209436
 51
71.1478636606
  0
ARC
  5
1A9
330
1F
100
AcDbEntity
  8
0
  6
Continuous
 62
     7
370
    15
100
AcDbCircle
 10
161.042964116
 20
136.7284806372
 30
0.0
 40
1.350000000000001
100
AcDbArc
 50
109.8522209436
 51
249.8052935692
  0
ARC
  5
1AA
330
1F
100
AcDbEntity
  8
0
  6
Continuous
 62
     7
370
    15
100
AcDbCircle
 10
160.3048917716
 20
134.7218866829
 30
0.0
 40
0.7880294860201718
100
AcDbArc
 50
318.1372298695
 51
69.8052935692
  0
ARC
  5
1AB
330
1F
100
AcDbEntity
  8
0
  6
Continuous
 62
     7
370
    15
100
AcDbCircle
 10
161.4716858346
 20
133.6763499757
 30
0.0
 40
0.7786725889138617
100
AcDbArc
 50
138.1372298691
 51
179.9999758693
  0
LINE
  5
1AC
330
1F
100
AcDbEntity
  8
0
  6
Continuous
 62
     7
370
    15
100
AcDbLine
 10
160.6930202153
 20
133.6763575389
 30
0.0
 11
160.6930053141
 21
131.7284926488
 31
0.0
  0
ARC
  5
1AD
330
1F
100
AcDbEntity
  8
0
  6
Continuous
 62
     7
370
    15
100
AcDbCircle
 10
163.6930124253
 20
131.7284884132
 30
0.0
 40
3.00000000000001
100
AcDbArc
 50
179.9999758696
 51
269.9999892754
  0
LINE
  5
1AE
330
1F
100
AcDbEntity
  8
0
  6
Continuous
 62
     7
370
    15
100
AcDbLine
 10
166.1930090096
 20
128.7284865691
 30
0.0
 11
163.6930113938
 21
128.7284865691
 31
0.0
  0
ARC
  5
1AF
330
1F
100
AcDbEntity
  8
0
  6
Continuous
 62
     7
370
    15
100
AcDbCircle
 10
166.1930155015
 20
131.7284879453
 30
0.0
 40
2.999999999999982
100
AcDbArc
 50
269.9999892754
 51
359.9999758696
  0
LINE
  5
1B0
330
1F
100
AcDbEntity
  8
0
  6
Continuous
 62
     7
370
    15
100
AcDbLine
 10
169.1930150893
 20
132.9347416474
 30
0.0
 11
169.1930150893
 21
131.7284926488
 31
0.0
  0
ARC
  5
1B1
330
1F
100
AcDbEntity
  8
0
  6
Continuous
 62
     7
370
    15
100
AcDbCircle
 10
169.9716885984
 20
132.934737038
 30
0.0
 40
0.778672588915766
100
AcDbArc
 50
122.5781099429
 51
179.9999758696
  0
ARC
  5
1B2
330
1F
100
AcDbEntity
  8
0
  6
Continuous
 62
     7
370
    15
100
AcDbCircle
 10
168.825507219
 20
134.7284803966
 30
0.0
 40
1.35000000000002
100
AcDbArc
 50
302.5781099429
 51
69.4824657628
  0
ARC
  5
1B3
330
1F
100
AcDbEntity
  8
0
  6
Continuous
 62
     7
370
    15
100
AcDbCircle
 10
169.5715942209
 20
136.7221205789
 30
0.0
 40
0.7786725889152156
100
AcDbArc
 50
109.5173531116
 51
249.4824657628
  0
ARC
  5
1B4
330
1F
100
AcDbEntity
  8
0
  6
Continuous
 62
     7
370
    15
100
AcDbCircle
 10
168.860421013
 20
138.7284803819
 30
0.0
 40
1.349999999999994
100
AcDbArc
 50
289.5173531116
 51
70.8140647064
  0
ARC
  5
1B5
330
1F
100
AcDbEntity
  8
0
  6
Continuous
 62
     7
370
    15
100
AcDbCircle
 10
169.5542898828
 20
140.7225763474
 30
0.0
 40
0.7613675019380105
100
AcDbArc
 50
108.185754168
 51
250.8140647064
  0
ARC
  5
1B6
330
1F
100
AcDbEntity
  8
0
  6
Continuous
 62
     7
370
    15
100
AcDbCircle
 10
168.895334807
 20
142.7284803672
 30
0.0
 40
1.350000000000007
100
AcDbArc
 50
288.185754168
 51
72.1238235638
  0
ARC
  5
1B7
330
1F
100
AcDbEntity
  8
0
  6
Continuous
 62
     7
370
    15
100
AcDbCircle
 10
169.5386370893
 20
144.7230177006
 30
0.0
 40
0.7457139596715062
100
AcDbArc
 50
106.8759953106
 51
252.1238235638
  0
ARC
  5
1B8
330
1F
100
AcDbEntity
  8
0
  6
Continuous
 62
     7
370
    15
100
AcDbCircle
 10
168.930248601
 20
146.7284803525
 30
0.0
 40
1.349999999999992
100
AcDbArc
 50
286.8759953106
 51
73.4119415679
  0
ARC
  5
1B9
330
1F
100
AcDbEntity
  8
0
  6
Continuous
 62
     7
370
    15
100
AcDbCircle
 10
169.52452087
 20
148.7234456418
 30
0.0
 40
0.7315969916106727
100
AcDbArc
 50
105.5878773066
 51
253.4119415679
  0
ARC
  5
1BA
330
1F
100
AcDbEntity
  8
0
  6
Continuous
 62
     7
370
    15
100
AcDbCircle
 10
168.965162395
 20
150.7284803378
 30
0.0
 40
1.350000000000009
100
AcDbArc
 50
285.5878773066
 51
74.6786332805
  0
ARC
  5
1BB
330
1F
100
AcDbEntity
  8
0
  6
Continuous
 62
     7
370
    15
100
AcDbCircle
 10
169.5118366842
 20
152.7238610836
 30
0.0
 40
0.7189120569702326
100
AcDbArc
 50
104.321185594
 51
254.6786332805
  0
ARC
  5
1BC
330
1F
100
AcDbEntity
  8
0
  6
Continuous
 62
     7
370
    15
100
AcDbCircle
 10
169.000076189
 20
154.7284803231
 30
0.0
 40
1.349999999999988
100
AcDbArc
 50
284.321185594
 51
75.9241271146
  0
ARC
  5
1BD
330
1F
100
AcDbEntity
  8
0
  6
Continuous
 62
     7
370
    15
100
AcDbCircle
 10
169.5004892642
 20
156.7242648576
 30
0.0
 40
0.7075638881958898
100
AcDbArc
 50
103.0756917598
 51
255.9241271146
  0
ARC
  5
1BE
330
1F
100
AcDbEntity
  8
0
  6
Continuous
 62
     7
370
    15
100
AcDbCircle
 10
169.034989983
 20
158.7284803084
 30
0.0
 40
1.35000000000004
100
AcDbArc
 50
283.0756917598
 51
77.1486639236
  0
ARC
  5
1BF
330
1F
100
AcDbEntity
  8
0
  6
Continuous
 62
     7
370
    15
100
AcDbCircle
 10
169.4903916098
 20
160.724657723
 30
0.0
 40
0.697465485017458
100
AcDbArc
 50
101.8511549508
 51
257.1486639236
  0
ARC
  5
1C0
330
1F
100
AcDbEntity
  8
0
  6
Continuous
 62
     7
370
    15
100
AcDbCircle
 10
169.069903777
 20
162.7284802937
 30
0.0
 40
1.350000000000015
100
AcDbArc
 50
281.8511549508
 51
78.3524956579
  0
ARC
  5
1C1
330
1F
100
AcDbEntity
  8
0
  6
Continuous
 62
     7
370
    15
100
AcDbCircle
 10
169.4814641103
 20
164.7250403747
 30
0.0
 40
0.688537236682032
100
AcDbArc
 50
100.6473232165
 51
258.3524956579
  0
ARC
  5
1C2
330
1F
100
AcDbEntity
  8
0
  6
Continuous
 62
     7
370
    15
100
AcDbCircle
 10
169.104817571
 20
166.7284802789
 30
0.0
 40
1.349999999999999
100
AcDbArc
 50
280.6473232165
 51
79.5358840917
  0
ARC
  5
1C3
330
1F
100
AcDbEntity
  8
0
  6
Continuous
 62
     7
370
    15
100
AcDbCircle
 10
169.4736337761
 20
168.72541345
 30
0.0
 40
0.6807061536885546
100
AcDbArc
 50
99.4639347827
 51
259.5358840917
  0
ARC
  5
1C4
330
1F
100
AcDbEntity
  8
0
  6
Continuous
 62
     7
370
    15
100
AcDbCircle
 10
169.139731365
 20
170.7284802642
 30
0.0
 40
1.350000000000022
100
AcDbArc
 50
279.4639347827
 51
80.6990996181
  0
ARC
  5
1C5
330
1F
100
AcDbEntity
  8
0
  6
Continuous
 62
     7
370
    15
100
AcDbCircle
 10
169.4668335646
 20
172.7257775338
 30
0.0
 40
0.6739051934327791
100
AcDbArc
 50
98.3007192563
 51
260.6990996181
  0
ARC
  5
1C6
330
1F
100
AcDbEntity
  8
0
  6
Continuous
 62
     7
370
    15
100
AcDbCircle
 10
169.174645159
 20
174.7284802495
 30
0.0
 40
1.350000000000018
100
AcDbArc
 50
278.3007192563
 51
81.8424201135
  0
ARC
  5
1C7
330
1F
100
AcDbEntity
  8
0
  6
Continuous
 62
     7
370
    15
100
AcDbCircle
 10
169.4610017866
 20
176.7261331647
 30
0.0
 40
0.6680726666160376
100
AcDbArc
 50
97.1573987609
 51
261.8424201135
  0
ARC
  5
1C8
330
1F
100
AcDbEntity
  8
0
  6
Continuous
 62
     7
370
    15
100
AcDbCircle
 10
169.209558953
 20
178.7284802348
 30
0.0
 40
1.350000000000019
100
AcDbArc
 50
277.1573987609
 51
82.9661298691
  0
ARC
  5
1C9
330
1F
100
AcDbEntity
  8
0
  6
Continuous
 62
     7
370
    15
100
AcDbCircle
 10
169.4560815821
 20
180.726480839
 30
0.0
 40
0.6631517133715072
100
AcDbArc
 50
96.0336890053
 51
262.9661298691
  0
ARC
  5
1CA
330
1F
100
AcDbEntity
  8
0
  6
Continuous
 62
     7
370
    15
100
AcDbCircle
 10
169.2444727469
 20
182.7284802201
 30
0.0
 40
1.350000000000014
100
AcDbArc
 50
276.0336890053
 51
84.0705185898
  0
ARC
  5
1CB
330
1F
100
AcDbEntity
  8
0
  6
Continuous
 62
     7
370
    15
100
AcDbCircle
 10
169.4520204572
 20
184.7268210149
 30
0.0
 40
0.6590898397248427
100
AcDbArc
 50
94.9293002846
 51
264.0705185898
  0
ARC
  5
1CC
330
1F
100
AcDbEntity
  8
0
  6
Continuous
 62
     7
370
    15
100
AcDbCircle
 10
169.2793865409
 20
186.7284802054
 30
0.0
 40
1.350000000000032
100
AcDbArc
 50
274.9293002846
 51
85.1558804569
  0
ARC
  5
1CD
330
1F
100
AcDbEntity
  8
0
  6
Continuous
 62
     7
370
    15
100
AcDbCircle
 10
169.4487698727
 20
188.727154116
 30
0.0
 40
0.6558385064442226
100
AcDbArc
 50
93.8439384175
 51
265.1558804569
  0
ARC
  5
1CE
330
1F
100
AcDbEntity
  8
0
  6
Continuous
 62
     7
370
    15
100
AcDbCircle
 10
169.3143003349
 20
190.7284801907
 30
0.0
 40
1.350000000000001
100
AcDbArc
 50
273.8439384175
 51
86.2225132557
  0
ARC
  5
1CF
330
1F
100
AcDbEntity
  8
0
  6
Continuous
 62
     7
370
    15
100
AcDbCircle
 10
169.4462848786
 20
192.7274805347
 30
0.0
 40
0.65335276349179
100
AcDbArc
 50
101.9340237361
 51
266.2225132557
  0
ARC
  5
1D0
330
1F
100
AcDbEntity
  8
0
  6
Continuous
 62
     7
370
    15
100
AcDbCircle
 10
169.0320211501
 20
194.687533559
 30
0.0
 40
1.350000000000027
100
AcDbArc
 50
281.9340237361
 51
359.4999973189
  0
LINE
  5
1D1
330
1F
100
AcDbEntity
  8
0
  6
Continuous
 62
     7
370
    15
100
AcDbLine
 10
170.3929608967
 20
195.935465367
 30
0.0
 11
170.3819638398
 21
194.675751002
 31
0.0
  0
ARC
  5
1D2
330
1F
100
AcDbEntity
  8
0
  6
Continuous
 62
     7
370
    15
100
AcDbCircle
 10
171.1929327142
 20
195.9284870094
 30
0.0
 40
0.8000000000000369
100
AcDbArc
 50
21.3275979095
 51
179.4999973189
  0
ARC
  5
1D3
330
1F
100
AcDbEntity
  8
0
  6
Continuous
 62
     7
370
    15
100
AcDbCircle
 10
173.1956924382
 20
196.7104419236
 30
0.0
 40
1.349999999999568
100
AcDbArc
 50
201.3275979095
 51
261.6220224683
  0
ARC
  5
1D4
330
1F
100
AcDbEntity
  8
0
  6
Continuous
 62
     7
370
    15
100
AcDbCircle
 10
172.9036291482
 20
194.7273190416
 30
0.0
 40
0.6545142380960841
100
AcDbArc
 50
274.3119004389
 51
81.6220224683
  0
ARC
  5
1D5
330
1F
100
AcDbEntity
  8
0
  6
Continuous
 62
     7
370
    15
100
AcDbCircle
 10
173.0543402397
 20
192.7284785033
 30
0.0
 40
1.349999999999989
100
AcDbArc
 50
94.3119004389
 51
266.6846873738
  0
ARC
  5
1D6
330
1F
100
AcDbEntity
  8
0
  6
Continuous
 62
     7
370
    15
100
AcDbCircle
 10
172.9384175026
 20
190.7273190269
 30
0.0
 40
0.6545142380956568
100
AcDbArc
 50
274.3119004389
 51
86.6846873738
  0
ARC
  5
1D7
330
1F
100
AcDbEntity
  8
0
  6
Continuous
 62
     7
370
    15
100
AcDbCircle
 10
173.0891285942
 20
188.7284784886
 30
0.0
 40
1.350000000000032
100
AcDbArc
 50
94.3119004389
 51
265.6123234309
  0
ARC
  5
1D8
330
1F
100
AcDbEntity
  8
0
  6
Continuous
 62
     7
370
    15
100
AcDbCircle
 10
172.9355551575
 20
186.7269858106
 30
0.0
 40
0.6573758344473207
100
AcDbArc
 50
275.3877611732
 51
85.6123234309
  0
ARC
  5
1D9
330
1F
100
AcDbEntity
  8
0
  6
Continuous
 62
     7
370
    15
100
AcDbCircle
 10
173.1240390189
 20
184.7284784739
 30
0.0
 40
1.350000000000014
100
AcDbArc
 50
95.3877611732
 51
264.5174853148
  0
ARC
  5
1DA
330
1F
100
AcDbEntity
  8
0
  6
Continuous
 62
     7
370
    15
100
AcDbCircle
 10
172.9319013425
 20
182.7266492224
 30
0.0
 40
0.6610289005896557
100
AcDbArc
 50
276.4825992893
 51
84.5174853148
  0
ARC
  5
1DB
330
1F
100
AcDbEntity
  8
0
  6
Continuous
 62
     7
370
    15
100
AcDbCircle
 10
173.1589494437
 20
180.7284784592
 30
0.0
 40
1.349999999999994
100
AcDbArc
 50
96.4825992893
 51
263.4034739099
  0
ARC
  5
1DC
330
1F
100
AcDbEntity
  8
0
  6
Continuous
 62
     7
370
    15
100
AcDbCircle
 10
172.9274131296
 20
178.7263053519
 30
0.0
 40
0.6655163647193632
100
AcDbArc
 50
277.5966106942
 51
83.4034739099
  0
ARC
  5
1DD
330
1F
100
AcDbEntity
  8
0
  6
Continuous
 62
     7
370
    15
100
AcDbCircle
 10
173.1938598685
 20
176.7284784445
 30
0.0
 40
1.350000000000022
100
AcDbArc
 50
97.5966106942
 51
262.2699972202
  0
ARC
  5
1DE
330
1F
100
AcDbEntity
  8
0
  6
Continuous
 62
     7
370
    15
100
AcDbCircle
 10
172.9220400467
 20
174.7259537586
 30
0.0
 40
0.670888698871328
100
AcDbArc
 50
278.7300873839
 51
82.2699972202
  0
ARC
  5
1DF
330
1F
100
AcDbEntity
  8
0
  6
Continuous
 62
     7
370
    15
100
AcDbCircle
 10
173.2287702932
 20
172.7284784298
 30
0.0
 40
1.349999999999986
100
AcDbArc
 50
98.7300873839
 51
261.1167681891
  0
ARC
  5
1E0
330
1F
100
AcDbEntity
  8
0
  6
Continuous
 62
     7
370
    15
100
AcDbCircle
 10
172.9157274671
 20
170.7255939658
 30
0.0
 40
0.6772005296360433
100
AcDbArc
 50
279.883316415
 51
81.1167681891
  0
ARC
  5
1E1
330
1F
100
AcDbEntity
  8
0
  6
Continuous
 62
     7
370
    15
100
AcDbCircle
 10
173.263680718
 20
168.7284784151
 30
0.0
 40
1.350000000000018
100
AcDbArc
 50
99.883316415
 51
259.9435056674
  0
ARC
  5
1E2
330
1F
100
AcDbEntity
  8
0
  6
Continuous
 62
     7
370
    15
100
AcDbCircle
 10
172.9084161734
 20
166.7252254565
 30
0.0
 40
0.6845110746291109
100
AcDbArc
 50
281.0565789367
 51
79.9435056674
  0
ARC
  5
1E3
330
1F
100
AcDbEntity
  8
0
  6
Continuous
 62
     7
370
    15
100
AcDbCircle
 10
173.2985911427
 20
164.7284784004
 30
0.0
 40
1.350000000000005
100
AcDbArc
 50
101.0565789367
 51
258.7499354481
  0
ARC
  5
1E4
330
1F
100
AcDbEntity
  8
0
  6
Continuous
 62
     7
370
    15
100
AcDbCircle
 10
172.900041864
 20
162.7248476697
 30
0.0
 40
0.6928846351639697
100
AcDbArc
 50
282.250149156
 51
78.7499354481
  0
ARC
  5
1E5
330
1F
100
AcDbEntity
  8
0
  6
Continuous
 62
     7
370
    15
100
AcDbCircle
 10
173.3335015675
 20
160.7284783857
 30
0.0
 40
1.350000000000023
100
AcDbArc
 50
102.250149156
 51
257.5357913683
  0
ARC
  5
1E6
330
1F
100
AcDbEntity
  8
0
  6
Continuous
 62
     7
370
    15
100
AcDbCircle
 10
172.8905345966
 20
158.7244599949
 30
0.0
 40
0.7023911537650394
100
AcDbArc
 50
283.4642932359
 51
77.5357913683
  0
ARC
  5
1E7
330
1F
100
AcDbEntity
  8
0
  6
Continuous
 62
     7
370
    15
100
AcDbCircle
 10
173.3684119922
 20
156.728478371
 30
0.0
 40
1.350000000000004
100
AcDbArc
 50
103.4642932359
 51
256.3008164789
  0
ARC
  5
1E8
330
1F
100
AcDbEntity
  8
0
  6
Continuous
 62
     7
370
    15
100
AcDbCircle
 10
172.8798181549
 20
154.7240617669
 30
0.0
 40
0.7131068466952157
100
AcDbArc
 50
284.6992681252
 51
76.3008164789
  0
ARC
  5
1E9
330
1F
100
AcDbEntity
  8
0
  6
Continuous
 62
     7
370
    15
100
AcDbCircle
 10
173.403322417
 20
152.7284783563
 30
0.0
 40
1.350000000000036
100
AcDbArc
 50
104.6992681252
 51
255.0447642848
  0
ARC
  5
1EA
330
1F
100
AcDbEntity
  8
0
  6
Continuous
 62
     7
370
    15
100
AcDbCircle
 10
172.8678093293
 20
150.7236522594
 30
0.0
 40
0.7251149235409831
100
AcDbArc
 50
285.9553203194
 51
75.0447642848
  0
ARC
  5
1EB
330
1F
100
AcDbEntity
  8
0
  6
Continuous
 62
     7
370
    15
100
AcDbCircle
 10
173.4382328418
 20
148.7284783416
 30
0.0
 40
1.350000000000001
100
AcDbArc
 50
105.9553203194
 51
253.7674000508
  0
ARC
  5
1EC
330
1F
100
AcDbEntity
  8
0
  6
Continuous
 62
     7
370
    15
100
AcDbCircle
 10
172.8544170958
 20
146.7232306781
 30
0.0
 40
0.7385064081873844
100
AcDbArc
 50
287.2326845533
 51
73.7674000508
  0
ARC
  5
1ED
330
1F
100
AcDbEntity
  8
0
  6
Continuous
 62
     7
370
    15
100
AcDbCircle
 10
173.4731432665
 20
144.7284783269
 30
0.0
 40
1.350000000000007
100
AcDbArc
 50
107.2326845533
 51
252.4685021807
  0
ARC
  5
1EE
330
1F
100
AcDbEntity
  8
0
  6
Continuous
 62
     7
370
    15
100
AcDbCircle
 10
172.839541677
 20
142.7227961522
 30
0.0
 40
0.7533810782030285
100
AcDbArc
 50
288.5315824234
 51
72.4685021807
  0
ARC
  5
1EF
330
1F
100
AcDbEntity
  8
0
  6
Continuous
 62
     7
370
    15
100
AcDbCircle
 10
173.5080536913
 20
140.7284783122
 30
0.0
 40
1.350000000000009
100
AcDbArc
 50
108.5315824234
 51
251.1478636606
  0
ARC
  5
1F0
330
1F
100
AcDbEntity
  8
0
  6
Continuous
 62
     7
370
    15
100
AcDbCircle
 10
172.8230734633
 20
138.722347725
 30
0.0
 40
0.7698485431034594
100
AcDbArc
 50
289.8522209436
 51
71.1478636606
  0
ARC
  5
1F1
330
1F
100
AcDbEntity
  8
0
  6
Continuous
 62
     7
370
    15
100
AcDbCircle
 10
173.542964116
 20
136.7284782975
 30
0.0
 40
1.350000000000011
100
AcDbArc
 50
109.8522209436
 51
249.8052935692
  0
ARC
  5
1F2
330
1F
100
AcDbEntity
  8
0
  6
Continuous
 62
     7
370
    15
100
AcDbCircle
 10
172.8048917716
 20
134.7218843432
 30
0.0
 40
0.7880294860201816
100
AcDbArc
 50
318.1372298695
 51
69.8052935692
  0
ARC
  5
1F3
330
1F
100
AcDbEntity
  8
0
  6
Continuous
 62
     7
370
    15
100
AcDbCircle
 10
173.9716858346
 20
133.6763476359
 30
0.0
 40
0.7786725889138663
100
AcDbArc
 50
138.1372298691
 51
179.9999758693
  0
LINE
  5
1F4
330
1F
100
AcDbEntity
  8
0
  6
Continuous
 62
     7
370
    15
100
AcDbLine
 10
173.1930082943
 20
133.6763426377
 30
0.0
 11
173.1930082943
 21
131.7284926488
 31
0.0
  0
ARC
  5
1F5
330
1F
100
AcDbEntity
  8
0
  6
Continuous
 62
     7
370
    15
100
AcDbCircle
 10
176.1930124253
 20
131.7284860735
 30
0.0
 40
2.999999999999996
100
AcDbArc
 50
179.9999758696
 51
269.9999892754
  0
LINE
  5
1F6
330
1F
100
AcDbEntity
  8
0
  6
Continuous
 62
     7
370
    15
100
AcDbLine
 10
178.6930119898
 20
128.7284865691
 30
0.0
 11
176.193014374
 21
128.7284865691
 31
0.0
  0
ARC
  5
1F7
330
1F
100
AcDbEntity
  8
0
  6
Continuous
 62
     7
370
    15
100
AcDbCircle
 10
178.6930155015
 20
131.7284856055
 30
0.0
 40
2.999999999999996
100
AcDbArc
 50
269.9999892754
 51
359.9999758696
  0
LINE
  5
1F8
330
1F
100
AcDbEntity
  8
0
  6
Continuous
 62
     7
370
    15
100
AcDbLine
 10
181.6930180695
 20
132.9347416474
 30
0.0
 11
181.6930180695
 21
131.7284777476
 31
0.0
  0
ARC
  5
1F9
330
1F
100
AcDbEntity
  8
0
  6
Continuous
 62
     7
370
    15
100
AcDbCircle
 10
182.4716885984
 20
132.9347346983
 30
0.0
 40
0.7786725889157944
100
AcDbArc
 50
122.5781099429
 51
179.9999758696
  0
ARC
  5
1FA
330
1F
100
AcDbEntity
  8
0
  6
Continuous
 62
     7
370
    15
100
AcDbCircle
 10
181.325507219
 20
134.7284780568
 30
0.0
 40
1.349999999999991
100
AcDbArc
 50
302.5781099429
 51
69.4824657628
  0
ARC
  5
1FB
330
1F
100
AcDbEntity
  8
0
  6
Continuous
 62
     7
370
    15
100
AcDbCircle
 10
182.0715942209
 20
136.7221182391
 30
0.0
 40
0.7786725889152372
100
AcDbArc
 50
109.5173531116
 51
249.4824657628
  0
ARC
  5
1FC
330
1F
100
AcDbEntity
  8
0
  6
Continuous
 62
     7
370
    15
100
AcDbCircle
 10
181.360421013
 20
138.7284780421
 30
0.0
 40
1.349999999999994
100
AcDbArc
 50
289.5173531116
 51
70.8140647064
  0
ARC
  5
1FD
330
1F
100
AcDbEntity
  8
0
  6
Continuous
 62
     7
370
    15
100
AcDbCircle
 10
182.0542898828
 20
140.7225740077
 30
0.0
 40
0.7613675019380014
100
AcDbArc
 50
108.185754168
 51
250.8140647064
  0
ARC
  5
1FE
330
1F
100
AcDbEntity
  8
0
  6
Continuous
 62
     7
370
    15
100
AcDbCircle
 10
181.395334807
 20
142.7284780274
 30
0.0
 40
1.349999999999998
100
AcDbArc
 50
288.185754168
 51
72.1238235638
  0
ARC
  5
1FF
330
1F
100
AcDbEntity
  8
0
  6
Continuous
 62
     7
370
    15
100
AcDbCircle
 10
182.0386370893
 20
144.7230153608
 30
0.0
 40
0.74571395967152
100
AcDbArc
 50
106.8759953106
 51
252.1238235638
  0
ARC
  5
200
330
1F
100
AcDbEntity
  8
0
  6
Continuous
 62
     7
370
    15
100
AcDbCircle
 10
181.430248601
 20
146.7284780127
 30
0.0
 40
1.349999999999992
100
AcDbArc
 50
286.8759953106
 51
73.4119415679
  0
ARC
  5
201
330
1F
100
AcDbEntity
  8
0
  6
Continuous
 62
     7
370
    15
100
AcDbCircle
 10
182.02452087
 20
148.7234433021
 30
0.0
 40
0.7315969916106455
100
AcDbArc
 50
105.5878773066
 51
253.4119415679
  0
ARC
  5
202
330
1F
100
AcDbEntity
  8
0
  6
Continuous
 62
     7
370
    15
100
AcDbCircle
 10
181.465162395
 20
150.728477998
 30
0.0
 40
1.350000000000029
100
AcDbArc
 50
285.5878773066
 51
74.6786332805
  0
ARC
  5
203
330
1F
100
AcDbEntity
  8
0
  6
Continuous
 62
     7
370
    15
100
AcDbCircle
 10
182.0118366842
 20
152.7238587439
 30
0.0
 40
0.7189120569702052
100
AcDbArc
 50
104.321185594
 51
254.6786332805
  0
ARC
  5
204
330
1F
100
AcDbEntity
  8
0
  6
Continuous
 62
     7
370
    15
100
AcDbCircle
 10
181.500076189
 20
154.7284779833
 30
0.0
 40
1.349999999999988
100
AcDbArc
 50
284.321185594
 51
75.9241271146
  0
ARC
  5
205
330
1F
100
AcDbEntity
  8
0
  6
Continuous
 62
     7
370
    15
100
AcDbCircle
 10
182.0004892642
 20
156.7242625178
 30
0.0
 40
0.7075638881958878
100
AcDbArc
 50
103.0756917598
 51
255.9241271146
  0
ARC
  5
206
330
1F
100
AcDbEntity
  8
0
  6
Continuous
 62
     7
370
    15
100
AcDbCircle
 10
181.534989983
 20
158.7284779686
 30
0.0
 40
1.350000000000015
100
AcDbArc
 50
283.0756917598
 51
77.1486639236
  0
ARC
  5
207
330
1F
100
AcDbEntity
  8
0
  6
Continuous
 62
     7
370
    15
100
AcDbCircle
 10
181.9903916098
 20
160.7246553832
 30
0.0
 40
0.697465485017458
100
AcDbArc
 50
101.8511549508
 51
257.1486639236
  0
ARC
  5
208
330
1F
100
AcDbEntity
  8
0
  6
Continuous
 62
     7
370
    15
100
AcDbCircle
 10
181.569903777
 20
162.7284779539
 30
0.0
 40
1.350000000000015
100
AcDbArc
 50
281.8511549508
 51
78.3524956579
  0
ARC
  5
209
330
1F
100
AcDbEntity
  8
0
  6
Continuous
 62
     7
370
    15
100
AcDbCircle
 10
181.9814641103
 20
164.725038035
 30
0.0
 40
0.6885372366820267
100
AcDbArc
 50
100.6473232165
 51
258.3524956579
  0
ARC
  5
20A
330
1F
100
AcDbEntity
  8
0
  6
Continuous
 62
     7
370
    15
100
AcDbCircle
 10
181.604817571
 20
166.7284779392
 30
0.0
 40
1.349999999999999
100
AcDbArc
 50
280.6473232165
 51
79.5358840917
  0
ARC
  5
20B
330
1F
100
AcDbEntity
  8
0
  6
Continuous
 62
     7
370
    15
100
AcDbCircle
 10
181.9736337761
 20
168.7254111102
 30
0.0
 40
0.6807061536885266
100
AcDbArc
 50
99.4639347827
 51
259.5358840917
  0
ARC
  5
20C
330
1F
100
AcDbEntity
  8
0
  6
Continuous
 62
     7
370
    15
100
AcDbCircle
 10
181.639731365
 20
170.7284779245
 30
0.0
 40
1.350000000000002
100
AcDbArc
 50
279.4639347827
 51
80.6990996181
  0
ARC
  5
20D
330
1F
100
AcDbEntity
  8
0
  6
Continuous
 62
     7
370
    15
100
AcDbCircle
 10
181.9668335646
 20
172.7257751941
 30
0.0
 40
0.6739051934328114
100
AcDbArc
 50
98.3007192563
 51
260.6990996181
  0
ARC
  5
20E
330
1F
100
AcDbEntity
  8
0
  6
Continuous
 62
     7
370
    15
100
AcDbCircle
 10
181.674645159
 20
174.7284779098
 30
0.0
 40
1.349999999999992
100
AcDbArc
 50
278.3007192563
 51
81.8424201135
  0
ARC
  5
20F
330
1F
100
AcDbEntity
  8
0
  6
Continuous
 62
     7
370
    15
100
AcDbCircle
 10
181.9610017866
 20
176.726130825
 30
0.0
 40
0.6680726666160562
100
AcDbArc
 50
97.1573987609
 51
261.8424201135
  0
ARC
  5
210
330
1F
100
AcDbEntity
  8
0
  6
Continuous
 62
     7
370
    15
100
AcDbCircle
 10
181.709558953
 20
178.7284778951
 30
0.0
 40
1.350000000000016
100
AcDbArc
 50
277.1573987609
 51
82.9661298691
  0
ARC
  5
211
330
1F
100
AcDbEntity
  8
0
  6
Continuous
 62
     7
370
    15
100
AcDbCircle
 10
181.9560815821
 20
180.7264784993
 30
0.0
 40
0.6631517133715326
100
AcDbArc
 50
96.0336890053
 51
262.9661298691
  0
ARC
  5
212
330
1F
100
AcDbEntity
  8
0
  6
Continuous
 62
     7
370
    15
100
AcDbCircle
 10
181.7444727469
 20
182.7284778804
 30
0.0
 40
1.350000000000003
100
AcDbArc
 50
276.0336890053
 51
84.0705185898
  0
ARC
  5
213
330
1F
100
AcDbEntity
  8
0
  6
Continuous
 62
     7
370
    15
100
AcDbCircle
 10
181.9520204572
 20
184.7268186752
 30
0.0
 40
0.6590898397248445
100
AcDbArc
 50
94.9293002846
 51
264.0705185898
  0
ARC
  5
214
330
1F
100
AcDbEntity
  8
0
  6
Continuous
 62
     7
370
    15
100
AcDbCircle
 10
181.7793865409
 20
186.7284778657
 30
0.0
 40
1.350000000000007
100
AcDbArc
 50
274.9293002846
 51
85.1558804569
  0
ARC
  5
215
330
1F
100
AcDbEntity
  8
0
  6
Continuous
 62
     7
370
    15
100
AcDbCircle
 10
181.9487698727
 20
188.7271517763
 30
0.0
 40
0.6558385064442265
100
AcDbArc
 50
93.8439384175
 51
265.1558804569
  0
ARC
  5
216
330
1F
100
AcDbEntity
  8
0
  6
Continuous
 62
     7
370
    15
100
AcDbCircle
 10
181.8143003349
 20
190.728477851
 30
0.0
 40
1.350000000000001
100
AcDbArc
 50
273.8439384175
 51
86.2225132557
  0
ARC
  5
217
330
1F
100
AcDbEntity
  8
0
  6
Continuous
 62
     7
370
    15
100
AcDbCircle
 10
181.9462848786
 20
192.727478195
 30
0.0
 40
0.6533527634917841
100
AcDbArc
 50
101.9340237361
 51
266.2225132557
  0
ARC
  5
218
330
1F
100
AcDbEntity
  8
0
  6
Continuous
 62
     7
370
    15
100
AcDbCircle
 10
181.5320211501
 20
194.6875312193
 30
0.0
 40
1.350000000000027
100
AcDbArc
 50
281.9340237361
 51
359.4999973189
  0
LINE
  5
219
330
1F
100
AcDbEntity
  8
0
  6
Continuous
 62
     7
370
    15
100
AcDbLine
 10
182.892963877
 20
195.935465367
 30
0.0
 11
182.88196682
 21
194.675751002
 31
0.0
  0
ARC
  5
21A
330
1F
100
AcDbEntity
  8
0
  6
Continuous
 62
     7
370
    15
100
AcDbCircle
 10
183.6929327142
 20
195.9284846697
 30
0.0
 40
0.8000000000000369
100
AcDbArc
 50
21.3275979095
 51
179.4999973189
  0
ARC
  5
21B
330
1F
100
AcDbEntity
  8
0
  6
Continuous
 62
     7
370
    15
100
AcDbCircle
 10
185.6956924382
 20
196.7104395839
 30
0.0
 40
1.349999999999552
100
AcDbArc
 50
201.3275979095
 51
261.6220224683
  0
ARC
  5
21C
330
1F
100
AcDbEntity
  8
0
  6
Continuous
 62
     7
370
    15
100
AcDbCircle
 10
185.4036291481
 20
194.7273167019
 30
0.0
 40
0.654514238096082
100
AcDbArc
 50
274.3119004389
 51
81.6220224683
  0
ARC
  5
21D
330
1F
100
AcDbEntity
  8
0
  6
Continuous
 62
     7
370
    15
100
AcDbCircle
 10
185.5543402397
 20
192.7284761635
 30
0.0
 40
1.349999999999992
100
AcDbArc
 50
94.3119004389
 51
266.6846873738
  0
ARC
  5
21E
330
1F
100
AcDbEntity
  8
0
  6
Continuous
 62
     7
370
    15
100
AcDbCircle
 10
185.4384175026
 20
190.7273166872
 30
0.0
 40
0.6545142380956547
100
AcDbArc
 50
274.3119004389
 51
86.6846873738
  0
ARC
  5
21F
330
1F
100
AcDbEntity
  8
0
  6
Continuous
 62
     7
370
    15
100
AcDbCircle
 10
185.5891285942
 20
188.7284761489
 30
0.0
 40
1.350000000000006
100
AcDbArc
 50
94.3119004389
 51
265.6123234309
  0
ARC
  5
220
330
1F
100
AcDbEntity
  8
0
  6
Continuous
 62
     7
370
    15
100
AcDbCircle
 10
185.4355551575
 20
186.7269834708
 30
0.0
 40
0.6573758344473468
100
AcDbArc
 50
275.3877611732
 51
85.6123234309
  0
ARC
  5
221
330
1F
100
AcDbEntity
  8
0
  6
Continuous
 62
     7
370
    15
100
AcDbCircle
 10
185.6240390189
 20
184.7284761342
 30
0.0
 40
1.349999999999989
100
AcDbArc
 50
95.3877611732
 51
264.5174853148
  0
ARC
  5
222
330
1F
100
AcDbEntity
  8
0
  6
Continuous
 62
     7
370
    15
100
AcDbCircle
 10
185.4319013425
 20
182.7266468827
 30
0.0
 40
0.6610289005896302
100
AcDbArc
 50
276.4825992894
 51
84.5174853148
  0
ARC
  5
223
330
1F
100
AcDbEntity
  8
0
  6
Continuous
 62
     7
370
    15
100
AcDbCircle
 10
185.6589494437
 20
180.7284761195
 30
0.0
 40
1.349999999999994
100
AcDbArc
 50
96.4825992893
 51
263.4034739099
  0
ARC
  5
224
330
1F
100
AcDbEntity
  8
0
  6
Continuous
 62
     7
370
    15
100
AcDbCircle
 10
185.4274131296
 20
178.7263030122
 30
0.0
 40
0.6655163647193567
100
AcDbArc
 50
277.5966106942
 51
83.4034739099
  0
ARC
  5
225
330
1F
100
AcDbEntity
  8
0
  6
Continuous
 62
     7
370
    15
100
AcDbCircle
 10
185.6938598685
 20
176.7284761048
 30
0.0
 40
1.350000000000018
100
AcDbArc
 50
97.5966106942
 51
262.2699972202
  0
ARC
  5
226
330
1F
100
AcDbEntity
  8
0
  6
Continuous
 62
     7
370
    15
100
AcDbCircle
 10
185.4220400467
 20
174.7259514189
 30
0.0
 40
0.670888698871328
100
AcDbArc
 50
278.7300873839
 51
82.2699972202
  0
ARC
  5
227
330
1F
100
AcDbEntity
  8
0
  6
Continuous
 62
     7
370
    15
100
AcDbCircle
 10
185.7287702932
 20
172.7284760901
 30
0.0
 40
1.350000000000004
100
AcDbArc
 50
98.7300873839
 51
261.1167681891
  0
ARC
  5
228
330
1F
100
AcDbEntity
  8
0
  6
Continuous
 62
     7
370
    15
100
AcDbCircle
 10
185.4157274671
 20
170.725591626
 30
0.0
 40
0.6772005296360725
100
AcDbArc
 50
279.883316415
 51
81.1167681891
  0
ARC
  5
229
330
1F
100
AcDbEntity
  8
0
  6
Continuous
 62
     7
370
    15
100
AcDbCircle
 10
185.763680718
 20
168.7284760754
 30
0.0
 40
1.34999999999999
100
AcDbArc
 50
99.883316415
 51
259.9435056674
  0
ARC
  5
22A
330
1F
100
AcDbEntity
  8
0
  6
Continuous
 62
     7
370
    15
100
AcDbCircle
 10
185.4084161734
 20
166.7252231168
 30
0.0
 40
0.6845110746291218
100
AcDbArc
 50
281.0565789367
 51
79.9435056674
  0
ARC
  5
22B
330
1F
100
AcDbEntity
  8
0
  6
Continuous
 62
     7
370
    15
100
AcDbCircle
 10
185.7985911427
 20
164.7284760607
 30
0.0
 40
1.350000000000005
100
AcDbArc
 50
101.0565789367
 51
258.7499354481
  0
ARC
  5
22C
330
1F
100
AcDbEntity
  8
0
  6
Continuous
 62
     7
370
    15
100
AcDbCircle
 10
185.400041864
 20
162.72484533
 30
0.0
 40
0.6928846351639818
100
AcDbArc
 50
282.250149156
 51
78.7499354481
  0
ARC
  5
22D
330
1F
100
AcDbEntity
  8
0
  6
Continuous
 62
     7
370
    15
100
AcDbCircle
 10
185.8335015675
 20
160.728476046
 30
0.0
 40
1.350000000000023
100
AcDbArc
 50
102.250149156
 51
257.5357913683
  0
ARC
  5
22E
330
1F
100
AcDbEntity
  8
0
  6
Continuous
 62
     7
370
    15
100
AcDbCircle
 10
185.3905345966
 20
158.7244576551
 30
0.0
 40
0.7023911537650394
100
AcDbArc
 50
283.4642932359
 51
77.5357913683
  0
ARC
  5
22F
330
1F
100
AcDbEntity
  8
0
  6
Continuous
 62
     7
370
    15
100
AcDbCircle
 10
185.8684119922
 20
156.7284760313
 30
0.0
 40
1.350000000000017
100
AcDbArc
 50
103.4642932359
 51
256.3008164789
  0
ARC
  5
230
330
1F
100
AcDbEntity
  8
0
  6
Continuous
 62
     7
370
    15
100
AcDbCircle
 10
185.3798181549
 20
154.7240594271
 30
0.0
 40
0.713106846695228
100
AcDbArc
 50
284.6992681252
 51
76.300816479
  0
ARC
  5
231
330
1F
100
AcDbEntity
  8
0
  6
Continuous
 62
     7
370
    15
100
AcDbCircle
 10
185.903322417
 20
152.7284760166
 30
0.0
 40
1.350000000000036
100
AcDbArc
 50
104.6992681252
 51
255.0447642848
  0
ARC
  5
232
330
1F
100
AcDbEntity
  8
0
  6
Continuous
 62
     7
370
    15
100
AcDbCircle
 10
185.3678093293
 20
150.7236499197
 30
0.0
 40
0.7251149235409909
100
AcDbArc
 50
285.9553203194
 51
75.0447642848
  0
ARC
  5
233
330
1F
100
AcDbEntity
  8
0
  6
Continuous
 62
     7
370
    15
100
AcDbCircle
 10
185.9382328418
 20
148.7284760019
 30
0.0
 40
1.350000000000001
100
AcDbArc
 50
105.9553203194
 51
253.7674000508
  0
ARC
  5
234
330
1F
100
AcDbEntity
  8
0
  6
Continuous
 62
     7
370
    15
100
AcDbCircle
 10
185.3544170958
 20
146.7232283384
 30
0.0
 40
0.7385064081873823
100
AcDbArc
 50
287.2326845533
 51
73.7674000508
  0
ARC
  5
235
330
1F
100
AcDbEntity
  8
0
  6
Continuous
 62
     7
370
    15
100
AcDbCircle
 10
185.9731432665
 20
144.7284759872
 30
0.0
 40
1.350000000000016
100
AcDbArc
 50
107.2326845533
 51
252.4685021807
  0
ARC
  5
236
330
1F
100
AcDbEntity
  8
0
  6
Continuous
 62
     7
370
    15
100
AcDbCircle
 10
185.339541677
 20
142.7227938125
 30
0.0
 40
0.7533810782030195
100
AcDbArc
 50
288.5315824234
 51
72.4685021807
  0
ARC
  5
237
330
1F
100
AcDbEntity
  8
0
  6
Continuous
 62
     7
370
    15
100
AcDbCircle
 10
186.0080536913
 20
140.7284759725
 30
0.0
 40
1.350000000000009
100
AcDbArc
 50
108.5315824234
 51
251.1478636606
  0
ARC
  5
238
330
1F
100
AcDbEntity
  8
0
  6
Continuous
 62
     7
370
    15
100
AcDbCircle
 10
185.3230734633
 20
138.7223453852
 30
0.0
 40
0.7698485431034423
100
AcDbArc
 50
289.8522209436
 51
71.1478636606
  0
ARC
  5
239
330
1F
100
AcDbEntity
  8
0
  6
Continuous
 62
     7
370
    15
100
AcDbCircle
 10
186.042964116
 20
136.7284759578
 30
0.0
 40
1.350000000000018
100
AcDbArc
 50
109.8522209436
 51
249.8052935692
  0
ARC
  5
23A
330
1F
100
AcDbEntity
  8
0
  6
Continuous
 62
     7
370
    15
100
AcDbCircle
 10
185.3048917716
 20
134.7218820034
 30
0.0
 40
0.7880294860201984
100
AcDbArc
 50
318.1372298695
 51
69.8052935692
  0
ARC
  5
23B
330
1F
100
AcDbEntity
  8
0
  6
Continuous
 62
     7
370
    15
100
AcDbCircle
 10
186.4716858346
 20
133.6763452962
 30
0.0
 40
0.7786725889138684
100
AcDbArc
 50
138.1372298691
 51
179.9999758693
  0
LINE
  5
23C
330
1F
100
AcDbEntity
  8
0
  6
Continuous
 62
     7
370
    15
100
AcDbLine
 10
185.6930112746
 20
133.6763426377
 30
0.0
 11
185.6930112746
 21
131.7284777476
 31
0.0
  0
ARC
  5
23D
330
1F
100
AcDbEntity
  8
0
  6
Continuous
 62
     7
370
    15
100
AcDbCircle
 10
188.6930124253
 20
131.7284837337
 30
0.0
 40
2.999999999999996
100
AcDbArc
 50
179.9999758696
 51
269.9999892754
  0
LINE
  5
23E
330
1F
100
AcDbEntity
  8
0
  6
Continuous
 62
     7
370
    15
100
AcDbLine
 10
191.1930149701
 20
128.7284865691
 30
0.0
 11
188.6930173542
 21
128.7284865691
 31
0.0
  0
ARC
  5
23F
330
1F
100
AcDbEntity
  8
0
  6
Continuous
 62
     7
370
    15
100
AcDbCircle
 10
191.1930155015
 20
131.7284832658
 30
0.0
 40
2.999999999999982
100
AcDbArc
 50
269.9999892754
 51
359.9999758696
  0
LINE
  5
240
330
1F
100
AcDbEntity
  8
0
  6
Continuous
 62
     7
370
    15
100
AcDbLine
 10
194.1930210497
 20
132.9347267463
 30
0.0
 11
194.1930210497
 21
131.7284777476
 31
0.0
  0
ARC
  5
241
330
1F
100
AcDbEntity
  8
0
  6
Continuous
 62
     7
370
    15
100
AcDbCircle
 10
194.9716885984
 20
132.9347323585
 30
0.0
 40
0.7786725889157944
100
AcDbArc
 50
122.5781099429
 51
179.9999758696
  0
ARC
  5
242
330
1F
100
AcDbEntity
  8
0
  6
Continuous
 62
     7
370
    15
100
AcDbCircle
 10
193.825507219
 20
134.7284757171
 30
0.0
 40
1.350000000000007
100
AcDbArc
 50
302.5781099429
 51
69.4824657628
  0
ARC
  5
243
330
1F
100
AcDbEntity
  8
0
  6
Continuous
 62
     7
370
    15
100
AcDbCircle
 10
194.5715942209
 20
136.7221158994
 30
0.0
 40
0.778672588915189
100
AcDbArc
 50
109.5173531116
 51
249.4824657628
  0
ARC
  5
244
330
1F
100
AcDbEntity
  8
0
  6
Continuous
 62
     7
370
    15
100
AcDbCircle
 10
193.860421013
 20
138.7284757024
 30
0.0
 40
1.350000000000027
100
AcDbArc
 50
289.5173531116
 51
70.8140647064
  0
ARC
  5
245
330
1F
100
AcDbEntity
  8
0
  6
Continuous
 62
     7
370
    15
100
AcDbCircle
 10
194.5542898828
 20
140.7225716679
 30
0.0
 40
0.7613675019380013
100
AcDbArc
 50
108.185754168
 51
250.8140647064
  0
ARC
  5
246
330
1F
100
AcDbEntity
  8
0
  6
Continuous
 62
     7
370
    15
100
AcDbCircle
 10
193.895334807
 20
142.7284756877
 30
0.0
 40
1.349999999999998
100
AcDbArc
 50
288.185754168
 51
72.1238235638
  0
ARC
  5
247
330
1F
100
AcDbEntity
  8
0
  6
Continuous
 62
     7
370
    15
100
AcDbCircle
 10
194.5386370893
 20
144.7230130211
 30
0.0
 40
0.7457139596715332
100
AcDbArc
 50
106.8759953106
 51
252.1238235638
  0
ARC
  5
248
330
1F
100
AcDbEntity
  8
0
  6
Continuous
 62
     7
370
    15
100
AcDbCircle
 10
193.930248601
 20
146.728475673
 30
0.0
 40
1.349999999999984
100
AcDbArc
 50
286.8759953106
 51
73.4119415679
  0
ARC
  5
249
330
1F
100
AcDbEntity
  8
0
  6
Continuous
 62
     7
370
    15
100
AcDbCircle
 10
194.52452087
 20
148.7234409623
 30
0.0
 40
0.7315969916106922
100
AcDbArc
 50
105.5878773066
 51
253.4119415679
  0
ARC
  5
24A
330
1F
100
AcDbEntity
  8
0
  6
Continuous
 62
     7
370
    15
100
AcDbCircle
 10
193.965162395
 20
150.7284756583
 30
0.0
 40
1.350000000000007
100
AcDbArc
 50
285.5878773066
 51
74.6786332805
  0
ARC
  5
24B
330
1F
100
AcDbEntity
  8
0
  6
Continuous
 62
     7
370
    15
100
AcDbCircle
 10
194.5118366842
 20
152.7238564042
 30
0.0
 40
0.7189120569701867
100
AcDbArc
 50
104.321185594
 51
254.6786332805
  0
ARC
  5
24C
330
1F
100
AcDbEntity
  8
0
  6
Continuous
 62
     7
370
    15
100
AcDbCircle
 10
194.000076189
 20
154.7284756436
 30
0.0
 40
1.350000000000015
100
AcDbArc
 50
284.321185594
 51
75.9241271146
  0
ARC
  5
24D
330
1F
100
AcDbEntity
  8
0
  6
Continuous
 62
     7
370
    15
100
AcDbCircle
 10
194.5004892642
 20
156.7242601781
 30
0.0
 40
0.7075638881958601
100
AcDbArc
 50
103.0756917598
 51
255.9241271146
  0
ARC
  5
24E
330
1F
100
AcDbEntity
  8
0
  6
Continuous
 62
     7
370
    15
100
AcDbCircle
 10
194.034989983
 20
158.7284756289
 30
0.0
 40
1.350000000000037
100
AcDbArc
 50
283.0756917598
 51
77.1486639236
  0
ARC
  5
24F
330
1F
100
AcDbEntity
  8
0
  6
Continuous
 62
     7
370
    15
100
AcDbCircle
 10
194.4903916098
 20
160.7246530435
 30
0.0
 40
0.6974654850175013
100
AcDbArc
 50
101.8511549508
 51
257.1486639236
  0
ARC
  5
250
330
1F
100
AcDbEntity
  8
0
  6
Continuous
 62
     7
370
    15
100
AcDbCircle
 10
194.069903777
 20
162.7284756142
 30
0.0
 40
1.349999999999981
100
AcDbArc
 50
281.8511549508
 51
78.3524956579
  0
ARC
  5
251
330
1F
100
AcDbEntity
  8
0
  6
Continuous
 62
     7
370
    15
100
AcDbCircle
 10
194.4814641103
 20
164.7250356953
 30
0.0
 40
0.6885372366820495
100
AcDbArc
 50
100.6473232165
 51
258.3524956579
  0
ARC
  5
252
330
1F
100
AcDbEntity
  8
0
  6
Continuous
 62
     7
370
    15
100
AcDbCircle
 10
194.104817571
 20
166.7284755995
 30
0.0
 40
1.350000000000027
100
AcDbArc
 50
280.6473232165
 51
79.5358840917
  0
ARC
  5
253
330
1F
100
AcDbEntity
  8
0
  6
Continuous
 62
     7
370
    15
100
AcDbCircle
 10
194.4736337761
 20
168.7254087705
 30
0.0
 40
0.6807061536885313
100
AcDbArc
 50
99.4639347827
 51
259.5358840917
  0
ARC
  5
254
330
1F
100
AcDbEntity
  8
0
  6
Continuous
 62
     7
370
    15
100
AcDbCircle
 10
194.139731365
 20
170.7284755848
 30
0.0
 40
1.350000000000002
100
AcDbArc
 50
279.4639347827
 51
80.6990996181
  0
ARC
  5
255
330
1F
100
AcDbEntity
  8
0
  6
Continuous
 62
     7
370
    15
100
AcDbCircle
 10
194.4668335646
 20
172.7257728543
 30
0.0
 40
0.6739051934328354
100
AcDbArc
 50
98.3007192563
 51
260.6990996181
  0
ARC
  5
256
330
1F
100
AcDbEntity
  8
0
  6
Continuous
 62
     7
370
    15
100
AcDbCircle
 10
194.174645159
 20
174.7284755701
 30
0.0
 40
1.349999999999988
100
AcDbArc
 50
278.3007192563
 51
81.8424201135
  0
ARC
  5
257
330
1F
100
AcDbEntity
  8
0
  6
Continuous
 62
     7
370
    15
100
AcDbCircle
 10
194.4610017866
 20
176.7261284852
 30
0.0
 40
0.6680726666160245
100
AcDbArc
 50
97.1573987609
 51
261.8424201135
  0
ARC
  5
258
330
1F
100
AcDbEntity
  8
0
  6
Continuous
 62
     7
370
    15
100
AcDbCircle
 10
194.2095589529
 20
178.7284755554
 30
0.0
 40
1.350000000000008
100
AcDbArc
 50
277.1573987609
 51
82.9661298691
  0
ARC
  5
259
330
1F
100
AcDbEntity
  8
0
  6
Continuous
 62
     7
370
    15
100
AcDbCircle
 10
194.4560815821
 20
180.7264761595
 30
0.0
 40
0.6631517133715223
100
AcDbArc
 50
96.0336890053
 51
262.9661298691
  0
ARC
  5
25A
330
1F
100
AcDbEntity
  8
0
  6
Continuous
 62
     7
370
    15
100
AcDbCircle
 10
194.2444727469
 20
182.7284755406
 30
0.0
 40
1.350000000000014
100
AcDbArc
 50
276.0336890053
 51
84.0705185898
  0
ARC
  5
25B
330
1F
100
AcDbEntity
  8
0
  6
Continuous
 62
     7
370
    15
100
AcDbCircle
 10
194.4520204572
 20
184.7268163354
 30
0.0
 40
0.6590898397248427
100
AcDbArc
 50
94.9293002846
 51
264.0705185898
  0
ARC
  5
25C
330
1F
100
AcDbEntity
  8
0
  6
Continuous
 62
     7
370
    15
100
AcDbCircle
 10
194.2793865409
 20
186.7284755259
 30
0.0
 40
1.350000000000004
100
AcDbArc
 50
274.9293002846
 51
85.1558804569
  0
ARC
  5
25D
330
1F
100
AcDbEntity
  8
0
  6
Continuous
 62
     7
370
    15
100
AcDbCircle
 10
194.4487698727
 20
188.7271494365
 30
0.0
 40
0.6558385064442529
100
AcDbArc
 50
93.8439384175
 51
265.1558804569
  0
ARC
  5
25E
330
1F
100
AcDbEntity
  8
0
  6
Continuous
 62
     7
370
    15
100
AcDbCircle
 10
194.3143003349
 20
190.7284755112
 30
0.0
 40
1.349999999999999
100
AcDbArc
 50
273.8439384175
 51
86.2225132557
  0
ARC
  5
25F
330
1F
100
AcDbEntity
  8
0
  6
Continuous
 62
     7
370
    15
100
AcDbCircle
 10
194.4462848786
 20
192.7274758552
 30
0.0
 40
0.6533527634917958
100
AcDbArc
 50
101.9340237361
 51
266.2225132557
  0
ARC
  5
260
330
1F
100
AcDbEntity
  8
0
  6
Continuous
 62
     7
370
    15
100
AcDbCircle
 10
194.0320211501
 20
194.6875288796
 30
0.0
 40
1.350000000000027
100
AcDbArc
 50
281.9340237361
 51
359.4999973189
  0
LINE
  5
261
330
1F
100
AcDbEntity
  8
0
  6
Continuous
 62
     7
370
    15
100
AcDbLine
 10
195.3929668572
 20
195.935465367
 30
0.0
 11
195.3819698002
 21
194.675751002
 31
0.0
  0
ARC
  5
262
330
1F
100
AcDbEntity
  8
0
  6
Continuous
 62
     7
370
    15
100
AcDbCircle
 10
196.1929327142
 20
195.9284823299
 30
0.0
 40
0.7999999999999999
100
AcDbArc
 50
21.3275979095
 51
179.4999973189
  0
ARC
  5
263
330
1F
100
AcDbEntity
  8
0
  6
Continuous
 62
     7
370
    15
100
AcDbCircle
 10
198.1956924382
 20
196.7104372442
 30
0.0
 40
1.349999999999604
100
AcDbArc
 50
201.3275979095
 51
261.6220224683
  0
ARC
  5
264
330
1F
100
AcDbEntity
  8
0
  6
Continuous
 62
     7
370
    15
100
AcDbCircle
 10
197.9036291481
 20
194.7273143621
 30
0.0
 40
0.6545142380960612
100
AcDbArc
 50
274.3119004389
 51
81.6220224683
  0
ARC
  5
265
330
1F
100
AcDbEntity
  8
0
  6
Continuous
 62
     7
370
    15
100
AcDbCircle
 10
198.0543402397
 20
192.7284738238
 30
0.0
 40
1.350000000000014
100
AcDbArc
 50
94.3119004389
 51
266.6846873738
  0
ARC
  5
266
330
1F
100
AcDbEntity
  8
0
  6
Continuous
 62
     7
370
    15
100
AcDbCircle
 10
197.9384175026
 20
190.7273143475
 30
0.0
 40
0.6545142380956267
100
AcDbArc
 50
274.3119004389
 51
86.6846873738
  0
ARC
  5
267
330
1F
100
AcDbEntity
  8
0
  6
Continuous
 62
     7
370
    15
100
AcDbCircle
 10
198.0891285942
 20
188.7284738091
 30
0.0
 40
1.350000000000014
100
AcDbArc
 50
94.3119004389
 51
265.6123234309
  0
ARC
  5
268
330
1F
100
AcDbEntity
  8
0
  6
Continuous
 62
     7
370
    15
100
AcDbCircle
 10
197.9355551575
 20
186.7269811311
 30
0.0
 40
0.657375834447336
100
AcDbArc
 50
275.3877611732
 51
85.6123234309
  0
ARC
  5
269
330
1F
100
AcDbEntity
  8
0
  6
Continuous
 62
     7
370
    15
100
AcDbCircle
 10
198.1240390189
 20
184.7284737944
 30
0.0
 40
1.350000000000017
100
AcDbArc
 50
95.3877611732
 51
264.5174853148
  0
ARC
  5
26A
330
1F
100
AcDbEntity
  8
0
  6
Continuous
 62
     7
370
    15
100
AcDbCircle
 10
197.9319013425
 20
182.7266445429
 30
0.0
 40
0.661028900589644
100
AcDbArc
 50
276.4825992894
 51
84.5174853148
  0
ARC
  5
26B
330
1F
100
AcDbEntity
  8
0
  6
Continuous
 62
     7
370
    15
100
AcDbCircle
 10
198.1589494437
 20
180.7284737797
 30
0.0
 40
1.349999999999994
100
AcDbArc
 50
96.4825992893
 51
263.4034739099
  0
ARC
  5
26C
330
1F
100
AcDbEntity
  8
0
  6
Continuous
 62
     7
370
    15
100
AcDbCircle
 10
197.9274131296
 20
178.7263006724
 30
0.0
 40
0.6655163647193789
100
AcDbArc
 50
277.5966106942
 51
83.4034739099
  0
ARC
  5
26D
330
1F
100
AcDbEntity
  8
0
  6
Continuous
 62
     7
370
    15
100
AcDbCircle
 10
198.1938598685
 20
176.728473765
 30
0.0
 40
1.349999999999998
100
AcDbArc
 50
97.5966106942
 51
262.2699972202
  0
ARC
  5
26E
330
1F
100
AcDbEntity
  8
0
  6
Continuous
 62
     7
370
    15
100
AcDbCircle
 10
197.9220400467
 20
174.7259490791
 30
0.0
 40
0.670888698871328
100
AcDbArc
 50
278.7300873839
 51
82.2699972202
  0
ARC
  5
26F
330
1F
100
AcDbEntity
  8
0
  6
Continuous
 62
     7
370
    15
100
AcDbCircle
 10
198.2287702932
 20
172.7284737503
 30
0.0
 40
1.350000000000004
100
AcDbArc
 50
98.7300873839
 51
261.1167681891
  0
ARC
  5
270
330
1F
100
AcDbEntity
  8
0
  6
Continuous
 62
     7
370
    15
100
AcDbCircle
 10
197.9157274671
 20
170.7255892863
 30
0.0
 40
0.6772005296360676
100
AcDbArc
 50
279.883316415
 51
81.1167681891
  0
ARC
  5
271
330
1F
100
AcDbEntity
  8
0
  6
Continuous
 62
     7
370
    15
100
AcDbCircle
 10
198.263680718
 20
168.7284737356
 30
0.0
 40
1.34999999999999
100
AcDbArc
 50
99.883316415
 51
259.9435056674
  0
ARC
  5
272
330
1F
100
AcDbEntity
  8
0
  6
Continuous
 62
     7
370
    15
100
AcDbCircle
 10
197.9084161734
 20
166.725220777
 30
0.0
 40
0.6845110746291333
100
AcDbArc
 50
281.0565789367
 51
79.9435056674
  0
ARC
  5
273
330
1F
100
AcDbEntity
  8
0
  6
Continuous
 62
     7
370
    15
100
AcDbCircle
 10
198.2985911427
 20
164.7284737209
 30
0.0
 40
1.35
100
AcDbArc
 50
101.0565789367
 51
258.7499354481
  0
ARC
  5
274
330
1F
100
AcDbEntity
  8
0
  6
Continuous
 62
     7
370
    15
100
AcDbCircle
 10
197.900041864
 20
162.7248429902
 30
0.0
 40
0.692884635163954
100
AcDbArc
 50
282.250149156
 51
78.7499354481
  0
ARC
  5
275
330
1F
100
AcDbEntity
  8
0
  6
Continuous
 62
     7
370
    15
100
AcDbCircle
 10
198.3335015675
 20
160.7284737062
 30
0.0
 40
1.349999999999999
100
AcDbArc
 50
102.250149156
 51
257.5357913683
  0
ARC
  5
276
330
1F
100
AcDbEntity
  8
0
  6
Continuous
 62
     7
370
    15
100
AcDbCircle
 10
197.8905345966
 20
158.7244553154
 30
0.0
 40
0.7023911537650651
100
AcDbArc
 50
283.4642932359
 51
77.5357913683
  0
ARC
  5
277
330
1F
100
AcDbEntity
  8
0
  6
Continuous
 62
     7
370
    15
100
AcDbCircle
 10
198.3684119922
 20
156.7284736915
 30
0.0
 40
1.35000000000001
100
AcDbArc
 50
103.4642932359
 51
256.3008164789
  0
ARC
  5
278
330
1F
100
AcDbEntity
  8
0
  6
Continuous
 62
     7
370
    15
100
AcDbCircle
 10
197.8798181549
 20
154.7240570874
 30
0.0
 40
0.7131068466952137
100
AcDbArc
 50
284.6992681252
 51
76.3008164789
  0
ARC
  5
279
330
1F
100
AcDbEntity
  8
0
  6
Continuous
 62
     7
370
    15
100
AcDbCircle
 10
198.403322417
 20
152.7284736768
 30
0.0
 40
1.350000000000013
100
AcDbArc
 50
104.6992681252
 51
255.0447642848
  0
ARC
  5
27A
330
1F
100
AcDbEntity
  8
0
  6
Continuous
 62
     7
370
    15
100
AcDbCircle
 10
197.8678093293
 20
150.7236475799
 30
0.0
 40
0.7251149235409917
100
AcDbArc
 50
285.9553203194
 51
75.0447642848
  0
ARC
  5
27B
330
1F
100
AcDbEntity
  8
0
  6
Continuous
 62
     7
370
    15
100
AcDbCircle
 10
198.4382328418
 20
148.7284736621
 30
0.0
 40
1.349999999999993
100
AcDbArc
 50
105.9553203194
 51
253.7674000508
  0
ARC
  5
27C
330
1F
100
AcDbEntity
  8
0
  6
Continuous
 62
     7
370
    15
100
AcDbCircle
 10
197.8544170958
 20
146.7232259986
 30
0.0
 40
0.7385064081873739
100
AcDbArc
 50
287.2326845533
 51
73.7674000508
  0
ARC
  5
27D
330
1F
100
AcDbEntity
  8
0
  6
Continuous
 62
     7
370
    15
100
AcDbCircle
 10
198.4731432665
 20
144.7284736474
 30
0.0
 40
1.350000000000007
100
AcDbArc
 50
107.2326845533
 51
252.4685021807
  0
ARC
  5
27E
330
1F
100
AcDbEntity
  8
0
  6
Continuous
 62
     7
370
    15
100
AcDbCircle
 10
197.839541677
 20
142.7227914727
 30
0.0
 40
0.7533810782030644
100
AcDbArc
 50
288.5315824234
 51
72.4685021807
  0
ARC
  5
27F
330
1F
100
AcDbEntity
  8
0
  6
Continuous
 62
     7
370
    15
100
AcDbCircle
 10
198.5080536913
 20
140.7284736327
 30
0.0
 40
1.350000000000009
100
AcDbArc
 50
108.5315824234
 51
251.1478636606
  0
ARC
  5
280
330
1F
100
AcDbEntity
  8
0
  6
Continuous
 62
     7
370
    15
100
AcDbCircle
 10
197.8230734633
 20
138.7223430455
 30
0.0
 40
0.7698485431034655
100
AcDbArc
 50
289.8522209436
 51
71.1478636606
  0
ARC
  5
281
330
1F
100
AcDbEntity
  8
0
  6
Continuous
 62
     7
370
    15
100
AcDbCircle
 10
198.542964116
 20
136.728473618
 30
0.0
 40
1.350000000000001
100
AcDbArc
 50
109.8522209436
 51
249.8052935692
  0
ARC
  5
282
330
1F
100
AcDbEntity
  8
0
  6
Continuous
 62
     7
370
    15
100
AcDbCircle
 10
197.8048917716
 20
134.7218796637
 30
0.0
 40
0.7880294860201814
100
AcDbArc
 50
318.1372298695
 51
69.8052935692
  0
ARC
  5
283
330
1F
100
AcDbEntity
  8
0
  6
Continuous
 62
     7
370
    15
100
AcDbCircle
 10
198.9716858346
 20
133.6763429564
 30
0.0
 40
0.7786725889138333
100
AcDbArc
 50
138.1372298691
 51
179.9999758693
  0
LINE
  5
284
330
1F
100
AcDbEntity
  8
0
  6
Continuous
 62
     7
370
    15
100
AcDbLine
 10
198.1930142548
 20
133.6763426377
 30
0.0
 11
198.1930142548
 21
131.7284777476
 31
0.0
  0
ARC
  5
285
330
1F
100
AcDbEntity
  8
0
  6
Continuous
 62
     7
370
    15
100
AcDbCircle
 10
201.1930124253
 20
131.728481394
 30
0.0
 40
3.000000000000039
100
AcDbArc
 50
179.9999758696
 51
269.9999892754
  0
LINE
  5
286
330
1F
100
AcDbEntity
  8
0
  6
Continuous
 62
     7
370
    15
100
AcDbLine
 10
203.6930179503
 20
128.7284865691
 30
0.0
 11
201.1930054333
 21
128.7284865691
 31
0.0
  0
ARC
  5
287
330
1F
100
AcDbEntity
  8
0
  6
Continuous
 62
     7
370
    15
100
AcDbCircle
 10
203.6930155015
 20
131.728480926
 30
0.0
 40
2.999999999999982
100
AcDbArc
 50
269.9999892754
 51
359.9999758696
  0
LINE
  5
288
330
1F
100
AcDbEntity
  8
0
  6
Continuous
 62
     7
370
    15
100
AcDbLine
 10
206.6930091288
 20
132.9347267463
 30
0.0
 11
206.6930091288
 21
131.7284777476
 31
0.0
  0
ARC
  5
289
330
1F
100
AcDbEntity
  8
0
  6
Continuous
 62
     7
370
    15
100
AcDbCircle
 10
207.4716885984
 20
132.9347300188
 30
0.0
 40
0.7786725889157944
100
AcDbArc
 50
122.5781099429
 51
179.9999758696
  0
ARC
  5
28A
330
1F
100
AcDbEntity
  8
0
  6
Continuous
 62
     7
370
    15
100
AcDbCircle
 10
206.325507219
 20
134.7284733774
 30
0.0
 40
1.350000000000027
100
AcDbArc
 50
302.5781099429
 51
69.4824657628
  0
ARC
  5
28B
330
1F
100
AcDbEntity
  8
0
  6
Continuous
 62
     7
370
    15
100
AcDbCircle
 10
207.0715942209
 20
136.7221135596
 30
0.0
 40
0.7786725889152005
100
AcDbArc
 50
109.5173531116
 51
249.4824657628
  0
ARC
  5
28C
330
1F
100
AcDbEntity
  8
0
  6
Continuous
 62
     7
370
    15
100
AcDbCircle
 10
206.360421013
 20
138.7284733626
 30
0.0
 40
1.350000000000003
100
AcDbArc
 50
289.5173531116
 51
70.8140647064
  0
ARC
  5
28D
330
1F
100
AcDbEntity
  8
0
  6
Continuous
 62
     7
370
    15
100
AcDbCircle
 10
207.0542898828
 20
140.7225693282
 30
0.0
 40
0.7613675019379925
100
AcDbArc
 50
108.185754168
 51
250.8140647064
  0
ARC
  5
28E
330
1F
100
AcDbEntity
  8
0
  6
Continuous
 62
     7
370
    15
100
AcDbCircle
 10
206.395334807
 20
142.7284733479
 30
0.0
 40
1.349999999999998
100
AcDbArc
 50
288.185754168
 51
72.1238235638
  0
ARC
  5
28F
330
1F
100
AcDbEntity
  8
0
  6
Continuous
 62
     7
370
    15
100
AcDbCircle
 10
207.0386370893
 20
144.7230106814
 30
0.0
 40
0.74571395967152
100
AcDbArc
 50
106.8759953106
 51
252.1238235638
  0
ARC
  5
290
330
1F
100
AcDbEntity
  8
0
  6
Continuous
 62
     7
370
    15
100
AcDbCircle
 10
206.430248601
 20
146.7284733332
 30
0.0
 40
1.35
100
AcDbArc
 50
286.8759953106
 51
73.4119415679
  0
ARC
  5
291
330
1F
100
AcDbEntity
  8
0
  6
Continuous
 62
     7
370
    15
100
AcDbCircle
 10
207.02452087
 20
148.7234386226
 30
0.0
 40
0.7315969916106922
100
AcDbArc
 50
105.5878773066
 51
253.4119415679
  0
ARC
  5
292
330
1F
100
AcDbEntity
  8
0
  6
Continuous
 62
     7
370
    15
100
AcDbCircle
 10
206.465162395
 20
150.7284733185
 30
0.0
 40
1.349999999999999
100
AcDbArc
 50
285.5878773066
 51
74.6786332805
  0
ARC
  5
293
330
1F
100
AcDbEntity
  8
0
  6
Continuous
 62
     7
370
    15
100
AcDbCircle
 10
207.0118366842
 20
152.7238540644
 30
0.0
 40
0.7189120569702142
100
AcDbArc
 50
104.321185594
 51
254.6786332805
  0
ARC
  5
294
330
1F
100
AcDbEntity
  8
0
  6
Continuous
 62
     7
370
    15
100
AcDbCircle
 10
206.500076189
 20
154.7284733038
 30
0.0
 40
1.350000000000023
100
AcDbArc
 50
284.321185594
 51
75.9241271146
  0
ARC
  5
295
330
1F
100
AcDbEntity
  8
0
  6
Continuous
 62
     7
370
    15
100
AcDbCircle
 10
207.0004892642
 20
156.7242578383
 30
0.0
 40
0.7075638881958326
100
AcDbArc
 50
103.0756917598
 51
255.9241271146
  0
ARC
  5
296
330
1F
100
AcDbEntity
  8
0
  6
Continuous
 62
     7
370
    15
100
AcDbCircle
 10
206.534989983
 20
158.7284732891
 30
0.0
 40
1.35000000000003
100
AcDbArc
 50
283.0756917598
 51
77.1486639236
  0
ARC
  5
297
330
1F
100
AcDbEntity
  8
0
  6
Continuous
 62
     7
370
    15
100
AcDbCircle
 10
206.9903916098
 20
160.7246507037
 30
0.0
 40
0.697465485017495
100
AcDbArc
 50
101.8511549508
 51
257.1486639236
  0
ARC
  5
298
330
1F
100
AcDbEntity
  8
0
  6
Continuous
 62
     7
370
    15
100
AcDbCircle
 10
206.569903777
 20
162.7284732744
 30
0.0
 40
1.349999999999987
100
AcDbArc
 50
281.8511549508
 51
78.3524956579
  0
ARC
  5
299
330
1F
100
AcDbEntity
  8
0
  6
Continuous
 62
     7
370
    15
100
AcDbCircle
 10
206.9814641103
 20
164.7250333555
 30
0.0
 40
0.6885372366820709
100
AcDbArc
 50
100.6473232165
 51
258.3524956579
  0
ARC
  5
29A
330
1F
100
AcDbEntity
  8
0
  6
Continuous
 62
     7
370
    15
100
AcDbCircle
 10
206.604817571
 20
166.7284732597
 30
0.0
 40
1.349999999999999
100
AcDbArc
 50
280.6473232165
 51
79.5358840917
  0
ARC
  5
29B
330
1F
100
AcDbEntity
  8
0
  6
Continuous
 62
     7
370
    15
100
AcDbCircle
 10
206.9736337761
 20
168.7254064307
 30
0.0
 40
0.68070615368855
100
AcDbArc
 50
99.4639347827
 51
259.5358840917
  0
ARC
  5
29C
330
1F
100
AcDbEntity
  8
0
  6
Continuous
 62
     7
370
    15
100
AcDbCircle
 10
206.639731365
 20
170.728473245
 30
0.0
 40
1.34999999999999
100
AcDbArc
 50
279.4639347827
 51
80.6990996181
  0
ARC
  5
29D
330
1F
100
AcDbEntity
  8
0
  6
Continuous
 62
     7
370
    15
100
AcDbCircle
 10
206.9668335646
 20
172.7257705146
 30
0.0
 40
0.6739051934328313
100
AcDbArc
 50
98.3007192563
 51
260.6990996181
  0
ARC
  5
29E
330
1F
100
AcDbEntity
  8
0
  6
Continuous
 62
     7
370
    15
100
AcDbCircle
 10
206.674645159
 20
174.7284732303
 30
0.0
 40
1.349999999999996
100
AcDbArc
 50
278.3007192563
 51
81.8424201135
  0
ARC
  5
29F
330
1F
100
AcDbEntity
  8
0
  6
Continuous
 62
     7
370
    15
100
AcDbCircle
 10
206.9610017866
 20
176.7261261455
 30
0.0
 40
0.6680726666160316
100
AcDbArc
 50
97.1573987609
 51
261.8424201135
  0
ARC
  5
2A0
330
1F
100
AcDbEntity
  8
0
  6
Continuous
 62
     7
370
    15
100
AcDbCircle
 10
206.7095589529
 20
178.7284732156
 30
0.0
 40
1.350000000000004
100
AcDbArc
 50
277.1573987609
 51
82.9661298691
  0
ARC
  5
2A1
330
1F
100
AcDbEntity
  8
0
  6
Continuous
 62
     7
370
    15
100
AcDbCircle
 10
206.9560815821
 20
180.7264738198
 30
0.0
 40
0.6631517133715072
100
AcDbArc
 50
96.0336890053
 51
262.9661298691
  0
ARC
  5
2A2
330
1F
100
AcDbEntity
  8
0
  6
Continuous
 62
     7
370
    15
100
AcDbCircle
 10
206.7444727469
 20
182.7284732009
 30
0.0
 40
1.350000000000003
100
AcDbArc
 50
276.0336890053
 51
84.0705185898
  0
ARC
  5
2A3
330
1F
100
AcDbEntity
  8
0
  6
Continuous
 62
     7
370
    15
100
AcDbCircle
 10
206.9520204572
 20
184.7268139957
 30
0.0
 40
0.6590898397248396
100
AcDbArc
 50
94.9293002846
 51
264.0705185898
  0
ARC
  5
2A4
330
1F
100
AcDbEntity
  8
0
  6
Continuous
 62
     7
370
    15
100
AcDbCircle
 10
206.7793865409
 20
186.7284731862
 30
0.0
 40
1.350000000000034
100
AcDbArc
 50
274.9293002846
 51
85.1558804569
  0
ARC
  5
2A5
330
1F
100
AcDbEntity
  8
0
  6
Continuous
 62
     7
370
    15
100
AcDbCircle
 10
206.9487698727
 20
188.7271470968
 30
0.0
 40
0.655838506444251
100
AcDbArc
 50
93.8439384175
 51
265.1558804569
  0
ARC
  5
2A6
330
1F
100
AcDbEntity
  8
0
  6
Continuous
 62
     7
370
    15
100
AcDbCircle
 10
206.8143003349
 20
190.7284731715
 30
0.0
 40
1.350000000000001
100
AcDbArc
 50
273.8439384175
 51
86.2225132557
  0
ARC
  5
2A7
330
1F
100
AcDbEntity
  8
0
  6
Continuous
 62
     7
370
    15
100
AcDbCircle
 10
206.9462848786
 20
192.7274735155
 30
0.0
 40
0.6533527634917621
100
AcDbArc
 50
101.9340237361
 51
266.2225132557
  0
ARC
  5
2A8
330
1F
100
AcDbEntity
  8
0
  6
Continuous
 62
     7
370
    15
100
AcDbCircle
 10
206.5320211501
 20
194.6875265398
 30
0.0
 40
1.35000000000001
100
AcDbArc
 50
281.9340237361
 51
359.4999973189
  0
LINE
  5
2A9
330
1F
100
AcDbEntity
  8
0
  6
Continuous
 62
     7
370
    15
100
AcDbLine
 10
207.8929698374
 20
195.935465367
 30
0.0
 11
207.8819727805
 21
194.675751002
 31
0.0
  0
ARC
  5
2AA
330
1F
100
AcDbEntity
  8
0
  6
Continuous
 62
     7
370
    15
100
AcDbCircle
 10
208.6929327142
 20
195.9284799902
 30
0.0
 40
0.8000000000000351
100
AcDbArc
 50
21.3275979095
 51
179.4999973188
  0
ARC
  5
2AB
330
1F
100
AcDbEntity
  8
0
  6
Continuous
 62
     7
370
    15
100
AcDbCircle
 10
210.6956924382
 20
196.7104349044
 30
0.0
 40
1.349999999999589
100
AcDbArc
 50
201.3275979095
 51
261.6220224683
  0
ARC
  5
2AC
330
1F
100
AcDbEntity
  8
0
  6
Continuous
 62
     7
370
    15
100
AcDbCircle
 10
210.4036291481
 20
194.7273120224
 30
0.0
 40
0.6545142380960934
100
AcDbArc
 50
274.3119004389
 51
81.6220224683
  0
ARC
  5
2AD
330
1F
100
AcDbEntity
  8
0
  6
Continuous
 62
     7
370
    15
100
AcDbCircle
 10
210.5543402397
 20
192.7284714841
 30
0.0
 40
1.350000000000012
100
AcDbArc
 50
94.3119004389
 51
266.6846873738
  0
ARC
  5
2AE
330
1F
100
AcDbEntity
  8
0
  6
Continuous
 62
     7
370
    15
100
AcDbCircle
 10
210.4384175026
 20
190.7273120077
 30
0.0
 40
0.6545142380956547
100
AcDbArc
 50
274.3119004389
 51
86.6846873738
  0
ARC
  5
2AF
330
1F
100
AcDbEntity
  8
0
  6
Continuous
 62
     7
370
    15
100
AcDbCircle
 10
210.5891285942
 20
188.7284714694
 30
0.0
 40
1.350000000000014
100
AcDbArc
 50
94.3119004389
 51
265.6123234309
  0
ARC
  5
2B0
330
1F
100
AcDbEntity
  8
0
  6
Continuous
 62
     7
370
    15
100
AcDbCircle
 10
210.4355551575
 20
186.7269787914
 30
0.0
 40
0.657375834447336
100
AcDbArc
 50
275.3877611732
 51
85.6123234309
  0
ARC
  5
2B1
330
1F
100
AcDbEntity
  8
0
  6
Continuous
 62
     7
370
    15
100
AcDbCircle
 10
210.6240390189
 20
184.7284714547
 30
0.0
 40
1.350000000000017
100
AcDbArc
 50
95.3877611732
 51
264.5174853148
  0
ARC
  5
2B2
330
1F
100
AcDbEntity
  8
0
  6
Continuous
 62
     7
370
    15
100
AcDbCircle
 10
210.4319013425
 20
182.7266422032
 30
0.0
 40
0.661028900589644
100
AcDbArc
 50
276.4825992894
 51
84.5174853148
  0
ARC
  5
2B3
330
1F
100
AcDbEntity
  8
0
  6
Continuous
 62
     7
370
    15
100
AcDbCircle
 10
210.6589494437
 20
180.72847144
 30
0.0
 40
1.349999999999994
100
AcDbArc
 50
96.4825992893
 51
263.4034739099
  0
ARC
  5
2B4
330
1F
100
AcDbEntity
  8
0
  6
Continuous
 62
     7
370
    15
100
AcDbCircle
 10
210.4274131296
 20
178.7262983327
 30
0.0
 40
0.6655163647193545
100
AcDbArc
 50
277.5966106942
 51
83.4034739099
  0
ARC
  5
2B5
330
1F
100
AcDbEntity
  8
0
  6
Continuous
 62
     7
370
    15
100
AcDbCircle
 10
210.6938598684
 20
176.7284714253
 30
0.0
 40
1.349999999999994
100
AcDbArc
 50
97.5966106942
 51
262.2699972202
  0
ARC
  5
2B6
330
1F
100
AcDbEntity
  8
0
  6
Continuous
 62
     7
370
    15
100
AcDbCircle
 10
210.4220400467
 20
174.7259467394
 30
0.0
 40
0.670888698871328
100
AcDbArc
 50
278.7300873839
 51
82.2699972202
  0
ARC
  5
2B7
330
1F
100
AcDbEntity
  8
0
  6
Continuous
 62
     7
370
    15
100
AcDbCircle
 10
210.7287702932
 20
172.7284714106
 30
0.0
 40
1.350000000000004
100
AcDbArc
 50
98.7300873839
 51
261.1167681891
  0
ARC
  5
2B8
330
1F
100
AcDbEntity
  8
0
  6
Continuous
 62
     7
370
    15
100
AcDbCircle
 10
210.4157274671
 20
170.7255869465
 30
0.0
 40
0.6772005296360396
100
AcDbArc
 50
279.883316415
 51
81.1167681891
  0
ARC
  5
2B9
330
1F
100
AcDbEntity
  8
0
  6
Continuous
 62
     7
370
    15
100
AcDbCircle
 10
210.763680718
 20
168.7284713959
 30
0.0
 40
1.350000000000011
100
AcDbArc
 50
99.883316415
 51
259.9435056674
  0
ARC
  5
2BA
330
1F
100
AcDbEntity
  8
0
  6
Continuous
 62
     7
370
    15
100
AcDbCircle
 10
210.4084161734
 20
166.7252184373
 30
0.0
 40
0.6845110746291109
100
AcDbArc
 50
281.0565789367
 51
79.9435056674
  0
ARC
  5
2BB
330
1F
100
AcDbEntity
  8
0
  6
Continuous
 62
     7
370
    15
100
AcDbCircle
 10
210.7985911427
 20
164.7284713812
 30
0.0
 40
1.350000000000005
100
AcDbArc
 50
101.0565789367
 51
258.7499354481
  0
ARC
  5
2BC
330
1F
100
AcDbEntity
  8
0
  6
Continuous
 62
     7
370
    15
100
AcDbCircle
 10
210.400041864
 20
162.7248406505
 30
0.0
 40
0.692884635163954
100
AcDbArc
 50
282.250149156
 51
78.7499354481
  0
ARC
  5
2BD
330
1F
100
AcDbEntity
  8
0
  6
Continuous
 62
     7
370
    15
100
AcDbCircle
 10
210.8335015675
 20
160.7284713665
 30
0.0
 40
1.349999999999999
100
AcDbArc
 50
102.250149156
 51
257.5357913683
  0
ARC
  5
2BE
330
1F
100
AcDbEntity
  8
0
  6
Continuous
 62
     7
370
    15
100
AcDbCircle
 10
210.3905345966
 20
158.7244529757
 30
0.0
 40
0.7023911537650651
100
AcDbArc
 50
283.4642932359
 51
77.5357913683
  0
ARC
  5
2BF
330
1F
100
AcDbEntity
  8
0
  6
Continuous
 62
     7
370
    15
100
AcDbCircle
 10
210.8684119922
 20
156.7284713518
 30
0.0
 40
1.35000000000001
100
AcDbArc
 50
103.4642932359
 51
256.3008164789
  0
ARC
  5
2C0
330
1F
100
AcDbEntity
  8
0
  6
Continuous
 62
     7
370
    15
100
AcDbCircle
 10
210.3798181549
 20
154.7240547476
 30
0.0
 40
0.7131068466952157
100
AcDbArc
 50
284.6992681252
 51
76.3008164789
  0
ARC
  5
2C1
330
1F
100
AcDbEntity
  8
0
  6
Continuous
 62
     7
370
    15
100
AcDbCircle
 10
210.903322417
 20
152.7284713371
 30
0.0
 40
1.350000000000005
100
AcDbArc
 50
104.6992681252
 51
255.0447642848
  0
ARC
  5
2C2
330
1F
100
AcDbEntity
  8
0
  6
Continuous
 62
     7
370
    15
100
AcDbCircle
 10
210.3678093293
 20
150.7236452402
 30
0.0
 40
0.7251149235409917
100
AcDbArc
 50
285.9553203194
 51
75.0447642848
  0
ARC
  5
2C3
330
1F
100
AcDbEntity
  8
0
  6
Continuous
 62
     7
370
    15
100
AcDbCircle
 10
210.9382328418
 20
148.7284713224
 30
0.0
 40
1.350000000000018
100
AcDbArc
 50
105.9553203194
 51
253.7674000508
  0
ARC
  5
2C4
330
1F
100
AcDbEntity
  8
0
  6
Continuous
 62
     7
370
    15
100
AcDbCircle
 10
210.3544170958
 20
146.7232236589
 30
0.0
 40
0.7385064081873739
100
AcDbArc
 50
287.2326845533
 51
73.7674000508
  0
ARC
  5
2C5
330
1F
100
AcDbEntity
  8
0
  6
Continuous
 62
     7
370
    15
100
AcDbCircle
 10
210.9731432665
 20
144.7284713077
 30
0.0
 40
1.350000000000007
100
AcDbArc
 50
107.2326845533
 51
252.4685021807
  0
ARC
  5
2C6
330
1F
100
AcDbEntity
  8
0
  6
Continuous
 62
     7
370
    15
100
AcDbCircle
 10
210.339541677
 20
142.722789133
 30
0.0
 40
0.7533810782030015
100
AcDbArc
 50
288.5315824234
 51
72.4685021807
  0
ARC
  5
2C7
330
1F
100
AcDbEntity
  8
0
  6
Continuous
 62
     7
370
    15
100
AcDbCircle
 10
211.0080536913
 20
140.728471293
 30
0.0
 40
1.350000000000021
100
AcDbArc
 50
108.5315824234
 51
251.1478636606
  0
ARC
  5
2C8
330
1F
100
AcDbEntity
  8
0
  6
Continuous
 62
     7
370
    15
100
AcDbCircle
 10
210.3230734633
 20
138.7223407057
 30
0.0
 40
0.7698485431034741
100
AcDbArc
 50
289.8522209436
 51
71.1478636606
  0
ARC
  5
2C9
330
1F
100
AcDbEntity
  8
0
  6
Continuous
 62
     7
370
    15
100
AcDbCircle
 10
211.042964116
 20
136.7284712783
 30
0.0
 40
1.350000000000001
100
AcDbArc
 50
109.8522209436
 51
249.8052935692
  0
ARC
  5
2CA
330
1F
100
AcDbEntity
  8
0
  6
Continuous
 62
     7
370
    15
100
AcDbCircle
 10
210.3048917716
 20
134.721877324
 30
0.0
 40
0.7880294860201718
100
AcDbArc
 50
318.1372298695
 51
69.8052935692
  0
ARC
  5
2CB
330
1F
100
AcDbEntity
  8
0
  6
Continuous
 62
     7
370
    15
100
AcDbCircle
 10
211.4716858346
 20
133.6763406167
 30
0.0
 40
0.7786725889138617
100
AcDbArc
 50
138.1372298691
 51
179.9999758693
  0
LINE
  5
2CC
330
1F
100
AcDbEntity
  8
0
  6
Continuous
 62
     7
370
    15
100
AcDbLine
 10
210.693017235
 20
133.6763426377
 30
0.0
 11
210.693017235
 21
131.7284777476
 31
0.0
  0
ARC
  5
2CD
330
1F
100
AcDbEntity
  8
0
  6
Continuous
 62
     7
370
    15
100
AcDbCircle
 10
213.6930124253
 20
131.7284790543
 30
0.0
 40
3.00000000000001
100
AcDbArc
 50
179.9999758696
 51
269.9999892754
  0
LINE
  5
2CE
330
1F
100
AcDbEntity
  8
0
  6
Continuous
 62
     7
370
    15
100
AcDbLine
 10
216.1930209305
 20
128.728471668
 30
0.0
 11
213.6930084135
 21
128.728471668
 31
0.0
  0
ARC
  5
2CF
330
1F
100
AcDbEntity
  8
0
  6
Continuous
 62
     7
370
    15
100
AcDbCircle
 10
216.1930155015
 20
131.7284785863
 30
0.0
 40
2.999999999999968
100
AcDbArc
 50
269.9999892754
 51
359.9999758696
  0
LINE
  5
2D0
330
1F
100
AcDbEntity
  8
0
  6
Continuous
 62
     7
370
    15
100
AcDbLine
 10
219.193012109
 20
132.9347267463
 30
0.0
 11
219.193012109
 21
131.7284777476
 31
0.0
  0
ARC
  5
2D1
330
1F
100
AcDbEntity
  8
0
  6
Continuous
 62
     7
370
    15
100
AcDbCircle
 10
219.9716885984
 20
132.934727679
 30
0.0
 40
0.7786725889157944
100
AcDbArc
 50
122.5781099429
 51
179.9999758696
  0
ARC
  5
2D2
330
1F
100
AcDbEntity
  8
0
  6
Continuous
 62
     7
370
    15
100
AcDbCircle
 10
218.825507219
 20
134.7284710376
 30
0.0
 40
1.349999999999996
100
AcDbArc
 50
302.5781099429
 51
69.4824657628
  0
ARC
  5
2D3
330
1F
100
AcDbEntity
  8
0
  6
Continuous
 62
     7
370
    15
100
AcDbCircle
 10
219.5715942209
 20
136.7221112199
 30
0.0
 40
0.7786725889152272
100
AcDbArc
 50
109.5173531116
 51
249.4824657628
  0
ARC
  5
2D4
330
1F
100
AcDbEntity
  8
0
  6
Continuous
 62
     7
370
    15
100
AcDbCircle
 10
218.860421013
 20
138.7284710229
 30
0.0
 40
1.349999999999994
100
AcDbArc
 50
289.5173531116
 51
70.8140647064
  0
ARC
  5
2D5
330
1F
100
AcDbEntity
  8
0
  6
Continuous
 62
     7
370
    15
100
AcDbCircle
 10
219.5542898828
 20
140.7225669885
 30
0.0
 40
0.7613675019380014
100
AcDbArc
 50
108.185754168
 51
250.8140647064
  0
ARC
  5
2D6
330
1F
100
AcDbEntity
  8
0
  6
Continuous
 62
     7
370
    15
100
AcDbCircle
 10
218.895334807
 20
142.7284710082
 30
0.0
 40
1.350000000000034
100
AcDbArc
 50
288.185754168
 51
72.1238235638
  0
ARC
  5
2D7
330
1F
100
AcDbEntity
  8
0
  6
Continuous
 62
     7
370
    15
100
AcDbCircle
 10
219.5386370893
 20
144.7230083416
 30
0.0
 40
0.7457139596714975
100
AcDbArc
 50
106.8759953106
 51
252.1238235639
  0
ARC
  5
2D8
330
1F
100
AcDbEntity
  8
0
  6
Continuous
 62
     7
370
    15
100
AcDbCircle
 10
218.930248601
 20
146.7284709935
 30
0.0
 40
1.349999999999984
100
AcDbArc
 50
286.8759953106
 51
73.4119415679
  0
ARC
  5
2D9
330
1F
100
AcDbEntity
  8
0
  6
Continuous
 62
     7
370
    15
100
AcDbCircle
 10
219.52452087
 20
148.7234362829
 30
0.0
 40
0.7315969916106808
100
AcDbArc
 50
105.5878773066
 51
253.4119415679
  0
ARC
  5
2DA
330
1F
100
AcDbEntity
  8
0
  6
Continuous
 62
     7
370
    15
100
AcDbCircle
 10
218.965162395
 20
150.7284709788
 30
0.0
 40
1.350000000000009
100
AcDbArc
 50
285.5878773066
 51
74.6786332805
  0
ARC
  5
2DB
330
1F
100
AcDbEntity
  8
0
  6
Continuous
 62
     7
370
    15
100
AcDbCircle
 10
219.5118366842
 20
152.7238517247
 30
0.0
 40
0.7189120569702251
100
AcDbArc
 50
104.321185594
 51
254.6786332805
  0
ARC
  5
2DC
330
1F
100
AcDbEntity
  8
0
  6
Continuous
 62
     7
370
    15
100
AcDbCircle
 10
219.000076189
 20
154.7284709641
 30
0.0
 40
1.350000000000003
100
AcDbArc
 50
284.321185594
 51
75.9241271146
  0
ARC
  5
2DD
330
1F
100
AcDbEntity
  8
0
  6
Continuous
 62
     7
370
    15
100
AcDbCircle
 10
219.5004892642
 20
156.7242554986
 30
0.0
 40
0.7075638881958493
100
AcDbArc
 50
103.0756917598
 51
255.9241271146
  0
ARC
  5
2DE
330
1F
100
AcDbEntity
  8
0
  6
Continuous
 62
     7
370
    15
100
AcDbCircle
 10
219.034989983
 20
158.7284709494
 30
0.0
 40
1.350000000000046
100
AcDbArc
 50
283.0756917598
 51
77.1486639236
  0
ARC
  5
2DF
330
1F
100
AcDbEntity
  8
0
  6
Continuous
 62
     7
370
    15
100
AcDbCircle
 10
219.4903916098
 20
160.724648364
 30
0.0
 40
0.697465485017458
100
AcDbArc
 50
101.8511549508
 51
257.1486639236
  0
ARC
  5
2E0
330
1F
100
AcDbEntity
  8
0
  6
Continuous
 62
     7
370
    15
100
AcDbCircle
 10
219.069903777
 20
162.7284709347
 30
0.0
 40
1.350000000000005
100
AcDbArc
 50
281.8511549508
 51
78.3524956579
  0
ARC
  5
2E1
330
1F
100
AcDbEntity
  8
0
  6
Continuous
 62
     7
370
    15
100
AcDbCircle
 10
219.4814641103
 20
164.7250310158
 30
0.0
 40
0.6885372366820374
100
AcDbArc
 50
100.6473232165
 51
258.3524956579
  0
ARC
  5
2E2
330
1F
100
AcDbEntity
  8
0
  6
Continuous
 62
     7
370
    15
100
AcDbCircle
 10
219.104817571
 20
166.72847092
 30
0.0
 40
1.349999999999999
100
AcDbArc
 50
280.6473232165
 51
79.5358840917
  0
ARC
  5
2E3
330
1F
100
AcDbEntity
  8
0
  6
Continuous
 62
     7
370
    15
100
AcDbCircle
 10
219.4736337761
 20
168.725404091
 30
0.0
 40
0.68070615368855
100
AcDbArc
 50
99.4639347827
 51
259.5358840917
  0
ARC
  5
2E4
330
1F
100
AcDbEntity
  8
0
  6
Continuous
 62
     7
370
    15
100
AcDbCircle
 10
219.139731365
 20
170.7284709053
 30
0.0
 40
1.34999999999999
100
AcDbArc
 50
279.4639347827
 51
80.6990996181
  0
ARC
  5
2E5
330
1F
100
AcDbEntity
  8
0
  6
Continuous
 62
     7
370
    15
100
AcDbCircle
 10
219.4668335646
 20
172.7257681748
 30
0.0
 40
0.6739051934328395
100
AcDbArc
 50
98.3007192563
 51
260.6990996181
  0
ARC
  5
2E6
330
1F
100
AcDbEntity
  8
0
  6
Continuous
 62
     7
370
    15
100
AcDbCircle
 10
219.174645159
 20
174.7284708906
 30
0.0
 40
1.349999999999988
100
AcDbArc
 50
278.3007192563
 51
81.8424201135
  0
ARC
  5
2E7
330
1F
100
AcDbEntity
  8
0
  6
Continuous
 62
     7
370
    15
100
AcDbCircle
 10
219.4610017866
 20
176.7261238058
 30
0.0
 40
0.668072666616028
100
AcDbArc
 50
97.1573987609
 51
261.8424201135
  0
ARC
  5
2E8
330
1F
100
AcDbEntity
  8
0
  6
Continuous
 62
     7
370
    15
100
AcDbCircle
 10
219.2095589529
 20
178.7284708759
 30
0.0
 40
1.350000000000016
100
AcDbArc
 50
277.1573987609
 51
82.9661298691
  0
ARC
  5
2E9
330
1F
100
AcDbEntity
  8
0
  6
Continuous
 62
     7
370
    15
100
AcDbCircle
 10
219.4560815821
 20
180.7264714801
 30
0.0
 40
0.663151713371476
100
AcDbArc
 50
96.0336890053
 51
262.9661298691
  0
ARC
  5
2EA
330
1F
100
AcDbEntity
  8
0
  6
Continuous
 62
     7
370
    15
100
AcDbCircle
 10
219.2444727469
 20
182.7284708612
 30
0.0
 40
1.349999999999999
100
AcDbArc
 50
276.0336890053
 51
84.0705185898
  0
ARC
  5
2EB
330
1F
100
AcDbEntity
  8
0
  6
Continuous
 62
     7
370
    15
100
AcDbCircle
 10
219.4520204572
 20
184.7268116559
 30
0.0
 40
0.6590898397248739
100
AcDbArc
 50
94.9293002846
 51
264.0705185898
  0
ARC
  5
2EC
330
1F
100
AcDbEntity
  8
0
  6
Continuous
 62
     7
370
    15
100
AcDbCircle
 10
219.2793865409
 20
186.7284708465
 30
0.0
 40
1.350000000000009
100
AcDbArc
 50
274.9293002846
 51
85.1558804569
  0
ARC
  5
2ED
330
1F
100
AcDbEntity
  8
0
  6
Continuous
 62
     7
370
    15
100
AcDbCircle
 10
219.4487698727
 20
188.727144757
 30
0.0
 40
0.655838506444251
100
AcDbArc
 50
93.8439384175
 51
265.1558804569
  0
ARC
  5
2EE
330
1F
100
AcDbEntity
  8
0
  6
Continuous
 62
     7
370
    15
100
AcDbCircle
 10
219.3143003349
 20
190.7284708318
 30
0.0
 40
1.350000000000001
100
AcDbArc
 50
273.8439384175
 51
86.2225132557
  0
ARC
  5
2EF
330
1F
100
AcDbEntity
  8
0
  6
Continuous
 62
     7
370
    15
100
AcDbCircle
 10
219.4462848786
 20
192.7274711757
 30
0.0
 40
0.6533527634917563
100
AcDbArc
 50
101.9340237361
 51
266.2225132557
  0
ARC
  5
2F0
330
1F
100
AcDbEntity
  8
0
  6
Continuous
 62
     7
370
    15
100
AcDbCircle
 10
219.0320211501
 20
194.6875242001
 30
0.0
 40
1.350000000000055
100
AcDbArc
 50
281.9340237361
 51
359.4999973189
  0
LINE
  5
2F1
330
1F
100
AcDbEntity
  8
0
  6
Continuous
 62
     7
370
    15
100
AcDbLine
 10
220.3929579165
 20
195.935465367
 30
0.0
 11
220.3819757607
 21
194.6757361009
 31
0.0
  0
ARC
  5
2F2
330
1F
100
AcDbEntity
  8
0
  6
Continuous
 62
     7
370
    15
100
AcDbCircle
 10
221.1929327142
 20
195.9284776504
 30
0.0
 40
0.8000000000000265
100
AcDbArc
 50
21.3275979095
 51
179.4999973189
  0
ARC
  5
2F3
330
1F
100
AcDbEntity
  8
0
  6
Continuous
 62
     7
370
    15
100
AcDbCircle
 10
223.1956924382
 20
196.7104325647
 30
0.0
 40
1.349999999999562
100
AcDbArc
 50
201.3275979095
 51
261.6220224683
  0
ARC
  5
2F4
330
1F
100
AcDbEntity
  8
0
  6
Continuous
 62
     7
370
    15
100
AcDbCircle
 10
222.9036291481
 20
194.7273096826
 30
0.0
 40
0.6545142380960934
100
AcDbArc
 50
274.3119004389
 51
81.6220224683
  0
ARC
  5
2F5
330
1F
100
AcDbEntity
  8
0
  6
Continuous
 62
     7
370
    15
100
AcDbCircle
 10
223.0543402397
 20
192.7284691443
 30
0.0
 40
1.350000000000012
100
AcDbArc
 50
94.3119004389
 51
266.6846873738
  0
ARC
  5
2F6
330
1F
100
AcDbEntity
  8
0
  6
Continuous
 62
     7
370
    15
100
AcDbCircle
 10
222.9384175026
 20
190.727309668
 30
0.0
 40
0.6545142380956547
100
AcDbArc
 50
274.3119004389
 51
86.6846873738
  0
ARC
  5
2F7
330
1F
100
AcDbEntity
  8
0
  6
Continuous
 62
     7
370
    15
100
AcDbCircle
 10
223.0891285942
 20
188.7284691297
 30
0.0
 40
1.350000000000012
100
AcDbArc
 50
94.3119004389
 51
265.6123234309
  0
ARC
  5
2F8
330
1F
100
AcDbEntity
  8
0
  6
Continuous
 62
     7
370
    15
100
AcDbCircle
 10
222.9355551575
 20
186.7269764516
 30
0.0
 40
0.6573758344473387
100
AcDbArc
 50
275.3877611732
 51
85.6123234309
  0
ARC
  5
2F9
330
1F
100
AcDbEntity
  8
0
  6
Continuous
 62
     7
370
    15
100
AcDbCircle
 10
223.1240390189
 20
184.728469115
 30
0.0
 40
1.349999999999989
100
AcDbArc
 50
95.3877611732
 51
264.5174853148
  0
ARC
  5
2FA
330
1F
100
AcDbEntity
  8
0
  6
Continuous
 62
     7
370
    15
100
AcDbCircle
 10
222.9319013425
 20
182.7266398634
 30
0.0
 40
0.661028900589644
100
AcDbArc
 50
276.4825992894
 51
84.5174853148
  0
ARC
  5
2FB
330
1F
100
AcDbEntity
  8
0
  6
Continuous
 62
     7
370
    15
100
AcDbCircle
 10
223.1589494437
 20
180.7284691003
 30
0.0
 40
1.349999999999987
100
AcDbArc
 50
96.4825992893
 51
263.4034739099
  0
ARC
  5
2FC
330
1F
100
AcDbEntity
  8
0
  6
Continuous
 62
     7
370
    15
100
AcDbCircle
 10
222.9274131296
 20
178.7262959929
 30
0.0
 40
0.6655163647193881
100
AcDbArc
 50
277.5966106942
 51
83.4034739099
  0
ARC
  5
2FD
330
1F
100
AcDbEntity
  8
0
  6
Continuous
 62
     7
370
    15
100
AcDbCircle
 10
223.1938598684
 20
176.7284690856
 30
0.0
 40
1.350000000000019
100
AcDbArc
 50
97.5966106942
 51
262.2699972202
  0
ARC
  5
2FE
330
1F
100
AcDbEntity
  8
0
  6
Continuous
 62
     7
370
    15
100
AcDbCircle
 10
222.9220400467
 20
174.7259443996
 30
0.0
 40
0.6708886988713236
100
AcDbArc
 50
278.7300873839
 51
82.2699972202
  0
ARC
  5
2FF
330
1F
100
AcDbEntity
  8
0
  6
Continuous
 62
     7
370
    15
100
AcDbCircle
 10
223.2287702932
 20
172.7284690709
 30
0.0
 40
1.350000000000004
100
AcDbArc
 50
98.7300873839
 51
261.1167681891
  0
ARC
  5
300
330
1F
100
AcDbEntity
  8
0
  6
Continuous
 62
     7
370
    15
100
AcDbCircle
 10
222.9157274671
 20
170.7255846068
 30
0.0
 40
0.6772005296360396
100
AcDbArc
 50
279.883316415
 51
81.1167681891
  0
ARC
  5
301
330
1F
100
AcDbEntity
  8
0
  6
Continuous
 62
     7
370
    15
100
AcDbCircle
 10
223.263680718
 20
168.7284690561
 30
0.0
 40
1.350000000000018
100
AcDbArc
 50
99.883316415
 51
259.9435056674
  0
ARC
  5
302
330
1F
100
AcDbEntity
  8
0
  6
Continuous
 62
     7
370
    15
100
AcDbCircle
 10
222.9084161734
 20
166.7252160976
 30
0.0
 40
0.6845110746291163
100
AcDbArc
 50
281.0565789368
 51
79.9435056674
  0
ARC
  5
303
330
1F
100
AcDbEntity
  8
0
  6
Continuous
 62
     7
370
    15
100
AcDbCircle
 10
223.2985911427
 20
164.7284690414
 30
0.0
 40
1.350000000000005
100
AcDbArc
 50
101.0565789367
 51
258.7499354481
  0
ARC
  5
304
330
1F
100
AcDbEntity
  8
0
  6
Continuous
 62
     7
370
    15
100
AcDbCircle
 10
222.900041864
 20
162.7248383107
 30
0.0
 40
0.6928846351639758
100
AcDbArc
 50
282.250149156
 51
78.7499354481
  0
ARC
  5
305
330
1F
100
AcDbEntity
  8
0
  6
Continuous
 62
     7
370
    15
100
AcDbCircle
 10
223.3335015675
 20
160.7284690267
 30
0.0
 40
1.350000000000023
100
AcDbArc
 50
102.250149156
 51
257.5357913683
  0
ARC
  5
306
330
1F
100
AcDbEntity
  8
0
  6
Continuous
 62
     7
370
    15
100
AcDbCircle
 10
222.8905345966
 20
158.7244506359
 30
0.0
 40
0.7023911537650327
100
AcDbArc
 50
283.4642932359
 51
77.5357913683
  0
ARC
  5
307
330
1F
100
AcDbEntity
  8
0
  6
Continuous
 62
     7
370
    15
100
AcDbCircle
 10
223.3684119922
 20
156.728469012
 30
0.0
 40
1.35000000000001
100
AcDbArc
 50
103.4642932359
 51
256.3008164789
  0
ARC
  5
308
330
1F
100
AcDbEntity
  8
0
  6
Continuous
 62
     7
370
    15
100
AcDbCircle
 10
222.8798181549
 20
154.7240524079
 30
0.0
 40
0.7131068466952157
100
AcDbArc
 50
284.6992681252
 51
76.3008164789
  0
ARC
  5
309
330
1F
100
AcDbEntity
  8
0
  6
Continuous
 62
     7
370
    15
100
AcDbCircle
 10
223.403322417
 20
152.7284689973
 30
0.0
 40
1.350000000000013
100
AcDbArc
 50
104.6992681252
 51
255.0447642848
  0
ARC
  5
30A
330
1F
100
AcDbEntity
  8
0
  6
Continuous
 62
     7
370
    15
100
AcDbCircle
 10
222.8678093293
 20
150.7236429004
 30
0.0
 40
0.7251149235409917
100
AcDbArc
 50
285.9553203194
 51
75.0447642848
  0
ARC
  5
30B
330
1F
100
AcDbEntity
  8
0
  6
Continuous
 62
     7
370
    15
100
AcDbCircle
 10
223.4382328418
 20
148.7284689826
 30
0.0
 40
1.350000000000026
100
AcDbArc
 50
105.9553203194
 51
253.7674000508
  0
ARC
  5
30C
330
1F
100
AcDbEntity
  8
0
  6
Continuous
 62
     7
370
    15
100
AcDbCircle
 10
222.8544170958
 20
146.7232213192
 30
0.0
 40
0.7385064081873739
100
AcDbArc
 50
287.2326845533
 51
73.7674000508
  0
ARC
  5
30D
330
1F
100
AcDbEntity
  8
0
  6
Continuous
 62
     7
370
    15
100
AcDbCircle
 10
223.4731432665
 20
144.7284689679
 30
0.0
 40
1.349999999999997
100
AcDbArc
 50
107.2326845533
 51
252.4685021807
  0
ARC
  5
30E
330
1F
100
AcDbEntity
  8
0
  6
Continuous
 62
     7
370
    15
100
AcDbCircle
 10
222.839541677
 20
142.7227867932
 30
0.0
 40
0.7533810782030256
100
AcDbArc
 50
288.5315824234
 51
72.4685021807
  0
ARC
  5
30F
330
1F
100
AcDbEntity
  8
0
  6
Continuous
 62
     7
370
    15
100
AcDbCircle
 10
223.5080536913
 20
140.7284689532
 30
0.0
 40
1.350000000000003
100
AcDbArc
 50
108.5315824234
 51
251.1478636606
  0
ARC
  5
310
330
1F
100
AcDbEntity
  8
0
  6
Continuous
 62
     7
370
    15
100
AcDbCircle
 10
222.8230734633
 20
138.722338366
 30
0.0
 40
0.7698485431035009
100
AcDbArc
 50
289.8522209436
 51
71.1478636606
  0
ARC
  5
311
330
1F
100
AcDbEntity
  8
0
  6
Continuous
 62
     7
370
    15
100
AcDbCircle
 10
223.542964116
 20
136.7284689385
 30
0.0
 40
1.349999999999991
100
AcDbArc
 50
109.8522209436
 51
249.8052935692
  0
ARC
  5
312
330
1F
100
AcDbEntity
  8
0
  6
Continuous
 62
     7
370
    15
100
AcDbCircle
 10
222.8048917716
 20
134.7218749842
 30
0.0
 40
0.7880294860201603
100
AcDbArc
 50
318.1372298695
 51
69.8052935692
  0
ARC
  5
313
330
1F
100
AcDbEntity
  8
0
  6
Continuous
 62
     7
370
    15
100
AcDbCircle
 10
223.9716858346
 20
133.676338277
 30
0.0
 40
0.778672588913947
100
AcDbArc
 50
138.1372298691
 51
179.9999758693
  0
LINE
  5
314
330
1F
100
AcDbEntity
  8
0
  6
Continuous
 62
     7
370
    15
100
AcDbLine
 10
223.1930202153
 20
133.6763426377
 30
0.0
 11
223.1930053141
 21
131.7284777476
 31
0.0
  0
ARC
  5
315
330
1F
100
AcDbEntity
  8
0
  6
Continuous
 62
     7
370
    15
100
AcDbCircle
 10
226.1930124253
 20
131.7284767145
 30
0.0
 40
3.000000000000067
100
AcDbArc
 50
179.9999758696
 51
269.9999892754
  0
LINE
  5
316
330
1F
100
AcDbEntity
  8
0
  6
Continuous
 62
     7
370
    15
100
AcDbLine
 10
228.6930090096
 20
128.728471668
 30
0.0
 11
226.1930113938
 21
128.728471668
 31
0.0
  0
ARC
  5
317
330
1F
100
AcDbEntity
  8
0
  6
Continuous
 62
     7
370
    15
100
AcDbCircle
 10
228.6930155015
 20
131.7284762466
 30
0.0
 40
2.999999999999939
100
AcDbArc
 50
269.9999892754
 51
359.9999758696
  0
LINE
  5
318
330
1F
100
AcDbEntity
  8
0
  6
Continuous
 62
     7
370
    15
100
AcDbLine
 10
231.6930150893
 20
132.9347267463
 30
0.0
 11
231.6930150893
 21
131.7284777476
 31
0.0
  0
ARC
  5
319
330
1F
100
AcDbEntity
  8
0
  6
Continuous
 62
     7
370
    15
100
AcDbCircle
 10
232.4716885984
 20
132.9347253393
 30
0.0
 40
0.7786725889158513
100
AcDbArc
 50
122.5781099429
 51
179.9999758696
  0
ARC
  5
31A
330
1F
100
AcDbEntity
  8
0
  6
Continuous
 62
     7
370
    15
100
AcDbCircle
 10
231.325507219
 20
134.7284686979
 30
0.0
 40
1.349999999999987
100
AcDbArc
 50
302.5781099429
 51
69.4824657628
  0
ARC
  5
31B
330
1F
100
AcDbEntity
  8
0
  6
Continuous
 62
     7
370
    15
100
AcDbCircle
 10
232.0715942209
 20
136.7221088801
 30
0.0
 40
0.7786725889152204
100
AcDbArc
 50
109.5173531116
 51
249.4824657628
  0
ARC
  5
31C
330
1F
100
AcDbEntity
  8
0
  6
Continuous
 62
     7
370
    15
100
AcDbCircle
 10
231.360421013
 20
138.7284686832
 30
0.0
 40
1.350000000000009
100
AcDbArc
 50
289.5173531116
 51
70.8140647064
  0
ARC
  5
31D
330
1F
100
AcDbEntity
  8
0
  6
Continuous
 62
     7
370
    15
100
AcDbCircle
 10
232.0542898828
 20
140.7225646487
 30
0.0
 40
0.7613675019380107
100
AcDbArc
 50
108.185754168
 51
250.8140647064
  0
ARC
  5
31E
330
1F
100
AcDbEntity
  8
0
  6
Continuous
 62
     7
370
    15
100
AcDbCircle
 10
231.395334807
 20
142.7284686685
 30
0.0
 40
1.349999999999998
100
AcDbArc
 50
288.185754168
 51
72.1238235638
  0
ARC
  5
31F
330
1F
100
AcDbEntity
  8
0
  6
Continuous
 62
     7
370
    15
100
AcDbCircle
 10
232.0386370893
 20
144.7230060019
 30
0.0
 40
0.745713959671542
100
AcDbArc
 50
106.8759953106
 51
252.1238235638
  0
ARC
  5
320
330
1F
100
AcDbEntity
  8
0
  6
Continuous
 62
     7
370
    15
100
AcDbCircle
 10
231.430248601
 20
146.7284686538
 30
0.0
 40
1.349999999999992
100
AcDbArc
 50
286.8759953106
 51
73.4119415679
  0
ARC
  5
321
330
1F
100
AcDbEntity
  8
0
  6
Continuous
 62
     7
370
    15
100
AcDbCircle
 10
232.02452087
 20
148.7234339431
 30
0.0
 40
0.7315969916106646
100
AcDbArc
 50
105.5878773066
 51
253.4119415679
  0
ARC
  5
322
330
1F
100
AcDbEntity
  8
0
  6
Continuous
 62
     7
370
    15
100
AcDbCircle
 10
231.465162395
 20
150.7284686391
 30
0.0
 40
1.350000000000009
100
AcDbArc
 50
285.5878773066
 51
74.6786332805
  0
ARC
  5
323
330
1F
100
AcDbEntity
  8
0
  6
Continuous
 62
     7
370
    15
100
AcDbCircle
 10
232.0118366842
 20
152.7238493849
 30
0.0
 40
0.7189120569702142
100
AcDbArc
 50
104.321185594
 51
254.6786332805
  0
ARC
  5
324
330
1F
100
AcDbEntity
  8
0
  6
Continuous
 62
     7
370
    15
100
AcDbCircle
 10
231.500076189
 20
154.7284686243
 30
0.0
 40
1.350000000000009
100
AcDbArc
 50
284.321185594
 51
75.9241271146
  0
ARC
  5
325
330
1F
100
AcDbEntity
  8
0
  6
Continuous
 62
     7
370
    15
100
AcDbCircle
 10
232.0004892642
 20
156.7242531589
 30
0.0
 40
0.7075638881958601
100
AcDbArc
 50
103.0756917598
 51
255.9241271146
  0
ARC
  5
326
330
1F
100
AcDbEntity
  8
0
  6
Continuous
 62
     7
370
    15
100
AcDbCircle
 10
231.534989983
 20
158.7284686096
 30
0.0
 40
1.350000000000033
100
AcDbArc
 50
283.0756917598
 51
77.1486639236
  0
ARC
  5
327
330
1F
100
AcDbEntity
  8
0
  6
Continuous
 62
     7
370
    15
100
AcDbCircle
 10
231.9903916098
 20
160.7246460243
 30
0.0
 40
0.697465485017458
100
AcDbArc
 50
101.8511549508
 51
257.1486639236
  0
ARC
  5
328
330
1F
100
AcDbEntity
  8
0
  6
Continuous
 62
     7
370
    15
100
AcDbCircle
 10
231.569903777
 20
162.7284685949
 30
0.0
 40
1.350000000000015
100
AcDbArc
 50
281.8511549508
 51
78.3524956579
  0
ARC
  5
329
330
1F
100
AcDbEntity
  8
0
  6
Continuous
 62
     7
370
    15
100
AcDbCircle
 10
231.9814641103
 20
164.725028676
 30
0.0
 40
0.6885372366820488
100
AcDbArc
 50
100.6473232165
 51
258.3524956579
  0
ARC
  5
32A
330
1F
100
AcDbEntity
  8
0
  6
Continuous
 62
     7
370
    15
100
AcDbCircle
 10
231.604817571
 20
166.7284685802
 30
0.0
 40
1.349999999999999
100
AcDbArc
 50
280.6473232165
 51
79.5358840917
  0
ARC
  5
32B
330
1F
100
AcDbEntity
  8
0
  6
Continuous
 62
     7
370
    15
100
AcDbCircle
 10
231.9736337761
 20
168.7254017512
 30
0.0
 40
0.6807061536885594
100
AcDbArc
 50
99.4639347827
 51
259.5358840917
  0
ARC
  5
32C
330
1F
100
AcDbEntity
  8
0
  6
Continuous
 62
     7
370
    15
100
AcDbCircle
 10
231.639731365
 20
170.7284685655
 30
0.0
 40
1.350000000000018
100
AcDbArc
 50
279.4639347827
 51
80.6990996181
  0
ARC
  5
32D
330
1F
100
AcDbEntity
  8
0
  6
Continuous
 62
     7
370
    15
100
AcDbCircle
 10
231.9668335646
 20
172.7257658351
 30
0.0
 40
0.6739051934328313
100
AcDbArc
 50
98.3007192563
 51
260.6990996181
  0
ARC
  5
32E
330
1F
100
AcDbEntity
  8
0
  6
Continuous
 62
     7
370
    15
100
AcDbCircle
 10
231.6746451589
 20
174.7284685508
 30
0.0
 40
1.349999999999992
100
AcDbArc
 50
278.3007192563
 51
81.8424201135
  0
ARC
  5
32F
330
1F
100
AcDbEntity
  8
0
  6
Continuous
 62
     7
370
    15
100
AcDbCircle
 10
231.9610017866
 20
176.726121466
 30
0.0
 40
0.668072666616028
100
AcDbArc
 50
97.1573987609
 51
261.8424201135
  0
ARC
  5
330
330
1F
100
AcDbEntity
  8
0
  6
Continuous
 62
     7
370
    15
100
AcDbCircle
 10
231.7095589529
 20
178.7284685361
 30
0.0
 40
1.350000000000023
100
AcDbArc
 50
277.1573987609
 51
82.9661298691
  0
ARC
  5
331
330
1F
100
AcDbEntity
  8
0
  6
Continuous
 62
     7
370
    15
100
AcDbCircle
 10
231.9560815821
 20
180.7264691403
 30
0.0
 40
0.6631517133715042
100
AcDbArc
 50
96.0336890053
 51
262.9661298691
  0
ARC
  5
332
330
1F
100
AcDbEntity
  8
0
  6
Continuous
 62
     7
370
    15
100
AcDbCircle
 10
231.7444727469
 20
182.7284685214
 30
0.0
 40
1.350000000000014
100
AcDbArc
 50
276.0336890053
 51
84.0705185898
  0
ARC
  5
333
330
1F
100
AcDbEntity
  8
0
  6
Continuous
 62
     7
370
    15
100
AcDbCircle
 10
231.9520204572
 20
184.7268093162
 30
0.0
 40
0.6590898397248703
100
AcDbArc
 50
94.9293002846
 51
264.0705185898
  0
ARC
  5
334
330
1F
100
AcDbEntity
  8
0
  6
Continuous
 62
     7
370
    15
100
AcDbCircle
 10
231.7793865409
 20
186.7284685067
 30
0.0
 40
1.350000000000004
100
AcDbArc
 50
274.9293002846
 51
85.1558804569
  0
ARC
  5
335
330
1F
100
AcDbEntity
  8
0
  6
Continuous
 62
     7
370
    15
100
AcDbCircle
 10
231.9487698727
 20
188.7271424173
 30
0.0
 40
0.6558385064442226
100
AcDbArc
 50
93.8439384175
 51
265.1558804569
  0
ARC
  5
336
330
1F
100
AcDbEntity
  8
0
  6
Continuous
 62
     7
370
    15
100
AcDbCircle
 10
231.8143003349
 20
190.728468492
 30
0.0
 40
1.350000000000001
100
AcDbArc
 50
273.8439384175
 51
86.2225132557
  0
ARC
  5
337
330
1F
100
AcDbEntity
  8
0
  6
Continuous
 62
     7
370
    15
100
AcDbCircle
 10
231.9462848786
 20
192.727468836
 30
0.0
 40
0.65335276349179
100
AcDbArc
 50
101.9340237361
 51
266.2225132557
  0
ARC
  5
338
330
1F
100
AcDbEntity
  8
0
  6
Continuous
 62
     7
370
    15
100
AcDbCircle
 10
231.5320211501
 20
194.6875218603
 30
0.0
 40
1.350000000000027
100
AcDbArc
 50
281.9340237361
 51
359.4999973189
  0
LINE
  5
339
330
1F
100
AcDbEntity
  8
0
  6
Continuous
 62
     7
370
    15
100
AcDbLine
 10
232.8929608967
 20
195.9354504659
 30
0.0
 11
232.8819638398
 21
194.6757361009
 31
0.0
  0
ARC
  5
33A
330
1F
100
AcDbEntity
  8
0
  6
Continuous
 62
     7
370
    15
100
AcDbCircle
 10
233.6929327142
 20
195.9284753107
 30
0.0
 40
0.8000000000000104
100
AcDbArc
 50
21.3275979095
 51
179.4999973189
  0
ARC
  5
33B
330
1F
100
AcDbEntity
  8
0
  6
Continuous
 62
     7
370
    15
100
AcDbCircle
 10
235.6956924382
 20
196.7104302249
 30
0.0
 40
1.349999999999562
100
AcDbArc
 50
201.3275979095
 51
261.6220224683
  0
ARC
  5
33C
330
1F
100
AcDbEntity
  8
0
  6
Continuous
 62
     7
370
    15
100
AcDbCircle
 10
235.4036291481
 20
194.7273073429
 30
0.0
 40
0.6545142380960934
100
AcDbArc
 50
274.3119004389
 51
81.6220224683
  0
ARC
  5
33D
330
1F
100
AcDbEntity
  8
0
  6
Continuous
 62
     7
370
    15
100
AcDbCircle
 10
235.5543402397
 20
192.7284668046
 30
0.0
 40
1.349999999999991
100
AcDbArc
 50
94.3119004389
 51
266.6846873738
  0
ARC
  5
33E
330
1F
100
AcDbEntity
  8
0
  6
Continuous
 62
     7
370
    15
100
AcDbCircle
 10
235.4384175026
 20
190.7273073282
 30
0.0
 40
0.6545142380956551
100
AcDbArc
 50
274.3119004389
 51
86.6846873738
  0
ARC
  5
33F
330
1F
100
AcDbEntity
  8
0
  6
Continuous
 62
     7
370
    15
100
AcDbCircle
 10
235.5891285942
 20
188.7284667899
 30
0.0
 40
1.350000000000008
100
AcDbArc
 50
94.3119004389
 51
265.6123234309
  0
ARC
  5
340
330
1F
100
AcDbEntity
  8
0
  6
Continuous
 62
     7
370
    15
100
AcDbCircle
 10
235.4355551575
 20
186.7269741119
 30
0.0
 40
0.6573758344473468
100
AcDbArc
 50
275.3877611732
 51
85.6123234309
  0
ARC
  5
341
330
1F
100
AcDbEntity
  8
0
  6
Continuous
 62
     7
370
    15
100
AcDbCircle
 10
235.6240390189
 20
184.7284667752
 30
0.0
 40
1.349999999999989
100
AcDbArc
 50
95.3877611732
 51
264.5174853148
  0
ARC
  5
342
330
1F
100
AcDbEntity
  8
0
  6
Continuous
 62
     7
370
    15
100
AcDbCircle
 10
235.4319013425
 20
182.7266375237
 30
0.0
 40
0.661028900589644
100
AcDbArc
 50
276.4825992894
 51
84.5174853148
  0
ARC
  5
343
330
1F
100
AcDbEntity
  8
0
  6
Continuous
 62
     7
370
    15
100
AcDbCircle
 10
235.6589494437
 20
180.7284667605
 30
0.0
 40
1.349999999999994
100
AcDbArc
 50
96.4825992893
 51
263.4034739099
  0
ARC
  5
344
330
1F
100
AcDbEntity
  8
0
  6
Continuous
 62
     7
370
    15
100
AcDbCircle
 10
235.4274131296
 20
178.7262936532
 30
0.0
 40
0.6655163647193599
100
AcDbArc
 50
277.5966106942
 51
83.4034739099
  0
ARC
  5
345
330
1F
100
AcDbEntity
  8
0
  6
Continuous
 62
     7
370
    15
100
AcDbCircle
 10
235.6938598684
 20
176.7284667458
 30
0.0
 40
1.350000000000018
100
AcDbArc
 50
97.5966106942
 51
262.2699972202
  0
ARC
  5
346
330
1F
100
AcDbEntity
  8
0
  6
Continuous
 62
     7
370
    15
100
AcDbCircle
 10
235.4220400467
 20
174.7259420599
 30
0.0
 40
0.670888698871328
100
AcDbArc
 50
278.7300873839
 51
82.2699972202
  0
ARC
  5
347
330
1F
100
AcDbEntity
  8
0
  6
Continuous
 62
     7
370
    15
100
AcDbCircle
 10
235.7287702932
 20
172.7284667311
 30
0.0
 40
1.34999999999999
100
AcDbArc
 50
98.7300873839
 51
261.1167681891
  0
ARC
  5
348
330
1F
100
AcDbEntity
  8
0
  6
Continuous
 62
     7
370
    15
100
AcDbCircle
 10
235.4157274671
 20
170.725582267
 30
0.0
 40
0.6772005296360477
100
AcDbArc
 50
279.883316415
 51
81.1167681891
  0
ARC
  5
349
330
1F
100
AcDbEntity
  8
0
  6
Continuous
 62
     7
370
    15
100
AcDbCircle
 10
235.763680718
 20
168.7284667164
 30
0.0
 40
1.350000000000018
100
AcDbArc
 50
99.883316415
 51
259.9435056674
  0
ARC
  5
34A
330
1F
100
AcDbEntity
  8
0
  6
Continuous
 62
     7
370
    15
100
AcDbCircle
 10
235.4084161733
 20
166.7252137578
 30
0.0
 40
0.6845110746291266
100
AcDbArc
 50
281.0565789367
 51
79.9435056674
  0
ARC
  5
34B
330
1F
100
AcDbEntity
  8
0
  6
Continuous
 62
     7
370
    15
100
AcDbCircle
 10
235.7985911427
 20
164.7284667017
 30
0.0
 40
1.350000000000005
100
AcDbArc
 50
101.0565789367
 51
258.7499354481
  0
ARC
  5
34C
330
1F
100
AcDbEntity
  8
0
  6
Continuous
 62
     7
370
    15
100
AcDbCircle
 10
235.400041864
 20
162.724835971
 30
0.0
 40
0.6928846351639758
100
AcDbArc
 50
282.250149156
 51
78.7499354481
  0
ARC
  5
34D
330
1F
100
AcDbEntity
  8
0
  6
Continuous
 62
     7
370
    15
100
AcDbCircle
 10
235.8335015675
 20
160.728466687
 30
0.0
 40
1.350000000000023
100
AcDbArc
 50
102.250149156
 51
257.5357913683
  0
ARC
  5
34E
330
1F
100
AcDbEntity
  8
0
  6
Continuous
 62
     7
370
    15
100
AcDbCircle
 10
235.3905345966
 20
158.7244482962
 30
0.0
 40
0.7023911537650394
100
AcDbArc
 50
283.4642932359
 51
77.5357913683
  0
ARC
  5
34F
330
1F
100
AcDbEntity
  8
0
  6
Continuous
 62
     7
370
    15
100
AcDbCircle
 10
235.8684119922
 20
156.7284666723
 30
0.0
 40
1.350000000000014
100
AcDbArc
 50
103.4642932359
 51
256.3008164789
  0
ARC
  5
350
330
1F
100
AcDbEntity
  8
0
  6
Continuous
 62
     7
370
    15
100
AcDbCircle
 10
235.3798181549
 20
154.7240500681
 30
0.0
 40
0.7131068466952086
100
AcDbArc
 50
284.6992681252
 51
76.300816479
  0
ARC
  5
351
330
1F
100
AcDbEntity
  8
0
  6
Continuous
 62
     7
370
    15
100
AcDbCircle
 10
235.903322417
 20
152.7284666576
 30
0.0
 40
1.350000000000029
100
AcDbArc
 50
104.6992681252
 51
255.0447642848
  0
ARC
  5
352
330
1F
100
AcDbEntity
  8
0
  6
Continuous
 62
     7
370
    15
100
AcDbCircle
 10
235.3678093293
 20
150.7236405607
 30
0.0
 40
0.7251149235409909
100
AcDbArc
 50
285.9553203194
 51
75.0447642848
  0
ARC
  5
353
330
1F
100
AcDbEntity
  8
0
  6
Continuous
 62
     7
370
    15
100
AcDbCircle
 10
235.9382328418
 20
148.7284666429
 30
0.0
 40
1.350000000000018
100
AcDbArc
 50
105.9553203194
 51
253.7674000508
  0
ARC
  5
354
330
1F
100
AcDbEntity
  8
0
  6
Continuous
 62
     7
370
    15
100
AcDbCircle
 10
235.3544170958
 20
146.7232189794
 30
0.0
 40
0.7385064081873739
100
AcDbArc
 50
287.2326845533
 51
73.7674000508
  0
ARC
  5
355
330
1F
100
AcDbEntity
  8
0
  6
Continuous
 62
     7
370
    15
100
AcDbCircle
 10
235.9731432665
 20
144.7284666282
 30
0.0
 40
1.350000000000024
100
AcDbArc
 50
107.2326845533
 51
252.4685021807
  0
ARC
  5
356
330
1F
100
AcDbEntity
  8
0
  6
Continuous
 62
     7
370
    15
100
AcDbCircle
 10
235.339541677
 20
142.7227844535
 30
0.0
 40
0.7533810782030285
100
AcDbArc
 50
288.5315824234
 51
72.4685021807
  0
ARC
  5
357
330
1F
100
AcDbEntity
  8
0
  6
Continuous
 62
     7
370
    15
100
AcDbCircle
 10
236.0080536913
 20
140.7284666135
 30
0.0
 40
1.350000000000009
100
AcDbArc
 50
108.5315824234
 51
251.1478636606
  0
ARC
  5
358
330
1F
100
AcDbEntity
  8
0
  6
Continuous
 62
     7
370
    15
100
AcDbCircle
 10
235.3230734633
 20
138.7223360263
 30
0.0
 40
0.7698485431034564
100
AcDbArc
 50
289.8522209436
 51
71.1478636606
  0
ARC
  5
359
330
1F
100
AcDbEntity
  8
0
  6
Continuous
 62
     7
370
    15
100
AcDbCircle
 10
236.042964116
 20
136.7284665988
 30
0.0
 40
1.350000000000028
100
AcDbArc
 50
109.8522209436
 51
249.8052935692
  0
ARC
  5
35A
330
1F
100
AcDbEntity
  8
0
  6
Continuous
 62
     7
370
    15
100
AcDbCircle
 10
235.3048917716
 20
134.7218726445
 30
0.0
 40
0.7880294860201816
100
AcDbArc
 50
318.1372298695
 51
69.8052935692
  0
ARC
  5
35B
330
1F
100
AcDbEntity
  8
0
  6
Continuous
 62
     7
370
    15
100
AcDbCircle
 10
236.4716858346
 20
133.6763359372
 30
0.0
 40
0.778672588913845
100
AcDbArc
 50
138.1372298691
 51
179.9999758693
  0
LINE
  5
35C
330
1F
100
AcDbEntity
  8
0
  6
Continuous
 62
     7
370
    15
100
AcDbLine
 10
235.6930082943
 20
133.6763426377
 30
0.0
 11
235.6930082943
 21
131.7284777476
 31
0.0
  0
ARC
  5
35D
330
1F
100
AcDbEntity
  8
0
  6
Continuous
 62
     7
370
    15
100
AcDbCircle
 10
238.6930124253
 20
131.7284743748
 30
0.0
 40
3.00000000000001
100
AcDbArc
 50
179.9999758696
 51
269.9999892754
  0
LINE
  5
35E
330
1F
100
AcDbEntity
  8
0
  6
Continuous
 62
     7
370
    15
100
AcDbLine
 10
241.1930119898
 20
128.728471668
 30
0.0
 11
238.693014374
 21
128.728471668
 31
0.0
  0
ARC
  5
35F
330
1F
100
AcDbEntity
  8
0
  6
Continuous
 62
     7
370
    15
100
AcDbCircle
 10
241.1930155015
 20
131.7284739068
 30
0.0
 40
2.999999999999939
100
AcDbArc
 50
269.9999892754
 51
359.9999758696
  0
LINE
  5
360
330
1F
100
AcDbEntity
  8
0
  6
Continuous
 62
     7
370
    15
100
AcDbLine
 10
244.1930180695
 20
132.9347267463
 30
0.0
 11
244.1930180695
 21
131.7284777476
 31
0.0
  0
ARC
  5
361
330
1F
100
AcDbEntity
  8
0
  6
Continuous
 62
     7
370
    15
100
AcDbCircle
 10
244.9716885984
 20
132.9347229996
 30
0.0
 40
0.7786725889158513
100
AcDbArc
 50
122.5781099429
 51
179.9999758696
  0
ARC
  5
362
330
1F
100
AcDbEntity
  8
0
  6
Continuous
 62
     7
370
    15
100
AcDbCircle
 10
243.825507219
 20
134.7284663581
 30
0.0
 40
1.350000000000027
100
AcDbArc
 50
302.5781099429
 51
69.4824657628
  0
ARC
  5
363
330
1F
100
AcDbEntity
  8
0
  6
Continuous
 62
     7
370
    15
100
AcDbCircle
 10
244.5715942209
 20
136.7221065404
 30
0.0
 40
0.778672588915189
100
AcDbArc
 50
109.5173531116
 51
249.4824657628
  0
ARC
  5
364
330
1F
100
AcDbEntity
  8
0
  6
Continuous
 62
     7
370
    15
100
AcDbCircle
 10
243.860421013
 20
138.7284663434
 30
0.0
 40
1.349999999999994
100
AcDbArc
 50
289.5173531116
 51
70.8140647064
  0
ARC
  5
365
330
1F
100
AcDbEntity
  8
0
  6
Continuous
 62
     7
370
    15
100
AcDbCircle
 10
244.5542898827
 20
140.722562309
 30
0.0
 40
0.7613675019379925
100
AcDbArc
 50
108.185754168
 51
250.8140647064
  0
ARC
  5
366
330
1F
100
AcDbEntity
  8
0
  6
Continuous
 62
     7
370
    15
100
AcDbCircle
 10
243.895334807
 20
142.7284663287
 30
0.0
 40
1.349999999999998
100
AcDbArc
 50
288.185754168
 51
72.1238235638
  0
ARC
  5
367
330
1F
100
AcDbEntity
  8
0
  6
Continuous
 62
     7
370
    15
100
AcDbCircle
 10
244.5386370893
 20
144.7230036621
 30
0.0
 40
0.74571395967152
100
AcDbArc
 50
106.8759953106
 51
252.1238235638
  0
ARC
  5
368
330
1F
100
AcDbEntity
  8
0
  6
Continuous
 62
     7
370
    15
100
AcDbCircle
 10
243.930248601
 20
146.728466314
 30
0.0
 40
1.35
100
AcDbArc
 50
286.8759953106
 51
73.4119415679
  0
ARC
  5
369
330
1F
100
AcDbEntity
  8
0
  6
Continuous
 62
     7
370
    15
100
AcDbCircle
 10
244.52452087
 20
148.7234316034
 30
0.0
 40
0.7315969916106649
100
AcDbArc
 50
105.5878773066
 51
253.4119415679
  0
ARC
  5
36A
330
1F
100
AcDbEntity
  8
0
  6
Continuous
 62
     7
370
    15
100
AcDbCircle
 10
243.965162395
 20
150.7284662993
 30
0.0
 40
1.350000000000009
100
AcDbArc
 50
285.5878773066
 51
74.6786332805
  0
ARC
  5
36B
330
1F
100
AcDbEntity
  8
0
  6
Continuous
 62
     7
370
    15
100
AcDbCircle
 10
244.5118366842
 20
152.7238470452
 30
0.0
 40
0.7189120569702128
100
AcDbArc
 50
104.321185594
 51
254.6786332805
  0
ARC
  5
36C
330
1F
100
AcDbEntity
  8
0
  6
Continuous
 62
     7
370
    15
100
AcDbCircle
 10
244.000076189
 20
154.7284662846
 30
0.0
 40
1.350000000000023
100
AcDbArc
 50
284.321185594
 51
75.9241271146
  0
ARC
  5
36D
330
1F
100
AcDbEntity
  8
0
  6
Continuous
 62
     7
370
    15
100
AcDbCircle
 10
244.5004892642
 20
156.7242508191
 30
0.0
 40
0.707563888195877
100
AcDbArc
 50
103.0756917598
 51
255.9241271146
  0
ARC
  5
36E
330
1F
100
AcDbEntity
  8
0
  6
Continuous
 62
     7
370
    15
100
AcDbCircle
 10
244.034989983
 20
158.7284662699
 30
0.0
 40
1.350000000000012
100
AcDbArc
 50
283.0756917598
 51
77.1486639236
  0
ARC
  5
36F
330
1F
100
AcDbEntity
  8
0
  6
Continuous
 62
     7
370
    15
100
AcDbCircle
 10
244.4903916098
 20
160.7246436845
 30
0.0
 40
0.6974654850174858
100
AcDbArc
 50
101.8511549508
 51
257.1486639236
  0
ARC
  5
370
330
1F
100
AcDbEntity
  8
0
  6
Continuous
 62
     7
370
    15
100
AcDbCircle
 10
244.069903777
 20
162.7284662552
 30
0.0
 40
1.349999999999993
100
AcDbArc
 50
281.8511549508
 51
78.3524956579
  0
ARC
  5
371
330
1F
100
AcDbEntity
  8
0
  6
Continuous
 62
     7
370
    15
100
AcDbCircle
 10
244.4814641103
 20
164.7250263363
 30
0.0
 40
0.6885372366820431
100
AcDbArc
 50
100.6473232165
 51
258.3524956579
  0
ARC
  5
372
330
1F
100
AcDbEntity
  8
0
  6
Continuous
 62
     7
370
    15
100
AcDbCircle
 10
244.104817571
 20
166.7284662405
 30
0.0
 40
1.349999999999999
100
AcDbArc
 50
280.6473232165
 51
79.5358840917
  0
ARC
  5
373
330
1F
100
AcDbEntity
  8
0
  6
Continuous
 62
     7
370
    15
100
AcDbCircle
 10
244.4736337761
 20
168.7253994115
 30
0.0
 40
0.6807061536885195
100
AcDbArc
 50
99.4639347827
 51
259.5358840917
  0
ARC
  5
374
330
1F
100
AcDbEntity
  8
0
  6
Continuous
 62
     7
370
    15
100
AcDbCircle
 10
244.139731365
 20
170.7284662258
 30
0.0
 40
1.35000000000003
100
AcDbArc
 50
279.4639347827
 51
80.6990996181
  0
ARC
  5
375
330
1F
100
AcDbEntity
  8
0
  6
Continuous
 62
     7
370
    15
100
AcDbCircle
 10
244.4668335646
 20
172.7257634953
 30
0.0
 40
0.6739051934328073
100
AcDbArc
 50
98.3007192563
 51
260.6990996181
  0
ARC
  5
376
330
1F
100
AcDbEntity
  8
0
  6
Continuous
 62
     7
370
    15
100
AcDbCircle
 10
244.1746451589
 20
174.7284662111
 30
0.0
 40
1.349999999999996
100
AcDbArc
 50
278.3007192563
 51
81.8424201135
  0
ARC
  5
377
330
1F
100
AcDbEntity
  8
0
  6
Continuous
 62
     7
370
    15
100
AcDbCircle
 10
244.4610017866
 20
176.7261191263
 30
0.0
 40
0.6680726666160316
100
AcDbArc
 50
97.1573987609
 51
261.8424201135
  0
ARC
  5
378
330
1F
100
AcDbEntity
  8
0
  6
Continuous
 62
     7
370
    15
100
AcDbCircle
 10
244.2095589529
 20
178.7284661964
 30
0.0
 40
1.350000000000001
100
AcDbArc
 50
277.1573987609
 51
82.9661298691
  0
ARC
  5
379
330
1F
100
AcDbEntity
  8
0
  6
Continuous
 62
     7
370
    15
100
AcDbCircle
 10
244.4560815821
 20
180.7264668006
 30
0.0
 40
0.6631517133714941
100
AcDbArc
 50
96.0336890053
 51
262.9661298691
  0
ARC
  5
37A
330
1F
100
AcDbEntity
  8
0
  6
Continuous
 62
     7
370
    15
100
AcDbCircle
 10
244.2444727469
 20
182.7284661817
 30
0.0
 40
1.350000000000031
100
AcDbArc
 50
276.0336890053
 51
84.0705185898
  0
ARC
  5
37B
330
1F
100
AcDbEntity
  8
0
  6
Continuous
 62
     7
370
    15
100
AcDbCircle
 10
244.4520204572
 20
184.7268069764
 30
0.0
 40
0.6590898397248427
100
AcDbArc
 50
94.9293002846
 51
264.0705185898
  0
ARC
  5
37C
330
1F
100
AcDbEntity
  8
0
  6
Continuous
 62
     7
370
    15
100
AcDbCircle
 10
244.2793865409
 20
186.728466167
 30
0.0
 40
1.350000000000007
100
AcDbArc
 50
274.9293002846
 51
85.1558804569
  0
ARC
  5
37D
330
1F
100
AcDbEntity
  8
0
  6
Continuous
 62
     7
370
    15
100
AcDbCircle
 10
244.4487698727
 20
188.7271400776
 30
0.0
 40
0.6558385064442246
100
AcDbArc
 50
93.8439384175
 51
265.1558804569
  0
ARC
  5
37E
330
1F
100
AcDbEntity
  8
0
  6
Continuous
 62
     7
370
    15
100
AcDbCircle
 10
244.3143003349
 20
190.7284661523
 30
0.0
 40
1.35000000000003
100
AcDbArc
 50
273.8439384175
 51
86.2225132557
  0
ARC
  5
37F
330
1F
100
AcDbEntity
  8
0
  6
Continuous
 62
     7
370
    15
100
AcDbCircle
 10
244.4462848786
 20
192.7274664962
 30
0.0
 40
0.6533527634917841
100
AcDbArc
 50
101.9340237361
 51
266.2225132557
  0
ARC
  5
380
330
1F
100
AcDbEntity
  8
0
  6
Continuous
 62
     7
370
    15
100
AcDbCircle
 10
244.0320211501
 20
194.6875195206
 30
0.0
 40
1.349999999999999
100
AcDbArc
 50
281.9340237361
 51
359.4999973189
  0
LINE
  5
381
330
1F
100
AcDbEntity
  8
0
  6
Continuous
 62
     7
370
    15
100
AcDbLine
 10
245.392963877
 20
195.9354504659
 30
0.0
 11
245.38196682
 21
194.6757361009
 31
0.0
  0
ARC
  5
382
330
1F
100
AcDbEntity
  8
0
  6
Continuous
 62
     7
370
    15
100
AcDbCircle
 10
246.1929327142
 20
195.9284729709
 30
0.0
 40
0.8000000000000635
100
AcDbArc
 50
21.3275979095
 51
179.4999973188
  0
ARC
  5
383
330
1F
100
AcDbEntity
  8
0
  6
Continuous
 62
     7
370
    15
100
AcDbCircle
 10
248.1956924382
 20
196.7104278852
 30
0.0
 40
1.349999999999552
100
AcDbArc
 50
201.3275979095
 51
261.6220224683
  0
ARC
  5
384
330
1F
100
AcDbEntity
  8
0
  6
Continuous
 62
     7
370
    15
100
AcDbCircle
 10
247.9036291481
 20
194.7273050031
 30
0.0
 40
0.6545142380961124
100
AcDbArc
 50
274.3119004389
 51
81.6220224683
  0
ARC
  5
385
330
1F
100
AcDbEntity
  8
0
  6
Continuous
 62
     7
370
    15
100
AcDbCircle
 10
248.0543402397
 20
192.7284644648
 30
0.0
 40
1.350000000000019
100
AcDbArc
 50
94.3119004389
 51
266.6846873738
  0
ARC
  5
386
330
1F
100
AcDbEntity
  8
0
  6
Continuous
 62
     7
370
    15
100
AcDbCircle
 10
247.9384175026
 20
190.7273049885
 30
0.0
 40
0.6545142380956267
100
AcDbArc
 50
274.3119004389
 51
86.6846873738
  0
ARC
  5
387
330
1F
100
AcDbEntity
  8
0
  6
Continuous
 62
     7
370
    15
100
AcDbCircle
 10
248.0891285942
 20
188.7284644502
 30
0.0
 40
1.350000000000012
100
AcDbArc
 50
94.3119004389
 51
265.6123234309
  0
ARC
  5
388
330
1F
100
AcDbEntity
  8
0
  6
Continuous
 62
     7
370
    15
100
AcDbCircle
 10
247.9355551574
 20
186.7269717721
 30
0.0
 40
0.6573758344473425
100
AcDbArc
 50
275.3877611732
 51
85.6123234309
  0
ARC
  5
389
330
1F
100
AcDbEntity
  8
0
  6
Continuous
 62
     7
370
    15
100
AcDbCircle
 10
248.1240390189
 20
184.7284644355
 30
0.0
 40
1.350000000000014
100
AcDbArc
 50
95.3877611732
 51
264.5174853148
  0
ARC
  5
38A
330
1F
100
AcDbEntity
  8
0
  6
Continuous
 62
     7
370
    15
100
AcDbCircle
 10
247.9319013425
 20
182.7266351839
 30
0.0
 40
0.6610289005896557
100
AcDbArc
 50
276.4825992894
 51
84.5174853148
  0
ARC
  5
38B
330
1F
100
AcDbEntity
  8
0
  6
Continuous
 62
     7
370
    15
100
AcDbCircle
 10
248.1589494437
 20
180.7284644208
 30
0.0
 40
1.349999999999991
100
AcDbArc
 50
96.4825992893
 51
263.4034739099
  0
ARC
  5
38C
330
1F
100
AcDbEntity
  8
0
  6
Continuous
 62
     7
370
    15
100
AcDbCircle
 10
247.9274131296
 20
178.7262913134
 30
0.0
 40
0.6655163647193632
100
AcDbArc
 50
277.5966106942
 51
83.4034739099
  0
ARC
  5
38D
330
1F
100
AcDbEntity
  8
0
  6
Continuous
 62
     7
370
    15
100
AcDbCircle
 10
248.1938598684
 20
176.7284644061
 30
0.0
 40
1.349999999999998
100
AcDbArc
 50
97.5966106942
 51
262.2699972202
  0
ARC
  5
38E
330
1F
100
AcDbEntity
  8
0
  6
Continuous
 62
     7
370
    15
100
AcDbCircle
 10
247.9220400467
 20
174.7259397201
 30
0.0
 40
0.6708886988713474
100
AcDbArc
 50
278.7300873839
 51
82.2699972202
  0
ARC
  5
38F
330
1F
100
AcDbEntity
  8
0
  6
Continuous
 62
     7
370
    15
100
AcDbCircle
 10
248.2287702932
 20
172.7284643914
 30
0.0
 40
1.35
100
AcDbArc
 50
98.7300873839
 51
261.1167681891
  0
ARC
  5
390
330
1F
100
AcDbEntity
  8
0
  6
Continuous
 62
     7
370
    15
100
AcDbCircle
 10
247.9157274671
 20
170.7255799273
 30
0.0
 40
0.6772005296360396
100
AcDbArc
 50
279.883316415
 51
81.1167681891
  0
ARC
  5
391
330
1F
100
AcDbEntity
  8
0
  6
Continuous
 62
     7
370
    15
100
AcDbCircle
 10
248.263680718
 20
168.7284643767
 30
0.0
 40
1.350000000000011
100
AcDbArc
 50
99.883316415
 51
259.9435056674
  0
ARC
  5
392
330
1F
100
AcDbEntity
  8
0
  6
Continuous
 62
     7
370
    15
100
AcDbCircle
 10
247.9084161733
 20
166.7252114181
 30
0.0
 40
0.6845110746291168
100
AcDbArc
 50
281.0565789368
 51
79.9435056674
  0
ARC
  5
393
330
1F
100
AcDbEntity
  8
0
  6
Continuous
 62
     7
370
    15
100
AcDbCircle
 10
248.2985911427
 20
164.728464362
 30
0.0
 40
1.350000000000012
100
AcDbArc
 50
101.0565789367
 51
258.7499354481
  0
ARC
  5
394
330
1F
100
AcDbEntity
  8
0
  6
Continuous
 62
     7
370
    15
100
AcDbCircle
 10
247.900041864
 20
162.7248336312
 30
0.0
 40
0.692884635163948
100
AcDbArc
 50
282.250149156
 51
78.7499354481
  0
ARC
  5
395
330
1F
100
AcDbEntity
  8
0
  6
Continuous
 62
     7
370
    15
100
AcDbCircle
 10
248.3335015675
 20
160.7284643473
 30
0.0
 40
1.350000000000023
100
AcDbArc
 50
102.250149156
 51
257.5357913683
  0
ARC
  5
396
330
1F
100
AcDbEntity
  8
0
  6
Continuous
 62
     7
370
    15
100
AcDbCircle
 10
247.8905345966
 20
158.7244459564
 30
0.0
 40
0.7023911537650394
100
AcDbArc
 50
283.4642932359
 51
77.5357913683
  0
ARC
  5
397
330
1F
100
AcDbEntity
  8
0
  6
Continuous
 62
     7
370
    15
100
AcDbCircle
 10
248.3684119922
 20
156.7284643326
 30
0.0
 40
1.350000000000044
100
AcDbArc
 50
103.4642932359
 51
256.3008164789
  0
ARC
  5
398
330
1F
100
AcDbEntity
  8
0
  6
Continuous
 62
     7
370
    15
100
AcDbCircle
 10
247.8798181549
 20
154.7240477284
 30
0.0
 40
0.7131068466952414
100
AcDbArc
 50
284.6992681252
 51
76.3008164789
  0
ARC
  5
399
330
1F
100
AcDbEntity
  8
0
  6
Continuous
 62
     7
370
    15
100
AcDbCircle
 10
248.403322417
 20
152.7284643178
 30
0.0
 40
1.350000000000013
100
AcDbArc
 50
104.6992681252
 51
255.0447642848
  0
ARC
  5
39A
330
1F
100
AcDbEntity
  8
0
  6
Continuous
 62
     7
370
    15
100
AcDbCircle
 10
247.8678093293
 20
150.723638221
 30
0.0
 40
0.7251149235410183
100
AcDbArc
 50
285.9553203194
 51
75.0447642848
  0
ARC
  5
39B
330
1F
100
AcDbEntity
  8
0
  6
Continuous
 62
     7
370
    15
100
AcDbCircle
 10
248.4382328417
 20
148.7284643031
 30
0.0
 40
1.350000000000001
100
AcDbArc
 50
105.9553203194
 51
253.7674000508
  0
ARC
  5
39C
330
1F
100
AcDbEntity
  8
0
  6
Continuous
 62
     7
370
    15
100
AcDbCircle
 10
247.8544170958
 20
146.7232166397
 30
0.0
 40
0.7385064081873823
100
AcDbArc
 50
287.2326845533
 51
73.7674000508
  0
ARC
  5
39D
330
1F
100
AcDbEntity
  8
0
  6
Continuous
 62
     7
370
    15
100
AcDbCircle
 10
248.4731432665
 20
144.7284642884
 30
0.0
 40
1.350000000000007
100
AcDbArc
 50
107.2326845533
 51
252.4685021807
  0
ARC
  5
39E
330
1F
100
AcDbEntity
  8
0
  6
Continuous
 62
     7
370
    15
100
AcDbCircle
 10
247.839541677
 20
142.7227821137
 30
0.0
 40
0.7533810782030375
100
AcDbArc
 50
288.5315824234
 51
72.4685021807
  0
ARC
  5
39F
330
1F
100
AcDbEntity
  8
0
  6
Continuous
 62
     7
370
    15
100
AcDbCircle
 10
248.5080536913
 20
140.7284642737
 30
0.0
 40
1.35
100
AcDbArc
 50
108.5315824234
 51
251.1478636606
  0
ARC
  5
3A0
330
1F
100
AcDbEntity
  8
0
  6
Continuous
 62
     7
370
    15
100
AcDbCircle
 10
247.8230734633
 20
138.7223336865
 30
0.0
 40
0.7698485431034564
100
AcDbArc
 50
289.8522209436
 51
71.1478636606
  0
ARC
  5
3A1
330
1F
100
AcDbEntity
  8
0
  6
Continuous
 62
     7
370
    15
100
AcDbCircle
 10
248.542964116
 20
136.728464259
 30
0.0
 40
1.350000000000001
100
AcDbArc
 50
109.8522209436
 51
249.8052935692
  0
ARC
  5
3A2
330
1F
100
AcDbEntity
  8
0
  6
Continuous
 62
     7
370
    15
100
AcDbCircle
 10
247.8048917716
 20
134.7218703047
 30
0.0
 40
0.7880294860201718
100
AcDbArc
 50
318.1372298695
 51
69.8052935692
  0
ARC
  5
3A3
330
1F
100
AcDbEntity
  8
0
  6
Continuous
 62
     7
370
    15
100
AcDbCircle
 10
248.9716858345
 20
133.6763335975
 30
0.0
 40
0.7786725889138617
100
AcDbArc
 50
138.1372298691
 51
179.9999758693
  0
LINE
  5
3A4
330
1F
100
AcDbEntity
  8
0
  6
Continuous
 62
     7
370
    15
100
AcDbLine
 10
248.1930112746
 20
133.6763277366
 30
0.0
 11
248.1930112746
 21
131.7284777476
 31
0.0
  0
ARC
  5
3A5
330
1F
100
AcDbEntity
  8
0
  6
Continuous
 62
     7
370
    15
100
AcDbCircle
 10
251.1930124253
 20
131.728472035
 30
0.0
 40
3.00000000000001
100
AcDbArc
 50
179.9999758696
 51
269.9999892754
  0
LINE
  5
3A6
330
1F
100
AcDbEntity
  8
0
  6
Continuous
 62
     7
370
    15
100
AcDbLine
 10
253.6930149701
 20
128.728471668
 30
0.0
 11
251.1930173542
 21
128.728471668
 31
0.0
  0
ARC
  5
3A7
330
1F
100
AcDbEntity
  8
0
  6
Continuous
 62
     7
370
    15
100
AcDbCircle
 10
253.6930155015
 20
131.7284715671
 30
0.0
 40
3.00000000000001
100
AcDbArc
 50
269.9999892754
 51
359.9999758696
  0
LINE
  5
3A8
330
1F
100
AcDbEntity
  8
0
  6
Continuous
 62
     7
370
    15
100
AcDbLine
 10
256.6930210497
 20
132.9347267463
 30
0.0
 11
256.6930210497
 21
131.7284777476
 31
0.0
  0
ARC
  5
3A9
330
1F
100
AcDbEntity
  8
0
  6
Continuous
 62
     7
370
    15
100
AcDbCircle
 10
257.4716885984
 20
132.9347206598
 30
0.0
 40
0.778672588915815
100
AcDbArc
 50
122.5781099429
 51
179.9999758696
  0
ARC
  5
3AA
330
1F
100
AcDbEntity
  8
0
  6
Continuous
 62
     7
370
    15
100
AcDbCircle
 10
256.325507219
 20
134.7284640184
 30
0.0
 40
1.350000000000027
100
AcDbArc
 50
302.5781099429
 51
69.4824657628
  0
ARC
  5
3AB
330
1F
100
AcDbEntity
  8
0
  6
Continuous
 62
     7
370
    15
100
AcDbCircle
 10
257.0715942209
 20
136.7221042007
 30
0.0
 40
0.77867258891517
100
AcDbArc
 50
109.5173531116
 51
249.4824657628
  0
ARC
  5
3AC
330
1F
100
AcDbEntity
  8
0
  6
Continuous
 62
     7
370
    15
100
AcDbCircle
 10
256.360421013
 20
138.7284640037
 30
0.0
 40
1.350000000000045
100
AcDbArc
 50
289.5173531116
 51
70.8140647064
  0
ARC
  5
3AD
330
1F
100
AcDbEntity
  8
0
  6
Continuous
 62
     7
370
    15
100
AcDbCircle
 10
257.0542898827
 20
140.7225599692
 30
0.0
 40
0.7613675019379925
100
AcDbArc
 50
108.185754168
 51
250.8140647064
  0
ARC
  5
3AE
330
1F
100
AcDbEntity
  8
0
  6
Continuous
 62
     7
370
    15
100
AcDbCircle
 10
256.395334807
 20
142.728463989
 30
0.0
 40
1.350000000000016
100
AcDbArc
 50
288.185754168
 51
72.1238235638
  0
ARC
  5
3AF
330
1F
100
AcDbEntity
  8
0
  6
Continuous
 62
     7
370
    15
100
AcDbCircle
 10
257.0386370893
 20
144.7230013224
 30
0.0
 40
0.7457139596715149
100
AcDbArc
 50
106.8759953106
 51
252.1238235638
  0
ARC
  5
3B0
330
1F
100
AcDbEntity
  8
0
  6
Continuous
 62
     7
370
    15
100
AcDbCircle
 10
256.430248601
 20
146.7284639743
 30
0.0
 40
1.35
100
AcDbArc
 50
286.8759953106
 51
73.4119415679
  0
ARC
  5
3B1
330
1F
100
AcDbEntity
  8
0
  6
Continuous
 62
     7
370
    15
100
AcDbCircle
 10
257.02452087
 20
148.7234292636
 30
0.0
 40
0.7315969916106649
100
AcDbArc
 50
105.5878773066
 51
253.4119415679
  0
ARC
  5
3B2
330
1F
100
AcDbEntity
  8
0
  6
Continuous
 62
     7
370
    15
100
AcDbCircle
 10
256.465162395
 20
150.7284639596
 30
0.0
 40
1.350000000000009
100
AcDbArc
 50
285.5878773066
 51
74.6786332805
  0
ARC
  5
3B3
330
1F
100
AcDbEntity
  8
0
  6
Continuous
 62
     7
370
    15
100
AcDbCircle
 10
257.0118366842
 20
152.7238447054
 30
0.0
 40
0.7189120569702128
100
AcDbArc
 50
104.321185594
 51
254.6786332805
  0
ARC
  5
3B4
330
1F
100
AcDbEntity
  8
0
  6
Continuous
 62
     7
370
    15
100
AcDbCircle
 10
256.500076189
 20
154.7284639449
 30
0.0
 40
1.350000000000015
100
AcDbArc
 50
284.321185594
 51
75.9241271146
  0
ARC
  5
3B5
330
1F
100
AcDbEntity
  8
0
  6
Continuous
 62
     7
370
    15
100
AcDbCircle
 10
257.0004892642
 20
156.7242484794
 30
0.0
 40
0.7075638881958686
100
AcDbArc
 50
103.0756917598
 51
255.9241271146
  0
ARC
  5
3B6
330
1F
100
AcDbEntity
  8
0
  6
Continuous
 62
     7
370
    15
100
AcDbCircle
 10
256.534989983
 20
158.7284639302
 30
0.0
 40
1.349999999999983
100
AcDbArc
 50
283.0756917598
 51
77.1486639236
  0
ARC
  5
3B7
330
1F
100
AcDbEntity
  8
0
  6
Continuous
 62
     7
370
    15
100
AcDbCircle
 10
256.9903916098
 20
160.7246413448
 30
0.0
 40
0.6974654850175013
100
AcDbArc
 50
101.8511549508
 51
257.1486639236
  0
ARC
  5
3B8
330
1F
100
AcDbEntity
  8
0
  6
Continuous
 62
     7
370
    15
100
AcDbCircle
 10
256.569903777
 20
162.7284639155
 30
0.0
 40
1.35000000000001
100
AcDbArc
 50
281.8511549508
 51
78.3524956579
  0
ARC
  5
3B9
330
1F
100
AcDbEntity
  8
0
  6
Continuous
 62
     7
370
    15
100
AcDbCircle
 10
256.9814641103
 20
164.7250239965
 30
0.0
 40
0.6885372366820547
100
AcDbArc
 50
100.6473232165
 51
258.3524956579
  0
ARC
  5
3BA
330
1F
100
AcDbEntity
  8
0
  6
Continuous
 62
     7
370
    15
100
AcDbCircle
 10
256.604817571
 20
166.7284639007
 30
0.0
 40
1.350000000000032
100
AcDbArc
 50
280.6473232165
 51
79.5358840917
  0
ARC
  5
3BB
330
1F
100
AcDbEntity
  8
0
  6
Continuous
 62
     7
370
    15
100
AcDbCircle
 10
256.9736337761
 20
168.7253970718
 30
0.0
 40
0.680706153688508
100
AcDbArc
 50
99.4639347827
 51
259.5358840917
  0
ARC
  5
3BC
330
1F
100
AcDbEntity
  8
0
  6
Continuous
 62
     7
370
    15
100
AcDbCircle
 10
256.639731365
 20
170.728463886
 30
0.0
 40
1.35000000000003
100
AcDbArc
 50
279.4639347827
 51
80.6990996181
  0
ARC
  5
3BD
330
1F
100
AcDbEntity
  8
0
  6
Continuous
 62
     7
370
    15
100
AcDbCircle
 10
256.9668335646
 20
172.7257611556
 30
0.0
 40
0.673905193432806
100
AcDbArc
 50
98.3007192563
 51
260.6990996181
  0
ARC
  5
3BE
330
1F
100
AcDbEntity
  8
0
  6
Continuous
 62
     7
370
    15
100
AcDbCircle
 10
256.6746451589
 20
174.7284638713
 30
0.0
 40
1.349999999999992
100
AcDbArc
 50
278.3007192563
 51
81.8424201135
  0
ARC
  5
3BF
330
1F
100
AcDbEntity
  8
0
  6
Continuous
 62
     7
370
    15
100
AcDbCircle
 10
256.9610017866
 20
176.7261167865
 30
0.0
 40
0.668072666616028
100
AcDbArc
 50
97.1573987609
 51
261.8424201135
  0
ARC
  5
3C0
330
1F
100
AcDbEntity
  8
0
  6
Continuous
 62
     7
370
    15
100
AcDbCircle
 10
256.7095589529
 20
178.7284638566
 30
0.0
 40
1.350000000000004
100
AcDbArc
 50
277.1573987609
 51
82.9661298691
  0
ARC
  5
3C1
330
1F
100
AcDbEntity
  8
0
  6
Continuous
 62
     7
370
    15
100
AcDbCircle
 10
256.9560815821
 20
180.7264644608
 30
0.0
 40
0.6631517133714976
100
AcDbArc
 50
96.0336890053
 51
262.9661298691
  0
ARC
  5
3C2
330
1F
100
AcDbEntity
  8
0
  6
Continuous
 62
     7
370
    15
100
AcDbCircle
 10
256.7444727469
 20
182.7284638419
 30
0.0
 40
1.350000000000011
100
AcDbArc
 50
276.0336890053
 51
84.0705185898
  0
ARC
  5
3C3
330
1F
100
AcDbEntity
  8
0
  6
Continuous
 62
     7
370
    15
100
AcDbCircle
 10
256.9520204572
 20
184.7268046367
 30
0.0
 40
0.6590898397248445
100
AcDbArc
 50
94.9293002846
 51
264.0705185898
  0
ARC
  5
3C4
330
1F
100
AcDbEntity
  8
0
  6
Continuous
 62
     7
370
    15
100
AcDbCircle
 10
256.7793865409
 20
186.7284638272
 30
0.0
 40
1.350000000000002
100
AcDbArc
 50
274.9293002846
 51
85.1558804569
  0
ARC
  5
3C5
330
1F
100
AcDbEntity
  8
0
  6
Continuous
 62
     7
370
    15
100
AcDbCircle
 10
256.9487698727
 20
188.7271377378
 30
0.0
 40
0.6558385064442275
100
AcDbArc
 50
93.8439384175
 51
265.1558804569
  0
ARC
  5
3C6
330
1F
100
AcDbEntity
  8
0
  6
Continuous
 62
     7
370
    15
100
AcDbCircle
 10
256.8143003349
 20
190.7284638125
 30
0.0
 40
1.350000000000005
100
AcDbArc
 50
273.8439384175
 51
86.2225132557
  0
ARC
  5
3C7
330
1F
100
AcDbEntity
  8
0
  6
Continuous
 62
     7
370
    15
100
AcDbCircle
 10
256.9462848786
 20
192.7274641565
 30
0.0
 40
0.6533527634918076
100
AcDbArc
 50
101.9340237361
 51
266.2225132557
  0
ARC
  5
3C8
330
1F
100
AcDbEntity
  8
0
  6
Continuous
 62
     7
370
    15
100
AcDbCircle
 10
256.53202115
 20
194.6875171808
 30
0.0
 40
1.350000000000005
100
AcDbArc
 50
281.9340237361
 51
359.4999973189
  0
LINE
  5
3C9
330
1F
100
AcDbEntity
  8
0
  6
Continuous
 62
     7
370
    15
100
AcDbLine
 10
257.8929668572
 20
195.9354504659
 30
0.0
 11
257.8819698002
 21
194.6757361009
 31
0.0
  0
ARC
  5
3CA
330
1F
100
AcDbEntity
  8
0
  6
Continuous
 62
     7
370
    15
100
AcDbCircle
 10
258.6929327142
 20
195.9284706312
 30
0.0
 40
0.8000000000000348
100
AcDbArc
 50
21.3275979095
 51
179.4999973189
  0
ARC
  5
3CB
330
1F
100
AcDbEntity
  8
0
  6
Continuous
 62
     7
370
    15
100
AcDbCircle
 10
260.6956924382
 20
196.7104255454
 30
0.0
 40
1.349999999999568
100
AcDbArc
 50
201.3275979095
 51
261.6220224683
  0
ARC
  5
3CC
330
1F
100
AcDbEntity
  8
0
  6
Continuous
 62
     7
370
    15
100
AcDbCircle
 10
260.4036291481
 20
194.7273026634
 30
0.0
 40
0.654514238096082
100
AcDbArc
 50
274.3119004389
 51
81.6220224683
  0
ARC
  5
3CD
330
1F
100
AcDbEntity
  8
0
  6
Continuous
 62
     7
370
    15
100
AcDbCircle
 10
260.5543402397
 20
192.7284621251
 30
0.0
 40
1.350000000000017
100
AcDbArc
 50
94.3119004389
 51
266.6846873738
  0
ARC
  5
3CE
330
1F
100
AcDbEntity
  8
0
  6
Continuous
 62
     7
370
    15
100
AcDbCircle
 10
260.4384175026
 20
190.7273026487
 30
0.0
 40
0.6545142380956002
100
AcDbArc
 50
274.3119004389
 51
86.6846873738
  0
ARC
  5
3CF
330
1F
100
AcDbEntity
  8
0
  6
Continuous
 62
     7
370
    15
100
AcDbCircle
 10
260.5891285942
 20
188.7284621104
 30
0.0
 40
1.350000000000038
100
AcDbArc
 50
94.3119004389
 51
265.6123234309
  0
ARC
  5
3D0
330
1F
100
AcDbEntity
  8
0
  6
Continuous
 62
     7
370
    15
100
AcDbCircle
 10
260.4355551574
 20
186.7269694324
 30
0.0
 40
0.6573758344473185
100
AcDbArc
 50
275.3877611732
 51
85.6123234309
  0
ARC
  5
3D1
330
1F
100
AcDbEntity
  8
0
  6
Continuous
 62
     7
370
    15
100
AcDbCircle
 10
260.6240390189
 20
184.7284620957
 30
0.0
 40
1.350000000000045
100
AcDbArc
 50
95.3877611732
 51
264.5174853148
  0
ARC
  5
3D2
330
1F
100
AcDbEntity
  8
0
  6
Continuous
 62
     7
370
    15
100
AcDbCircle
 10
260.4319013425
 20
182.7266328442
 30
0.0
 40
0.6610289005896408
100
AcDbArc
 50
276.4825992893
 51
84.5174853148
  0
ARC
  5
3D3
330
1F
100
AcDbEntity
  8
0
  6
Continuous
 62
     7
370
    15
100
AcDbCircle
 10
260.6589494437
 20
180.728462081
 30
0.0
 40
1.349999999999994
100
AcDbArc
 50
96.4825992893
 51
263.4034739099
  0
ARC
  5
3D4
330
1F
100
AcDbEntity
  8
0
  6
Continuous
 62
     7
370
    15
100
AcDbCircle
 10
260.4274131296
 20
178.7262889737
 30
0.0
 40
0.6655163647193599
100
AcDbArc
 50
277.5966106942
 51
83.4034739099
  0
ARC
  5
3D5
330
1F
100
AcDbEntity
  8
0
  6
Continuous
 62
     7
370
    15
100
AcDbCircle
 10
260.6938598684
 20
176.7284620663
 30
0.0
 40
1.349999999999998
100
AcDbArc
 50
97.5966106942
 51
262.2699972202
  0
ARC
  5
3D6
330
1F
100
AcDbEntity
  8
0
  6
Continuous
 62
     7
370
    15
100
AcDbCircle
 10
260.4220400467
 20
174.7259373804
 30
0.0
 40
0.6708886988713562
100
AcDbArc
 50
278.7300873839
 51
82.2699972202
  0
ARC
  5
3D7
330
1F
100
AcDbEntity
  8
0
  6
Continuous
 62
     7
370
    15
100
AcDbCircle
 10
260.7287702932
 20
172.7284620516
 30
0.0
 40
1.350000000000031
100
AcDbArc
 50
98.7300873839
 51
261.1167681891
  0
ARC
  5
3D8
330
1F
100
AcDbEntity
  8
0
  6
Continuous
 62
     7
370
    15
100
AcDbCircle
 10
260.4157274671
 20
170.7255775876
 30
0.0
 40
0.6772005296360347
100
AcDbArc
 50
279.883316415
 51
81.1167681891
  0
ARC
  5
3D9
330
1F
100
AcDbEntity
  8
0
  6
Continuous
 62
     7
370
    15
100
AcDbCircle
 10
260.763680718
 20
168.7284620369
 30
0.0
 40
1.350000000000015
100
AcDbArc
 50
99.883316415
 51
259.9435056674
  0
ARC
  5
3DA
330
1F
100
AcDbEntity
  8
0
  6
Continuous
 62
     7
370
    15
100
AcDbCircle
 10
260.4084161733
 20
166.7252090783
 30
0.0
 40
0.6845110746291109
100
AcDbArc
 50
281.0565789367
 51
79.9435056674
  0
ARC
  5
3DB
330
1F
100
AcDbEntity
  8
0
  6
Continuous
 62
     7
370
    15
100
AcDbCircle
 10
260.7985911427
 20
164.7284620222
 30
0.0
 40
1.35
100
AcDbArc
 50
101.0565789367
 51
258.7499354481
  0
ARC
  5
3DC
330
1F
100
AcDbEntity
  8
0
  6
Continuous
 62
     7
370
    15
100
AcDbCircle
 10
260.400041864
 20
162.7248312915
 30
0.0
 40
0.6928846351639758
100
AcDbArc
 50
282.250149156
 51
78.7499354481
  0
ARC
  5
3DD
330
1F
100
AcDbEntity
  8
0
  6
Continuous
 62
     7
370
    15
100
AcDbCircle
 10
260.8335015675
 20
160.7284620075
 30
0.0
 40
1.350000000000011
100
AcDbArc
 50
102.250149156
 51
257.5357913683
  0
ARC
  5
3DE
330
1F
100
AcDbEntity
  8
0
  6
Continuous
 62
     7
370
    15
100
AcDbCircle
 10
260.3905345966
 20
158.7244436167
 30
0.0
 40
0.7023911537650327
100
AcDbArc
 50
283.4642932359
 51
77.5357913683
  0
ARC
  5
3DF
330
1F
100
AcDbEntity
  8
0
  6
Continuous
 62
     7
370
    15
100
AcDbCircle
 10
260.8684119922
 20
156.7284619928
 30
0.0
 40
1.350000000000004
100
AcDbArc
 50
103.4642932359
 51
256.3008164789
  0
ARC
  5
3E0
330
1F
100
AcDbEntity
  8
0
  6
Continuous
 62
     7
370
    15
100
AcDbCircle
 10
260.3798181549
 20
154.7240453887
 30
0.0
 40
0.7131068466952137
100
AcDbArc
 50
284.6992681252
 51
76.3008164789
  0
ARC
  5
3E1
330
1F
100
AcDbEntity
  8
0
  6
Continuous
 62
     7
370
    15
100
AcDbCircle
 10
260.903322417
 20
152.7284619781
 30
0.0
 40
1.350000000000013
100
AcDbArc
 50
104.6992681252
 51
255.0447642848
  0
ARC
  5
3E2
330
1F
100
AcDbEntity
  8
0
  6
Continuous
 62
     7
370
    15
100
AcDbCircle
 10
260.3678093293
 20
150.7236358812
 30
0.0
 40
0.7251149235410026
100
AcDbArc
 50
285.9553203194
 51
75.0447642848
  0
ARC
  5
3E3
330
1F
100
AcDbEntity
  8
0
  6
Continuous
 62
     7
370
    15
100
AcDbCircle
 10
260.9382328417
 20
148.7284619634
 30
0.0
 40
1.350000000000016
100
AcDbArc
 50
105.9553203194
 51
253.7674000508
  0
ARC
  5
3E4
330
1F
100
AcDbEntity
  8
0
  6
Continuous
 62
     7
370
    15
100
AcDbCircle
 10
260.3544170958
 20
146.7232142999
 30
0.0
 40
0.738506408187381
100
AcDbArc
 50
287.2326845533
 51
73.7674000508
  0
ARC
  5
3E5
330
1F
100
AcDbEntity
  8
0
  6
Continuous
 62
     7
370
    15
100
AcDbCircle
 10
260.9731432665
 20
144.7284619487
 30
0.0
 40
1.350000000000016
100
AcDbArc
 50
107.2326845533
 51
252.4685021807
  0
ARC
  5
3E6
330
1F
100
AcDbEntity
  8
0
  6
Continuous
 62
     7
370
    15
100
AcDbCircle
 10
260.339541677
 20
142.722779774
 30
0.0
 40
0.7533810782030554
100
AcDbArc
 50
288.5315824234
 51
72.4685021807
  0
ARC
  5
3E7
330
1F
100
AcDbEntity
  8
0
  6
Continuous
 62
     7
370
    15
100
AcDbCircle
 10
261.0080536913
 20
140.728461934
 30
0.0
 40
1.350000000000028
100
AcDbArc
 50
108.5315824234
 51
251.1478636606
  0
ARC
  5
3E8
330
1F
100
AcDbEntity
  8
0
  6
Continuous
 62
     7
370
    15
100
AcDbCircle
 10
260.3230734633
 20
138.7223313468
 30
0.0
 40
0.7698485431034615
100
AcDbArc
 50
289.8522209436
 51
71.1478636606
  0
ARC
  5
3E9
330
1F
100
AcDbEntity
  8
0
  6
Continuous
 62
     7
370
    15
100
AcDbCircle
 10
261.042964116
 20
136.7284619193
 30
0.0
 40
1.349999999999982
100
AcDbArc
 50
109.8522209436
 51
249.8052935692
  0
ARC
  5
3EA
330
1F
100
AcDbEntity
  8
0
  6
Continuous
 62
     7
370
    15
100
AcDbCircle
 10
260.3048917716
 20
134.721867965
 30
0.0
 40
0.7880294860201816
100
AcDbArc
 50
318.1372298695
 51
69.8052935692
  0
ARC
  5
3EB
330
1F
100
AcDbEntity
  8
0
  6
Continuous
 62
     7
370
    15
100
AcDbCircle
 10
261.4716858345
 20
133.6763312577
 30
0.0
 40
0.7786725889138333
100
AcDbArc
 50
138.1372298691
 51
179.9999758693
  0
LINE
  5
3EC
330
1F
100
AcDbEntity
  8
0
  6
Continuous
 62
     7
370
    15
100
AcDbLine
 10
260.6930142548
 20
133.6763277366
 30
0.0
 11
260.6930142548
 21
131.7284777476
 31
0.0
  0
ARC
  5
3ED
330
1F
100
AcDbEntity
  8
0
  6
Continuous
 62
     7
370
    15
100
AcDbCircle
 10
263.6930124253
 20
131.7284696953
 30
0.0
 40
3.000000000000095
100
AcDbArc
 50
179.9999758696
 51
269.9999892754
  0
LINE
  5
3EE
330
1F
100
AcDbEntity
  8
0
  6
Continuous
 62
     7
370
    15
100
AcDbLine
 10
266.1930179503
 20
128.728471668
 30
0.0
 11
263.6930054333
 21
128.728471668
 31
0.0
  0
ARC
  5
3EF
330
1F
100
AcDbEntity
  8
0
  6
Continuous
 62
     7
370
    15
100
AcDbCircle
 10
266.1930155015
 20
131.7284692273
 30
0.0
 40
3.000000000000039
100
AcDbArc
 50
269.9999892754
 51
359.9999758696
  0
LINE
  5
3F0
330
1F
100
AcDbEntity
  8
0
  6
Continuous
 62
     7
370
    15
100
AcDbLine
 10
269.1930091288
 20
132.9347118451
 30
0.0
 11
269.1930091288
 21
131.7284628465
 31
0.0
  0
ARC
  5
3F1
330
1F
100
AcDbEntity
  8
0
  6
Continuous
 62
     7
370
    15
100
AcDbCircle
 10
269.9716885984
 20
132.9347183201
 30
0.0
 40
0.7786725889157844
100
AcDbArc
 50
122.5781099429
 51
179.9999758696
  0
ARC
  5
3F2
330
1F
100
AcDbEntity
  8
0
  6
Continuous
 62
     7
370
    15
100
AcDbCircle
 10
268.825507219
 20
134.7284616786
 30
0.0
 40
1.350000000000027
100
AcDbArc
 50
302.5781099429
 51
69.4824657628
  0
ARC
  5
3F3
330
1F
100
AcDbEntity
  8
0
  6
Continuous
 62
     7
370
    15
100
AcDbCircle
 10
269.5715942209
 20
136.7221018609
 30
0.0
 40
0.7786725889152156
100
AcDbArc
 50
109.5173531116
 51
249.4824657628
  0
ARC
  5
3F4
330
1F
100
AcDbEntity
  8
0
  6
Continuous
 62
     7
370
    15
100
AcDbCircle
 10
268.860421013
 20
138.7284616639
 30
0.0
 40
1.35
100
AcDbArc
 50
289.5173531116
 51
70.8140647064
  0
ARC
  5
3F5
330
1F
100
AcDbEntity
  8
0
  6
Continuous
 62
     7
370
    15
100
AcDbCircle
 10
269.5542898827
 20
140.7225576295
 30
0.0
 40
0.7613675019379925
100
AcDbArc
 50
108.185754168
 51
250.8140647064
  0
ARC
  5
3F6
330
1F
100
AcDbEntity
  8
0
  6
Continuous
 62
     7
370
    15
100
AcDbCircle
 10
268.895334807
 20
142.7284616492
 30
0.0
 40
1.349999999999998
100
AcDbArc
 50
288.185754168
 51
72.1238235638
  0
ARC
  5
3F7
330
1F
100
AcDbEntity
  8
0
  6
Continuous
 62
     7
370
    15
100
AcDbCircle
 10
269.5386370893
 20
144.7229989826
 30
0.0
 40
0.745713959671542
100
AcDbArc
 50
106.8759953106
 51
252.1238235638
  0
ARC
  5
3F8
330
1F
100
AcDbEntity
  8
0
  6
Continuous
 62
     7
370
    15
100
AcDbCircle
 10
268.930248601
 20
146.7284616345
 30
0.0
 40
1.35
100
AcDbArc
 50
286.8759953106
 51
73.4119415679
  0
ARC
  5
3F9
330
1F
100
AcDbEntity
  8
0
  6
Continuous
 62
     7
370
    15
100
AcDbCircle
 10
269.52452087
 20
148.7234269239
 30
0.0
 40
0.7315969916106922
100
AcDbArc
 50
105.5878773066
 51
253.4119415679
  0
ARC
  5
3FA
330
1F
100
AcDbEntity
  8
0
  6
Continuous
 62
     7
370
    15
100
AcDbCircle
 10
268.965162395
 20
150.7284616198
 30
0.0
 40
1.350000000000025
100
AcDbArc
 50
285.5878773066
 51
74.6786332805
  0
ARC
  5
3FB
330
1F
100
AcDbEntity
  8
0
  6
Continuous
 62
     7
370
    15
100
AcDbCircle
 10
269.5118366842
 20
152.7238423657
 30
0.0
 40
0.7189120569702142
100
AcDbArc
 50
104.321185594
 51
254.6786332805
  0
ARC
  5
3FC
330
1F
100
AcDbEntity
  8
0
  6
Continuous
 62
     7
370
    15
100
AcDbCircle
 10
269.000076189
 20
154.7284616051
 30
0.0
 40
1.349999999999989
100
AcDbArc
 50
284.321185594
 51
75.9241271146
  0
ARC
  5
3FD
330
1F
100
AcDbEntity
  8
0
  6
Continuous
 62
     7
370
    15
100
AcDbCircle
 10
269.5004892642
 20
156.7242461396
 30
0.0
 40
0.7075638881958601
100
AcDbArc
 50
103.0756917598
 51
255.9241271146
  0
ARC
  5
3FE
330
1F
100
AcDbEntity
  8
0
  6
Continuous
 62
     7
370
    15
100
AcDbCircle
 10
269.034989983
 20
158.7284615904
 30
0.0
 40
1.350000000000009
100
AcDbArc
 50
283.0756917598
 51
77.1486639236
  0
ARC
  5
3FF
330
1F
100
AcDbEntity
  8
0
  6
Continuous
 62
     7
370
    15
100
AcDbCircle
 10
269.4903916098
 20
160.724639005
 30
0.0
 40
0.6974654850175013
100
AcDbArc
 50
101.8511549508
 51
257.1486639236
  0
ARC
  5
400
330
1F
100
AcDbEntity
  8
0
  6
Continuous
 62
     7
370
    15
100
AcDbCircle
 10
269.069903777
 20
162.7284615757
 30
0.0
 40
1.350000000000022
100
AcDbArc
 50
281.8511549508
 51
78.3524956579
  0
ARC
  5
401
330
1F
100
AcDbEntity
  8
0
  6
Continuous
 62
     7
370
    15
100
AcDbCircle
 10
269.4814641103
 20
164.7250216568
 30
0.0
 40
0.6885372366820374
100
AcDbArc
 50
100.6473232165
 51
258.3524956579
  0
ARC
  5
402
330
1F
100
AcDbEntity
  8
0
  6
Continuous
 62
     7
370
    15
100
AcDbCircle
 10
269.104817571
 20
166.728461561
 30
0.0
 40
1.349999999999983
100
AcDbArc
 50
280.6473232165
 51
79.5358840917
  0
ARC
  5
403
330
1F
100
AcDbEntity
  8
0
  6
Continuous
 62
     7
370
    15
100
AcDbCircle
 10
269.4736337761
 20
168.725394732
 30
0.0
 40
0.6807061536885298
100
AcDbArc
 50
99.4639347827
 51
259.5358840917
  0
ARC
  5
404
330
1F
100
AcDbEntity
  8
0
  6
Continuous
 62
     7
370
    15
100
AcDbCircle
 10
269.1397313649
 20
170.7284615463
 30
0.0
 40
1.349999999999992
100
AcDbArc
 50
279.4639347827
 51
80.6990996181
  0
ARC
  5
405
330
1F
100
AcDbEntity
  8
0
  6
Continuous
 62
     7
370
    15
100
AcDbCircle
 10
269.4668335646
 20
172.7257588159
 30
0.0
 40
0.6739051934327991
100
AcDbArc
 50
98.3007192563
 51
260.6990996181
  0
ARC
  5
406
330
1F
100
AcDbEntity
  8
0
  6
Continuous
 62
     7
370
    15
100
AcDbCircle
 10
269.1746451589
 20
174.7284615316
 30
0.0
 40
1.35
100
AcDbArc
 50
278.3007192563
 51
81.8424201135
  0
ARC
  5
407
330
1F
100
AcDbEntity
  8
0
  6
Continuous
 62
     7
370
    15
100
AcDbCircle
 10
269.4610017866
 20
176.7261144468
 30
0.0
 40
0.6680726666160351
100
AcDbArc
 50
97.1573987609
 51
261.8424201135
  0
ARC
  5
408
330
1F
100
AcDbEntity
  8
0
  6
Continuous
 62
     7
370
    15
100
AcDbCircle
 10
269.2095589529
 20
178.7284615169
 30
0.0
 40
1.349999999999988
100
AcDbArc
 50
277.1573987609
 51
82.9661298691
  0
ARC
  5
409
330
1F
100
AcDbEntity
  8
0
  6
Continuous
 62
     7
370
    15
100
AcDbCircle
 10
269.4560815821
 20
180.7264621211
 30
0.0
 40
0.6631517133715072
100
AcDbArc
 50
96.0336890053
 51
262.9661298691
  0
ARC
  5
40A
330
1F
100
AcDbEntity
  8
0
  6
Continuous
 62
     7
370
    15
100
AcDbCircle
 10
269.2444727469
 20
182.7284615022
 30
0.0
 40
1.350000000000034
100
AcDbArc
 50
276.0336890053
 51
84.0705185898
  0
ARC
  5
40B
330
1F
100
AcDbEntity
  8
0
  6
Continuous
 62
     7
370
    15
100
AcDbCircle
 10
269.4520204572
 20
184.726802297
 30
0.0
 40
0.6590898397248396
100
AcDbArc
 50
94.9293002846
 51
264.0705185898
  0
ARC
  5
40C
330
1F
100
AcDbEntity
  8
0
  6
Continuous
 62
     7
370
    15
100
AcDbCircle
 10
269.2793865409
 20
186.7284614875
 30
0.0
 40
1.350000000000029
100
AcDbArc
 50
274.9293002846
 51
85.1558804569
  0
ARC
  5
40D
330
1F
100
AcDbEntity
  8
0
  6
Continuous
 62
     7
370
    15
100
AcDbCircle
 10
269.4487698727
 20
188.7271353981
 30
0.0
 40
0.6558385064442227
100
AcDbArc
 50
93.8439384175
 51
265.1558804569
  0
ARC
  5
40E
330
1F
100
AcDbEntity
  8
0
  6
Continuous
 62
     7
370
    15
100
AcDbCircle
 10
269.3143003349
 20
190.7284614728
 30
0.0
 40
1.349999999999998
100
AcDbArc
 50
273.8439384175
 51
86.2225132557
  0
ARC
  5
40F
330
1F
100
AcDbEntity
  8
0
  6
Continuous
 62
     7
370
    15
100
AcDbCircle
 10
269.4462848786
 20
192.7274618168
 30
0.0
 40
0.653352763491768
100
AcDbArc
 50
101.9340237361
 51
266.2225132557
  0
ARC
  5
410
330
1F
100
AcDbEntity
  8
0
  6
Continuous
 62
     7
370
    15
100
AcDbCircle
 10
269.03202115
 20
194.6875148411
 30
0.0
 40
1.350000000000027
100
AcDbArc
 50
281.9340237361
 51
359.4999973189
  0
LINE
  5
411
330
1F
100
AcDbEntity
  8
0
  6
Continuous
 62
     7
370
    15
100
AcDbLine
 10
270.3929698374
 20
195.9354504659
 30
0.0
 11
270.3819727805
 21
194.6757361009
 31
0.0
  0
ARC
  5
412
330
1F
100
AcDbEntity
  8
0
  6
Continuous
 62
     7
370
    15
100
AcDbCircle
 10
271.1929327142
 20
195.9284682915
 30
0.0
 40
0.8000000000000737
100
AcDbArc
 50
21.3275979095
 51
179.4999973188
  0
ARC
  5
413
330
1F
100
AcDbEntity
  8
0
  6
Continuous
 62
     7
370
    15
100
AcDbCircle
 10
273.1956924382
 20
196.7104232057
 30
0.0
 40
1.349999999999568
100
AcDbArc
 50
201.3275979095
 51
261.6220224683
  0
ARC
  5
414
330
1F
100
AcDbEntity
  8
0
  6
Continuous
 62
     7
370
    15
100
AcDbCircle
 10
272.9036291481
 20
194.7273003237
 30
0.0
 40
0.6545142380960777
100
AcDbArc
 50
274.3119004389
 51
81.6220224683
  0
ARC
  5
415
330
1F
100
AcDbEntity
  8
0
  6
Continuous
 62
     7
370
    15
100
AcDbCircle
 10
273.0543402397
 20
192.7284597853
 30
0.0
 40
1.350000000000021
100
AcDbArc
 50
94.3119004389
 51
266.6846873738
  0
ARC
  5
416
330
1F
100
AcDbEntity
  8
0
  6
Continuous
 62
     7
370
    15
100
AcDbCircle
 10
272.9384175026
 20
190.727300309
 30
0.0
 40
0.6545142380955934
100
AcDbArc
 50
274.3119004389
 51
86.6846873738
  0
ARC
  5
417
330
1F
100
AcDbEntity
  8
0
  6
Continuous
 62
     7
370
    15
100
AcDbCircle
 10
273.0891285942
 20
188.7284597707
 30
0.0
 40
1.350000000000042
100
AcDbArc
 50
94.3119004389
 51
265.6123234309
  0
ARC
  5
418
330
1F
100
AcDbEntity
  8
0
  6
Continuous
 62
     7
370
    15
100
AcDbCircle
 10
272.9355551574
 20
186.7269670926
 30
0.0
 40
0.6573758344473185
100
AcDbArc
 50
275.3877611732
 51
85.6123234309
  0
ARC
  5
419
330
1F
100
AcDbEntity
  8
0
  6
Continuous
 62
     7
370
    15
100
AcDbCircle
 10
273.1240390189
 20
184.728459756
 30
0.0
 40
1.35000000000002
100
AcDbArc
 50
95.3877611732
 51
264.5174853148
  0
ARC
  5
41A
330
1F
100
AcDbEntity
  8
0
  6
Continuous
 62
     7
370
    15
100
AcDbCircle
 10
272.9319013425
 20
182.7266305044
 30
0.0
 40
0.6610289005896473
100
AcDbArc
 50
276.4825992894
 51
84.5174853148
  0
ARC
  5
41B
330
1F
100
AcDbEntity
  8
0
  6
Continuous
 62
     7
370
    15
100
AcDbCircle
 10
273.1589494437
 20
180.7284597413
 30
0.0
 40
1.349999999999987
100
AcDbArc
 50
96.4825992893
 51
263.4034739099
  0
ARC
  5
41C
330
1F
100
AcDbEntity
  8
0
  6
Continuous
 62
     7
370
    15
100
AcDbCircle
 10
272.9274131296
 20
178.726286634
 30
0.0
 40
0.6655163647193665
100
AcDbArc
 50
277.5966106942
 51
83.4034739099
  0
ARC
  5
41D
330
1F
100
AcDbEntity
  8
0
  6
Continuous
 62
     7
370
    15
100
AcDbCircle
 10
273.1938598684
 20
176.7284597266
 30
0.0
 40
1.349999999999998
100
AcDbArc
 50
97.5966106942
 51
262.2699972202
  0
ARC
  5
41E
330
1F
100
AcDbEntity
  8
0
  6
Continuous
 62
     7
370
    15
100
AcDbCircle
 10
272.9220400467
 20
174.7259350407
 30
0.0
 40
0.670888698871328
100
AcDbArc
 50
278.7300873839
 51
82.2699972202
  0
ARC
  5
41F
330
1F
100
AcDbEntity
  8
0
  6
Continuous
 62
     7
370
    15
100
AcDbCircle
 10
273.2287702932
 20
172.7284597119
 30
0.0
 40
1.350000000000023
100
AcDbArc
 50
98.7300873839
 51
261.1167681891
  0
ARC
  5
420
330
1F
100
AcDbEntity
  8
0
  6
Continuous
 62
     7
370
    15
100
AcDbCircle
 10
272.9157274671
 20
170.7255752478
 30
0.0
 40
0.6772005296360345
100
AcDbArc
 50
279.883316415
 51
81.1167681891
  0
ARC
  5
421
330
1F
100
AcDbEntity
  8
0
  6
Continuous
 62
     7
370
    15
100
AcDbCircle
 10
273.263680718
 20
168.7284596972
 30
0.0
 40
1.350000000000024
100
AcDbArc
 50
99.883316415
 51
259.9435056674
  0
ARC
  5
422
330
1F
100
AcDbEntity
  8
0
  6
Continuous
 62
     7
370
    15
100
AcDbCircle
 10
272.9084161733
 20
166.7252067386
 30
0.0
 40
0.6845110746291109
100
AcDbArc
 50
281.0565789367
 51
79.9435056674
  0
ARC
  5
423
330
1F
100
AcDbEntity
  8
0
  6
Continuous
 62
     7
370
    15
100
AcDbCircle
 10
273.2985911427
 20
164.7284596825
 30
0.0
 40
1.350000000000011
100
AcDbArc
 50
101.0565789367
 51
258.7499354481
  0
ARC
  5
424
330
1F
100
AcDbEntity
  8
0
  6
Continuous
 62
     7
370
    15
100
AcDbCircle
 10
272.900041864
 20
162.7248289518
 30
0.0
 40
0.692884635163936
100
AcDbArc
 50
282.250149156
 51
78.7499354481
  0
ARC
  5
425
330
1F
100
AcDbEntity
  8
0
  6
Continuous
 62
     7
370
    15
100
AcDbCircle
 10
273.3335015675
 20
160.7284596678
 30
0.0
 40
1.349999999999999
100
AcDbArc
 50
102.250149156
 51
257.5357913683
  0
ARC
  5
426
330
1F
100
AcDbEntity
  8
0
  6
Continuous
 62
     7
370
    15
100
AcDbCircle
 10
272.8905345966
 20
158.7244412769
 30
0.0
 40
0.7023911537650773
100
AcDbArc
 50
283.4642932359
 51
77.5357913683
  0
ARC
  5
427
330
1F
100
AcDbEntity
  8
0
  6
Continuous
 62
     7
370
    15
100
AcDbCircle
 10
273.3684119922
 20
156.7284596531
 30
0.0
 40
1.350000000000004
100
AcDbArc
 50
103.4642932359
 51
256.3008164789
  0
ARC
  5
428
330
1F
100
AcDbEntity
  8
0
  6
Continuous
 62
     7
370
    15
100
AcDbCircle
 10
272.8798181549
 20
154.7240430489
 30
0.0
 40
0.7131068466952137
100
AcDbArc
 50
284.6992681252
 51
76.3008164789
  0
ARC
  5
429
330
1F
100
AcDbEntity
  8
0
  6
Continuous
 62
     7
370
    15
100
AcDbCircle
 10
273.403322417
 20
152.7284596384
 30
0.0
 40
1.350000000000027
100
AcDbArc
 50
104.6992681252
 51
255.0447642848
  0
ARC
  5
42A
330
1F
100
AcDbEntity
  8
0
  6
Continuous
 62
     7
370
    15
100
AcDbCircle
 10
272.8678093293
 20
150.7236335415
 30
0.0
 40
0.7251149235410265
100
AcDbArc
 50
285.9553203194
 51
75.0447642848
  0
ARC
  5
42B
330
1F
100
AcDbEntity
  8
0
  6
Continuous
 62
     7
370
    15
100
AcDbCircle
 10
273.4382328417
 20
148.7284596237
 30
0.0
 40
1.35000000000001
100
AcDbArc
 50
105.9553203194
 51
253.7674000508
  0
ARC
  5
42C
330
1F
100
AcDbEntity
  8
0
  6
Continuous
 62
     7
370
    15
100
AcDbCircle
 10
272.8544170958
 20
146.7232119602
 30
0.0
 40
0.7385064081873493
100
AcDbArc
 50
287.2326845533
 51
73.7674000508
  0
ARC
  5
42D
330
1F
100
AcDbEntity
  8
0
  6
Continuous
 62
     7
370
    15
100
AcDbCircle
 10
273.4731432665
 20
144.728459609
 30
0.0
 40
1.349999999999999
100
AcDbArc
 50
107.2326845533
 51
252.4685021807
  0
ARC
  5
42E
330
1F
100
AcDbEntity
  8
0
  6
Continuous
 62
     7
370
    15
100
AcDbCircle
 10
272.839541677
 20
142.7227774343
 30
0.0
 40
0.7533810782030285
100
AcDbArc
 50
288.5315824234
 51
72.4685021807
  0
ARC
  5
42F
330
1F
100
AcDbEntity
  8
0
  6
Continuous
 62
     7
370
    15
100
AcDbCircle
 10
273.5080536913
 20
140.7284595943
 30
0.0
 40
1.350000000000018
100
AcDbArc
 50
108.5315824234
 51
251.1478636606
  0
ARC
  5
430
330
1F
100
AcDbEntity
  8
0
  6
Continuous
 62
     7
370
    15
100
AcDbCircle
 10
272.8230734633
 20
138.722329007
 30
0.0
 40
0.7698485431034655
100
AcDbArc
 50
289.8522209436
 51
71.1478636606
  0
ARC
  5
431
330
1F
100
AcDbEntity
  8
0
  6
Continuous
 62
     7
370
    15
100
AcDbCircle
 10
273.542964116
 20
136.7284595796
 30
0.0
 40
1.35000000000002
100
AcDbArc
 50
109.8522209436
 51
249.8052935692
  0
ARC
  5
432
330
1F
100
AcDbEntity
  8
0
  6
Continuous
 62
     7
370
    15
100
AcDbCircle
 10
272.8048917716
 20
134.7218656252
 30
0.0
 40
0.7880294860202026
100
AcDbArc
 50
318.1372298695
 51
69.8052935692
  0
ARC
  5
433
330
1F
100
AcDbEntity
  8
0
  6
Continuous
 62
     7
370
    15
100
AcDbCircle
 10
273.9716858345
 20
133.676328918
 30
0.0
 40
0.778672588913805
100
AcDbArc
 50
138.1372298691
 51
179.9999758693
  0
LINE
  5
434
330
1F
100
AcDbEntity
  8
0
  6
Continuous
 62
     7
370
    15
100
AcDbLine
 10
273.193017235
 20
133.6763277366
 30
0.0
 11
273.193017235
 21
131.7284628465
 31
0.0
  0
ARC
  5
435
330
1F
100
AcDbEntity
  8
0
  6
Continuous
 62
     7
370
    15
100
AcDbCircle
 10
276.1930124253
 20
131.7284673555
 30
0.0
 40
3.000000000000024
100
AcDbArc
 50
179.9999758696
 51
269.9999892754
  0
LINE
  5
436
330
1F
100
AcDbEntity
  8
0
  6
Continuous
 62
     7
370
    15
100
AcDbLine
 10
278.6930209305
 20
128.728471668
 30
0.0
 11
276.1930084135
 21
128.728471668
 31
0.0
  0
ARC
  5
437
330
1F
100
AcDbEntity
  8
0
  6
Continuous
 62
     7
370
    15
100
AcDbCircle
 10
278.6930155015
 20
131.7284668876
 30
0.0
 40
2.999999999999996
100
AcDbArc
 50
269.9999892754
 51
359.9999758696
  0
LINE
  5
438
330
1F
100
AcDbEntity
  8
0
  6
Continuous
 62
     7
370
    15
100
AcDbLine
 10
281.693012109
 20
132.9347118451
 30
0.0
 11
281.693012109
 21
131.7284628465
 31
0.0
  0
ARC
  5
439
330
1F
100
AcDbEntity
  8
0
  6
Continuous
 62
     7
370
    15
100
AcDbCircle
 10
282.4716885984
 20
132.9347159803
 30
0.0
 40
0.7786725889157844
100
AcDbArc
 50
122.5781099429
 51
179.9999758696
  0
ARC
  5
43A
330
1F
100
AcDbEntity
  8
0
  6
Continuous
 62
     7
370
    15
100
AcDbCircle
 10
281.325507219
 20
134.7284593389
 30
0.0
 40
1.349999999999981
100
AcDbArc
 50
302.5781099429
 51
69.4824657628
  0
ARC
  5
43B
330
1F
100
AcDbEntity
  8
0
  6
Continuous
 62
     7
370
    15
100
AcDbCircle
 10
282.0715942209
 20
136.7220995212
 30
0.0
 40
0.7786725889152372
100
AcDbArc
 50
109.5173531116
 51
249.4824657628
  0
ARC
  5
43C
330
1F
100
AcDbEntity
  8
0
  6
Continuous
 62
     7
370
    15
100
AcDbCircle
 10
281.360421013
 20
138.7284593242
 30
0.0
 40
1.35
100
AcDbArc
 50
289.5173531116
 51
70.8140647064
  0
ARC
  5
43D
330
1F
100
AcDbEntity
  8
0
  6
Continuous
 62
     7
370
    15
100
AcDbCircle
 10
282.0542898827
 20
140.7225552897
 30
0.0
 40
0.7613675019380107
100
AcDbArc
 50
108.185754168
 51
250.8140647064
  0
ARC
  5
43E
330
1F
100
AcDbEntity
  8
0
  6
Continuous
 62
     7
370
    15
100
AcDbCircle
 10
281.395334807
 20
142.7284593095
 30
0.0
 40
1.350000000000034
100
AcDbArc
 50
288.185754168
 51
72.1238235638
  0
ARC
  5
43F
330
1F
100
AcDbEntity
  8
0
  6
Continuous
 62
     7
370
    15
100
AcDbCircle
 10
282.0386370893
 20
144.7229966429
 30
0.0
 40
0.7457139596714975
100
AcDbArc
 50
106.8759953106
 51
252.1238235639
  0
ARC
  5
440
330
1F
100
AcDbEntity
  8
0
  6
Continuous
 62
     7
370
    15
100
AcDbCircle
 10
281.430248601
 20
146.7284592948
 30
0.0
 40
1.35
100
AcDbArc
 50
286.8759953106
 51
73.4119415679
  0
ARC
  5
441
330
1F
100
AcDbEntity
  8
0
  6
Continuous
 62
     7
370
    15
100
AcDbCircle
 10
282.02452087
 20
148.7234245841
 30
0.0
 40
0.7315969916106698
100
AcDbArc
 50
105.5878773066
 51
253.4119415679
  0
ARC
  5
442
330
1F
100
AcDbEntity
  8
0
  6
Continuous
 62
     7
370
    15
100
AcDbCircle
 10
281.465162395
 20
150.7284592801
 30
0.0
 40
1.349999999999994
100
AcDbArc
 50
285.5878773066
 51
74.6786332805
  0
ARC
  5
443
330
1F
100
AcDbEntity
  8
0
  6
Continuous
 62
     7
370
    15
100
AcDbCircle
 10
282.0118366842
 20
152.723840026
 30
0.0
 40
0.7189120569702251
100
AcDbArc
 50
104.321185594
 51
254.6786332805
  0
ARC
  5
444
330
1F
100
AcDbEntity
  8
0
  6
Continuous
 62
     7
370
    15
100
AcDbCircle
 10
281.500076189
 20
154.7284592654
 30
0.0
 40
1.349999999999989
100
AcDbArc
 50
284.321185594
 51
75.9241271146
  0
ARC
  5
445
330
1F
100
AcDbEntity
  8
0
  6
Continuous
 62
     7
370
    15
100
AcDbCircle
 10
282.0004892642
 20
156.7242437999
 30
0.0
 40
0.7075638881958557
100
AcDbArc
 50
103.0756917598
 51
255.9241271146
  0
ARC
  5
446
330
1F
100
AcDbEntity
  8
0
  6
Continuous
 62
     7
370
    15
100
AcDbCircle
 10
281.534989983
 20
158.7284592507
 30
0.0
 40
1.35000000000004
100
AcDbArc
 50
283.0756917598
 51
77.1486639236
  0
ARC
  5
447
330
1F
100
AcDbEntity
  8
0
  6
Continuous
 62
     7
370
    15
100
AcDbCircle
 10
281.9903916098
 20
160.7246366653
 30
0.0
 40
0.6974654850174522
100
AcDbArc
 50
101.8511549508
 51
257.1486639236
  0
ARC
  5
448
330
1F
100
AcDbEntity
  8
0
  6
Continuous
 62
     7
370
    15
100
AcDbCircle
 10
281.569903777
 20
162.728459236
 30
0.0
 40
1.350000000000027
100
AcDbArc
 50
281.8511549508
 51
78.3524956579
  0
ARC
  5
449
330
1F
100
AcDbEntity
  8
0
  6
Continuous
 62
     7
370
    15
100
AcDbCircle
 10
281.9814641103
 20
164.7250193171
 30
0.0
 40
0.6885372366820209
100
AcDbArc
 50
100.6473232165
 51
258.3524956579
  0
ARC
  5
44A
330
1F
100
AcDbEntity
  8
0
  6
Continuous
 62
     7
370
    15
100
AcDbCircle
 10
281.604817571
 20
166.7284592213
 30
0.0
 40
1.350000000000004
100
AcDbArc
 50
280.6473232165
 51
79.5358840917
  0
ARC
  5
44B
330
1F
100
AcDbEntity
  8
0
  6
Continuous
 62
     7
370
    15
100
AcDbCircle
 10
281.973633776
 20
168.7253923923
 30
0.0
 40
0.6807061536885266
100
AcDbArc
 50
99.4639347827
 51
259.5358840917
  0
ARC
  5
44C
330
1F
100
AcDbEntity
  8
0
  6
Continuous
 62
     7
370
    15
100
AcDbCircle
 10
281.6397313649
 20
170.7284592066
 30
0.0
 40
1.350000000000002
100
AcDbArc
 50
279.4639347827
 51
80.6990996181
  0
ARC
  5
44D
330
1F
100
AcDbEntity
  8
0
  6
Continuous
 62
     7
370
    15
100
AcDbCircle
 10
281.9668335646
 20
172.7257564761
 30
0.0
 40
0.6739051934328073
100
AcDbArc
 50
98.3007192563
 51
260.6990996181
  0
ARC
  5
44E
330
1F
100
AcDbEntity
  8
0
  6
Continuous
 62
     7
370
    15
100
AcDbCircle
 10
281.6746451589
 20
174.7284591919
 30
0.0
 40
1.350000000000018
100
AcDbArc
 50
278.3007192563
 51
81.8424201135
  0
ARC
  5
44F
330
1F
100
AcDbEntity
  8
0
  6
Continuous
 62
     7
370
    15
100
AcDbCircle
 10
281.9610017865
 20
176.726112107
 30
0.0
 40
0.6680726666160135
100
AcDbArc
 50
97.1573987609
 51
261.8424201135
  0
ARC
  5
450
330
1F
100
AcDbEntity
  8
0
  6
Continuous
 62
     7
370
    15
100
AcDbCircle
 10
281.7095589529
 20
178.7284591772
 30
0.0
 40
1.350000000000016
100
AcDbArc
 50
277.1573987609
 51
82.9661298691
  0
ARC
  5
451
330
1F
100
AcDbEntity
  8
0
  6
Continuous
 62
     7
370
    15
100
AcDbCircle
 10
281.9560815821
 20
180.7264597813
 30
0.0
 40
0.6631517133714906
100
AcDbArc
 50
96.0336890053
 51
262.9661298691
  0
ARC
  5
452
330
1F
100
AcDbEntity
  8
0
  6
Continuous
 62
     7
370
    15
100
AcDbCircle
 10
281.7444727469
 20
182.7284591624
 30
0.0
 40
1.349999999999999
100
AcDbArc
 50
276.0336890053
 51
84.0705185898
  0
ARC
  5
453
330
1F
100
AcDbEntity
  8
0
  6
Continuous
 62
     7
370
    15
100
AcDbCircle
 10
281.9520204572
 20
184.7267999572
 30
0.0
 40
0.6590898397248739
100
AcDbArc
 50
94.9293002846
 51
264.0705185898
  0
ARC
  5
454
330
1F
100
AcDbEntity
  8
0
  6
Continuous
 62
     7
370
    15
100
AcDbCircle
 10
281.7793865409
 20
186.7284591477
 30
0.0
 40
1.350000000000034
100
AcDbArc
 50
274.9293002846
 51
85.1558804569
  0
ARC
  5
455
330
1F
100
AcDbEntity
  8
0
  6
Continuous
 62
     7
370
    15
100
AcDbCircle
 10
281.9487698727
 20
188.7271330583
 30
0.0
 40
0.655838506444251
100
AcDbArc
 50
93.8439384175
 51
265.1558804569
  0
ARC
  5
456
330
1F
100
AcDbEntity
  8
0
  6
Continuous
 62
     7
370
    15
100
AcDbCircle
 10
281.8143003349
 20
190.728459133
 30
0.0
 40
1.350000000000001
100
AcDbArc
 50
273.8439384175
 51
86.2225132557
  0
ARC
  5
457
330
1F
100
AcDbEntity
  8
0
  6
Continuous
 62
     7
370
    15
100
AcDbCircle
 10
281.9462848785
 20
192.727459477
 30
0.0
 40
0.6533527634917581
100
AcDbArc
 50
101.9340237361
 51
266.2225132557
  0
ARC
  5
458
330
1F
100
AcDbEntity
  8
0
  6
Continuous
 62
     7
370
    15
100
AcDbCircle
 10
281.53202115
 20
194.6875125014
 30
0.0
 40
1.350000000000083
100
AcDbArc
 50
281.9340237361
 51
359.4999973189
  0
LINE
  5
459
330
1F
100
AcDbEntity
  8
0
  6
Continuous
 62
     7
370
    15
100
AcDbLine
 10
282.8929579165
 20
195.9354504659
 30
0.0
 11
282.8819608595
 21
194.6757361009
 31
0.0
  0
ARC
  5
45A
330
1F
100
AcDbEntity
  8
0
  6
Continuous
 62
     7
370
    15
100
AcDbCircle
 10
283.6929327142
 20
195.9284659517
 30
0.0
 40
0.800000000000053
100
AcDbArc
 50
21.3275979095
 51
179.4999973188
  0
ARC
  5
45B
330
1F
100
AcDbEntity
  8
0
  6
Continuous
 62
     7
370
    15
100
AcDbCircle
 10
285.6956924382
 20
196.710420866
 30
0.0
 40
1.349999999999576
100
AcDbArc
 50
201.3275979095
 51
261.6220224683
  0
ARC
  5
45C
330
1F
100
AcDbEntity
  8
0
  6
Continuous
 62
     7
370
    15
100
AcDbCircle
 10
285.4036291481
 20
194.7272979839
 30
0.0
 40
0.6545142380960862
100
AcDbArc
 50
274.3119004389
 51
81.6220224683
  0
ARC
  5
45D
330
1F
100
AcDbEntity
  8
0
  6
Continuous
 62
     7
370
    15
100
AcDbCircle
 10
285.5543402397
 20
192.7284574456
 30
0.0
 40
1.350000000000017
100
AcDbArc
 50
94.3119004389
 51
266.6846873738
  0
ARC
  5
45E
330
1F
100
AcDbEntity
  8
0
  6
Continuous
 62
     7
370
    15
100
AcDbCircle
 10
285.4384175026
 20
190.7272979693
 30
0.0
 40
0.6545142380956285
100
AcDbArc
 50
274.3119004389
 51
86.6846873738
  0
ARC
  5
45F
330
1F
100
AcDbEntity
  8
0
  6
Continuous
 62
     7
370
    15
100
AcDbCircle
 10
285.5891285942
 20
188.7284574309
 30
0.0
 40
1.350000000000038
100
AcDbArc
 50
94.3119004389
 51
265.6123234309
  0
ARC
  5
460
330
1F
100
AcDbEntity
  8
0
  6
Continuous
 62
     7
370
    15
100
AcDbCircle
 10
285.4355551574
 20
186.7269647529
 30
0.0
 40
0.6573758344473228
100
AcDbArc
 50
275.3877611732
 51
85.6123234309
  0
ARC
  5
461
330
1F
100
AcDbEntity
  8
0
  6
Continuous
 62
     7
370
    15
100
AcDbCircle
 10
285.6240390189
 20
184.7284574162
 30
0.0
 40
1.350000000000017
100
AcDbArc
 50
95.3877611732
 51
264.5174853148
  0
ARC
  5
462
330
1F
100
AcDbEntity
  8
0
  6
Continuous
 62
     7
370
    15
100
AcDbCircle
 10
285.4319013425
 20
182.7266281647
 30
0.0
 40
0.6610289005896639
100
AcDbArc
 50
276.4825992894
 51
84.5174853148
  0
ARC
  5
463
330
1F
100
AcDbEntity
  8
0
  6
Continuous
 62
     7
370
    15
100
AcDbCircle
 10
285.6589494437
 20
180.7284574015
 30
0.0
 40
1.349999999999984
100
AcDbArc
 50
96.4825992893
 51
263.4034739099
  0
ARC
  5
464
330
1F
100
AcDbEntity
  8
0
  6
Continuous
 62
     7
370
    15
100
AcDbCircle
 10
285.4274131296
 20
178.7262842942
 30
0.0
 40
0.6655163647193881
100
AcDbArc
 50
277.5966106942
 51
83.4034739099
  0
ARC
  5
465
330
1F
100
AcDbEntity
  8
0
  6
Continuous
 62
     7
370
    15
100
AcDbCircle
 10
285.6938598684
 20
176.7284573868
 30
0.0
 40
1.349999999999998
100
AcDbArc
 50
97.5966106942
 51
262.2699972202
  0
ARC
  5
466
330
1F
100
AcDbEntity
  8
0
  6
Continuous
 62
     7
370
    15
100
AcDbCircle
 10
285.4220400467
 20
174.7259327009
 30
0.0
 40
0.6708886988713193
100
AcDbArc
 50
278.7300873839
 51
82.2699972202
  0
ARC
  5
467
330
1F
100
AcDbEntity
  8
0
  6
Continuous
 62
     7
370
    15
100
AcDbCircle
 10
285.7287702932
 20
172.7284573721
 30
0.0
 40
1.350000000000023
100
AcDbArc
 50
98.7300873839
 51
261.1167681891
  0
ARC
  5
468
330
1F
100
AcDbEntity
  8
0
  6
Continuous
 62
     7
370
    15
100
AcDbCircle
 10
285.4157274671
 20
170.7255729081
 30
0.0
 40
0.6772005296360152
100
AcDbArc
 50
279.883316415
 51
81.1167681891
  0
ARC
  5
469
330
1F
100
AcDbEntity
  8
0
  6
Continuous
 62
     7
370
    15
100
AcDbCircle
 10
285.7636807179
 20
168.7284573574
 30
0.0
 40
1.350000000000018
100
AcDbArc
 50
99.883316415
 51
259.9435056674
  0
ARC
  5
46A
330
1F
100
AcDbEntity
  8
0
  6
Continuous
 62
     7
370
    15
100
AcDbCircle
 10
285.4084161733
 20
166.7252043988
 30
0.0
 40
0.6845110746290938
100
AcDbArc
 50
281.0565789368
 51
79.9435056674
  0
ARC
  5
46B
330
1F
100
AcDbEntity
  8
0
  6
Continuous
 62
     7
370
    15
100
AcDbCircle
 10
285.7985911427
 20
164.7284573427
 30
0.0
 40
1.35
100
AcDbArc
 50
101.0565789367
 51
258.7499354481
  0
ARC
  5
46C
330
1F
100
AcDbEntity
  8
0
  6
Continuous
 62
     7
370
    15
100
AcDbCircle
 10
285.400041864
 20
162.724826612
 30
0.0
 40
0.6928846351639494
100
AcDbArc
 50
282.250149156
 51
78.7499354481
  0
ARC
  5
46D
330
1F
100
AcDbEntity
  8
0
  6
Continuous
 62
     7
370
    15
100
AcDbCircle
 10
285.8335015675
 20
160.728457328
 30
0.0
 40
1.349999999999987
100
AcDbArc
 50
102.250149156
 51
257.5357913683
  0
ARC
  5
46E
330
1F
100
AcDbEntity
  8
0
  6
Continuous
 62
     7
370
    15
100
AcDbCircle
 10
285.3905345966
 20
158.7244389372
 30
0.0
 40
0.7023911537650603
100
AcDbArc
 50
283.4642932359
 51
77.5357913683
  0
ARC
  5
46F
330
1F
100
AcDbEntity
  8
0
  6
Continuous
 62
     7
370
    15
100
AcDbCircle
 10
285.8684119922
 20
156.7284573133
 30
0.0
 40
1.350000000000041
100
AcDbArc
 50
103.4642932359
 51
256.3008164789
  0
ARC
  5
470
330
1F
100
AcDbEntity
  8
0
  6
Continuous
 62
     7
370
    15
100
AcDbCircle
 10
285.3798181549
 20
154.7240407092
 30
0.0
 40
0.7131068466951883
100
AcDbArc
 50
284.6992681252
 51
76.300816479
  0
ARC
  5
471
330
1F
100
AcDbEntity
  8
0
  6
Continuous
 62
     7
370
    15
100
AcDbCircle
 10
285.903322417
 20
152.7284572986
 30
0.0
 40
1.350000000000001
100
AcDbArc
 50
104.6992681252
 51
255.0447642848
  0
ARC
  5
472
330
1F
100
AcDbEntity
  8
0
  6
Continuous
 62
     7
370
    15
100
AcDbCircle
 10
285.3678093293
 20
150.7236312017
 30
0.0
 40
0.7251149235410117
100
AcDbArc
 50
285.9553203194
 51
75.0447642848
  0
ARC
  5
473
330
1F
100
AcDbEntity
  8
0
  6
Continuous
 62
     7
370
    15
100
AcDbCircle
 10
285.9382328417
 20
148.7284572839
 30
0.0
 40
1.350000000000026
100
AcDbArc
 50
105.9553203194
 51
253.7674000508
  0
ARC
  5
474
330
1F
100
AcDbEntity
  8
0
  6
Continuous
 62
     7
370
    15
100
AcDbCircle
 10
285.3544170958
 20
146.7232096204
 30
0.0
 40
0.738506408187357
100
AcDbArc
 50
287.2326845533
 51
73.7674000508
  0
ARC
  5
475
330
1F
100
AcDbEntity
  8
0
  6
Continuous
 62
     7
370
    15
100
AcDbCircle
 10
285.9731432665
 20
144.7284572692
 30
0.0
 40
1.350000000000014
100
AcDbArc
 50
107.2326845533
 51
252.4685021807
  0
ARC
  5
476
330
1F
100
AcDbEntity
  8
0
  6
Continuous
 62
     7
370
    15
100
AcDbCircle
 10
285.339541677
 20
142.7227750945
 30
0.0
 40
0.753381078203017
100
AcDbArc
 50
288.5315824234
 51
72.4685021807
  0
ARC
  5
477
330
1F
100
AcDbEntity
  8
0
  6
Continuous
 62
     7
370
    15
100
AcDbCircle
 10
286.0080536913
 20
140.7284572545
 30
0.0
 40
1.350000000000012
100
AcDbArc
 50
108.5315824234
 51
251.1478636606
  0
ARC
  5
478
330
1F
100
AcDbEntity
  8
0
  6
Continuous
 62
     7
370
    15
100
AcDbCircle
 10
285.3230734633
 20
138.7223266673
 30
0.0
 40
0.7698485431034741
100
AcDbArc
 50
289.8522209436
 51
71.1478636606
  0
ARC
  5
479
330
1F
100
AcDbEntity
  8
0
  6
Continuous
 62
     7
370
    15
100
AcDbCircle
 10
286.042964116
 20
136.7284572398
 30
0.0
 40
1.350000000000027
100
AcDbArc
 50
109.8522209436
 51
249.8052935692
  0
ARC
  5
47A
330
1F
100
AcDbEntity
  8
0
  6
Continuous
 62
     7
370
    15
100
AcDbCircle
 10
285.3048917716
 20
134.7218632855
 30
0.0
 40
0.7880294860201837
100
AcDbArc
 50
318.1372298695
 51
69.8052935692
  0
ARC
  5
47B
330
1F
100
AcDbEntity
  8
0
  6
Continuous
 62
     7
370
    15
100
AcDbCircle
 10
286.4716858345
 20
133.6763265782
 30
0.0
 40
0.7786725889139275
100
AcDbArc
 50
138.1372298691
 51
179.9999758693
  0
LINE
  5
47C
330
1F
100
AcDbEntity
  8
0
  6
Continuous
 62
     7
370
    15
100
AcDbLine
 10
285.6930053141
 20
133.6763277366
 30
0.0
 11
285.6930053141
 21
131.7284628465
 31
0.0
  0
ARC
  5
47D
330
1F
100
AcDbEntity
  8
0
  6
Continuous
 62
     7
370
    15
100
AcDbCircle
 10
288.6930124253
 20
131.7284650158
 30
0.0
 40
3.000000000000024
100
AcDbArc
 50
179.9999758696
 51
269.9999892754
  0
LINE
  5
47E
330
1F
100
AcDbEntity
  8
0
  6
Continuous
 62
     7
370
    15
100
AcDbLine
 10
288.6930262949
 20
128.728471668
 30
0.0
 11
292.9429268744
 21
128.7285014703
 31
0.0
  0
ARC
  5
47F
330
1F
100
AcDbEntity
  8
0
  6
Continuous
 62
     7
370
    15
100
AcDbCircle
 10
292.9428965409
 20
132.7285365666
 30
0.0
 40
4.00003471307818
100
AcDbArc
 50
270.0004966342
 51
359.9318548868
  0
ARC
  5
480
330
1F
100
AcDbEntity
  8
0
  6
Continuous
 62
     7
370
    15
100
AcDbCircle
 10
297.9429294652
 20
132.7225897417
 30
0.0
 40
1.000001747656661
100
AcDbArc
 50
126.8737757428
 51
179.9318548868
  0
ARC
  5
481
330
1F
100
AcDbEntity
  8
0
  6
Continuous
 62
     7
370
    15
100
AcDbCircle
 10
296.4426019845
 20
134.7227543491
 30
0.0
 40
1.500326432012405
100
AcDbArc
 50
306.8735459988
 51
53.1263621156
  0
DIMENSION
  5
482
330
1F
100
AcDbEntity
  8
0
  6
Continuous
 62
     7
370
     0
100
AcDbDimension
  2
_D
 10
302.4429284165
 20
103.7285032538
 30
0.0
 11
193.891313825
 21
103.7285032538
 31
0.0
 70
   160
  1
<>
 71
     2
 42
-1.0
  3
SLDDIMSTYLE0
100
AcDbAlignedDimension
 13
102.4429284165
 23
114.2285032538
 33
0.0
 14
302.4429284165
 24
114.2285032538
 34
0.0
 50
0.0
100
AcDbRotatedDimension
  0
DIMENSION
  5
48E
330
1F
100
AcDbEntity
  8
0
  6
Continuous
 62
     7
370
     0
100
AcDbDimension
  2
_D_1
 10
330.4429284165
 20
197.7285032538
 30
0.0
 11
330.4429284165
 21
155.5635896866
 31
0.0
 70
   160
  1
<>
 71
     2
 42
-1.0
  3
SLDDIMSTYLE0
100
AcDbAlignedDimension
 13
301.9429284165
 23
113.7285032538
 33
0.0
 14
301.9429284166
 24
197.7285032538
 34
0.0
 50
90.0
100
AcDbRotatedDimension
  0
DIMENSION
  5
498
330
1F
100
AcDbEntity
  8
0
  6
Continuous
 62
     7
370
     0
100
AcDbDimension
  2
_D_2
 10
318.4429284165
 20
128.7285018537
 30
0.0
 11
318.4429284165
 21
121.1100820087
 31
0.0
 70
   160
  1
<>
 71
     2
 42
-1.0
  3
SLDDIMSTYLE1
100
AcDbAlignedDimension
 13
301.9429284165
 23
113.7285032538
 33
0.0
 14
292.9429312128
 24
128.7285018537
 34
0.0
 50
90.0
100
AcDbRotatedDimension
  0
ENDSEC
  0
SECTION
  2
OBJECTS
  0
DICTIONARY
  5
C
330
0
100
AcDbDictionary
281
     1
  3
ACAD_GROUP
350
D
  3
ACAD_LAYOUT
350
1A
  3
ACAD_MLINESTYLE
350
17
  3
ACAD_PLOTSETTINGS
350
19
  3
ACAD_PLOTSTYLENAME
350
E
  0
DICTIONARY
  5
D
102
{ACAD_REACTORS
330
C
102
}
330
C
100
AcDbDictionary
281
     1
  0
DICTIONARY
  5
1A
102
{ACAD_REACTORS
330
C
102
}
330
C
100
AcDbDictionary
281
     1
  3
Layout1
350
1E
  3
Layout2
350
26
  3
Model
350
22
  0
DICTIONARY
  5
17
102
{ACAD_REACTORS
330
C
102
}
330
C
100
AcDbDictionary
281
     1
  3
Standard
350
18
  0
DICTIONARY
  5
19
102
{ACAD_REACTORS
330
C
102
}
330
C
100
AcDbDictionary
281
     1
  0
ACDBDICTIONARYWDFLT
  5
E
102
{ACAD_REACTORS
330
C
102
}
330
C
100
AcDbDictionary
281
     1
  3
Normal
350
F
100
AcDbDictionaryWithDefault
340
F
  0
LAYOUT
  5
1E
102
{ACAD_REACTORS
330
1A
102
}
330
1A
100
AcDbPlotSettings
  1

  2
none_device
  4

  6

 40
0.0
 41
0.0
 42
0.0
 43
0.0
 44
0.0
 45
0.0
 46
0.0
 47
0.0
 48
0.0
 49
0.0
140
0.0
141
0.0
142
1.0
143
1.0
 70
   688
 72
     0
 73
     0
 74
     5
  7

 75
    16
147
1.0
148
0.0
149
0.0
100
AcDbLayout
  1
Layout1
 70
     1
 71
     1
 10
0.0
 20
0.0
 11
420.0
 21
297.0
 12
0.0
 22
0.0
 32
0.0
 14
1.0000000000E+20
 24
1.0000000000E+20
 34
1.0000000000E+20
 15
-1.0000000000E+20
 25
-1.0000000000E+20
 35
-1.0000000000E+20
146
0.0
 13
0.0
 23
0.0
 33
0.0
 16
1.0
 26
0.0
 36
0.0
 17
0.0
 27
1.0
 37
0.0
 76
     0
330
1B
  0
LAYOUT
  5
26
102
{ACAD_REACTORS
330
1A
102
}
330
1A
100
AcDbPlotSettings
  1

  2
none_device
  4

  6

 40
0.0
 41
0.0
 42
0.0
 43
0.0
 44
0.0
 45
0.0
 46
0.0
 47
0.0
 48
0.0
 49
0.0
140
0.0
141
0.0
142
1.0
143
1.0
 70
   688
 72
     0
 73
     0
 74
     5
  7

 75
    16
147
1.0
148
0.0
149
0.0
100
AcDbLayout
  1
Layout2
 70
     1
 71
     2
 10
0.0
 20
0.0
 11
0.0
 21
0.0
 12
0.0
 22
0.0
 32
0.0
 14
0.0
 24
0.0
 34
0.0
 15
0.0
 25
0.0
 35
0.0
146
0.0
 13
0.0
 23
0.0
 33
0.0
 16
1.0
 26
0.0
 36
0.0
 17
0.0
 27
1.0
 37
0.0
 76
     0
330
23
  0
LAYOUT
  5
22
102
{ACAD_REACTORS
330
1A
102
}
330
1A
100
AcDbPlotSettings
  1

  2
none_device
  4

  6

 40
0.0
 41
0.0
 42
0.0
 43
0.0
 44
0.0
 45
0.0
 46
0.0
 47
0.0
 48
0.0
 49
0.0
140
0.0
141
0.0
142
1.0
143
1.0
 70
  1712
 72
     0
 73
     0
 74
     0
  7

 75
     0
147
1.0
148
0.0
149
0.0
100
AcDbLayout
  1
Model
 70
     1
 71
     0
 10
0.0
 20
0.0
 11
420.0
 21
297.0
 12
0.0
 22
0.0
 32
0.0
 14
0.0
 24
0.0
 34
0.0
 15
420.0
 25
297.0
 35
0.0
146
0.0
 13
0.0
 23
0.0
 33
0.0
 16
1.0
 26
0.0
 36
0.0
 17
0.0
 27
1.0
 37
0.0
 76
     0
330
1F
331
29
  0
MLINESTYLE
  5
18
102
{ACAD_REACTORS
330
17
102
}
330
17
100
AcDbMlineStyle
  2
Standard
 70
     0
  3

 62
   256
 51
90.0
 52
90.0
 71
     2
 49
0.5
 62
   256
  6
BYLAYER
 49
-0.5
 62
   256
  6
BYLAYER
  0
ACDBPLACEHOLDER
  5
F
102
{ACAD_REACTORS
330
E
102
}
330
E
  0
ENDSEC
  0
EOF
