  0
SECTION
  2
HEADER
  9
$ACADVER
  1
AC1015
  9
$ACADMAINTVER
 70
     6
  9
$DWGCODEPAGE
  3
ANSI_1252
  9
$INSBASE
 10
0.0
 20
0.0
 30
0.0
  9
$EXTMIN
 10
0.0
 20
0.0
 30
0.0
  9
$EXTMAX
 10
420.0
 20
297.0
 30
0.0
  9
$LIMMIN
 10
0.0
 20
0.0
  9
$LIMMAX
 10
420.0
 20
297.0
  9
$ORTHOMODE
 70
     0
  9
$REGENMODE
 70
     1
  9
$FILLMODE
 70
     1
  9
$QTEXTMODE
 70
     0
  9
$MIRRTEXT
 70
     1
  9
$LTSCALE
 40
1.0
  9
$ATTMODE
 70
     1
  9
$TEXTSIZE
 40
3.5
  9
$TRACEWID
 40
1.0
  9
$TEXTSTYLE
  7
Standard
  9
$CLAYER
  8
0
  9
$CELTYPE
  6
ByLayer
  9
$CECOLOR
 62
   256
  9
$CELTSCALE
 40
1.0
  9
$DISPSILH
 70
     0
  9
$DIMSCALE
 40
1.0
  9
$DIMASZ
 40
3.302
  9
$DIMEXO
 40
1.0
  9
$DIMDLI
 40
3.75
  9
$DIMRND
 40
0.0
  9
$DIMDLE
 40
0.0
  9
$DIMEXE
 40
1.0
  9
$DIMTP
 40
0.0
  9
$DIMTM
 40
0.0
  9
$DIMTXT
 40
3.5
  9
$DIMCEN
 40
2.5
  9
$DIMTSZ
 40
0.0
  9
$DIMTOL
 70
     0
  9
$DIMLIM
 70
     0
  9
$DIMTIH
 70
     1
  9
$DIMTOH
 70
     1
  9
$DIMSE1
 70
     0
  9
$DIMSE2
 70
     0
  9
$DIMTAD
 70
     1
  9
$DIMZIN
 70
     0
  9
$DIMBLK
  1

  9
$DIMASO
 70
     1
  9
$DIMSHO
 70
     1
  9
$DIMPOST
  1

  9
$DIMAPOST
  1

  9
$DIMALT
 70
     0
  9
$DIMALTD
 70
     3
  9
$DIMALTF
 40
0.0393700787
  9
$DIMLFAC
 40
1.0
  9
$DIMTOFL
 70
     1
  9
$DIMTVP
 40
0.0
  9
$DIMTIX
 70
     0
  9
$DIMSOXD
 70
     0
  9
$DIMSAH
 70
     0
  9
$DIMBLK1
  1

  9
$DIMBLK2
  1

  9
$DIMSTYLE
  2
ISO-25
  9
$DIMCLRD
 70
     0
  9
$DIMCLRE
 70
     0
  9
$DIMCLRT
 70
     0
  9
$DIMTFAC
 40
1.0
  9
$DIMGAP
 40
1.524
  9
$DIMJUST
 70
     0
  9
$DIMSD1
 70
     0
  9
$DIMSD2
 70
     0
  9
$DIMTOLJ
 70
     0
  9
$DIMTZIN
 70
     0
  9
$DIMALTZ
 70
     0
  9
$DIMALTTZ
 70
     0
  9
$DIMUPT
 70
     0
  9
$DIMDEC
 70
     2
  9
$DIMTDEC
 70
     2
  9
$DIMALTU
 70
     2
  9
$DIMALTTD
 70
     3
  9
$DIMTXSTY
  7
Standard
  9
$DIMAUNIT
 70
     0
  9
$DIMADEC
 70
     2
  9
$DIMALTRND
 40
0.0
  9
$DIMAZIN
 70
     0
  9
$DIMDSEP
 70
    44
  9
$DIMATFIT
 70
     3
  9
$DIMFRAC
 70
     0
  9
$DIMLDRBLK
  1

  9
$DIMLUNIT
 70
     2
  9
$DIMLWD
 70
    -2
  9
$DIMLWE
 70
    -2
  9
$DIMTMOVE
 70
     0
  9
$LUNITS
 70
     2
  9
$LUPREC
 70
     2
  9
$SKETCHINC
 40
1.0
  9
$FILLETRAD
 40
10.0
  9
$AUNITS
 70
     0
  9
$AUPREC
 70
     2
  9
$MENU
  1
.
  9
$ELEVATION
 40
0.0
  9
$PELEVATION
 40
0.0
  9
$THICKNESS
 40
0.0
  9
$LIMCHECK
 70
     0
  9
$CHAMFERA
 40
10.0
  9
$CHAMFERB
 40
10.0
  9
$CHAMFERC
 40
20.0
  9
$CHAMFERD
 40
0.0
  9
$SKPOLY
 70
     0
  9
$TDCREATE
 40
2456457.81139287
  9
$TDUCREATE
 40
2456457.728059537
  9
$TDUPDATE
 40
2456457.811393588
  9
$TDUUPDATE
 40
2456457.728060255
  9
$TDINDWG
 40
0.0000000116
  9
$TDUSRTIMER
 40
0.0000000116
  9
$USRTIMER
 70
     1
  9
$ANGBASE
 50
0.0
  9
$ANGDIR
 70
     0
  9
$PDMODE
 70
     0
  9
$PDSIZE
 40
-1.0
  9
$PLINEWID
 40
0.0
  9
$SPLFRAME
 70
     0
  9
$SPLINETYPE
 70
     6
  9
$SPLINESEGS
 70
     8
  9
$HANDSEED
  5
4DD
  9
$SURFTAB1
 70
     6
  9
$SURFTAB2
 70
     6
  9
$SURFTYPE
 70
     6
  9
$SURFU
 70
     6
  9
$SURFV
 70
     6
  9
$UCSBASE
  2

  9
$UCSNAME
  2

  9
$UCSORG
 10
0.0
 20
0.0
 30
0.0
  9
$UCSXDIR
 10
1.0
 20
0.0
 30
0.0
  9
$UCSYDIR
 10
0.0
 20
1.0
 30
0.0
  9
$UCSORTHOREF
  2

  9
$UCSORTHOVIEW
 70
     0
  9
$UCSORGTOP
 10
0.0
 20
0.0
 30
0.0
  9
$UCSORGBOTTOM
 10
0.0
 20
0.0
 30
0.0
  9
$UCSORGLEFT
 10
0.0
 20
0.0
 30
0.0
  9
$UCSORGRIGHT
 10
0.0
 20
0.0
 30
0.0
  9
$UCSORGFRONT
 10
0.0
 20
0.0
 30
0.0
  9
$UCSORGBACK
 10
0.0
 20
0.0
 30
0.0
  9
$PUCSBASE
  2

  9
$PUCSNAME
  2

  9
$PUCSORG
 10
0.0
 20
0.0
 30
0.0
  9
$PUCSXDIR
 10
1.0
 20
0.0
 30
0.0
  9
$PUCSYDIR
 10
0.0
 20
1.0
 30
0.0
  9
$PUCSORTHOREF
  2

  9
$PUCSORTHOVIEW
 70
     0
  9
$PUCSORGTOP
 10
0.0
 20
0.0
 30
0.0
  9
$PUCSORGBOTTOM
 10
0.0
 20
0.0
 30
0.0
  9
$PUCSORGLEFT
 10
0.0
 20
0.0
 30
0.0
  9
$PUCSORGRIGHT
 10
0.0
 20
0.0
 30
0.0
  9
$PUCSORGFRONT
 10
0.0
 20
0.0
 30
0.0
  9
$PUCSORGBACK
 10
0.0
 20
0.0
 30
0.0
  9
$USERI1
 70
     0
  9
$USERI2
 70
     0
  9
$USERI3
 70
     0
  9
$USERI4
 70
     0
  9
$USERI5
 70
     0
  9
$USERR1
 40
0.0
  9
$USERR2
 40
0.0
  9
$USERR3
 40
0.0
  9
$USERR4
 40
0.0
  9
$USERR5
 40
0.0
  9
$WORLDVIEW
 70
     1
  9
$SHADEDGE
 70
     3
  9
$SHADEDIF
 70
    70
  9
$TILEMODE
 70
     1
  9
$MAXACTVP
 70
    64
  9
$PINSBASE
 10
0.0
 20
0.0
 30
0.0
  9
$PLIMCHECK
 70
     0
  9
$PEXTMIN
 10
1.0000000000E+20
 20
1.0000000000E+20
 30
1.0000000000E+20
  9
$PEXTMAX
 10
-1.0000000000E+20
 20
-1.0000000000E+20
 30
-1.0000000000E+20
  9
$PLIMMIN
 10
0.0
 20
0.0
  9
$PLIMMAX
 10
420.0
 20
297.0
  9
$UNITMODE
 70
     0
  9
$VISRETAIN
 70
     1
  9
$PLINEGEN
 70
     0
  9
$PSLTSCALE
 70
     1
  9
$TREEDEPTH
 70
  3020
  9
$CMLSTYLE
  2
Standard
  9
$CMLJUST
 70
     0
  9
$CMLSCALE
 40
20.0
  9
$PROXYGRAPHICS
 70
     1
  9
$MEASUREMENT
 70
     1
  9
$CELWEIGHT
370
    -1
  9
$ENDCAPS
280
     0
  9
$JOINSTYLE
280
     0
  9
$LWDISPLAY
290
     1
  9
$INSUNITS
 70
     4
  9
$HYPERLINKBASE
  1

  9
$STYLESHEET
  1

  9
$XEDIT
290
     1
  9
$CEPSNTYPE
380
     0
  9
$PSTYLEMODE
290
     1
  9
$FINGERPRINTGUID
  2
{602FB63C-0524-43CE-B4F4-ED104FC86620}
  9
$VERSIONGUID
  2
{FAEB1C32-E019-11D5-929B-00C0DF256EC4}
  9
$EXTNAMES
290
     1
  9
$PSVPSCALE
 40
0.0
  9
$OLESTARTUP
290
     0
  0
ENDSEC
  0
SECTION
  2
CLASSES
  0
CLASS
  1
ACDBDICTIONARYWDFLT
  2
AcDbDictionaryWithDefault
  3
ObjectDBX Classes
 90
        0
280
     0
281
     0
  0
CLASS
  1
VISUALSTYLE
  2
AcDbVisualStyle
  3
ObjectDBX Classes
 90
     4095
280
     0
281
     0
  0
CLASS
  1
MATERIAL
  2
AcDbMaterial
  3
ObjectDBX Classes
 90
     1153
280
     0
281
     0
  0
CLASS
  1
ACDBPLACEHOLDER
  2
AcDbPlaceHolder
  3
ObjectDBX Classes
 90
        0
280
     0
281
     0
  0
CLASS
  1
LAYOUT
  2
AcDbLayout
  3
ObjectDBX Classes
 90
        0
280
     0
281
     0
  0
ENDSEC
  0
SECTION
  2
TABLES
  0
TABLE
  2
VPORT
  5
8
330
0
100
AcDbSymbolTable
 70
     1
  0
VPORT
  5
29
330
8
100
AcDbSymbolTableRecord
100
AcDbViewportTableRecord
  2
*Active
 70
     0
 10
0.0
 20
0.0
 11
1.0
 21
1.0
 12
210.0
 22
148.5
 13
0.0
 23
0.0
 14
10.0
 24
10.0
 15
10.0
 25
10.0
 16
0.0
 26
0.0
 36
1.0
 17
0.0
 27
0.0
 37
0.0
 40
297.0
 41
1.4141414141
 42
50.0
 43
0.0
 44
0.0
 50
0.0
 51
0.0
 71
     0
 72
  2000
 73
     1
 74
     3
 75
     0
 76
     0
 77
     0
 78
     0
281
     0
 65
     1
110
0.0
120
0.0
130
0.0
111
1.0
121
0.0
131
0.0
112
0.0
122
1.0
132
0.0
 79
     0
146
0.0
  0
ENDTAB
  0
TABLE
  2
LTYPE
  5
5
330
0
100
AcDbSymbolTable
 70
     6
  0
LTYPE
  5
14
330
5
100
AcDbSymbolTableRecord
100
AcDbLinetypeTableRecord
  2
ByBlock
 70
     0
  3

 72
    65
 73
     0
 40
0.0
  0
LTYPE
  5
15
330
5
100
AcDbSymbolTableRecord
100
AcDbLinetypeTableRecord
  2
ByLayer
 70
     0
  3

 72
    65
 73
     0
 40
0.0
  0
LTYPE
  5
16
330
5
100
AcDbSymbolTableRecord
100
AcDbLinetypeTableRecord
  2
Continuous
 70
     0
  3
Solid line
 72
    65
 73
     0
 40
0.0
  0
LTYPE
  5
3F
330
5
100
AcDbSymbolTableRecord
100
AcDbLinetypeTableRecord
  2
HIDDEN
 70
     0
  3
Hidden __ __ __ __ __ __ __ __ __ __ __ __ __ __
 72
    65
 73
     2
 40
1.905
 49
1.27
 74
     0
 49
-0.635
 74
     0
  0
LTYPE
  5
40
330
5
100
AcDbSymbolTableRecord
100
AcDbLinetypeTableRecord
  2
PHANTOM
 70
     0
  3
Phantom ______  __  __  ______  __  __  ______
 72
    65
 73
     6
 40
12.7
 49
6.35
 74
     0
 49
-1.27
 74
     0
 49
1.27
 74
     0
 49
-1.27
 74
     0
 49
1.27
 74
     0
 49
-1.27
 74
     0
  0
LTYPE
  5
41
330
5
100
AcDbSymbolTableRecord
100
AcDbLinetypeTableRecord
  2
CENTER
 70
     0
  3
Center ____ _ ____ _ ____ _ ____ _ ____ _ ____
 72
    65
 73
     4
 40
10.16
 49
6.35
 74
     0
 49
-1.27
 74
     0
 49
1.27
 74
     0
 49
-1.27
 74
     0
  0
LTYPE
  5
42
330
5
100
AcDbSymbolTableRecord
100
AcDbLinetypeTableRecord
  2
CENTERX2
 70
     0
  3
Center (2x) ________  __  ________  __  _____
 72
    65
 73
     4
 40
20.32
 49
12.7
 74
     0
 49
-2.54
 74
     0
 49
2.54
 74
     0
 49
-2.54
 74
     0
  0
LTYPE
  5
43
330
5
100
AcDbSymbolTableRecord
100
AcDbLinetypeTableRecord
  2
DOT2
 70
     0
  3
Dot (.5x) ........................................
 72
    65
 73
     2
 40
0.635
 49
0.0
 74
     0
 49
-0.635
 74
     0
  0
ENDTAB
  0
TABLE
  2
LAYER
  5
2
330
0
100
AcDbSymbolTable
 70
     1
  0
LAYER
  5
10
330
2
100
AcDbSymbolTableRecord
100
AcDbLayerTableRecord
  2
0
 70
     0
 62
     7
  6
Continuous
370
    -3
390
F
  0
ENDTAB
  0
TABLE
  2
STYLE
  5
3
330
0
100
AcDbSymbolTable
 70
     2
  0
STYLE
  5
11
330
3
100
AcDbSymbolTableRecord
100
AcDbTextStyleTableRecord
  2
Standard
 70
     0
 40
0.0
 41
1.0
 50
0.0
 71
     0
 42
3.5
  3
txt
  4

  0
STYLE
  5
4BB
330
3
100
AcDbSymbolTableRecord
100
AcDbTextStyleTableRecord
  2
SLDTEXTSTYLE0
 70
     0
 40
0.0
 41
0.75
 50
0.0
 71
     0
 42
0.2
  3
TXT
  4

  0
ENDTAB
  0
TABLE
  2
VIEW
  5
6
330
0
100
AcDbSymbolTable
 70
     0
  0
ENDTAB
  0
TABLE
  2
UCS
  5
7
330
0
100
AcDbSymbolTable
 70
     0
  0
ENDTAB
  0
TABLE
  2
APPID
  5
9
330
0
100
AcDbSymbolTable
 70
     1
  0
APPID
  5
12
330
9
100
AcDbSymbolTableRecord
100
AcDbRegAppTableRecord
  2
ACAD
 70
     0
  0
ENDTAB
  0
TABLE
  2
DIMSTYLE
  5
A
330
0
100
AcDbSymbolTable
 70
     3
100
AcDbDimStyleTable
  0
DIMSTYLE
105
27
330
A
100
AcDbSymbolTableRecord
100
AcDbDimStyleTableRecord
  2
ISO-25
 70
     0
 41
2.5
 42
0.625
 43
3.75
 44
1.25
 73
     0
 74
     0
 77
     1
 78
     8
140
2.5
141
2.5
143
0.0393700787
147
0.625
171
     3
172
     1
178
     0
271
     2
272
     2
274
     3
278
    44
283
     0
284
     8
340
11
  0
DIMSTYLE
105
4BC
102
{ACAD_REACTORS
330
4BA
330
4D3
102
}
330
A
100
AcDbSymbolTableRecord
100
AcDbDimStyleTableRecord
  2
SLDDIMSTYLE0
 70
     0
 41
3.302
 44
0.0
 45
0.000000001
 73
     0
 74
     0
 77
     1
 78
    12
 79
     3
140
3.5
147
0.875
173
     1
178
     0
271
     2
272
     2
276
     2
284
    12
340
4BB
  0
DIMSTYLE
105
4C7
102
{ACAD_REACTORS
330
4C6
102
}
330
A
100
AcDbSymbolTableRecord
100
AcDbDimStyleTableRecord
  2
SLDDIMSTYLE1
 70
     0
 41
3.302
 44
0.0
 45
0.000000001
 73
     0
 74
     0
 77
     1
 78
    12
 79
     3
140
3.5
147
0.875
172
     1
173
     1
178
     0
271
     2
272
     2
276
     2
284
    12
289
     0
340
4BB
  0
ENDTAB
  0
TABLE
  2
BLOCK_RECORD
  5
1
330
0
100
AcDbSymbolTable
 70
     4
  0
BLOCK_RECORD
  5
1F
330
1
100
AcDbSymbolTableRecord
100
AcDbBlockTableRecord
  2
*Model_Space
340
22
  0
BLOCK_RECORD
  5
1B
330
1
100
AcDbSymbolTableRecord
100
AcDbBlockTableRecord
  2
*Paper_Space
340
1E
  0
BLOCK_RECORD
  5
23
330
1
100
AcDbSymbolTableRecord
100
AcDbBlockTableRecord
  2
*Paper_Space0
340
26
  0
BLOCK_RECORD
  5
4BD
330
1
100
AcDbSymbolTableRecord
100
AcDbBlockTableRecord
  2
_D
340
0
  0
BLOCK_RECORD
  5
4C8
330
1
100
AcDbSymbolTableRecord
100
AcDbBlockTableRecord
  2
_D_1
340
0
  0
BLOCK_RECORD
  5
4D4
330
1
100
AcDbSymbolTableRecord
100
AcDbBlockTableRecord
  2
_D_2
340
0
  0
ENDTAB
  0
ENDSEC
  0
SECTION
  2
BLOCKS
  0
BLOCK
  5
20
330
1F
100
AcDbEntity
  8
0
100
AcDbBlockBegin
  2
*Model_Space
 70
     0
 10
0.0
 20
0.0
 30
0.0
  3
*Model_Space
  1

  0
ENDBLK
  5
21
330
1F
100
AcDbEntity
  8
0
100
AcDbBlockEnd
  0
BLOCK
  5
1C
330
1B
100
AcDbEntity
 67
     1
  8
0
100
AcDbBlockBegin
  2
*Paper_Space
 70
     0
 10
0.0
 20
0.0
 30
0.0
  3
*Paper_Space
  1

  0
ENDBLK
  5
1D
330
1B
100
AcDbEntity
 67
     1
  8
0
100
AcDbBlockEnd
  0
BLOCK
  5
24
330
23
100
AcDbEntity
  8
0
100
AcDbBlockBegin
  2
*Paper_Space0
 70
     0
 10
0.0
 20
0.0
 30
0.0
  3
*Paper_Space0
  1

  0
ENDBLK
  5
25
330
23
100
AcDbEntity
  8
0
100
AcDbBlockEnd
  0
BLOCK
  5
4BE
330
4BD
100
AcDbEntity
  8
0
100
AcDbBlockBegin
  2
_D
 70
     0
 10
0.0
 20
0.0
 30
0.0
  3
_D
  1

  0
SOLID
  5
4C0
330
4BD
100
AcDbEntity
  8
0
  6
Continuous
 62
     7
370
     0
100
AcDbTrace
 10
153.1852668213
 20
137.8081151549
 30
0.0
 11
156.4872668213
 21
137.3001151549
 31
0.0
 12
156.4872668213
 22
138.3161151549
 32
0.0
 13
156.4872668213
 23
138.3161151549
 33
0.0
  0
SOLID
  5
4C1
330
4BD
100
AcDbEntity
  8
0
  6
Continuous
 62
     7
370
     0
100
AcDbTrace
 10
235.1852668213
 20
137.8081151549
 30
0.0
 11
231.8832668213
 21
138.3161151549
 31
0.0
 12
231.8832668213
 22
137.3001151549
 32
0.0
 13
231.8832668213
 23
137.3001151549
 33
0.0
  0
LINE
  5
4C2
330
4BD
100
AcDbEntity
  8
0
  6
Continuous
 62
     7
370
     0
100
AcDbLine
 10
153.1852668213
 20
150.7747527842
 30
0.0
 11
153.1852668213
 21
136.8081151549
 31
0.0
  0
LINE
  5
4C3
330
4BD
100
AcDbEntity
  8
0
  6
Continuous
 62
     7
370
     0
100
AcDbLine
 10
235.1852668213
 20
150.7747527842
 30
0.0
 11
235.1852668213
 21
136.8081151549
 31
0.0
  0
LINE
  5
4C4
330
4BD
100
AcDbEntity
  8
0
  6
Continuous
 62
     7
370
     0
100
AcDbLine
 10
153.1852668213
 20
137.8081151549
 30
0.0
 11
235.1852668213
 21
137.8081151549
 31
0.0
  0
MTEXT
  5
4C5
330
4BD
100
AcDbEntity
  8
0
  6
Continuous
 62
     7
370
     0
100
AcDbMText
 10
187.6555023718
 20
142.3198520695
 30
-49.9
 40
3.5
 41
0.0
 71
     1
 72
     1
  1
82
  7
SLDTEXTSTYLE0
 73
     1
 44
1.0
  0
ENDBLK
  5
4BF
330
4BD
100
AcDbEntity
  8
0
100
AcDbBlockEnd
  0
BLOCK
  5
4C9
330
4C8
100
AcDbEntity
  8
0
100
AcDbBlockBegin
  2
_D_1
 70
     0
 10
0.0
 20
0.0
 30
0.0
  3
_D_1
  1

  0
SOLID
  5
4CB
330
4C8
100
AcDbEntity
  8
0
  6
Continuous
 62
     7
370
     0
100
AcDbTrace
 10
246.4049293061
 20
156.4897528324
 30
0.0
 11
246.9129293061
 21
159.7917528324
 31
0.0
 12
245.8969293061
 22
159.7917528324
 32
0.0
 13
245.8969293061
 23
159.7917528324
 33
0.0
  0
SOLID
  5
4CC
330
4C8
100
AcDbEntity
  8
0
  6
Continuous
 62
     7
370
     0
100
AcDbTrace
 10
246.4049293061
 20
150.7747527842
 30
0.0
 11
245.8969293061
 21
147.4727527842
 31
0.0
 12
246.9129293061
 22
147.4727527842
 32
0.0
 13
246.9129293061
 23
147.4727527842
 33
0.0
  0
LINE
  5
4CD
330
4C8
100
AcDbEntity
  8
0
  6
Continuous
 62
     7
370
     0
100
AcDbLine
 10
231.2852712498
 20
156.4897528324
 30
0.0
 11
247.4049293061
 21
156.4897528324
 31
0.0
  0
LINE
  5
4CE
330
4C8
100
AcDbEntity
  8
0
  6
Continuous
 62
     7
370
     0
100
AcDbLine
 10
235.1852668213
 20
150.7747527842
 30
0.0
 11
247.4049293061
 21
150.7747527842
 31
0.0
  0
LINE
  5
4CF
330
4C8
100
AcDbEntity
  8
0
  6
Continuous
 62
     7
370
     0
100
AcDbLine
 10
246.4049293061
 20
156.4897528324
 30
0.0
 11
246.4049293061
 21
170.2313210695
 31
0.0
  0
LINE
  5
4D0
330
4C8
100
AcDbEntity
  8
0
  6
Continuous
 62
     7
370
     0
100
AcDbLine
 10
246.4049293061
 20
156.4897528324
 30
0.0
 11
246.4049293061
 21
150.7747527842
 31
0.0
  0
LINE
  5
4D1
330
4C8
100
AcDbEntity
  8
0
  6
Continuous
 62
     7
370
     0
100
AcDbLine
 10
246.4049293061
 20
150.7747527842
 30
0.0
 11
246.4049293061
 21
144.4247527842
 31
0.0
  0
MTEXT
  5
4D2
330
4C8
100
AcDbEntity
  8
0
  6
Continuous
 62
     7
370
     0
100
AcDbMText
 10
241.8931923916
 20
158.3361822991
 30
-49.9
 40
3.5
 41
0.0
 71
     1
 72
     1
  1
5,72
  7
SLDTEXTSTYLE0
 11
-1.414962237524464E-14
 21
1.0
 31
0.0
 73
     1
 44
1.0
  0
ENDBLK
  5
4CA
330
4C8
100
AcDbEntity
  8
0
100
AcDbBlockEnd
  0
BLOCK
  5
4D5
330
4D4
100
AcDbEntity
  8
0
100
AcDbBlockBegin
  2
_D_2
 70
     0
 10
0.0
 20
0.0
 30
0.0
  3
_D_2
  1

  0
SOLID
  5
4D7
330
4D4
100
AcDbEntity
  8
0
  6
Continuous
 62
     7
370
     0
100
AcDbTrace
 10
143.1852668213
 20
150.7747527842
 30
0.0
 11
143.6932668213
 21
154.0767527842
 31
0.0
 12
142.6772668213
 22
154.0767527842
 32
0.0
 13
142.6772668213
 23
154.0767527842
 33
0.0
  0
SOLID
  5
4D8
330
4D4
100
AcDbEntity
  8
0
  6
Continuous
 62
     7
370
     0
100
AcDbTrace
 10
143.1852668213
 20
182.7747527842
 30
0.0
 11
142.6772668213
 21
179.4727527842
 31
0.0
 12
143.6932668213
 22
179.4727527842
 32
0.0
 13
143.6932668213
 23
179.4727527842
 33
0.0
  0
LINE
  5
4D9
330
4D4
100
AcDbEntity
  8
0
  6
Continuous
 62
     7
370
     0
100
AcDbLine
 10
153.1852668213
 20
150.7747527842
 30
0.0
 11
142.1852668213
 21
150.7747527842
 31
0.0
  0
LINE
  5
4DA
330
4D4
100
AcDbEntity
  8
0
  6
Continuous
 62
     7
370
     0
100
AcDbLine
 10
152.8852668213
 20
182.7747527842
 30
0.0
 11
142.1852668213
 21
182.7747527842
 31
0.0
  0
LINE
  5
4DB
330
4D4
100
AcDbEntity
  8
0
  6
Continuous
 62
     7
370
     0
100
AcDbLine
 10
143.1852668213
 20
150.7747527842
 30
0.0
 11
143.1852668213
 21
182.7747527842
 31
0.0
  0
MTEXT
  5
4DC
330
4D4
100
AcDbEntity
  8
0
  6
Continuous
 62
     7
370
     0
100
AcDbMText
 10
138.6735299068
 20
162.8537907973
 30
-49.9
 40
3.5
 41
0.0
 71
     1
 72
     1
  1
32
  7
SLDTEXTSTYLE0
 11
-7.044195017643634E-15
 21
1.0
 31
0.0
 73
     1
 44
1.0
  0
ENDBLK
  5
4D6
330
4D4
100
AcDbEntity
  8
0
100
AcDbBlockEnd
  0
ENDSEC
  0
SECTION
  2
ENTITIES
  0
LINE
  5
44
330
1F
100
AcDbEntity
  8
0
  6
Continuous
 62
     7
370
    15
100
AcDbLine
 10
154.1852637091
 20
150.7747564862
 30
0.0
 11
234.1852656462
 21
150.7747564862
 31
0.0
  0
ARC
  5
45
330
1F
100
AcDbEntity
  8
0
  6
Continuous
 62
     7
370
    15
100
AcDbCircle
 10
154.1852668213
 20
151.7747527842
 30
0.0
 40
1.0
100
AcDbArc
 50
180.0
 51
270.0
  0
LINE
  5
46
330
1F
100
AcDbEntity
  8
0
  6
Continuous
 62
     7
370
    15
100
AcDbLine
 10
153.1852616825
 20
182.074749882
 30
0.0
 11
153.1852616825
 21
151.7747585128
 31
0.0
  0
ARC
  5
47
330
1F
100
AcDbEntity
  8
0
  6
Continuous
 62
     7
370
    15
100
AcDbCircle
 10
153.8852668213
 20
182.0747527842
 30
0.0
 40
0.7000000000000455
100
AcDbArc
 50
90.0
 51
180.0
  0
LINE
  5
48
330
1F
100
AcDbEntity
  8
0
  6
Continuous
 62
     7
370
    15
100
AcDbLine
 10
154.2852654019
 20
182.7747468302
 30
0.0
 11
153.8852735319
 21
182.7747468302
 31
0.0
  0
ARC
  5
49
330
1F
100
AcDbEntity
  8
0
  6
Continuous
 62
     7
370
    15
100
AcDbCircle
 10
154.2852668213
 20
182.0747527842
 30
0.0
 40
0.700000000000017
100
AcDbArc
 50
0.0
 51
90.0
  0
LINE
  5
4A
330
1F
100
AcDbEntity
  8
0
  6
Continuous
 62
     7
370
    15
100
AcDbLine
 10
154.9852623501
 20
173.3120028327
 30
0.0
 11
154.9852623501
 21
182.074749882
 31
0.0
  0
ARC
  5
4B
330
1F
100
AcDbEntity
  8
0
  6
Continuous
 62
     7
370
    15
100
AcDbCircle
 10
155.0852668213
 20
173.312000513
 30
0.0
 40
0.1000000000000796
100
AcDbArc
 50
180.0
 51
240.0
  0
LINE
  5
4C
330
1F
100
AcDbEntity
  8
0
  6
Continuous
 62
     7
370
    15
100
AcDbLine
 10
155.3602649727
 20
173.0377618621
 30
0.0
 11
155.0352706471
 21
173.2253972838
 31
0.0
  0
ARC
  5
4D
330
1F
100
AcDbEntity
  8
0
  6
Continuous
 62
     7
370
    15
100
AcDbCircle
 10
155.2352668213
 20
172.8212527842
 30
0.0
 40
0.2500000000000385
100
AcDbArc
 50
300.0
 51
60.0
  0
LINE
  5
4E
330
1F
100
AcDbEntity
  8
0
  6
Continuous
 62
     7
370
    15
100
AcDbLine
 10
155.0352706471
 20
172.4171135972
 30
0.0
 11
155.3602649727
 21
172.6047490189
 31
0.0
  0
ARC
  5
4F
330
1F
100
AcDbEntity
  8
0
  6
Continuous
 62
     7
370
    15
100
AcDbCircle
 10
155.0852668213
 20
172.3305050554
 30
0.0
 40
0.1000000000000483
100
AcDbArc
 50
120.0
 51
240.0
  0
LINE
  5
50
330
1F
100
AcDbEntity
  8
0
  6
Continuous
 62
     7
370
    15
100
AcDbLine
 10
155.3602649727
 20
172.0562670777
 30
0.0
 11
155.0352706471
 21
172.2439024995
 31
0.0
  0
ARC
  5
51
330
1F
100
AcDbEntity
  8
0
  6
Continuous
 62
     7
370
    15
100
AcDbCircle
 10
155.2352668213
 20
171.8397573266
 30
0.0
 40
0.2499999999999883
100
AcDbArc
 50
300.0
 51
60.0
  0
LINE
  5
52
330
1F
100
AcDbEntity
  8
0
  6
Continuous
 62
     7
370
    15
100
AcDbLine
 10
155.0352706471
 20
171.4356188128
 30
0.0
 11
155.3602649727
 21
171.6232542346
 31
0.0
  0
ARC
  5
53
330
1F
100
AcDbEntity
  8
0
  6
Continuous
 62
     7
370
    15
100
AcDbCircle
 10
155.0852668213
 20
171.3490095978
 30
0.0
 40
0.1000000000000199
100
AcDbArc
 50
120.0
 51
240.0
  0
LINE
  5
54
330
1F
100
AcDbEntity
  8
0
  6
Continuous
 62
     7
370
    15
100
AcDbLine
 10
155.3602649727
 20
171.0747722933
 30
0.0
 11
155.0352706471
 21
171.2624077151
 31
0.0
  0
ARC
  5
55
330
1F
100
AcDbEntity
  8
0
  6
Continuous
 62
     7
370
    15
100
AcDbCircle
 10
155.2352668213
 20
170.858261869
 30
0.0
 40
0.2500000000000347
100
AcDbArc
 50
300.0
 51
60.0
  0
LINE
  5
56
330
1F
100
AcDbEntity
  8
0
  6
Continuous
 62
     7
370
    15
100
AcDbLine
 10
155.0352706471
 20
170.4541240285
 30
0.0
 11
155.3602649727
 21
170.6417594502
 31
0.0
  0
ARC
  5
57
330
1F
100
AcDbEntity
  8
0
  6
Continuous
 62
     7
370
    15
100
AcDbCircle
 10
155.0852668213
 20
170.3675141402
 30
0.0
 40
0.0999999999999991
100
AcDbArc
 50
120.0
 51
240.0
  0
LINE
  5
58
330
1F
100
AcDbEntity
  8
0
  6
Continuous
 62
     7
370
    15
100
AcDbLine
 10
155.3602649727
 20
170.093277509
 30
0.0
 11
155.0352706471
 21
170.2809129307
 31
0.0
  0
ARC
  5
59
330
1F
100
AcDbEntity
  8
0
  6
Continuous
 62
     7
370
    15
100
AcDbCircle
 10
155.2352668213
 20
169.8767664114
 30
0.0
 40
0.2500000000000101
100
AcDbArc
 50
300.0
 51
60.0
  0
LINE
  5
5A
330
1F
100
AcDbEntity
  8
0
  6
Continuous
 62
     7
370
    15
100
AcDbLine
 10
155.0352706471
 20
169.4726143429
 30
0.0
 11
155.3602649727
 21
169.6602646659
 31
0.0
  0
ARC
  5
5B
330
1F
100
AcDbEntity
  8
0
  6
Continuous
 62
     7
370
    15
100
AcDbCircle
 10
155.0852668213
 20
169.3860186825
 30
0.0
 40
0.1000000000000199
100
AcDbArc
 50
120.0
 51
240.0
  0
LINE
  5
5C
330
1F
100
AcDbEntity
  8
0
  6
Continuous
 62
     7
370
    15
100
AcDbLine
 10
155.3602649727
 20
169.1117827246
 30
0.0
 11
155.0352706471
 21
169.2994181464
 31
0.0
  0
ARC
  5
5D
330
1F
100
AcDbEntity
  8
0
  6
Continuous
 62
     7
370
    15
100
AcDbCircle
 10
155.2352668213
 20
168.8952709537
 30
0.0
 40
0.2500000000000347
100
AcDbArc
 50
300.0
 51
60.0
  0
LINE
  5
5E
330
1F
100
AcDbEntity
  8
0
  6
Continuous
 62
     7
370
    15
100
AcDbLine
 10
155.0352706471
 20
168.4911195586
 30
0.0
 11
155.3602649727
 21
168.6787698815
 31
0.0
  0
ARC
  5
5F
330
1F
100
AcDbEntity
  8
0
  6
Continuous
 62
     7
370
    15
100
AcDbCircle
 10
155.0852668213
 20
168.4045232249
 30
0.0
 40
0.1000000000000029
100
AcDbArc
 50
120.0
 51
240.0
  0
LINE
  5
60
330
1F
100
AcDbEntity
  8
0
  6
Continuous
 62
     7
370
    15
100
AcDbLine
 10
155.3602649727
 20
168.1302879403
 30
0.0
 11
155.0352706471
 21
168.317923362
 31
0.0
  0
ARC
  5
61
330
1F
100
AcDbEntity
  8
0
  6
Continuous
 62
     7
370
    15
100
AcDbCircle
 10
155.2352668213
 20
167.9137754961
 30
0.0
 40
0.2500000000000101
100
AcDbArc
 50
300.0
 51
60.0
  0
LINE
  5
62
330
1F
100
AcDbEntity
  8
0
  6
Continuous
 62
     7
370
    15
100
AcDbLine
 10
155.0352706471
 20
167.5096247742
 30
0.0
 11
155.3602649727
 21
167.6972750971
 31
0.0
  0
ARC
  5
63
330
1F
100
AcDbEntity
  8
0
  6
Continuous
 62
     7
370
    15
100
AcDbCircle
 10
155.0852668213
 20
167.4230277673
 30
0.0
 40
0.1000000000000199
100
AcDbArc
 50
120.0
 51
240.0
  0
LINE
  5
64
330
1F
100
AcDbEntity
  8
0
  6
Continuous
 62
     7
370
    15
100
AcDbLine
 10
155.3602649727
 20
167.1487931559
 30
0.0
 11
155.0352706471
 21
167.3364285777
 31
0.0
  0
ARC
  5
65
330
1F
100
AcDbEntity
  8
0
  6
Continuous
 62
     7
370
    15
100
AcDbCircle
 10
155.2352668213
 20
166.9322800385
 30
0.0
 40
0.2500000000000347
100
AcDbArc
 50
300.0
 51
60.0
  0
LINE
  5
66
330
1F
100
AcDbEntity
  8
0
  6
Continuous
 62
     7
370
    15
100
AcDbLine
 10
155.0352706471
 20
166.5281299899
 30
0.0
 11
155.3602649727
 21
166.7157803128
 31
0.0
  0
ARC
  5
67
330
1F
100
AcDbEntity
  8
0
  6
Continuous
 62
     7
370
    15
100
AcDbCircle
 10
155.0852668213
 20
166.4415323097
 30
0.0
 40
0.0999999999999991
100
AcDbArc
 50
120.0
 51
240.0
  0
LINE
  5
68
330
1F
100
AcDbEntity
  8
0
  6
Continuous
 62
     7
370
    15
100
AcDbLine
 10
155.3602649727
 20
166.1672983716
 30
0.0
 11
155.0352706471
 21
166.3549337933
 31
0.0
  0
ARC
  5
69
330
1F
100
AcDbEntity
  8
0
  6
Continuous
 62
     7
370
    15
100
AcDbCircle
 10
155.2352668213
 20
165.9507845809
 30
0.0
 40
0.2500000000000101
100
AcDbArc
 50
300.0
 51
60.0
  0
LINE
  5
6A
330
1F
100
AcDbEntity
  8
0
  6
Continuous
 62
     7
370
    15
100
AcDbLine
 10
155.0352706471
 20
165.5466352055
 30
0.0
 11
155.3602649727
 21
165.7342855284
 31
0.0
  0
ARC
  5
6B
330
1F
100
AcDbEntity
  8
0
  6
Continuous
 62
     7
370
    15
100
AcDbCircle
 10
155.0852668213
 20
165.4600368521
 30
0.0
 40
0.1000000000000199
100
AcDbArc
 50
120.0
 51
240.0
  0
LINE
  5
6C
330
1F
100
AcDbEntity
  8
0
  6
Continuous
 62
     7
370
    15
100
AcDbLine
 10
155.3602649727
 20
165.1857886861
 30
0.0
 11
155.0352706471
 21
165.373439009
 31
0.0
  0
ARC
  5
6D
330
1F
100
AcDbEntity
  8
0
  6
Continuous
 62
     7
370
    15
100
AcDbCircle
 10
155.2352668213
 20
164.9692891232
 30
0.0
 40
0.2500000000000347
100
AcDbArc
 50
300.0
 51
60.0
  0
LINE
  5
6E
330
1F
100
AcDbEntity
  8
0
  6
Continuous
 62
     7
370
    15
100
AcDbLine
 10
155.0352706471
 20
164.5651404212
 30
0.0
 11
155.3602649727
 21
164.7527758429
 31
0.0
  0
ARC
  5
6F
330
1F
100
AcDbEntity
  8
0
  6
Continuous
 62
     7
370
    15
100
AcDbCircle
 10
155.0852668213
 20
164.4785413944
 30
0.0
 40
0.1000000000000029
100
AcDbArc
 50
120.0
 51
240.0
  0
LINE
  5
70
330
1F
100
AcDbEntity
  8
0
  6
Continuous
 62
     7
370
    15
100
AcDbLine
 10
155.3602649727
 20
164.2042939017
 30
0.0
 11
155.0352706471
 21
164.3919442246
 31
0.0
  0
ARC
  5
71
330
1F
100
AcDbEntity
  8
0
  6
Continuous
 62
     7
370
    15
100
AcDbCircle
 10
155.2352668213
 20
163.9877936656
 30
0.0
 40
0.2500000000000101
100
AcDbArc
 50
300.0
 51
60.0
  0
LINE
  5
72
330
1F
100
AcDbEntity
  8
0
  6
Continuous
 62
     7
370
    15
100
AcDbLine
 10
155.0352706471
 20
163.5836456368
 30
0.0
 11
155.3602649727
 21
163.7712810586
 31
0.0
  0
ARC
  5
73
330
1F
100
AcDbEntity
  8
0
  6
Continuous
 62
     7
370
    15
100
AcDbCircle
 10
155.0852668213
 20
163.4970459368
 30
0.0
 40
0.1000000000000199
100
AcDbArc
 50
120.0
 51
240.0
  0
LINE
  5
74
330
1F
100
AcDbEntity
  8
0
  6
Continuous
 62
     7
370
    15
100
AcDbLine
 10
155.3602649727
 20
163.2227991173
 30
0.0
 11
155.0352706471
 21
163.4104494403
 31
0.0
  0
ARC
  5
75
330
1F
100
AcDbEntity
  8
0
  6
Continuous
 62
     7
370
    15
100
AcDbCircle
 10
155.2352668213
 20
163.006298208
 30
0.0
 40
0.2500000000000347
100
AcDbArc
 50
300.0
 51
60.0
  0
LINE
  5
76
330
1F
100
AcDbEntity
  8
0
  6
Continuous
 62
     7
370
    15
100
AcDbLine
 10
155.0352706471
 20
162.6021508525
 30
0.0
 11
155.3602649727
 21
162.7897862742
 31
0.0
  0
ARC
  5
77
330
1F
100
AcDbEntity
  8
0
  6
Continuous
 62
     7
370
    15
100
AcDbCircle
 10
155.0852668213
 20
162.5155504792
 30
0.0
 40
0.1000000000000029
100
AcDbArc
 50
120.0
 51
240.0
  0
LINE
  5
78
330
1F
100
AcDbEntity
  8
0
  6
Continuous
 62
     7
370
    15
100
AcDbLine
 10
155.3602649727
 20
162.241304333
 30
0.0
 11
155.0352706471
 21
162.4289546559
 31
0.0
  0
ARC
  5
79
330
1F
100
AcDbEntity
  8
0
  6
Continuous
 62
     7
370
    15
100
AcDbCircle
 10
155.2352668213
 20
162.0248027504
 30
0.0
 40
0.2500000000000101
100
AcDbArc
 50
300.0
 51
60.0
  0
LINE
  5
7A
330
1F
100
AcDbEntity
  8
0
  6
Continuous
 62
     7
370
    15
100
AcDbLine
 10
155.0352706471
 20
161.6206560681
 30
0.0
 11
155.3602649727
 21
161.8082914899
 31
0.0
  0
ARC
  5
7B
330
1F
100
AcDbEntity
  8
0
  6
Continuous
 62
     7
370
    15
100
AcDbCircle
 10
155.0852668213
 20
161.5340550216
 30
0.0
 40
0.1000000000000275
100
AcDbArc
 50
120.0
 51
240.0
  0
LINE
  5
7C
330
1F
100
AcDbEntity
  8
0
  6
Continuous
 62
     7
370
    15
100
AcDbLine
 10
155.3602649727
 20
161.2598095486
 30
0.0
 11
155.0352706471
 21
161.4474598715
 31
0.0
  0
ARC
  5
7D
330
1F
100
AcDbEntity
  8
0
  6
Continuous
 62
     7
370
    15
100
AcDbCircle
 10
155.2352668213
 20
161.0433072928
 30
0.0
 40
0.2500000000000347
100
AcDbArc
 50
300.0
 51
60.0
  0
LINE
  5
7E
330
1F
100
AcDbEntity
  8
0
  6
Continuous
 62
     7
370
    15
100
AcDbLine
 10
155.0352706471
 20
160.6391612837
 30
0.0
 11
155.3602649727
 21
160.8267967055
 31
0.0
  0
ARC
  5
7F
330
1F
100
AcDbEntity
  8
0
  6
Continuous
 62
     7
370
    15
100
AcDbCircle
 10
155.0852668213
 20
160.5525595639
 30
0.0
 40
0.1000000000000029
100
AcDbArc
 50
120.0
 51
240.0
  0
LINE
  5
80
330
1F
100
AcDbEntity
  8
0
  6
Continuous
 62
     7
370
    15
100
AcDbLine
 10
155.3602649727
 20
160.2783147643
 30
0.0
 11
155.0352706471
 21
160.465950186
 31
0.0
  0
ARC
  5
81
330
1F
100
AcDbEntity
  8
0
  6
Continuous
 62
     7
370
    15
100
AcDbCircle
 10
155.2352668213
 20
160.0618118351
 30
0.0
 40
0.2500000000000101
100
AcDbArc
 50
300.0
 51
60.0
  0
LINE
  5
82
330
1F
100
AcDbEntity
  8
0
  6
Continuous
 62
     7
370
    15
100
AcDbLine
 10
155.0352706471
 20
159.6576664994
 30
0.0
 11
155.3602649727
 21
159.8453019211
 31
0.0
  0
ARC
  5
83
330
1F
100
AcDbEntity
  8
0
  6
Continuous
 62
     7
370
    15
100
AcDbCircle
 10
155.0852668213
 20
159.5710641063
 30
0.0
 40
0.1000000000000237
100
AcDbArc
 50
120.0
 51
240.0
  0
LINE
  5
84
330
1F
100
AcDbEntity
  8
0
  6
Continuous
 62
     7
370
    15
100
AcDbLine
 10
155.375270442
 20
159.2881624053
 30
0.0
 11
155.0352706471
 21
159.4844554017
 31
0.0
  0
ARC
  5
85
330
1F
100
AcDbEntity
  8
0
  6
Continuous
 62
     7
370
    15
100
AcDbCircle
 10
155.2502686525
 20
159.0716551304
 30
0.0
 40
0.2499999444741566
100
AcDbArc
 50
0.06260504
 51
59.9999999972
  0
ARC
  5
86
330
1F
100
AcDbEntity
  8
0
  6
Continuous
 62
     7
370
    15
100
AcDbCircle
 10
158.0852623929
 20
159.0747483157
 30
0.0
 40
2.584995483395422
100
AcDbArc
 50
180.06250504
 51
270.0
  0
LINE
  5
87
330
1F
100
AcDbEntity
  8
0
  6
Continuous
 62
     7
370
    15
100
AcDbLine
 10
160.0852741757
 20
156.4897541354
 30
0.0
 11
158.0852552214
 21
156.4897541354
 31
0.0
  0
ARC
  5
88
330
1F
100
AcDbEntity
  8
0
  6
Continuous
 62
     7
370
    15
100
AcDbCircle
 10
160.085166755
 20
159.0748528968
 30
0.0
 40
2.585100066377323
100
AcDbArc
 50
270.0022197002
 51
359.9353739512
  0
ARC
  5
89
330
1F
100
AcDbEntity
  8
0
  6
Continuous
 62
     7
370
    15
100
AcDbCircle
 10
162.920265018
 20
159.0716550823
 30
0.0
 40
0.2499999999999979
100
AcDbArc
 50
120.0000000028
 51
179.9353739512
  0
LINE
  5
8A
330
1F
100
AcDbEntity
  8
0
  6
Continuous
 62
     7
370
    15
100
AcDbLine
 10
163.1352662006
 20
159.4844554017
 30
0.0
 11
162.7952664056
 21
159.2881624053
 31
0.0
  0
ARC
  5
8B
330
1F
100
AcDbEntity
  8
0
  6
Continuous
 62
     7
370
    15
100
AcDbCircle
 10
163.0852668213
 20
159.5710641063
 30
0.0
 40
0.1000000000000237
100
AcDbArc
 50
300.0
 51
60.0
  0
LINE
  5
8C
330
1F
100
AcDbEntity
  8
0
  6
Continuous
 62
     7
370
    15
100
AcDbLine
 10
162.8102644243
 20
159.8453019211
 30
0.0
 11
163.1352662006
 21
159.6576664994
 31
0.0
  0
ARC
  5
8D
330
1F
100
AcDbEntity
  8
0
  6
Continuous
 62
     7
370
    15
100
AcDbCircle
 10
162.9352668213
 20
160.0618118351
 30
0.0
 40
0.2500000000000451
100
AcDbArc
 50
120.0
 51
240.0
  0
LINE
  5
8E
330
1F
100
AcDbEntity
  8
0
  6
Continuous
 62
     7
370
    15
100
AcDbLine
 10
163.1352662006
 20
160.465950186
 30
0.0
 11
162.8102644243
 21
160.2783147643
 31
0.0
  0
ARC
  5
8F
330
1F
100
AcDbEntity
  8
0
  6
Continuous
 62
     7
370
    15
100
AcDbCircle
 10
163.0852668213
 20
160.5525595639
 30
0.0
 40
0.0999999999999953
100
AcDbArc
 50
300.0
 51
59.9999999999
  0
LINE
  5
90
330
1F
100
AcDbEntity
  8
0
  6
Continuous
 62
     7
370
    15
100
AcDbLine
 10
162.8102644243
 20
160.8267967055
 30
0.0
 11
163.1352662006
 21
160.6391612837
 31
0.0
  0
ARC
  5
91
330
1F
100
AcDbEntity
  8
0
  6
Continuous
 62
     7
370
    15
100
AcDbCircle
 10
162.9352668213
 20
161.0433072927
 30
0.0
 40
0.2500000000000205
100
AcDbArc
 50
120.0
 51
240.0
  0
LINE
  5
92
330
1F
100
AcDbEntity
  8
0
  6
Continuous
 62
     7
370
    15
100
AcDbLine
 10
163.1352662006
 20
161.4474598715
 30
0.0
 11
162.8102644243
 21
161.2598095486
 31
0.0
  0
ARC
  5
93
330
1F
100
AcDbEntity
  8
0
  6
Continuous
 62
     7
370
    15
100
AcDbCircle
 10
163.0852668213
 20
161.5340550215
 30
0.0
 40
0.1000000000000417
100
AcDbArc
 50
300.0
 51
59.9999999999
  0
LINE
  5
94
330
1F
100
AcDbEntity
  8
0
  6
Continuous
 62
     7
370
    15
100
AcDbLine
 10
162.8102644243
 20
161.8082914899
 30
0.0
 11
163.1352662006
 21
161.6206560681
 31
0.0
  0
ARC
  5
95
330
1F
100
AcDbEntity
  8
0
  6
Continuous
 62
     7
370
    15
100
AcDbCircle
 10
162.9352668213
 20
162.0248027504
 30
0.0
 40
0.2500000000000451
100
AcDbArc
 50
120.0
 51
240.0
  0
LINE
  5
96
330
1F
100
AcDbEntity
  8
0
  6
Continuous
 62
     7
370
    15
100
AcDbLine
 10
163.1352662006
 20
162.4289546559
 30
0.0
 11
162.8102644243
 21
162.241304333
 31
0.0
  0
ARC
  5
97
330
1F
100
AcDbEntity
  8
0
  6
Continuous
 62
     7
370
    15
100
AcDbCircle
 10
163.0852668213
 20
162.5155504792
 30
0.0
 40
0.0999999999999953
100
AcDbArc
 50
300.0
 51
59.9999999999
  0
LINE
  5
98
330
1F
100
AcDbEntity
  8
0
  6
Continuous
 62
     7
370
    15
100
AcDbLine
 10
162.8102644243
 20
162.7897862742
 30
0.0
 11
163.1352662006
 21
162.6021508525
 31
0.0
  0
ARC
  5
99
330
1F
100
AcDbEntity
  8
0
  6
Continuous
 62
     7
370
    15
100
AcDbCircle
 10
162.9352668213
 20
163.006298208
 30
0.0
 40
0.2500000000000205
100
AcDbArc
 50
120.0
 51
240.0
  0
LINE
  5
9A
330
1F
100
AcDbEntity
  8
0
  6
Continuous
 62
     7
370
    15
100
AcDbLine
 10
163.1352662006
 20
163.4104494403
 30
0.0
 11
162.8102644243
 21
163.2227991173
 31
0.0
  0
ARC
  5
9B
330
1F
100
AcDbEntity
  8
0
  6
Continuous
 62
     7
370
    15
100
AcDbCircle
 10
163.0852668213
 20
163.4970459368
 30
0.0
 40
0.1000000000000341
100
AcDbArc
 50
300.0
 51
59.9999999999
  0
LINE
  5
9C
330
1F
100
AcDbEntity
  8
0
  6
Continuous
 62
     7
370
    15
100
AcDbLine
 10
162.8102644243
 20
163.7712810586
 30
0.0
 11
163.1352662006
 21
163.5836456368
 31
0.0
  0
ARC
  5
9D
330
1F
100
AcDbEntity
  8
0
  6
Continuous
 62
     7
370
    15
100
AcDbCircle
 10
162.9352668213
 20
163.9877936656
 30
0.0
 40
0.2500000000000451
100
AcDbArc
 50
120.0
 51
240.0
  0
LINE
  5
9E
330
1F
100
AcDbEntity
  8
0
  6
Continuous
 62
     7
370
    15
100
AcDbLine
 10
163.1352662006
 20
164.3919442246
 30
0.0
 11
162.8102644243
 21
164.2042939017
 31
0.0
  0
ARC
  5
9F
330
1F
100
AcDbEntity
  8
0
  6
Continuous
 62
     7
370
    15
100
AcDbCircle
 10
163.0852668213
 20
164.4785413944
 30
0.0
 40
0.0999999999999953
100
AcDbArc
 50
300.0
 51
59.9999999999
  0
LINE
  5
A0
330
1F
100
AcDbEntity
  8
0
  6
Continuous
 62
     7
370
    15
100
AcDbLine
 10
162.8102644243
 20
164.7527758429
 30
0.0
 11
163.1352662006
 21
164.5651404212
 31
0.0
  0
ARC
  5
A1
330
1F
100
AcDbEntity
  8
0
  6
Continuous
 62
     7
370
    15
100
AcDbCircle
 10
162.9352668213
 20
164.9692891232
 30
0.0
 40
0.2500000000000205
100
AcDbArc
 50
120.0
 51
240.0
  0
LINE
  5
A2
330
1F
100
AcDbEntity
  8
0
  6
Continuous
 62
     7
370
    15
100
AcDbLine
 10
163.1352662006
 20
165.373439009
 30
0.0
 11
162.8102644243
 21
165.1857886861
 31
0.0
  0
ARC
  5
A3
330
1F
100
AcDbEntity
  8
0
  6
Continuous
 62
     7
370
    15
100
AcDbCircle
 10
163.0852668213
 20
165.460036852
 30
0.0
 40
0.1000000000000199
100
AcDbArc
 50
300.0
 51
60.0
  0
LINE
  5
A4
330
1F
100
AcDbEntity
  8
0
  6
Continuous
 62
     7
370
    15
100
AcDbLine
 10
162.8102644243
 20
165.7342855284
 30
0.0
 11
163.1352662006
 21
165.5466352055
 31
0.0
  0
ARC
  5
A5
330
1F
100
AcDbEntity
  8
0
  6
Continuous
 62
     7
370
    15
100
AcDbCircle
 10
162.9352668213
 20
165.9507845808
 30
0.0
 40
0.2500000000000063
100
AcDbArc
 50
120.0
 51
240.0
  0
LINE
  5
A6
330
1F
100
AcDbEntity
  8
0
  6
Continuous
 62
     7
370
    15
100
AcDbLine
 10
163.1352662006
 20
166.3549337933
 30
0.0
 11
162.8102644243
 21
166.1672983716
 31
0.0
  0
ARC
  5
A7
330
1F
100
AcDbEntity
  8
0
  6
Continuous
 62
     7
370
    15
100
AcDbCircle
 10
163.0852668213
 20
166.4415323097
 30
0.0
 40
0.1000000000000095
100
AcDbArc
 50
300.0
 51
60.0
  0
LINE
  5
A8
330
1F
100
AcDbEntity
  8
0
  6
Continuous
 62
     7
370
    15
100
AcDbLine
 10
162.8102644243
 20
166.7157803128
 30
0.0
 11
163.1352662006
 21
166.5281299899
 31
0.0
  0
ARC
  5
A9
330
1F
100
AcDbEntity
  8
0
  6
Continuous
 62
     7
370
    15
100
AcDbCircle
 10
162.9352668213
 20
166.9322800385
 30
0.0
 40
0.2500000000000063
100
AcDbArc
 50
120.0
 51
240.0
  0
LINE
  5
AA
330
1F
100
AcDbEntity
  8
0
  6
Continuous
 62
     7
370
    15
100
AcDbLine
 10
163.1352662006
 20
167.3364285777
 30
0.0
 11
162.8102644243
 21
167.1487931559
 31
0.0
  0
ARC
  5
AB
330
1F
100
AcDbEntity
  8
0
  6
Continuous
 62
     7
370
    15
100
AcDbCircle
 10
163.0852668213
 20
167.4230277673
 30
0.0
 40
0.1000000000000199
100
AcDbArc
 50
300.0
 51
60.0
  0
LINE
  5
AC
330
1F
100
AcDbEntity
  8
0
  6
Continuous
 62
     7
370
    15
100
AcDbLine
 10
162.8102644243
 20
167.6972750971
 30
0.0
 11
163.1352662006
 21
167.5096247742
 31
0.0
  0
ARC
  5
AD
330
1F
100
AcDbEntity
  8
0
  6
Continuous
 62
     7
370
    15
100
AcDbCircle
 10
162.9352668213
 20
167.9137754961
 30
0.0
 40
0.2499999999999959
100
AcDbArc
 50
120.0
 51
240.0
  0
LINE
  5
AE
330
1F
100
AcDbEntity
  8
0
  6
Continuous
 62
     7
370
    15
100
AcDbLine
 10
163.1352662006
 20
168.317923362
 30
0.0
 11
162.8102644243
 21
168.1302879403
 31
0.0
  0
ARC
  5
AF
330
1F
100
AcDbEntity
  8
0
  6
Continuous
 62
     7
370
    15
100
AcDbCircle
 10
163.0852668213
 20
168.4045232249
 30
0.0
 40
0.1000000000000171
100
AcDbArc
 50
300.0
 51
59.9999999999
  0
LINE
  5
B0
330
1F
100
AcDbEntity
  8
0
  6
Continuous
 62
     7
370
    15
100
AcDbLine
 10
162.8102644243
 20
168.6787698815
 30
0.0
 11
163.1352662006
 21
168.4911195586
 31
0.0
  0
ARC
  5
B1
330
1F
100
AcDbEntity
  8
0
  6
Continuous
 62
     7
370
    15
100
AcDbCircle
 10
162.9352668213
 20
168.8952709537
 30
0.0
 40
0.2499999999999959
100
AcDbArc
 50
120.0
 51
240.0
  0
LINE
  5
B2
330
1F
100
AcDbEntity
  8
0
  6
Continuous
 62
     7
370
    15
100
AcDbLine
 10
163.1352662006
 20
169.2994181464
 30
0.0
 11
162.8102644243
 21
169.1117827246
 31
0.0
  0
ARC
  5
B3
330
1F
100
AcDbEntity
  8
0
  6
Continuous
 62
     7
370
    15
100
AcDbCircle
 10
163.0852668213
 20
169.3860186825
 30
0.0
 40
0.1000000000000341
100
AcDbArc
 50
300.0
 51
60.0
  0
LINE
  5
B4
330
1F
100
AcDbEntity
  8
0
  6
Continuous
 62
     7
370
    15
100
AcDbLine
 10
162.8102644243
 20
169.6602646659
 30
0.0
 11
163.1352662006
 21
169.4726143429
 31
0.0
  0
ARC
  5
B5
330
1F
100
AcDbEntity
  8
0
  6
Continuous
 62
     7
370
    15
100
AcDbCircle
 10
162.9352668213
 20
169.8767664113
 30
0.0
 40
0.2500000000000063
100
AcDbArc
 50
120.0
 51
240.0
  0
LINE
  5
B6
330
1F
100
AcDbEntity
  8
0
  6
Continuous
 62
     7
370
    15
100
AcDbLine
 10
163.1352662006
 20
170.2809129307
 30
0.0
 11
162.8102644243
 21
170.093277509
 31
0.0
  0
ARC
  5
B7
330
1F
100
AcDbEntity
  8
0
  6
Continuous
 62
     7
370
    15
100
AcDbCircle
 10
163.0852668213
 20
170.3675141401
 30
0.0
 40
0.1000000000000133
100
AcDbArc
 50
300.0
 51
60.0
  0
LINE
  5
B8
330
1F
100
AcDbEntity
  8
0
  6
Continuous
 62
     7
370
    15
100
AcDbLine
 10
162.8102644243
 20
170.6417594502
 30
0.0
 11
163.1352662006
 21
170.4541240285
 31
0.0
  0
ARC
  5
B9
330
1F
100
AcDbEntity
  8
0
  6
Continuous
 62
     7
370
    15
100
AcDbCircle
 10
162.9352668213
 20
170.858261869
 30
0.0
 40
0.2500000000000347
100
AcDbArc
 50
120.0
 51
240.0
  0
LINE
  5
BA
330
1F
100
AcDbEntity
  8
0
  6
Continuous
 62
     7
370
    15
100
AcDbLine
 10
163.1352662006
 20
171.2624077151
 30
0.0
 11
162.8102644243
 21
171.0747722933
 31
0.0
  0
ARC
  5
BB
330
1F
100
AcDbEntity
  8
0
  6
Continuous
 62
     7
370
    15
100
AcDbCircle
 10
163.0852668213
 20
171.3490095978
 30
0.0
 40
0.1000000000000341
100
AcDbArc
 50
300.0
 51
60.0
  0
LINE
  5
BC
330
1F
100
AcDbEntity
  8
0
  6
Continuous
 62
     7
370
    15
100
AcDbLine
 10
162.8102644243
 20
171.6232542346
 30
0.0
 11
163.1352662006
 21
171.4356188128
 31
0.0
  0
ARC
  5
BD
330
1F
100
AcDbEntity
  8
0
  6
Continuous
 62
     7
370
    15
100
AcDbCircle
 10
162.9352668213
 20
171.8397573266
 30
0.0
 40
0.2499999999999883
100
AcDbArc
 50
120.0
 51
240.0
  0
LINE
  5
BE
330
1F
100
AcDbEntity
  8
0
  6
Continuous
 62
     7
370
    15
100
AcDbLine
 10
163.1352662006
 20
172.2439024995
 30
0.0
 11
162.8102644243
 21
172.0562670777
 31
0.0
  0
ARC
  5
BF
330
1F
100
AcDbEntity
  8
0
  6
Continuous
 62
     7
370
    15
100
AcDbCircle
 10
163.0852668213
 20
172.3305050554
 30
0.0
 40
0.1000000000000237
100
AcDbArc
 50
300.0
 51
60.0
  0
LINE
  5
C0
330
1F
100
AcDbEntity
  8
0
  6
Continuous
 62
     7
370
    15
100
AcDbLine
 10
162.8102644243
 20
172.6047490189
 30
0.0
 11
163.1352662006
 21
172.4171135972
 31
0.0
  0
ARC
  5
C1
330
1F
100
AcDbEntity
  8
0
  6
Continuous
 62
     7
370
    15
100
AcDbCircle
 10
162.9352668213
 20
172.8212527842
 30
0.0
 40
0.2500000000000375
100
AcDbArc
 50
120.0
 51
240.0
  0
LINE
  5
C2
330
1F
100
AcDbEntity
  8
0
  6
Continuous
 62
     7
370
    15
100
AcDbLine
 10
163.1352662006
 20
173.2253972838
 30
0.0
 11
162.8102644243
 21
173.0377618621
 31
0.0
  0
ARC
  5
C3
330
1F
100
AcDbEntity
  8
0
  6
Continuous
 62
     7
370
    15
100
AcDbCircle
 10
163.0852668213
 20
173.312000513
 30
0.0
 40
0.1000000000000512
100
AcDbArc
 50
300.0
 51
0.0
  0
LINE
  5
C4
330
1F
100
AcDbEntity
  8
0
  6
Continuous
 62
     7
370
    15
100
AcDbLine
 10
163.185267047
 20
182.0748541901
 30
0.0
 11
163.185267047
 21
173.3120028327
 31
0.0
  0
ARC
  5
C5
330
1F
100
AcDbEntity
  8
0
  6
Continuous
 62
     7
370
    15
100
AcDbCircle
 10
163.8852668213
 20
182.0748527842
 30
0.0
 40
0.700000000000017
100
AcDbArc
 50
90.0
 51
180.0
  0
LINE
  5
C6
330
1F
100
AcDbEntity
  8
0
  6
Continuous
 62
     7
370
    15
100
AcDbLine
 10
164.2852633157
 20
182.7748511384
 30
0.0
 11
163.8852639952
 21
182.7748511384
 31
0.0
  0
ARC
  5
C7
330
1F
100
AcDbEntity
  8
0
  6
Continuous
 62
     7
370
    15
100
AcDbCircle
 10
164.2852668213
 20
182.0748527842
 30
0.0
 40
0.6999999999999886
100
AcDbArc
 50
0.0
 51
90.0
  0
LINE
  5
C8
330
1F
100
AcDbEntity
  8
0
  6
Continuous
 62
     7
370
    15
100
AcDbLine
 10
164.9852677145
 20
173.3120028327
 30
0.0
 11
164.9852677145
 21
182.0748541901
 31
0.0
  0
ARC
  5
C9
330
1F
100
AcDbEntity
  8
0
  6
Continuous
 62
     7
370
    15
100
AcDbCircle
 10
165.0852668213
 20
173.312000513
 30
0.0
 40
0.1000000000000588
100
AcDbArc
 50
180.0
 51
240.0
  0
LINE
  5
CA
330
1F
100
AcDbEntity
  8
0
  6
Continuous
 62
     7
370
    15
100
AcDbLine
 10
165.3602703371
 20
173.0377618621
 30
0.0
 11
165.0352685609
 21
173.2253972838
 31
0.0
  0
ARC
  5
CB
330
1F
100
AcDbEntity
  8
0
  6
Continuous
 62
     7
370
    15
100
AcDbCircle
 10
165.2352668213
 20
172.8212527842
 30
0.0
 40
0.2500000000000375
100
AcDbArc
 50
300.0
 51
60.0
  0
LINE
  5
CC
330
1F
100
AcDbEntity
  8
0
  6
Continuous
 62
     7
370
    15
100
AcDbLine
 10
165.0352685609
 20
172.4171135972
 30
0.0
 11
165.3602703371
 21
172.6047490189
 31
0.0
  0
ARC
  5
CD
330
1F
100
AcDbEntity
  8
0
  6
Continuous
 62
     7
370
    15
100
AcDbCircle
 10
165.0852668213
 20
172.3305050554
 30
0.0
 40
0.1000000000000095
100
AcDbArc
 50
120.0
 51
240.0
  0
LINE
  5
CE
330
1F
100
AcDbEntity
  8
0
  6
Continuous
 62
     7
370
    15
100
AcDbLine
 10
165.3602703371
 20
172.0562670777
 30
0.0
 11
165.0352685609
 21
172.2439024995
 31
0.0
  0
ARC
  5
CF
330
1F
100
AcDbEntity
  8
0
  6
Continuous
 62
     7
370
    15
100
AcDbCircle
 10
165.2352668213
 20
171.8397573266
 30
0.0
 40
0.2499999999999883
100
AcDbArc
 50
300.0
 51
60.0
  0
LINE
  5
D0
330
1F
100
AcDbEntity
  8
0
  6
Continuous
 62
     7
370
    15
100
AcDbLine
 10
165.0352685609
 20
171.4356188128
 30
0.0
 11
165.3602703371
 21
171.6232542346
 31
0.0
  0
ARC
  5
D1
330
1F
100
AcDbEntity
  8
0
  6
Continuous
 62
     7
370
    15
100
AcDbCircle
 10
165.0852668213
 20
171.3490095978
 30
0.0
 40
0.1000000000000199
100
AcDbArc
 50
120.0
 51
240.0
  0
LINE
  5
D2
330
1F
100
AcDbEntity
  8
0
  6
Continuous
 62
     7
370
    15
100
AcDbLine
 10
165.3602703371
 20
171.0747722933
 30
0.0
 11
165.0352685609
 21
171.2624077151
 31
0.0
  0
ARC
  5
D3
330
1F
100
AcDbEntity
  8
0
  6
Continuous
 62
     7
370
    15
100
AcDbCircle
 10
165.2352668213
 20
170.858261869
 30
0.0
 40
0.2500000000000205
100
AcDbArc
 50
300.0
 51
60.0
  0
LINE
  5
D4
330
1F
100
AcDbEntity
  8
0
  6
Continuous
 62
     7
370
    15
100
AcDbLine
 10
165.0352685609
 20
170.4541240285
 30
0.0
 11
165.3602703371
 21
170.6417594502
 31
0.0
  0
ARC
  5
D5
330
1F
100
AcDbEntity
  8
0
  6
Continuous
 62
     7
370
    15
100
AcDbCircle
 10
165.0852668213
 20
170.3675141401
 30
0.0
 40
0.0999999999999991
100
AcDbArc
 50
120.0
 51
240.0
  0
LINE
  5
D6
330
1F
100
AcDbEntity
  8
0
  6
Continuous
 62
     7
370
    15
100
AcDbLine
 10
165.3602703371
 20
170.093277509
 30
0.0
 11
165.0352685609
 21
170.2809129307
 31
0.0
  0
ARC
  5
D7
330
1F
100
AcDbEntity
  8
0
  6
Continuous
 62
     7
370
    15
100
AcDbCircle
 10
165.2352668213
 20
169.8767664113
 30
0.0
 40
0.2499999999999817
100
AcDbArc
 50
300.0
 51
60.0
  0
LINE
  5
D8
330
1F
100
AcDbEntity
  8
0
  6
Continuous
 62
     7
370
    15
100
AcDbLine
 10
165.0352685609
 20
169.4726143429
 30
0.0
 11
165.3602703371
 21
169.6602646659
 31
0.0
  0
ARC
  5
D9
330
1F
100
AcDbEntity
  8
0
  6
Continuous
 62
     7
370
    15
100
AcDbCircle
 10
165.0852668213
 20
169.3860186825
 30
0.0
 40
0.1000000000000057
100
AcDbArc
 50
120.0
 51
240.0000000001
  0
LINE
  5
DA
330
1F
100
AcDbEntity
  8
0
  6
Continuous
 62
     7
370
    15
100
AcDbLine
 10
165.3602703371
 20
169.1117827246
 30
0.0
 11
165.0352685609
 21
169.2994181464
 31
0.0
  0
ARC
  5
DB
330
1F
100
AcDbEntity
  8
0
  6
Continuous
 62
     7
370
    15
100
AcDbCircle
 10
165.2352668213
 20
168.8952709537
 30
0.0
 40
0.2500000000000205
100
AcDbArc
 50
300.0
 51
60.0
  0
LINE
  5
DC
330
1F
100
AcDbEntity
  8
0
  6
Continuous
 62
     7
370
    15
100
AcDbLine
 10
165.0352685609
 20
168.4911195586
 30
0.0
 11
165.3602703371
 21
168.6787698815
 31
0.0
  0
ARC
  5
DD
330
1F
100
AcDbEntity
  8
0
  6
Continuous
 62
     7
370
    15
100
AcDbCircle
 10
165.0852668213
 20
168.4045232249
 30
0.0
 40
0.0999999999999641
100
AcDbArc
 50
120.0
 51
240.0
  0
LINE
  5
DE
330
1F
100
AcDbEntity
  8
0
  6
Continuous
 62
     7
370
    15
100
AcDbLine
 10
165.3602703371
 20
168.1302879403
 30
0.0
 11
165.0352685609
 21
168.317923362
 31
0.0
  0
ARC
  5
DF
330
1F
100
AcDbEntity
  8
0
  6
Continuous
 62
     7
370
    15
100
AcDbCircle
 10
165.2352668213
 20
167.9137754961
 30
0.0
 40
0.2499999999999959
100
AcDbArc
 50
300.0
 51
60.0
  0
LINE
  5
E0
330
1F
100
AcDbEntity
  8
0
  6
Continuous
 62
     7
370
    15
100
AcDbLine
 10
165.0352685609
 20
167.5096247742
 30
0.0
 11
165.3602703371
 21
167.6972750971
 31
0.0
  0
ARC
  5
E1
330
1F
100
AcDbEntity
  8
0
  6
Continuous
 62
     7
370
    15
100
AcDbCircle
 10
165.0852668213
 20
167.4230277673
 30
0.0
 40
0.1000000000000057
100
AcDbArc
 50
120.0
 51
240.0000000001
  0
LINE
  5
E2
330
1F
100
AcDbEntity
  8
0
  6
Continuous
 62
     7
370
    15
100
AcDbLine
 10
165.3602703371
 20
167.1487931559
 30
0.0
 11
165.0352685609
 21
167.3364285777
 31
0.0
  0
ARC
  5
E3
330
1F
100
AcDbEntity
  8
0
  6
Continuous
 62
     7
370
    15
100
AcDbCircle
 10
165.2352668213
 20
166.9322800385
 30
0.0
 40
0.2500000000000347
100
AcDbArc
 50
300.0
 51
60.0
  0
LINE
  5
E4
330
1F
100
AcDbEntity
  8
0
  6
Continuous
 62
     7
370
    15
100
AcDbLine
 10
165.0352685609
 20
166.5281299899
 30
0.0
 11
165.3602703371
 21
166.7157803128
 31
0.0
  0
ARC
  5
E5
330
1F
100
AcDbEntity
  8
0
  6
Continuous
 62
     7
370
    15
100
AcDbCircle
 10
165.0852668213
 20
166.4415323097
 30
0.0
 40
0.0999999999999849
100
AcDbArc
 50
120.0
 51
240.0
  0
LINE
  5
E6
330
1F
100
AcDbEntity
  8
0
  6
Continuous
 62
     7
370
    15
100
AcDbLine
 10
165.3602703371
 20
166.1672983716
 30
0.0
 11
165.0352685609
 21
166.3549337933
 31
0.0
  0
ARC
  5
E7
330
1F
100
AcDbEntity
  8
0
  6
Continuous
 62
     7
370
    15
100
AcDbCircle
 10
165.2352668213
 20
165.9507845808
 30
0.0
 40
0.2499999999999997
100
AcDbArc
 50
300.0
 51
60.0
  0
LINE
  5
E8
330
1F
100
AcDbEntity
  8
0
  6
Continuous
 62
     7
370
    15
100
AcDbLine
 10
165.0352685609
 20
165.5466352055
 30
0.0
 11
165.3602703371
 21
165.7342855284
 31
0.0
  0
ARC
  5
E9
330
1F
100
AcDbEntity
  8
0
  6
Continuous
 62
     7
370
    15
100
AcDbCircle
 10
165.0852668213
 20
165.460036852
 30
0.0
 40
0.1000000000000199
100
AcDbArc
 50
120.0
 51
240.0
  0
LINE
  5
EA
330
1F
100
AcDbEntity
  8
0
  6
Continuous
 62
     7
370
    15
100
AcDbLine
 10
165.3602703371
 20
165.1857886861
 30
0.0
 11
165.0352685609
 21
165.373439009
 31
0.0
  0
ARC
  5
EB
330
1F
100
AcDbEntity
  8
0
  6
Continuous
 62
     7
370
    15
100
AcDbCircle
 10
165.2352668213
 20
164.9692891232
 30
0.0
 40
0.2500000000000347
100
AcDbArc
 50
300.0
 51
60.0
  0
LINE
  5
EC
330
1F
100
AcDbEntity
  8
0
  6
Continuous
 62
     7
370
    15
100
AcDbLine
 10
165.0352685609
 20
164.5651404212
 30
0.0
 11
165.3602703371
 21
164.7527758429
 31
0.0
  0
ARC
  5
ED
330
1F
100
AcDbEntity
  8
0
  6
Continuous
 62
     7
370
    15
100
AcDbCircle
 10
165.0852668213
 20
164.4785413944
 30
0.0
 40
0.0999999999999887
100
AcDbArc
 50
120.0
 51
240.0
  0
LINE
  5
EE
330
1F
100
AcDbEntity
  8
0
  6
Continuous
 62
     7
370
    15
100
AcDbLine
 10
165.3602703371
 20
164.2042939017
 30
0.0
 11
165.0352685609
 21
164.3919442246
 31
0.0
  0
ARC
  5
EF
330
1F
100
AcDbEntity
  8
0
  6
Continuous
 62
     7
370
    15
100
AcDbCircle
 10
165.2352668213
 20
163.9877936656
 30
0.0
 40
0.2500000000000101
100
AcDbArc
 50
300.0
 51
60.0
  0
LINE
  5
F0
330
1F
100
AcDbEntity
  8
0
  6
Continuous
 62
     7
370
    15
100
AcDbLine
 10
165.0352685609
 20
163.5836456368
 30
0.0
 11
165.3602703371
 21
163.7712810586
 31
0.0
  0
ARC
  5
F1
330
1F
100
AcDbEntity
  8
0
  6
Continuous
 62
     7
370
    15
100
AcDbCircle
 10
165.0852668213
 20
163.4970459368
 30
0.0
 40
0.1000000000000199
100
AcDbArc
 50
120.0000000001
 51
240.0
  0
LINE
  5
F2
330
1F
100
AcDbEntity
  8
0
  6
Continuous
 62
     7
370
    15
100
AcDbLine
 10
165.3602703371
 20
163.2227991173
 30
0.0
 11
165.0352685609
 21
163.4104494403
 31
0.0
  0
ARC
  5
F3
330
1F
100
AcDbEntity
  8
0
  6
Continuous
 62
     7
370
    15
100
AcDbCircle
 10
165.2352668213
 20
163.006298208
 30
0.0
 40
0.2499999999999959
100
AcDbArc
 50
300.0
 51
60.0
  0
LINE
  5
F4
330
1F
100
AcDbEntity
  8
0
  6
Continuous
 62
     7
370
    15
100
AcDbLine
 10
165.0352685609
 20
162.6021508525
 30
0.0
 11
165.3602703371
 21
162.7897862742
 31
0.0
  0
ARC
  5
F5
330
1F
100
AcDbEntity
  8
0
  6
Continuous
 62
     7
370
    15
100
AcDbCircle
 10
165.0852668213
 20
162.5155504792
 30
0.0
 40
0.1000000000000029
100
AcDbArc
 50
120.0
 51
240.0
  0
LINE
  5
F6
330
1F
100
AcDbEntity
  8
0
  6
Continuous
 62
     7
370
    15
100
AcDbLine
 10
165.3602703371
 20
162.241304333
 30
0.0
 11
165.0352685609
 21
162.4289546559
 31
0.0
  0
ARC
  5
F7
330
1F
100
AcDbEntity
  8
0
  6
Continuous
 62
     7
370
    15
100
AcDbCircle
 10
165.2352668213
 20
162.0248027504
 30
0.0
 40
0.2499999999999959
100
AcDbArc
 50
300.0
 51
60.0
  0
LINE
  5
F8
330
1F
100
AcDbEntity
  8
0
  6
Continuous
 62
     7
370
    15
100
AcDbLine
 10
165.0352685609
 20
161.6206560681
 30
0.0
 11
165.3602703371
 21
161.8082914899
 31
0.0
  0
ARC
  5
F9
330
1F
100
AcDbEntity
  8
0
  6
Continuous
 62
     7
370
    15
100
AcDbCircle
 10
165.0852668213
 20
161.5340550215
 30
0.0
 40
0.1000000000000341
100
AcDbArc
 50
120.0
 51
240.0
  0
LINE
  5
FA
330
1F
100
AcDbEntity
  8
0
  6
Continuous
 62
     7
370
    15
100
AcDbLine
 10
165.3602703371
 20
161.2598095486
 30
0.0
 11
165.0352685609
 21
161.4474598715
 31
0.0
  0
ARC
  5
FB
330
1F
100
AcDbEntity
  8
0
  6
Continuous
 62
     7
370
    15
100
AcDbCircle
 10
165.2352668213
 20
161.0433072927
 30
0.0
 40
0.2500000000000101
100
AcDbArc
 50
300.0
 51
60.0
  0
LINE
  5
FC
330
1F
100
AcDbEntity
  8
0
  6
Continuous
 62
     7
370
    15
100
AcDbLine
 10
165.0352685609
 20
160.6391612837
 30
0.0
 11
165.3602703371
 21
160.8267967055
 31
0.0
  0
ARC
  5
FD
330
1F
100
AcDbEntity
  8
0
  6
Continuous
 62
     7
370
    15
100
AcDbCircle
 10
165.0852668213
 20
160.5525595639
 30
0.0
 40
0.0999999999999811
100
AcDbArc
 50
120.0
 51
240.0
  0
LINE
  5
FE
330
1F
100
AcDbEntity
  8
0
  6
Continuous
 62
     7
370
    15
100
AcDbLine
 10
165.3602703371
 20
160.2783147643
 30
0.0
 11
165.0352685609
 21
160.465950186
 31
0.0
  0
ARC
  5
FF
330
1F
100
AcDbEntity
  8
0
  6
Continuous
 62
     7
370
    15
100
AcDbCircle
 10
165.2352668213
 20
160.0618118351
 30
0.0
 40
0.2500000000000101
100
AcDbArc
 50
300.0
 51
60.0
  0
LINE
  5
100
330
1F
100
AcDbEntity
  8
0
  6
Continuous
 62
     7
370
    15
100
AcDbLine
 10
165.0352685609
 20
159.6576664994
 30
0.0
 11
165.3602703371
 21
159.8453019211
 31
0.0
  0
ARC
  5
101
330
1F
100
AcDbEntity
  8
0
  6
Continuous
 62
     7
370
    15
100
AcDbCircle
 10
165.0852668213
 20
159.5710641063
 30
0.0
 40
0.1000000000000237
100
AcDbArc
 50
120.0
 51
240.0
  0
LINE
  5
102
330
1F
100
AcDbEntity
  8
0
  6
Continuous
 62
     7
370
    15
100
AcDbLine
 10
165.3752683559
 20
159.2881624053
 30
0.0
 11
165.0352685609
 21
159.4844554017
 31
0.0
  0
ARC
  5
103
330
1F
100
AcDbEntity
  8
0
  6
Continuous
 62
     7
370
    15
100
AcDbCircle
 10
165.2502686247
 20
159.0716550823
 30
0.0
 40
0.2499999999891979
100
AcDbArc
 50
0.064626054
 51
60.0
  0
ARC
  5
104
330
1F
100
AcDbEntity
  8
0
  6
Continuous
 62
     7
370
    15
100
AcDbCircle
 10
168.0852668213
 20
159.0748527842
 30
0.0
 40
2.584999999999999
100
AcDbArc
 50
180.064626054
 51
269.9999
  0
LINE
  5
105
330
1F
100
AcDbEntity
  8
0
  6
Continuous
 62
     7
370
    15
100
AcDbLine
 10
168.6852707424
 20
156.4898584435
 30
0.0
 11
168.0852605858
 21
156.4898584435
 31
0.0
  0
ARC
  5
106
330
1F
100
AcDbEntity
  8
0
  6
Continuous
 62
     7
370
    15
100
AcDbCircle
 10
168.6852668214
 20
159.0748527842
 30
0.0
 40
2.584999999999999
100
AcDbArc
 50
270.0001
 51
359.935373946
  0
ARC
  5
107
330
1F
100
AcDbEntity
  8
0
  6
Continuous
 62
     7
370
    15
100
AcDbCircle
 10
171.5202650179
 20
159.0716550823
 30
0.0
 40
0.2499999999892157
100
AcDbArc
 50
120.0000000028
 51
179.935373946
  0
LINE
  5
108
330
1F
100
AcDbEntity
  8
0
  6
Continuous
 62
     7
370
    15
100
AcDbLine
 10
171.7352702179
 20
159.4844554017
 30
0.0
 11
171.3952629724
 21
159.2881624053
 31
0.0
  0
ARC
  5
109
330
1F
100
AcDbEntity
  8
0
  6
Continuous
 62
     7
370
    15
100
AcDbCircle
 10
171.6852668213
 20
159.5710641063
 30
0.0
 40
0.1000000000000095
100
AcDbArc
 50
300.0
 51
60.0
  0
LINE
  5
10A
330
1F
100
AcDbEntity
  8
0
  6
Continuous
 62
     7
370
    15
100
AcDbLine
 10
171.4102684417
 20
159.8453019211
 30
0.0
 11
171.7352702179
 21
159.6576664994
 31
0.0
  0
ARC
  5
10B
330
1F
100
AcDbEntity
  8
0
  6
Continuous
 62
     7
370
    15
100
AcDbCircle
 10
171.5352668213
 20
160.0618118351
 30
0.0
 40
0.2499999999999959
100
AcDbArc
 50
120.0
 51
240.0
  0
LINE
  5
10C
330
1F
100
AcDbEntity
  8
0
  6
Continuous
 62
     7
370
    15
100
AcDbLine
 10
171.7352702179
 20
160.465950186
 30
0.0
 11
171.4102684417
 21
160.2783147643
 31
0.0
  0
ARC
  5
10D
330
1F
100
AcDbEntity
  8
0
  6
Continuous
 62
     7
370
    15
100
AcDbCircle
 10
171.6852668213
 20
160.5525595639
 30
0.0
 40
0.0999999999999783
100
AcDbArc
 50
300.0
 51
59.9999999999
  0
LINE
  5
10E
330
1F
100
AcDbEntity
  8
0
  6
Continuous
 62
     7
370
    15
100
AcDbLine
 10
171.4102684417
 20
160.8267967055
 30
0.0
 11
171.7352702179
 21
160.6391612837
 31
0.0
  0
ARC
  5
10F
330
1F
100
AcDbEntity
  8
0
  6
Continuous
 62
     7
370
    15
100
AcDbCircle
 10
171.5352668213
 20
161.0433072927
 30
0.0
 40
0.2500000000000063
100
AcDbArc
 50
120.0
 51
240.0
  0
LINE
  5
110
330
1F
100
AcDbEntity
  8
0
  6
Continuous
 62
     7
370
    15
100
AcDbLine
 10
171.7352702179
 20
161.4474598715
 30
0.0
 11
171.4102684417
 21
161.2598095486
 31
0.0
  0
ARC
  5
111
330
1F
100
AcDbEntity
  8
0
  6
Continuous
 62
     7
370
    15
100
AcDbCircle
 10
171.6852668213
 20
161.5340550215
 30
0.0
 40
0.0999999999999887
100
AcDbArc
 50
300.0
 51
60.0
  0
LINE
  5
112
330
1F
100
AcDbEntity
  8
0
  6
Continuous
 62
     7
370
    15
100
AcDbLine
 10
171.4102684417
 20
161.8082914899
 30
0.0
 11
171.7352702179
 21
161.6206560681
 31
0.0
  0
ARC
  5
113
330
1F
100
AcDbEntity
  8
0
  6
Continuous
 62
     7
370
    15
100
AcDbCircle
 10
171.5352668213
 20
162.0248027504
 30
0.0
 40
0.2500000000000063
100
AcDbArc
 50
120.0
 51
240.0
  0
LINE
  5
114
330
1F
100
AcDbEntity
  8
0
  6
Continuous
 62
     7
370
    15
100
AcDbLine
 10
171.7352702179
 20
162.4289546559
 30
0.0
 11
171.4102684417
 21
162.241304333
 31
0.0
  0
ARC
  5
115
330
1F
100
AcDbEntity
  8
0
  6
Continuous
 62
     7
370
    15
100
AcDbCircle
 10
171.6852668213
 20
162.5155504792
 30
0.0
 40
0.0999999999999887
100
AcDbArc
 50
300.0
 51
60.0
  0
LINE
  5
116
330
1F
100
AcDbEntity
  8
0
  6
Continuous
 62
     7
370
    15
100
AcDbLine
 10
171.4102684417
 20
162.7897862742
 30
0.0
 11
171.7352702179
 21
162.6021508525
 31
0.0
  0
ARC
  5
117
330
1F
100
AcDbEntity
  8
0
  6
Continuous
 62
     7
370
    15
100
AcDbCircle
 10
171.5352668213
 20
163.006298208
 30
0.0
 40
0.2500000000000205
100
AcDbArc
 50
120.0
 51
240.0
  0
LINE
  5
118
330
1F
100
AcDbEntity
  8
0
  6
Continuous
 62
     7
370
    15
100
AcDbLine
 10
171.7352702179
 20
163.4104494403
 30
0.0
 11
171.4102684417
 21
163.2227991173
 31
0.0
  0
ARC
  5
119
330
1F
100
AcDbEntity
  8
0
  6
Continuous
 62
     7
370
    15
100
AcDbCircle
 10
171.6852668213
 20
163.4970459368
 30
0.0
 40
0.0999999999999887
100
AcDbArc
 50
300.0
 51
60.0
  0
LINE
  5
11A
330
1F
100
AcDbEntity
  8
0
  6
Continuous
 62
     7
370
    15
100
AcDbLine
 10
171.4102684417
 20
163.7712810586
 30
0.0
 11
171.7352702179
 21
163.5836456368
 31
0.0
  0
ARC
  5
11B
330
1F
100
AcDbEntity
  8
0
  6
Continuous
 62
     7
370
    15
100
AcDbCircle
 10
171.5352668213
 20
163.9877936656
 30
0.0
 40
0.2500000000000205
100
AcDbArc
 50
120.0
 51
240.0
  0
LINE
  5
11C
330
1F
100
AcDbEntity
  8
0
  6
Continuous
 62
     7
370
    15
100
AcDbLine
 10
171.7352702179
 20
164.3919442246
 30
0.0
 11
171.4102684417
 21
164.2042939017
 31
0.0
  0
ARC
  5
11D
330
1F
100
AcDbEntity
  8
0
  6
Continuous
 62
     7
370
    15
100
AcDbCircle
 10
171.6852668213
 20
164.4785413944
 30
0.0
 40
0.1000000000000029
100
AcDbArc
 50
300.0
 51
60.0
  0
LINE
  5
11E
330
1F
100
AcDbEntity
  8
0
  6
Continuous
 62
     7
370
    15
100
AcDbLine
 10
171.4102684417
 20
164.7527758429
 30
0.0
 11
171.7352702179
 21
164.5651404212
 31
0.0
  0
ARC
  5
11F
330
1F
100
AcDbEntity
  8
0
  6
Continuous
 62
     7
370
    15
100
AcDbCircle
 10
171.5352668213
 20
164.9692891232
 30
0.0
 40
0.2500000000000489
100
AcDbArc
 50
120.0
 51
240.0
  0
LINE
  5
120
330
1F
100
AcDbEntity
  8
0
  6
Continuous
 62
     7
370
    15
100
AcDbLine
 10
171.7352702179
 20
165.373439009
 30
0.0
 11
171.4102684417
 21
165.1857886861
 31
0.0
  0
ARC
  5
121
330
1F
100
AcDbEntity
  8
0
  6
Continuous
 62
     7
370
    15
100
AcDbCircle
 10
171.6852668213
 20
165.460036852
 30
0.0
 40
0.1000000000000057
100
AcDbArc
 50
300.0
 51
60.0
  0
LINE
  5
122
330
1F
100
AcDbEntity
  8
0
  6
Continuous
 62
     7
370
    15
100
AcDbLine
 10
171.4102684417
 20
165.7342855284
 30
0.0
 11
171.7352702179
 21
165.5466352055
 31
0.0
  0
ARC
  5
123
330
1F
100
AcDbEntity
  8
0
  6
Continuous
 62
     7
370
    15
100
AcDbCircle
 10
171.5352668213
 20
165.9507845808
 30
0.0
 40
0.2499999999999817
100
AcDbArc
 50
120.0
 51
240.0
  0
LINE
  5
124
330
1F
100
AcDbEntity
  8
0
  6
Continuous
 62
     7
370
    15
100
AcDbLine
 10
171.7352702179
 20
166.3549337933
 30
0.0
 11
171.4102684417
 21
166.1672983716
 31
0.0
  0
ARC
  5
125
330
1F
100
AcDbEntity
  8
0
  6
Continuous
 62
     7
370
    15
100
AcDbCircle
 10
171.6852668213
 20
166.4415323097
 30
0.0
 40
0.0999999999999991
100
AcDbArc
 50
300.0
 51
60.0
  0
LINE
  5
126
330
1F
100
AcDbEntity
  8
0
  6
Continuous
 62
     7
370
    15
100
AcDbLine
 10
171.4102684417
 20
166.7157803128
 30
0.0
 11
171.7352702179
 21
166.5281299899
 31
0.0
  0
ARC
  5
127
330
1F
100
AcDbEntity
  8
0
  6
Continuous
 62
     7
370
    15
100
AcDbCircle
 10
171.5352668213
 20
166.9322800385
 30
0.0
 40
0.2500000000000205
100
AcDbArc
 50
120.0
 51
240.0
  0
LINE
  5
128
330
1F
100
AcDbEntity
  8
0
  6
Continuous
 62
     7
370
    15
100
AcDbLine
 10
171.7352702179
 20
167.3364285777
 30
0.0
 11
171.4102684417
 21
167.1487931559
 31
0.0
  0
ARC
  5
129
330
1F
100
AcDbEntity
  8
0
  6
Continuous
 62
     7
370
    15
100
AcDbCircle
 10
171.6852668213
 20
167.4230277673
 30
0.0
 40
0.1000000000000199
100
AcDbArc
 50
300.0
 51
60.0
  0
LINE
  5
12A
330
1F
100
AcDbEntity
  8
0
  6
Continuous
 62
     7
370
    15
100
AcDbLine
 10
171.4102684417
 20
167.6972750971
 30
0.0
 11
171.7352702179
 21
167.5096247742
 31
0.0
  0
ARC
  5
12B
330
1F
100
AcDbEntity
  8
0
  6
Continuous
 62
     7
370
    15
100
AcDbCircle
 10
171.5352668213
 20
167.9137754961
 30
0.0
 40
0.2499999999999959
100
AcDbArc
 50
120.0
 51
240.0
  0
LINE
  5
12C
330
1F
100
AcDbEntity
  8
0
  6
Continuous
 62
     7
370
    15
100
AcDbLine
 10
171.7352702179
 20
168.317923362
 30
0.0
 11
171.4102684417
 21
168.1302879403
 31
0.0
  0
ARC
  5
12D
330
1F
100
AcDbEntity
  8
0
  6
Continuous
 62
     7
370
    15
100
AcDbCircle
 10
171.6852668213
 20
168.4045232249
 30
0.0
 40
0.1000000000000171
100
AcDbArc
 50
300.0
 51
59.9999999999
  0
LINE
  5
12E
330
1F
100
AcDbEntity
  8
0
  6
Continuous
 62
     7
370
    15
100
AcDbLine
 10
171.4102684417
 20
168.6787698815
 30
0.0
 11
171.7352702179
 21
168.4911195586
 31
0.0
  0
ARC
  5
12F
330
1F
100
AcDbEntity
  8
0
  6
Continuous
 62
     7
370
    15
100
AcDbCircle
 10
171.5352668213
 20
168.8952709537
 30
0.0
 40
0.2500000000000205
100
AcDbArc
 50
120.0
 51
240.0
  0
LINE
  5
130
330
1F
100
AcDbEntity
  8
0
  6
Continuous
 62
     7
370
    15
100
AcDbLine
 10
171.7352702179
 20
169.2994181464
 30
0.0
 11
171.4102684417
 21
169.1117827246
 31
0.0
  0
ARC
  5
131
330
1F
100
AcDbEntity
  8
0
  6
Continuous
 62
     7
370
    15
100
AcDbCircle
 10
171.6852668213
 20
169.3860186825
 30
0.0
 40
0.1000000000000057
100
AcDbArc
 50
300.0
 51
60.0
  0
LINE
  5
132
330
1F
100
AcDbEntity
  8
0
  6
Continuous
 62
     7
370
    15
100
AcDbLine
 10
171.4102684417
 20
169.6602646659
 30
0.0
 11
171.7352702179
 21
169.4726143429
 31
0.0
  0
ARC
  5
133
330
1F
100
AcDbEntity
  8
0
  6
Continuous
 62
     7
370
    15
100
AcDbCircle
 10
171.5352668213
 20
169.8767664113
 30
0.0
 40
0.2499999999999959
100
AcDbArc
 50
120.0
 51
240.0
  0
LINE
  5
134
330
1F
100
AcDbEntity
  8
0
  6
Continuous
 62
     7
370
    15
100
AcDbLine
 10
171.7352702179
 20
170.2809129307
 30
0.0
 11
171.4102684417
 21
170.093277509
 31
0.0
  0
ARC
  5
135
330
1F
100
AcDbEntity
  8
0
  6
Continuous
 62
     7
370
    15
100
AcDbCircle
 10
171.6852668213
 20
170.3675141401
 30
0.0
 40
0.0999999999999991
100
AcDbArc
 50
300.0
 51
60.0
  0
LINE
  5
136
330
1F
100
AcDbEntity
  8
0
  6
Continuous
 62
     7
370
    15
100
AcDbLine
 10
171.4102684417
 20
170.6417594502
 30
0.0
 11
171.7352702179
 21
170.4541240285
 31
0.0
  0
ARC
  5
137
330
1F
100
AcDbEntity
  8
0
  6
Continuous
 62
     7
370
    15
100
AcDbCircle
 10
171.5352668213
 20
170.858261869
 30
0.0
 40
0.2500000000000309
100
AcDbArc
 50
120.0
 51
240.0
  0
LINE
  5
138
330
1F
100
AcDbEntity
  8
0
  6
Continuous
 62
     7
370
    15
100
AcDbLine
 10
171.7352702179
 20
171.2624077151
 30
0.0
 11
171.4102684417
 21
171.0747722933
 31
0.0
  0
ARC
  5
139
330
1F
100
AcDbEntity
  8
0
  6
Continuous
 62
     7
370
    15
100
AcDbCircle
 10
171.6852668213
 20
171.3490095978
 30
0.0
 40
0.1000000000000057
100
AcDbArc
 50
300.0
 51
60.0
  0
LINE
  5
13A
330
1F
100
AcDbEntity
  8
0
  6
Continuous
 62
     7
370
    15
100
AcDbLine
 10
171.4102684417
 20
171.6232542346
 30
0.0
 11
171.7352702179
 21
171.4356188128
 31
0.0
  0
ARC
  5
13B
330
1F
100
AcDbEntity
  8
0
  6
Continuous
 62
     7
370
    15
100
AcDbCircle
 10
171.5352668213
 20
171.8397573266
 30
0.0
 40
0.2499999999999883
100
AcDbArc
 50
120.0
 51
240.0
  0
LINE
  5
13C
330
1F
100
AcDbEntity
  8
0
  6
Continuous
 62
     7
370
    15
100
AcDbLine
 10
171.7352702179
 20
172.2439024995
 30
0.0
 11
171.4102684417
 21
172.0562670777
 31
0.0
  0
ARC
  5
13D
330
1F
100
AcDbEntity
  8
0
  6
Continuous
 62
     7
370
    15
100
AcDbCircle
 10
171.6852668213
 20
172.3305050554
 30
0.0
 40
0.1000000000000095
100
AcDbArc
 50
300.0
 51
60.0
  0
LINE
  5
13E
330
1F
100
AcDbEntity
  8
0
  6
Continuous
 62
     7
370
    15
100
AcDbLine
 10
171.4102684417
 20
172.6047490189
 30
0.0
 11
171.7352702179
 21
172.4171135972
 31
0.0
  0
ARC
  5
13F
330
1F
100
AcDbEntity
  8
0
  6
Continuous
 62
     7
370
    15
100
AcDbCircle
 10
171.5352668213
 20
172.8212527842
 30
0.0
 40
0.2500000000000243
100
AcDbArc
 50
120.0
 51
240.0
  0
LINE
  5
140
330
1F
100
AcDbEntity
  8
0
  6
Continuous
 62
     7
370
    15
100
AcDbLine
 10
171.7352702179
 20
173.2253972838
 30
0.0
 11
171.4102684417
 21
173.0377618621
 31
0.0
  0
ARC
  5
141
330
1F
100
AcDbEntity
  8
0
  6
Continuous
 62
     7
370
    15
100
AcDbCircle
 10
171.6852668213
 20
173.312000513
 30
0.0
 40
0.1000000000000512
100
AcDbArc
 50
300.0
 51
0.0
  0
LINE
  5
142
330
1F
100
AcDbEntity
  8
0
  6
Continuous
 62
     7
370
    15
100
AcDbLine
 10
171.7852636137
 20
182.0748541901
 30
0.0
 11
171.7852636137
 21
173.3120028327
 31
0.0
  0
ARC
  5
143
330
1F
100
AcDbEntity
  8
0
  6
Continuous
 62
     7
370
    15
100
AcDbCircle
 10
172.4852668213
 20
182.0748527842
 30
0.0
 40
0.700000000000017
100
AcDbArc
 50
90.0
 51
180.0
  0
LINE
  5
144
330
1F
100
AcDbEntity
  8
0
  6
Continuous
 62
     7
370
    15
100
AcDbLine
 10
172.8852673331
 20
182.7748511384
 30
0.0
 11
172.4852680125
 21
182.7748511384
 31
0.0
  0
ARC
  5
145
330
1F
100
AcDbEntity
  8
0
  6
Continuous
 62
     7
370
    15
100
AcDbCircle
 10
172.8852668213
 20
182.0748527842
 30
0.0
 40
0.700000000000017
100
AcDbArc
 50
0.0
 51
90.0
  0
LINE
  5
146
330
1F
100
AcDbEntity
  8
0
  6
Continuous
 62
     7
370
    15
100
AcDbLine
 10
173.5852642813
 20
173.3120028327
 30
0.0
 11
173.5852642813
 21
182.0748541901
 31
0.0
  0
ARC
  5
147
330
1F
100
AcDbEntity
  8
0
  6
Continuous
 62
     7
370
    15
100
AcDbCircle
 10
173.6852668213
 20
173.312000513
 30
0.0
 40
0.1000000000000522
100
AcDbArc
 50
180.0
 51
240.0
  0
LINE
  5
148
330
1F
100
AcDbEntity
  8
0
  6
Continuous
 62
     7
370
    15
100
AcDbLine
 10
173.9602669039
 20
173.0377618621
 30
0.0
 11
173.6352651277
 21
173.2253972838
 31
0.0
  0
ARC
  5
149
330
1F
100
AcDbEntity
  8
0
  6
Continuous
 62
     7
370
    15
100
AcDbCircle
 10
173.8352668213
 20
172.8212527842
 30
0.0
 40
0.2500000000000347
100
AcDbArc
 50
300.0
 51
60.0
  0
LINE
  5
14A
330
1F
100
AcDbEntity
  8
0
  6
Continuous
 62
     7
370
    15
100
AcDbLine
 10
173.6352651277
 20
172.4171135972
 30
0.0
 11
173.9602669039
 21
172.6047490189
 31
0.0
  0
ARC
  5
14B
330
1F
100
AcDbEntity
  8
0
  6
Continuous
 62
     7
370
    15
100
AcDbCircle
 10
173.6852668213
 20
172.3305050554
 30
0.0
 40
0.1000000000000341
100
AcDbArc
 50
120.0
 51
240.0
  0
LINE
  5
14C
330
1F
100
AcDbEntity
  8
0
  6
Continuous
 62
     7
370
    15
100
AcDbLine
 10
173.9602669039
 20
172.0562670777
 30
0.0
 11
173.6352651277
 21
172.2439024995
 31
0.0
  0
ARC
  5
14D
330
1F
100
AcDbEntity
  8
0
  6
Continuous
 62
     7
370
    15
100
AcDbCircle
 10
173.8352668213
 20
171.8397573266
 30
0.0
 40
0.2499999999999883
100
AcDbArc
 50
300.0
 51
60.0
  0
LINE
  5
14E
330
1F
100
AcDbEntity
  8
0
  6
Continuous
 62
     7
370
    15
100
AcDbLine
 10
173.6352651277
 20
171.4356188128
 30
0.0
 11
173.9602669039
 21
171.6232542346
 31
0.0
  0
ARC
  5
14F
330
1F
100
AcDbEntity
  8
0
  6
Continuous
 62
     7
370
    15
100
AcDbCircle
 10
173.6852668213
 20
171.3490095978
 30
0.0
 40
0.1000000000000199
100
AcDbArc
 50
120.0
 51
240.0
  0
LINE
  5
150
330
1F
100
AcDbEntity
  8
0
  6
Continuous
 62
     7
370
    15
100
AcDbLine
 10
173.9602669039
 20
171.0747722933
 30
0.0
 11
173.6352651277
 21
171.2624077151
 31
0.0
  0
ARC
  5
151
330
1F
100
AcDbEntity
  8
0
  6
Continuous
 62
     7
370
    15
100
AcDbCircle
 10
173.8352668213
 20
170.858261869
 30
0.0
 40
0.2500000000000205
100
AcDbArc
 50
300.0
 51
60.0
  0
LINE
  5
152
330
1F
100
AcDbEntity
  8
0
  6
Continuous
 62
     7
370
    15
100
AcDbLine
 10
173.6352651277
 20
170.4541240285
 30
0.0
 11
173.9602669039
 21
170.6417594502
 31
0.0
  0
ARC
  5
153
330
1F
100
AcDbEntity
  8
0
  6
Continuous
 62
     7
370
    15
100
AcDbCircle
 10
173.6852668213
 20
170.3675141401
 30
0.0
 40
0.1000000000000133
100
AcDbArc
 50
120.0
 51
240.0
  0
LINE
  5
154
330
1F
100
AcDbEntity
  8
0
  6
Continuous
 62
     7
370
    15
100
AcDbLine
 10
173.9602669039
 20
170.093277509
 30
0.0
 11
173.6352651277
 21
170.2809129307
 31
0.0
  0
ARC
  5
155
330
1F
100
AcDbEntity
  8
0
  6
Continuous
 62
     7
370
    15
100
AcDbCircle
 10
173.8352668213
 20
169.8767664113
 30
0.0
 40
0.2499999999999855
100
AcDbArc
 50
300.0
 51
60.0
  0
LINE
  5
156
330
1F
100
AcDbEntity
  8
0
  6
Continuous
 62
     7
370
    15
100
AcDbLine
 10
173.6352651277
 20
169.4726143429
 30
0.0
 11
173.9602669039
 21
169.6602646659
 31
0.0
  0
ARC
  5
157
330
1F
100
AcDbEntity
  8
0
  6
Continuous
 62
     7
370
    15
100
AcDbCircle
 10
173.6852668213
 20
169.3860186825
 30
0.0
 40
0.1000000000000095
100
AcDbArc
 50
120.0
 51
240.0
  0
LINE
  5
158
330
1F
100
AcDbEntity
  8
0
  6
Continuous
 62
     7
370
    15
100
AcDbLine
 10
173.9602669039
 20
169.1117827246
 30
0.0
 11
173.6352651277
 21
169.2994181464
 31
0.0
  0
ARC
  5
159
330
1F
100
AcDbEntity
  8
0
  6
Continuous
 62
     7
370
    15
100
AcDbCircle
 10
173.8352668213
 20
168.8952709537
 30
0.0
 40
0.2500000000000063
100
AcDbArc
 50
300.0
 51
60.0
  0
LINE
  5
15A
330
1F
100
AcDbEntity
  8
0
  6
Continuous
 62
     7
370
    15
100
AcDbLine
 10
173.6352651277
 20
168.4911195586
 30
0.0
 11
173.9602669039
 21
168.6787698815
 31
0.0
  0
ARC
  5
15B
330
1F
100
AcDbEntity
  8
0
  6
Continuous
 62
     7
370
    15
100
AcDbCircle
 10
173.6852668213
 20
168.4045232249
 30
0.0
 40
0.1000000000000029
100
AcDbArc
 50
120.0
 51
240.0
  0
LINE
  5
15C
330
1F
100
AcDbEntity
  8
0
  6
Continuous
 62
     7
370
    15
100
AcDbLine
 10
173.9602669039
 20
168.1302879403
 30
0.0
 11
173.6352651277
 21
168.317923362
 31
0.0
  0
ARC
  5
15D
330
1F
100
AcDbEntity
  8
0
  6
Continuous
 62
     7
370
    15
100
AcDbCircle
 10
173.8352668213
 20
167.9137754961
 30
0.0
 40
0.2499999999999855
100
AcDbArc
 50
300.0
 51
60.0
  0
LINE
  5
15E
330
1F
100
AcDbEntity
  8
0
  6
Continuous
 62
     7
370
    15
100
AcDbLine
 10
173.6352651277
 20
167.5096247742
 30
0.0
 11
173.9602669039
 21
167.6972750971
 31
0.0
  0
ARC
  5
15F
330
1F
100
AcDbEntity
  8
0
  6
Continuous
 62
     7
370
    15
100
AcDbCircle
 10
173.6852668213
 20
167.4230277673
 30
0.0
 40
0.0999999999999953
100
AcDbArc
 50
120.0
 51
240.0
  0
LINE
  5
160
330
1F
100
AcDbEntity
  8
0
  6
Continuous
 62
     7
370
    15
100
AcDbLine
 10
173.9602669039
 20
167.1487931559
 30
0.0
 11
173.6352651277
 21
167.3364285777
 31
0.0
  0
ARC
  5
161
330
1F
100
AcDbEntity
  8
0
  6
Continuous
 62
     7
370
    15
100
AcDbCircle
 10
173.8352668213
 20
166.9322800385
 30
0.0
 40
0.2500000000000063
100
AcDbArc
 50
300.0
 51
60.0
  0
LINE
  5
162
330
1F
100
AcDbEntity
  8
0
  6
Continuous
 62
     7
370
    15
100
AcDbLine
 10
173.6352651277
 20
166.5281299899
 30
0.0
 11
173.9602669039
 21
166.7157803128
 31
0.0
  0
ARC
  5
163
330
1F
100
AcDbEntity
  8
0
  6
Continuous
 62
     7
370
    15
100
AcDbCircle
 10
173.6852668213
 20
166.4415323097
 30
0.0
 40
0.1000000000000133
100
AcDbArc
 50
120.0
 51
240.0
  0
LINE
  5
164
330
1F
100
AcDbEntity
  8
0
  6
Continuous
 62
     7
370
    15
100
AcDbLine
 10
173.9602669039
 20
166.1672983716
 30
0.0
 11
173.6352651277
 21
166.3549337933
 31
0.0
  0
ARC
  5
165
330
1F
100
AcDbEntity
  8
0
  6
Continuous
 62
     7
370
    15
100
AcDbCircle
 10
173.8352668213
 20
165.9507845808
 30
0.0
 40
0.2499999999999817
100
AcDbArc
 50
300.0
 51
60.0
  0
LINE
  5
166
330
1F
100
AcDbEntity
  8
0
  6
Continuous
 62
     7
370
    15
100
AcDbLine
 10
173.6352651277
 20
165.5466352055
 30
0.0
 11
173.9602669039
 21
165.7342855284
 31
0.0
  0
ARC
  5
167
330
1F
100
AcDbEntity
  8
0
  6
Continuous
 62
     7
370
    15
100
AcDbCircle
 10
173.6852668213
 20
165.460036852
 30
0.0
 40
0.1000000000000199
100
AcDbArc
 50
120.0
 51
240.0
  0
LINE
  5
168
330
1F
100
AcDbEntity
  8
0
  6
Continuous
 62
     7
370
    15
100
AcDbLine
 10
173.9602669039
 20
165.1857886861
 30
0.0
 11
173.6352651277
 21
165.373439009
 31
0.0
  0
ARC
  5
169
330
1F
100
AcDbEntity
  8
0
  6
Continuous
 62
     7
370
    15
100
AcDbCircle
 10
173.8352668213
 20
164.9692891232
 30
0.0
 40
0.2500000000000205
100
AcDbArc
 50
300.0
 51
60.0
  0
LINE
  5
16A
330
1F
100
AcDbEntity
  8
0
  6
Continuous
 62
     7
370
    15
100
AcDbLine
 10
173.6352651277
 20
164.5651404212
 30
0.0
 11
173.9602669039
 21
164.7527758429
 31
0.0
  0
ARC
  5
16B
330
1F
100
AcDbEntity
  8
0
  6
Continuous
 62
     7
370
    15
100
AcDbCircle
 10
173.6852668213
 20
164.4785413944
 30
0.0
 40
0.1000000000000171
100
AcDbArc
 50
120.0000000001
 51
240.0
  0
LINE
  5
16C
330
1F
100
AcDbEntity
  8
0
  6
Continuous
 62
     7
370
    15
100
AcDbLine
 10
173.9602669039
 20
164.2042939017
 30
0.0
 11
173.6352651277
 21
164.3919442246
 31
0.0
  0
ARC
  5
16D
330
1F
100
AcDbEntity
  8
0
  6
Continuous
 62
     7
370
    15
100
AcDbCircle
 10
173.8352668213
 20
163.9877936656
 30
0.0
 40
0.2499999999999959
100
AcDbArc
 50
300.0
 51
60.0
  0
LINE
  5
16E
330
1F
100
AcDbEntity
  8
0
  6
Continuous
 62
     7
370
    15
100
AcDbLine
 10
173.6352651277
 20
163.5836456368
 30
0.0
 11
173.9602669039
 21
163.7712810586
 31
0.0
  0
ARC
  5
16F
330
1F
100
AcDbEntity
  8
0
  6
Continuous
 62
     7
370
    15
100
AcDbCircle
 10
173.6852668213
 20
163.4970459368
 30
0.0
 40
0.1000000000000199
100
AcDbArc
 50
120.0000000001
 51
240.0
  0
LINE
  5
170
330
1F
100
AcDbEntity
  8
0
  6
Continuous
 62
     7
370
    15
100
AcDbLine
 10
173.9602669039
 20
163.2227991173
 30
0.0
 11
173.6352651277
 21
163.4104494403
 31
0.0
  0
ARC
  5
171
330
1F
100
AcDbEntity
  8
0
  6
Continuous
 62
     7
370
    15
100
AcDbCircle
 10
173.8352668213
 20
163.006298208
 30
0.0
 40
0.2500000000000063
100
AcDbArc
 50
300.0
 51
60.0
  0
LINE
  5
172
330
1F
100
AcDbEntity
  8
0
  6
Continuous
 62
     7
370
    15
100
AcDbLine
 10
173.6352651277
 20
162.6021508525
 30
0.0
 11
173.9602669039
 21
162.7897862742
 31
0.0
  0
ARC
  5
173
330
1F
100
AcDbEntity
  8
0
  6
Continuous
 62
     7
370
    15
100
AcDbCircle
 10
173.6852668213
 20
162.5155504792
 30
0.0
 40
0.1000000000000171
100
AcDbArc
 50
120.0000000001
 51
240.0
  0
LINE
  5
174
330
1F
100
AcDbEntity
  8
0
  6
Continuous
 62
     7
370
    15
100
AcDbLine
 10
173.9602669039
 20
162.241304333
 30
0.0
 11
173.6352651277
 21
162.4289546559
 31
0.0
  0
ARC
  5
175
330
1F
100
AcDbEntity
  8
0
  6
Continuous
 62
     7
370
    15
100
AcDbCircle
 10
173.8352668213
 20
162.0248027504
 30
0.0
 40
0.2499999999999817
100
AcDbArc
 50
300.0
 51
60.0
  0
LINE
  5
176
330
1F
100
AcDbEntity
  8
0
  6
Continuous
 62
     7
370
    15
100
AcDbLine
 10
173.6352651277
 20
161.6206560681
 30
0.0
 11
173.9602669039
 21
161.8082914899
 31
0.0
  0
ARC
  5
177
330
1F
100
AcDbEntity
  8
0
  6
Continuous
 62
     7
370
    15
100
AcDbCircle
 10
173.6852668213
 20
161.5340550215
 30
0.0
 40
0.1000000000000199
100
AcDbArc
 50
120.0000000001
 51
240.0
  0
LINE
  5
178
330
1F
100
AcDbEntity
  8
0
  6
Continuous
 62
     7
370
    15
100
AcDbLine
 10
173.9602669039
 20
161.2598095486
 30
0.0
 11
173.6352651277
 21
161.4474598715
 31
0.0
  0
ARC
  5
179
330
1F
100
AcDbEntity
  8
0
  6
Continuous
 62
     7
370
    15
100
AcDbCircle
 10
173.8352668213
 20
161.0433072927
 30
0.0
 40
0.2500000000000063
100
AcDbArc
 50
300.0
 51
60.0
  0
LINE
  5
17A
330
1F
100
AcDbEntity
  8
0
  6
Continuous
 62
     7
370
    15
100
AcDbLine
 10
173.6352651277
 20
160.6391612837
 30
0.0
 11
173.9602669039
 21
160.8267967055
 31
0.0
  0
ARC
  5
17B
330
1F
100
AcDbEntity
  8
0
  6
Continuous
 62
     7
370
    15
100
AcDbCircle
 10
173.6852668213
 20
160.5525595639
 30
0.0
 40
0.1000000000000029
100
AcDbArc
 50
120.0
 51
240.0
  0
LINE
  5
17C
330
1F
100
AcDbEntity
  8
0
  6
Continuous
 62
     7
370
    15
100
AcDbLine
 10
173.9602669039
 20
160.2783147643
 30
0.0
 11
173.6352651277
 21
160.465950186
 31
0.0
  0
ARC
  5
17D
330
1F
100
AcDbEntity
  8
0
  6
Continuous
 62
     7
370
    15
100
AcDbCircle
 10
173.8352668213
 20
160.0618118351
 30
0.0
 40
0.2499999999999817
100
AcDbArc
 50
300.0
 51
60.0
  0
LINE
  5
17E
330
1F
100
AcDbEntity
  8
0
  6
Continuous
 62
     7
370
    15
100
AcDbLine
 10
173.6352651277
 20
159.6576664994
 30
0.0
 11
173.9602669039
 21
159.8453019211
 31
0.0
  0
ARC
  5
17F
330
1F
100
AcDbEntity
  8
0
  6
Continuous
 62
     7
370
    15
100
AcDbCircle
 10
173.6852668213
 20
159.5710641063
 30
0.0
 40
0.0999999999999953
100
AcDbArc
 50
120.0
 51
240.0
  0
LINE
  5
180
330
1F
100
AcDbEntity
  8
0
  6
Continuous
 62
     7
370
    15
100
AcDbLine
 10
173.9752649226
 20
159.2881624053
 30
0.0
 11
173.6352651277
 21
159.4844554017
 31
0.0
  0
ARC
  5
181
330
1F
100
AcDbEntity
  8
0
  6
Continuous
 62
     7
370
    15
100
AcDbCircle
 10
173.8502686247
 20
159.0716550823
 30
0.0
 40
0.2499999999891649
100
AcDbArc
 50
0.064626054
 51
59.9999999972
  0
ARC
  5
182
330
1F
100
AcDbEntity
  8
0
  6
Continuous
 62
     7
370
    15
100
AcDbCircle
 10
176.6852668213
 20
159.0748527842
 30
0.0
 40
2.584999999999999
100
AcDbArc
 50
180.064626054
 51
269.9999
  0
LINE
  5
183
330
1F
100
AcDbEntity
  8
0
  6
Continuous
 62
     7
370
    15
100
AcDbLine
 10
177.2852747598
 20
156.4898584435
 30
0.0
 11
176.6852646032
 21
156.4898584435
 31
0.0
  0
ARC
  5
184
330
1F
100
AcDbEntity
  8
0
  6
Continuous
 62
     7
370
    15
100
AcDbCircle
 10
177.2852668214
 20
159.0748527842
 30
0.0
 40
2.584999999999999
100
AcDbArc
 50
270.0001
 51
359.935373946
  0
ARC
  5
185
330
1F
100
AcDbEntity
  8
0
  6
Continuous
 62
     7
370
    15
100
AcDbCircle
 10
180.120265018
 20
159.0716550823
 30
0.0
 40
0.2499999999891895
100
AcDbArc
 50
120.0000000028
 51
179.9353739461
  0
LINE
  5
186
330
1F
100
AcDbEntity
  8
0
  6
Continuous
 62
     7
370
    15
100
AcDbLine
 10
180.3352667847
 20
159.4844554017
 30
0.0
 11
179.9952669897
 21
159.2881624053
 31
0.0
  0
ARC
  5
187
330
1F
100
AcDbEntity
  8
0
  6
Continuous
 62
     7
370
    15
100
AcDbCircle
 10
180.2852668214
 20
159.5710641063
 30
0.0
 40
0.1000000000000237
100
AcDbArc
 50
299.9999999996
 51
60.0
  0
LINE
  5
188
330
1F
100
AcDbEntity
  8
0
  6
Continuous
 62
     7
370
    15
100
AcDbLine
 10
180.0102650085
 20
159.8453019211
 30
0.0
 11
180.3352667847
 21
159.6576664994
 31
0.0
  0
ARC
  5
189
330
1F
100
AcDbEntity
  8
0
  6
Continuous
 62
     7
370
    15
100
AcDbCircle
 10
180.1352668214
 20
160.0618118351
 30
0.0
 40
0.2500000000000004
100
AcDbArc
 50
120.0
 51
240.0000000001
  0
LINE
  5
18A
330
1F
100
AcDbEntity
  8
0
  6
Continuous
 62
     7
370
    15
100
AcDbLine
 10
180.3352667847
 20
160.465950186
 30
0.0
 11
180.0102650085
 21
160.2783147643
 31
0.0
  0
ARC
  5
18B
330
1F
100
AcDbEntity
  8
0
  6
Continuous
 62
     7
370
    15
100
AcDbCircle
 10
180.2852668214
 20
160.5525595639
 30
0.0
 40
0.1000000000000029
100
AcDbArc
 50
299.9999999996
 51
60.0
  0
LINE
  5
18C
330
1F
100
AcDbEntity
  8
0
  6
Continuous
 62
     7
370
    15
100
AcDbLine
 10
180.0102650085
 20
160.8267967055
 30
0.0
 11
180.3352667847
 21
160.6391612837
 31
0.0
  0
ARC
  5
18D
330
1F
100
AcDbEntity
  8
0
  6
Continuous
 62
     7
370
    15
100
AcDbCircle
 10
180.1352668214
 20
161.0433072927
 30
0.0
 40
0.2500000000000116
100
AcDbArc
 50
120.0
 51
240.0000000003
  0
LINE
  5
18E
330
1F
100
AcDbEntity
  8
0
  6
Continuous
 62
     7
370
    15
100
AcDbLine
 10
180.3352667847
 20
161.4474598715
 30
0.0
 11
180.0102650085
 21
161.2598095486
 31
0.0
  0
ARC
  5
18F
330
1F
100
AcDbEntity
  8
0
  6
Continuous
 62
     7
370
    15
100
AcDbCircle
 10
180.2852668214
 20
161.5340550215
 30
0.0
 40
0.1000000000000207
100
AcDbArc
 50
299.9999999996
 51
60.0
  0
LINE
  5
190
330
1F
100
AcDbEntity
  8
0
  6
Continuous
 62
     7
370
    15
100
AcDbLine
 10
180.0102650085
 20
161.8082914899
 30
0.0
 11
180.3352667847
 21
161.6206560681
 31
0.0
  0
ARC
  5
191
330
1F
100
AcDbEntity
  8
0
  6
Continuous
 62
     7
370
    15
100
AcDbCircle
 10
180.1352668214
 20
162.0248027504
 30
0.0
 40
0.2500000000000063
100
AcDbArc
 50
120.0
 51
240.0000000001
  0
LINE
  5
192
330
1F
100
AcDbEntity
  8
0
  6
Continuous
 62
     7
370
    15
100
AcDbLine
 10
180.3352667847
 20
162.4289546559
 30
0.0
 11
180.0102650085
 21
162.241304333
 31
0.0
  0
ARC
  5
193
330
1F
100
AcDbEntity
  8
0
  6
Continuous
 62
     7
370
    15
100
AcDbCircle
 10
180.2852668214
 20
162.5155504792
 30
0.0
 40
0.1000000000000065
100
AcDbArc
 50
299.9999999996
 51
60.0
  0
LINE
  5
194
330
1F
100
AcDbEntity
  8
0
  6
Continuous
 62
     7
370
    15
100
AcDbLine
 10
180.0102650085
 20
162.7897862742
 30
0.0
 11
180.3352667847
 21
162.6021508525
 31
0.0
  0
ARC
  5
195
330
1F
100
AcDbEntity
  8
0
  6
Continuous
 62
     7
370
    15
100
AcDbCircle
 10
180.1352668214
 20
163.006298208
 30
0.0
 40
0.2500000000000063
100
AcDbArc
 50
120.0
 51
240.0000000002
  0
LINE
  5
196
330
1F
100
AcDbEntity
  8
0
  6
Continuous
 62
     7
370
    15
100
AcDbLine
 10
180.3352667847
 20
163.4104494403
 30
0.0
 11
180.0102650085
 21
163.2227991173
 31
0.0
  0
ARC
  5
197
330
1F
100
AcDbEntity
  8
0
  6
Continuous
 62
     7
370
    15
100
AcDbCircle
 10
180.2852668214
 20
163.4970459368
 30
0.0
 40
0.1000000000000443
100
AcDbArc
 50
299.9999999995
 51
59.9999999999
  0
LINE
  5
198
330
1F
100
AcDbEntity
  8
0
  6
Continuous
 62
     7
370
    15
100
AcDbLine
 10
180.0102650085
 20
163.7712810586
 30
0.0
 11
180.3352667847
 21
163.5836456368
 31
0.0
  0
ARC
  5
199
330
1F
100
AcDbEntity
  8
0
  6
Continuous
 62
     7
370
    15
100
AcDbCircle
 10
180.1352668214
 20
163.9877936656
 30
0.0
 40
0.2499999999999921
100
AcDbArc
 50
120.0
 51
240.0000000001
  0
LINE
  5
19A
330
1F
100
AcDbEntity
  8
0
  6
Continuous
 62
     7
370
    15
100
AcDbLine
 10
180.3352667847
 20
164.3919442246
 30
0.0
 11
180.0102650085
 21
164.2042939017
 31
0.0
  0
ARC
  5
19B
330
1F
100
AcDbEntity
  8
0
  6
Continuous
 62
     7
370
    15
100
AcDbCircle
 10
180.2852668214
 20
164.4785413944
 30
0.0
 40
0.1000000000000113
100
AcDbArc
 50
299.9999999998
 51
59.9999999999
  0
LINE
  5
19C
330
1F
100
AcDbEntity
  8
0
  6
Continuous
 62
     7
370
    15
100
AcDbLine
 10
180.0102650085
 20
164.7527758429
 30
0.0
 11
180.3352667847
 21
164.5651404212
 31
0.0
  0
ARC
  5
19D
330
1F
100
AcDbEntity
  8
0
  6
Continuous
 62
     7
370
    15
100
AcDbCircle
 10
180.1352668214
 20
164.9692891232
 30
0.0
 40
0.2500000000000213
100
AcDbArc
 50
120.0
 51
240.0000000001
  0
LINE
  5
19E
330
1F
100
AcDbEntity
  8
0
  6
Continuous
 62
     7
370
    15
100
AcDbLine
 10
180.3352667847
 20
165.373439009
 30
0.0
 11
180.0102650085
 21
165.1857886861
 31
0.0
  0
ARC
  5
19F
330
1F
100
AcDbEntity
  8
0
  6
Continuous
 62
     7
370
    15
100
AcDbCircle
 10
180.2852668214
 20
165.460036852
 30
0.0
 40
0.1000000000000151
100
AcDbArc
 50
299.9999999998
 51
60.0
  0
LINE
  5
1A0
330
1F
100
AcDbEntity
  8
0
  6
Continuous
 62
     7
370
    15
100
AcDbLine
 10
180.0102650085
 20
165.7342855284
 30
0.0
 11
180.3352667847
 21
165.5466352055
 31
0.0
  0
ARC
  5
1A1
330
1F
100
AcDbEntity
  8
0
  6
Continuous
 62
     7
370
    15
100
AcDbCircle
 10
180.1352668214
 20
165.9507845808
 30
0.0
 40
0.2499999999999817
100
AcDbArc
 50
120.0
 51
240.0
  0
LINE
  5
1A2
330
1F
100
AcDbEntity
  8
0
  6
Continuous
 62
     7
370
    15
100
AcDbLine
 10
180.3352667847
 20
166.3549337933
 30
0.0
 11
180.0102650085
 21
166.1672983716
 31
0.0
  0
ARC
  5
1A3
330
1F
100
AcDbEntity
  8
0
  6
Continuous
 62
     7
370
    15
100
AcDbCircle
 10
180.2852668214
 20
166.4415323097
 30
0.0
 40
0.1000000000000275
100
AcDbArc
 50
299.9999999998
 51
60.0
  0
LINE
  5
1A4
330
1F
100
AcDbEntity
  8
0
  6
Continuous
 62
     7
370
    15
100
AcDbLine
 10
180.0102650085
 20
166.7157803128
 30
0.0
 11
180.3352667847
 21
166.5281299899
 31
0.0
  0
ARC
  5
1A5
330
1F
100
AcDbEntity
  8
0
  6
Continuous
 62
     7
370
    15
100
AcDbCircle
 10
180.1352668214
 20
166.9322800385
 30
0.0
 40
0.2500000000000213
100
AcDbArc
 50
120.0
 51
240.0000000001
  0
LINE
  5
1A6
330
1F
100
AcDbEntity
  8
0
  6
Continuous
 62
     7
370
    15
100
AcDbLine
 10
180.3352667847
 20
167.3364285777
 30
0.0
 11
180.0102650085
 21
167.1487931559
 31
0.0
  0
ARC
  5
1A7
330
1F
100
AcDbEntity
  8
0
  6
Continuous
 62
     7
370
    15
100
AcDbCircle
 10
180.2852668214
 20
167.4230277673
 30
0.0
 40
0.1000000000000133
100
AcDbArc
 50
299.9999999998
 51
60.0
  0
LINE
  5
1A8
330
1F
100
AcDbEntity
  8
0
  6
Continuous
 62
     7
370
    15
100
AcDbLine
 10
180.0102650085
 20
167.6972750971
 30
0.0
 11
180.3352667847
 21
167.5096247742
 31
0.0
  0
ARC
  5
1A9
330
1F
100
AcDbEntity
  8
0
  6
Continuous
 62
     7
370
    15
100
AcDbCircle
 10
180.1352668214
 20
167.9137754961
 30
0.0
 40
0.2499999999999921
100
AcDbArc
 50
120.0
 51
240.0
  0
LINE
  5
1AA
330
1F
100
AcDbEntity
  8
0
  6
Continuous
 62
     7
370
    15
100
AcDbLine
 10
180.3352667847
 20
168.317923362
 30
0.0
 11
180.0102650085
 21
168.1302879403
 31
0.0
  0
ARC
  5
1AB
330
1F
100
AcDbEntity
  8
0
  6
Continuous
 62
     7
370
    15
100
AcDbCircle
 10
180.2852668214
 20
168.4045232249
 30
0.0
 40
0.1000000000000029
100
AcDbArc
 50
299.9999999998
 51
60.0
  0
LINE
  5
1AC
330
1F
100
AcDbEntity
  8
0
  6
Continuous
 62
     7
370
    15
100
AcDbLine
 10
180.0102650085
 20
168.6787698815
 30
0.0
 11
180.3352667847
 21
168.4911195586
 31
0.0
  0
ARC
  5
1AD
330
1F
100
AcDbEntity
  8
0
  6
Continuous
 62
     7
370
    15
100
AcDbCircle
 10
180.1352668214
 20
168.8952709537
 30
0.0
 40
0.2500000000000451
100
AcDbArc
 50
120.0
 51
240.0000000002
  0
LINE
  5
1AE
330
1F
100
AcDbEntity
  8
0
  6
Continuous
 62
     7
370
    15
100
AcDbLine
 10
180.3352667847
 20
169.2994181464
 30
0.0
 11
180.0102650085
 21
169.1117827246
 31
0.0
  0
ARC
  5
1AF
330
1F
100
AcDbEntity
  8
0
  6
Continuous
 62
     7
370
    15
100
AcDbCircle
 10
180.2852668214
 20
169.3860186825
 30
0.0
 40
0.1000000000000237
100
AcDbArc
 50
299.9999999998
 51
60.0
  0
LINE
  5
1B0
330
1F
100
AcDbEntity
  8
0
  6
Continuous
 62
     7
370
    15
100
AcDbLine
 10
180.0102650085
 20
169.6602646659
 30
0.0
 11
180.3352667847
 21
169.4726143429
 31
0.0
  0
ARC
  5
1B1
330
1F
100
AcDbEntity
  8
0
  6
Continuous
 62
     7
370
    15
100
AcDbCircle
 10
180.1352668214
 20
169.8767664113
 30
0.0
 40
0.2500000000000413
100
AcDbArc
 50
120.0
 51
240.0
  0
LINE
  5
1B2
330
1F
100
AcDbEntity
  8
0
  6
Continuous
 62
     7
370
    15
100
AcDbLine
 10
180.3352667847
 20
170.2809129307
 30
0.0
 11
180.0102650085
 21
170.093277509
 31
0.0
  0
ARC
  5
1B3
330
1F
100
AcDbEntity
  8
0
  6
Continuous
 62
     7
370
    15
100
AcDbCircle
 10
180.2852668214
 20
170.3675141402
 30
0.0
 40
0.1000000000000179
100
AcDbArc
 50
299.9999999997
 51
60.0
  0
LINE
  5
1B4
330
1F
100
AcDbEntity
  8
0
  6
Continuous
 62
     7
370
    15
100
AcDbLine
 10
180.0102650085
 20
170.6417594502
 30
0.0
 11
180.3352667847
 21
170.4541240285
 31
0.0
  0
ARC
  5
1B5
330
1F
100
AcDbEntity
  8
0
  6
Continuous
 62
     7
370
    15
100
AcDbCircle
 10
180.1352668214
 20
170.858261869
 30
0.0
 40
0.2500000000000205
100
AcDbArc
 50
120.0
 51
240.0000000002
  0
LINE
  5
1B6
330
1F
100
AcDbEntity
  8
0
  6
Continuous
 62
     7
370
    15
100
AcDbLine
 10
180.3352667847
 20
171.2624077151
 30
0.0
 11
180.0102650085
 21
171.0747722933
 31
0.0
  0
ARC
  5
1B7
330
1F
100
AcDbEntity
  8
0
  6
Continuous
 62
     7
370
    15
100
AcDbCircle
 10
180.2852668214
 20
171.3490095978
 30
0.0
 40
0.1000000000000207
100
AcDbArc
 50
299.9999999996
 51
60.0
  0
LINE
  5
1B8
330
1F
100
AcDbEntity
  8
0
  6
Continuous
 62
     7
370
    15
100
AcDbLine
 10
180.0102650085
 20
171.6232542346
 30
0.0
 11
180.3352667847
 21
171.4356188128
 31
0.0
  0
ARC
  5
1B9
330
1F
100
AcDbEntity
  8
0
  6
Continuous
 62
     7
370
    15
100
AcDbCircle
 10
180.1352668214
 20
171.8397573266
 30
0.0
 40
0.2499999999999837
100
AcDbArc
 50
120.0
 51
240.0000000006
  0
LINE
  5
1BA
330
1F
100
AcDbEntity
  8
0
  6
Continuous
 62
     7
370
    15
100
AcDbLine
 10
180.3352667847
 20
172.2439024995
 30
0.0
 11
180.0102650085
 21
172.0562670777
 31
0.0
  0
ARC
  5
1BB
330
1F
100
AcDbEntity
  8
0
  6
Continuous
 62
     7
370
    15
100
AcDbCircle
 10
180.2852668214
 20
172.3305050554
 30
0.0
 40
0.1000000000000522
100
AcDbArc
 50
300.0
 51
60.0
  0
LINE
  5
1BC
330
1F
100
AcDbEntity
  8
0
  6
Continuous
 62
     7
370
    15
100
AcDbLine
 10
180.0102650085
 20
172.6047490189
 30
0.0
 11
180.3352667847
 21
172.4171135972
 31
0.0
  0
ARC
  5
1BD
330
1F
100
AcDbEntity
  8
0
  6
Continuous
 62
     7
370
    15
100
AcDbCircle
 10
180.1352668214
 20
172.8212527842
 30
0.0
 40
0.2499999999999997
100
AcDbArc
 50
120.0
 51
240.0
  0
LINE
  5
1BE
330
1F
100
AcDbEntity
  8
0
  6
Continuous
 62
     7
370
    15
100
AcDbLine
 10
180.3352667847
 20
173.2253972838
 30
0.0
 11
180.0102650085
 21
173.0377618621
 31
0.0
  0
ARC
  5
1BF
330
1F
100
AcDbEntity
  8
0
  6
Continuous
 62
     7
370
    15
100
AcDbCircle
 10
180.2852668214
 20
173.312000513
 30
0.0
 40
0.1000000000000796
100
AcDbArc
 50
300.0
 51
0.0
  0
LINE
  5
1C0
330
1F
100
AcDbEntity
  8
0
  6
Continuous
 62
     7
370
    15
100
AcDbLine
 10
180.3852676311
 20
182.0748541901
 30
0.0
 11
180.3852676311
 21
173.3120028327
 31
0.0
  0
ARC
  5
1C1
330
1F
100
AcDbEntity
  8
0
  6
Continuous
 62
     7
370
    15
100
AcDbCircle
 10
181.0852668214
 20
182.0748527842
 30
0.0
 40
0.6999999999999886
100
AcDbArc
 50
90.0
 51
180.0
  0
LINE
  5
1C2
330
1F
100
AcDbEntity
  8
0
  6
Continuous
 62
     7
370
    15
100
AcDbLine
 10
181.4852638998
 20
182.7748511384
 30
0.0
 11
181.0852645793
 21
182.7748511384
 31
0.0
  0
ARC
  5
1C3
330
1F
100
AcDbEntity
  8
0
  6
Continuous
 62
     7
370
    15
100
AcDbCircle
 10
181.4852668214
 20
182.0748527842
 30
0.0
 40
0.700000000000017
100
AcDbArc
 50
0.0
 51
90.0
  0
LINE
  5
1C4
330
1F
100
AcDbEntity
  8
0
  6
Continuous
 62
     7
370
    15
100
AcDbLine
 10
182.1852682987
 20
173.3120028327
 30
0.0
 11
182.1852682987
 21
182.0748541901
 31
0.0
  0
ARC
  5
1C5
330
1F
100
AcDbEntity
  8
0
  6
Continuous
 62
     7
370
    15
100
AcDbCircle
 10
182.2852668214
 20
173.312000513
 30
0.0
 40
0.1000000000000227
100
AcDbArc
 50
180.0
 51
240.0
  0
LINE
  5
1C6
330
1F
100
AcDbEntity
  8
0
  6
Continuous
 62
     7
370
    15
100
AcDbLine
 10
182.5602634707
 20
173.0377618621
 30
0.0
 11
182.235269145
 21
173.2253972838
 31
0.0
  0
ARC
  5
1C7
330
1F
100
AcDbEntity
  8
0
  6
Continuous
 62
     7
370
    15
100
AcDbCircle
 10
182.4352668214
 20
172.8212527842
 30
0.0
 40
0.2499999999999987
100
AcDbArc
 50
300.0
 51
60.0
  0
LINE
  5
1C8
330
1F
100
AcDbEntity
  8
0
  6
Continuous
 62
     7
370
    15
100
AcDbLine
 10
182.235269145
 20
172.4171135972
 30
0.0
 11
182.5602634707
 21
172.6047490189
 31
0.0
  0
ARC
  5
1C9
330
1F
100
AcDbEntity
  8
0
  6
Continuous
 62
     7
370
    15
100
AcDbCircle
 10
182.2852668214
 20
172.3305050554
 30
0.0
 40
0.1000000000000095
100
AcDbArc
 50
120.0
 51
240.0000000001
  0
LINE
  5
1CA
330
1F
100
AcDbEntity
  8
0
  6
Continuous
 62
     7
370
    15
100
AcDbLine
 10
182.5602634707
 20
172.0562670777
 30
0.0
 11
182.235269145
 21
172.2439024995
 31
0.0
  0
ARC
  5
1CB
330
1F
100
AcDbEntity
  8
0
  6
Continuous
 62
     7
370
    15
100
AcDbCircle
 10
182.4352668214
 20
171.8397573266
 30
0.0
 40
0.2500000000000101
100
AcDbArc
 50
300.0
 51
60.0
  0
LINE
  5
1CC
330
1F
100
AcDbEntity
  8
0
  6
Continuous
 62
     7
370
    15
100
AcDbLine
 10
182.235269145
 20
171.4356188128
 30
0.0
 11
182.5602634707
 21
171.6232542346
 31
0.0
  0
ARC
  5
1CD
330
1F
100
AcDbEntity
  8
0
  6
Continuous
 62
     7
370
    15
100
AcDbCircle
 10
182.2852668214
 20
171.3490095978
 30
0.0
 40
0.1000000000000133
100
AcDbArc
 50
120.0
 51
240.0
  0
LINE
  5
1CE
330
1F
100
AcDbEntity
  8
0
  6
Continuous
 62
     7
370
    15
100
AcDbLine
 10
182.5602634707
 20
171.0747722933
 30
0.0
 11
182.235269145
 21
171.2624077151
 31
0.0
  0
ARC
  5
1CF
330
1F
100
AcDbEntity
  8
0
  6
Continuous
 62
     7
370
    15
100
AcDbCircle
 10
182.4352668214
 20
170.858261869
 30
0.0
 40
0.2499999999999959
100
AcDbArc
 50
300.0
 51
60.0
  0
LINE
  5
1D0
330
1F
100
AcDbEntity
  8
0
  6
Continuous
 62
     7
370
    15
100
AcDbLine
 10
182.235269145
 20
170.4541240285
 30
0.0
 11
182.5602634707
 21
170.6417594502
 31
0.0
  0
ARC
  5
1D1
330
1F
100
AcDbEntity
  8
0
  6
Continuous
 62
     7
370
    15
100
AcDbCircle
 10
182.2852668214
 20
170.3675141402
 30
0.0
 40
0.1000000000000237
100
AcDbArc
 50
120.0
 51
240.0
  0
LINE
  5
1D2
330
1F
100
AcDbEntity
  8
0
  6
Continuous
 62
     7
370
    15
100
AcDbLine
 10
182.5602634707
 20
170.093277509
 30
0.0
 11
182.235269145
 21
170.2809129307
 31
0.0
  0
ARC
  5
1D3
330
1F
100
AcDbEntity
  8
0
  6
Continuous
 62
     7
370
    15
100
AcDbCircle
 10
182.4352668214
 20
169.8767664113
 30
0.0
 40
0.2500000000000101
100
AcDbArc
 50
300.0
 51
60.0
  0
LINE
  5
1D4
330
1F
100
AcDbEntity
  8
0
  6
Continuous
 62
     7
370
    15
100
AcDbLine
 10
182.235269145
 20
169.4726143429
 30
0.0
 11
182.5602634707
 21
169.6602646659
 31
0.0
  0
ARC
  5
1D5
330
1F
100
AcDbEntity
  8
0
  6
Continuous
 62
     7
370
    15
100
AcDbCircle
 10
182.2852668214
 20
169.3860186825
 30
0.0
 40
0.1000000000000095
100
AcDbArc
 50
120.0
 51
240.0
  0
LINE
  5
1D6
330
1F
100
AcDbEntity
  8
0
  6
Continuous
 62
     7
370
    15
100
AcDbLine
 10
182.5602634707
 20
169.1117827246
 30
0.0
 11
182.235269145
 21
169.2994181464
 31
0.0
  0
ARC
  5
1D7
330
1F
100
AcDbEntity
  8
0
  6
Continuous
 62
     7
370
    15
100
AcDbCircle
 10
182.4352668214
 20
168.8952709537
 30
0.0
 40
0.2499999999999817
100
AcDbArc
 50
300.0
 51
60.0
  0
LINE
  5
1D8
330
1F
100
AcDbEntity
  8
0
  6
Continuous
 62
     7
370
    15
100
AcDbLine
 10
182.235269145
 20
168.4911195586
 30
0.0
 11
182.5602634707
 21
168.6787698815
 31
0.0
  0
ARC
  5
1D9
330
1F
100
AcDbEntity
  8
0
  6
Continuous
 62
     7
370
    15
100
AcDbCircle
 10
182.2852668214
 20
168.4045232249
 30
0.0
 40
0.1000000000000275
100
AcDbArc
 50
120.0
 51
240.0
  0
LINE
  5
1DA
330
1F
100
AcDbEntity
  8
0
  6
Continuous
 62
     7
370
    15
100
AcDbLine
 10
182.5602634707
 20
168.1302879403
 30
0.0
 11
182.235269145
 21
168.317923362
 31
0.0
  0
ARC
  5
1DB
330
1F
100
AcDbEntity
  8
0
  6
Continuous
 62
     7
370
    15
100
AcDbCircle
 10
182.4352668214
 20
167.9137754961
 30
0.0
 40
0.2499999999999817
100
AcDbArc
 50
300.0
 51
60.0
  0
LINE
  5
1DC
330
1F
100
AcDbEntity
  8
0
  6
Continuous
 62
     7
370
    15
100
AcDbLine
 10
182.235269145
 20
167.5096247742
 30
0.0
 11
182.5602634707
 21
167.6972750971
 31
0.0
  0
ARC
  5
1DD
330
1F
100
AcDbEntity
  8
0
  6
Continuous
 62
     7
370
    15
100
AcDbCircle
 10
182.2852668214
 20
167.4230277673
 30
0.0
 40
0.1000000000000095
100
AcDbArc
 50
120.0
 51
240.0
  0
LINE
  5
1DE
330
1F
100
AcDbEntity
  8
0
  6
Continuous
 62
     7
370
    15
100
AcDbLine
 10
182.5602634707
 20
167.1487931559
 30
0.0
 11
182.235269145
 21
167.3364285777
 31
0.0
  0
ARC
  5
1DF
330
1F
100
AcDbEntity
  8
0
  6
Continuous
 62
     7
370
    15
100
AcDbCircle
 10
182.4352668214
 20
166.9322800385
 30
0.0
 40
0.2499999999999959
100
AcDbArc
 50
300.0
 51
60.0
  0
LINE
  5
1E0
330
1F
100
AcDbEntity
  8
0
  6
Continuous
 62
     7
370
    15
100
AcDbLine
 10
182.235269145
 20
166.5281299899
 30
0.0
 11
182.5602634707
 21
166.7157803128
 31
0.0
  0
ARC
  5
1E1
330
1F
100
AcDbEntity
  8
0
  6
Continuous
 62
     7
370
    15
100
AcDbCircle
 10
182.2852668214
 20
166.4415323097
 30
0.0
 40
0.0999999999999887
100
AcDbArc
 50
120.0
 51
240.0
  0
LINE
  5
1E2
330
1F
100
AcDbEntity
  8
0
  6
Continuous
 62
     7
370
    15
100
AcDbLine
 10
182.5602634707
 20
166.1672983716
 30
0.0
 11
182.235269145
 21
166.3549337933
 31
0.0
  0
ARC
  5
1E3
330
1F
100
AcDbEntity
  8
0
  6
Continuous
 62
     7
370
    15
100
AcDbCircle
 10
182.4352668214
 20
165.9507845809
 30
0.0
 40
0.2499999999999893
100
AcDbArc
 50
300.0
 51
60.0
  0
LINE
  5
1E4
330
1F
100
AcDbEntity
  8
0
  6
Continuous
 62
     7
370
    15
100
AcDbLine
 10
182.235269145
 20
165.5466352055
 30
0.0
 11
182.5602634707
 21
165.7342855284
 31
0.0
  0
ARC
  5
1E5
330
1F
100
AcDbEntity
  8
0
  6
Continuous
 62
     7
370
    15
100
AcDbCircle
 10
182.2852668214
 20
165.460036852
 30
0.0
 40
0.0999999999999887
100
AcDbArc
 50
120.0
 51
240.0
  0
LINE
  5
1E6
330
1F
100
AcDbEntity
  8
0
  6
Continuous
 62
     7
370
    15
100
AcDbLine
 10
182.5602634707
 20
165.1857886861
 30
0.0
 11
182.235269145
 21
165.373439009
 31
0.0
  0
ARC
  5
1E7
330
1F
100
AcDbEntity
  8
0
  6
Continuous
 62
     7
370
    15
100
AcDbCircle
 10
182.4352668214
 20
164.9692891232
 30
0.0
 40
0.2499999999999855
100
AcDbArc
 50
300.0
 51
60.0
  0
LINE
  5
1E8
330
1F
100
AcDbEntity
  8
0
  6
Continuous
 62
     7
370
    15
100
AcDbLine
 10
182.235269145
 20
164.5651404212
 30
0.0
 11
182.5602634707
 21
164.7527758429
 31
0.0
  0
ARC
  5
1E9
330
1F
100
AcDbEntity
  8
0
  6
Continuous
 62
     7
370
    15
100
AcDbCircle
 10
182.2852668214
 20
164.4785413944
 30
0.0
 40
0.0999999999999953
100
AcDbArc
 50
120.0000000001
 51
240.0
  0
LINE
  5
1EA
330
1F
100
AcDbEntity
  8
0
  6
Continuous
 62
     7
370
    15
100
AcDbLine
 10
182.5602634707
 20
164.2042939017
 30
0.0
 11
182.235269145
 21
164.3919442246
 31
0.0
  0
ARC
  5
1EB
330
1F
100
AcDbEntity
  8
0
  6
Continuous
 62
     7
370
    15
100
AcDbCircle
 10
182.4352668214
 20
163.9877936656
 30
0.0
 40
0.2500000000000063
100
AcDbArc
 50
300.0
 51
60.0
  0
LINE
  5
1EC
330
1F
100
AcDbEntity
  8
0
  6
Continuous
 62
     7
370
    15
100
AcDbLine
 10
182.235269145
 20
163.5836456368
 30
0.0
 11
182.5602634707
 21
163.7712810586
 31
0.0
  0
ARC
  5
1ED
330
1F
100
AcDbEntity
  8
0
  6
Continuous
 62
     7
370
    15
100
AcDbCircle
 10
182.2852668214
 20
163.4970459368
 30
0.0
 40
0.1000000000000209
100
AcDbArc
 50
120.0000000001
 51
240.0
  0
LINE
  5
1EE
330
1F
100
AcDbEntity
  8
0
  6
Continuous
 62
     7
370
    15
100
AcDbLine
 10
182.5602634707
 20
163.2227991173
 30
0.0
 11
182.235269145
 21
163.4104494403
 31
0.0
  0
ARC
  5
1EF
330
1F
100
AcDbEntity
  8
0
  6
Continuous
 62
     7
370
    15
100
AcDbCircle
 10
182.4352668214
 20
163.006298208
 30
0.0
 40
0.2499999999999959
100
AcDbArc
 50
300.0
 51
60.0
  0
LINE
  5
1F0
330
1F
100
AcDbEntity
  8
0
  6
Continuous
 62
     7
370
    15
100
AcDbLine
 10
182.235269145
 20
162.6021508525
 30
0.0
 11
182.5602634707
 21
162.7897862742
 31
0.0
  0
ARC
  5
1F1
330
1F
100
AcDbEntity
  8
0
  6
Continuous
 62
     7
370
    15
100
AcDbCircle
 10
182.2852668214
 20
162.5155504792
 30
0.0
 40
0.1000000000000029
100
AcDbArc
 50
120.0
 51
240.0
  0
LINE
  5
1F2
330
1F
100
AcDbEntity
  8
0
  6
Continuous
 62
     7
370
    15
100
AcDbLine
 10
182.5602634707
 20
162.241304333
 30
0.0
 11
182.235269145
 21
162.4289546559
 31
0.0
  0
ARC
  5
1F3
330
1F
100
AcDbEntity
  8
0
  6
Continuous
 62
     7
370
    15
100
AcDbCircle
 10
182.4352668214
 20
162.0248027504
 30
0.0
 40
0.2500000000000205
100
AcDbArc
 50
300.0
 51
60.0
  0
LINE
  5
1F4
330
1F
100
AcDbEntity
  8
0
  6
Continuous
 62
     7
370
    15
100
AcDbLine
 10
182.235269145
 20
161.6206560681
 30
0.0
 11
182.5602634707
 21
161.8082914899
 31
0.0
  0
ARC
  5
1F5
330
1F
100
AcDbEntity
  8
0
  6
Continuous
 62
     7
370
    15
100
AcDbCircle
 10
182.2852668214
 20
161.5340550216
 30
0.0
 40
0.1000000000000029
100
AcDbArc
 50
120.0
 51
240.0
  0
LINE
  5
1F6
330
1F
100
AcDbEntity
  8
0
  6
Continuous
 62
     7
370
    15
100
AcDbLine
 10
182.5602634707
 20
161.2598095486
 30
0.0
 11
182.235269145
 21
161.4474598715
 31
0.0
  0
ARC
  5
1F7
330
1F
100
AcDbEntity
  8
0
  6
Continuous
 62
     7
370
    15
100
AcDbCircle
 10
182.4352668214
 20
161.0433072927
 30
0.0
 40
0.2499999999999817
100
AcDbArc
 50
300.0
 51
60.0
  0
LINE
  5
1F8
330
1F
100
AcDbEntity
  8
0
  6
Continuous
 62
     7
370
    15
100
AcDbLine
 10
182.235269145
 20
160.6391612837
 30
0.0
 11
182.5602634707
 21
160.8267967055
 31
0.0
  0
ARC
  5
1F9
330
1F
100
AcDbEntity
  8
0
  6
Continuous
 62
     7
370
    15
100
AcDbCircle
 10
182.2852668214
 20
160.5525595639
 30
0.0
 40
0.1000000000000417
100
AcDbArc
 50
120.0000000001
 51
240.0
  0
LINE
  5
1FA
330
1F
100
AcDbEntity
  8
0
  6
Continuous
 62
     7
370
    15
100
AcDbLine
 10
182.5602634707
 20
160.2783147643
 30
0.0
 11
182.235269145
 21
160.465950186
 31
0.0
  0
ARC
  5
1FB
330
1F
100
AcDbEntity
  8
0
  6
Continuous
 62
     7
370
    15
100
AcDbCircle
 10
182.4352668214
 20
160.0618118351
 30
0.0
 40
0.2500000000000063
100
AcDbArc
 50
300.0
 51
60.0
  0
LINE
  5
1FC
330
1F
100
AcDbEntity
  8
0
  6
Continuous
 62
     7
370
    15
100
AcDbLine
 10
182.235269145
 20
159.6576664994
 30
0.0
 11
182.5602634707
 21
159.8453019211
 31
0.0
  0
ARC
  5
1FD
330
1F
100
AcDbEntity
  8
0
  6
Continuous
 62
     7
370
    15
100
AcDbCircle
 10
182.2852668214
 20
159.5710641063
 30
0.0
 40
0.1000000000000199
100
AcDbArc
 50
120.0
 51
240.0
  0
LINE
  5
1FE
330
1F
100
AcDbEntity
  8
0
  6
Continuous
 62
     7
370
    15
100
AcDbLine
 10
182.57526894
 20
159.2881624053
 30
0.0
 11
182.235269145
 21
159.4844554017
 31
0.0
  0
ARC
  5
1FF
330
1F
100
AcDbEntity
  8
0
  6
Continuous
 62
     7
370
    15
100
AcDbCircle
 10
182.4502686247
 20
159.0716550823
 30
0.0
 40
0.2499999999891895
100
AcDbArc
 50
0.064626054
 51
59.9999999972
  0
ARC
  5
200
330
1F
100
AcDbEntity
  8
0
  6
Continuous
 62
     7
370
    15
100
AcDbCircle
 10
185.2852668213
 20
159.0748527842
 30
0.0
 40
2.584999999999999
100
AcDbArc
 50
180.064626054
 51
269.9999
  0
LINE
  5
201
330
1F
100
AcDbEntity
  8
0
  6
Continuous
 62
     7
370
    15
100
AcDbLine
 10
185.8852713266
 20
156.4898584435
 30
0.0
 11
185.2852611699
 21
156.4898584435
 31
0.0
  0
ARC
  5
202
330
1F
100
AcDbEntity
  8
0
  6
Continuous
 62
     7
370
    15
100
AcDbCircle
 10
185.8852668214
 20
159.0748527842
 30
0.0
 40
2.584999999999999
100
AcDbArc
 50
270.0001
 51
359.935373946
  0
ARC
  5
203
330
1F
100
AcDbEntity
  8
0
  6
Continuous
 62
     7
370
    15
100
AcDbCircle
 10
188.720265018
 20
159.0716550823
 30
0.0
 40
0.2499999999891649
100
AcDbArc
 50
120.0000000028
 51
179.9353739461
  0
LINE
  5
204
330
1F
100
AcDbEntity
  8
0
  6
Continuous
 62
     7
370
    15
100
AcDbLine
 10
188.9352633515
 20
159.4844554017
 30
0.0
 11
188.5952635565
 21
159.2881624053
 31
0.0
  0
ARC
  5
205
330
1F
100
AcDbEntity
  8
0
  6
Continuous
 62
     7
370
    15
100
AcDbCircle
 10
188.8852668214
 20
159.5710641063
 30
0.0
 40
0.0999999999999971
100
AcDbArc
 50
299.9999999997
 51
60.0
  0
LINE
  5
206
330
1F
100
AcDbEntity
  8
0
  6
Continuous
 62
     7
370
    15
100
AcDbLine
 10
188.6102690258
 20
159.8453019211
 30
0.0
 11
188.9352633515
 21
159.6576664994
 31
0.0
  0
ARC
  5
207
330
1F
100
AcDbEntity
  8
0
  6
Continuous
 62
     7
370
    15
100
AcDbCircle
 10
188.7352668214
 20
160.0618118351
 30
0.0
 40
0.250000000000008
100
AcDbArc
 50
120.0
 51
240.0000000001
  0
LINE
  5
208
330
1F
100
AcDbEntity
  8
0
  6
Continuous
 62
     7
370
    15
100
AcDbLine
 10
188.9352633515
 20
160.465950186
 30
0.0
 11
188.6102690258
 21
160.2783147643
 31
0.0
  0
ARC
  5
209
330
1F
100
AcDbEntity
  8
0
  6
Continuous
 62
     7
370
    15
100
AcDbCircle
 10
188.8852668214
 20
160.5525595639
 30
0.0
 40
0.1000000000000029
100
AcDbArc
 50
299.9999999997
 51
60.0
  0
LINE
  5
20A
330
1F
100
AcDbEntity
  8
0
  6
Continuous
 62
     7
370
    15
100
AcDbLine
 10
188.6102690258
 20
160.8267967055
 30
0.0
 11
188.9352633515
 21
160.6391612837
 31
0.0
  0
ARC
  5
20B
330
1F
100
AcDbEntity
  8
0
  6
Continuous
 62
     7
370
    15
100
AcDbCircle
 10
188.7352668214
 20
161.0433072927
 30
0.0
 40
0.2499999999999984
100
AcDbArc
 50
120.0
 51
240.0000000002
  0
LINE
  5
20C
330
1F
100
AcDbEntity
  8
0
  6
Continuous
 62
     7
370
    15
100
AcDbLine
 10
188.9352633515
 20
161.4474598715
 30
0.0
 11
188.6102690258
 21
161.2598095486
 31
0.0
  0
ARC
  5
20D
330
1F
100
AcDbEntity
  8
0
  6
Continuous
 62
     7
370
    15
100
AcDbCircle
 10
188.8852668214
 20
161.5340550216
 30
0.0
 40
0.1000000000000314
100
AcDbArc
 50
299.9999999997
 51
59.9999999999
  0
LINE
  5
20E
330
1F
100
AcDbEntity
  8
0
  6
Continuous
 62
     7
370
    15
100
AcDbLine
 10
188.6102690258
 20
161.8082914899
 30
0.0
 11
188.9352633515
 21
161.6206560681
 31
0.0
  0
ARC
  5
20F
330
1F
100
AcDbEntity
  8
0
  6
Continuous
 62
     7
370
    15
100
AcDbCircle
 10
188.7352668214
 20
162.0248027504
 30
0.0
 40
0.2499999999999939
100
AcDbArc
 50
120.0
 51
240.0000000001
  0
LINE
  5
210
330
1F
100
AcDbEntity
  8
0
  6
Continuous
 62
     7
370
    15
100
AcDbLine
 10
188.9352633515
 20
162.4289546559
 30
0.0
 11
188.6102690258
 21
162.241304333
 31
0.0
  0
ARC
  5
211
330
1F
100
AcDbEntity
  8
0
  6
Continuous
 62
     7
370
    15
100
AcDbCircle
 10
188.8852668214
 20
162.5155504792
 30
0.0
 40
0.1000000000000217
100
AcDbArc
 50
299.9999999997
 51
59.9999999999
  0
LINE
  5
212
330
1F
100
AcDbEntity
  8
0
  6
Continuous
 62
     7
370
    15
100
AcDbLine
 10
188.6102690258
 20
162.7897862742
 30
0.0
 11
188.9352633515
 21
162.6021508525
 31
0.0
  0
ARC
  5
213
330
1F
100
AcDbEntity
  8
0
  6
Continuous
 62
     7
370
    15
100
AcDbCircle
 10
188.7352668214
 20
163.006298208
 30
0.0
 40
0.2500000000000109
100
AcDbArc
 50
120.0
 51
240.0000000001
  0
LINE
  5
214
330
1F
100
AcDbEntity
  8
0
  6
Continuous
 62
     7
370
    15
100
AcDbLine
 10
188.9352633515
 20
163.4104494403
 30
0.0
 11
188.6102690258
 21
163.2227991173
 31
0.0
  0
ARC
  5
215
330
1F
100
AcDbEntity
  8
0
  6
Continuous
 62
     7
370
    15
100
AcDbCircle
 10
188.8852668214
 20
163.4970459368
 30
0.0
 40
0.1000000000000314
100
AcDbArc
 50
299.9999999995
 51
59.9999999999
  0
LINE
  5
216
330
1F
100
AcDbEntity
  8
0
  6
Continuous
 62
     7
370
    15
100
AcDbLine
 10
188.6102690258
 20
163.7712810586
 30
0.0
 11
188.9352633515
 21
163.5836456368
 31
0.0
  0
ARC
  5
217
330
1F
100
AcDbEntity
  8
0
  6
Continuous
 62
     7
370
    15
100
AcDbCircle
 10
188.7352668214
 20
163.9877936656
 30
0.0
 40
0.2500000000000053
100
AcDbArc
 50
120.0
 51
240.0000000001
  0
LINE
  5
218
330
1F
100
AcDbEntity
  8
0
  6
Continuous
 62
     7
370
    15
100
AcDbLine
 10
188.9352633515
 20
164.3919442246
 30
0.0
 11
188.6102690258
 21
164.2042939017
 31
0.0
  0
ARC
  5
219
330
1F
100
AcDbEntity
  8
0
  6
Continuous
 62
     7
370
    15
100
AcDbCircle
 10
188.8852668214
 20
164.4785413944
 30
0.0
 40
0.1000000000000085
100
AcDbArc
 50
299.9999999999
 51
60.0
  0
LINE
  5
21A
330
1F
100
AcDbEntity
  8
0
  6
Continuous
 62
     7
370
    15
100
AcDbLine
 10
188.6102690258
 20
164.7527758429
 30
0.0
 11
188.9352633515
 21
164.5651404212
 31
0.0
  0
ARC
  5
21B
330
1F
100
AcDbEntity
  8
0
  6
Continuous
 62
     7
370
    15
100
AcDbCircle
 10
188.7352668214
 20
164.9692891232
 30
0.0
 40
0.2500000000000014
100
AcDbArc
 50
120.0
 51
240.0000000001
  0
LINE
  5
21C
330
1F
100
AcDbEntity
  8
0
  6
Continuous
 62
     7
370
    15
100
AcDbLine
 10
188.9352633515
 20
165.373439009
 30
0.0
 11
188.6102690258
 21
165.1857886861
 31
0.0
  0
ARC
  5
21D
330
1F
100
AcDbEntity
  8
0
  6
Continuous
 62
     7
370
    15
100
AcDbCircle
 10
188.8852668214
 20
165.460036852
 30
0.0
 40
0.1000000000000275
100
AcDbArc
 50
299.9999999999
 51
60.0
  0
LINE
  5
21E
330
1F
100
AcDbEntity
  8
0
  6
Continuous
 62
     7
370
    15
100
AcDbLine
 10
188.6102690258
 20
165.7342855284
 30
0.0
 11
188.9352633515
 21
165.5466352055
 31
0.0
  0
ARC
  5
21F
330
1F
100
AcDbEntity
  8
0
  6
Continuous
 62
     7
370
    15
100
AcDbCircle
 10
188.7352668214
 20
165.9507845809
 30
0.0
 40
0.2500000000000139
100
AcDbArc
 50
120.0
 51
240.0
  0
LINE
  5
220
330
1F
100
AcDbEntity
  8
0
  6
Continuous
 62
     7
370
    15
100
AcDbLine
 10
188.9352633515
 20
166.3549337933
 30
0.0
 11
188.6102690258
 21
166.1672983716
 31
0.0
  0
ARC
  5
221
330
1F
100
AcDbEntity
  8
0
  6
Continuous
 62
     7
370
    15
100
AcDbCircle
 10
188.8852668214
 20
166.4415323097
 30
0.0
 40
0.1000000000000133
100
AcDbArc
 50
299.9999999999
 51
60.0
  0
LINE
  5
222
330
1F
100
AcDbEntity
  8
0
  6
Continuous
 62
     7
370
    15
100
AcDbLine
 10
188.6102690258
 20
166.7157803128
 30
0.0
 11
188.9352633515
 21
166.5281299899
 31
0.0
  0
ARC
  5
223
330
1F
100
AcDbEntity
  8
0
  6
Continuous
 62
     7
370
    15
100
AcDbCircle
 10
188.7352668214
 20
166.9322800385
 30
0.0
 40
0.2500000000000223
100
AcDbArc
 50
120.0
 51
240.0000000001
  0
LINE
  5
224
330
1F
100
AcDbEntity
  8
0
  6
Continuous
 62
     7
370
    15
100
AcDbLine
 10
188.9352633515
 20
167.3364285777
 30
0.0
 11
188.6102690258
 21
167.1487931559
 31
0.0
  0
ARC
  5
225
330
1F
100
AcDbEntity
  8
0
  6
Continuous
 62
     7
370
    15
100
AcDbCircle
 10
188.8852668214
 20
167.4230277673
 30
0.0
 40
0.1000000000000179
100
AcDbArc
 50
299.9999999997
 51
60.0
  0
LINE
  5
226
330
1F
100
AcDbEntity
  8
0
  6
Continuous
 62
     7
370
    15
100
AcDbLine
 10
188.6102690258
 20
167.6972750971
 30
0.0
 11
188.9352633515
 21
167.5096247742
 31
0.0
  0
ARC
  5
227
330
1F
100
AcDbEntity
  8
0
  6
Continuous
 62
     7
370
    15
100
AcDbCircle
 10
188.7352668214
 20
167.9137754961
 30
0.0
 40
0.2500000000000032
100
AcDbArc
 50
120.0
 51
240.0000000002
  0
LINE
  5
228
330
1F
100
AcDbEntity
  8
0
  6
Continuous
 62
     7
370
    15
100
AcDbLine
 10
188.9352633515
 20
168.317923362
 30
0.0
 11
188.6102690258
 21
168.1302879403
 31
0.0
  0
ARC
  5
229
330
1F
100
AcDbEntity
  8
0
  6
Continuous
 62
     7
370
    15
100
AcDbCircle
 10
188.8852668214
 20
168.4045232249
 30
0.0
 40
0.1000000000000314
100
AcDbArc
 50
299.999999999
 51
59.9999999999
  0
LINE
  5
22A
330
1F
100
AcDbEntity
  8
0
  6
Continuous
 62
     7
370
    15
100
AcDbLine
 10
188.6102690258
 20
168.6787698815
 30
0.0
 11
188.9352633515
 21
168.4911195586
 31
0.0
  0
ARC
  5
22B
330
1F
100
AcDbEntity
  8
0
  6
Continuous
 62
     7
370
    15
100
AcDbCircle
 10
188.7352668214
 20
168.8952709537
 30
0.0
 40
0.2500000000000451
100
AcDbArc
 50
120.0
 51
239.9999999995
  0
LINE
  5
22C
330
1F
100
AcDbEntity
  8
0
  6
Continuous
 62
     7
370
    15
100
AcDbLine
 10
188.9352633515
 20
169.2994181464
 30
0.0
 11
188.6102690258
 21
169.1117827246
 31
0.0
  0
ARC
  5
22D
330
1F
100
AcDbEntity
  8
0
  6
Continuous
 62
     7
370
    15
100
AcDbCircle
 10
188.8852668214
 20
169.3860186825
 30
0.0
 40
0.1000000000000133
100
AcDbArc
 50
299.9999999997
 51
60.0
  0
LINE
  5
22E
330
1F
100
AcDbEntity
  8
0
  6
Continuous
 62
     7
370
    15
100
AcDbLine
 10
188.6102690258
 20
169.6602646659
 30
0.0
 11
188.9352633515
 21
169.4726143429
 31
0.0
  0
ARC
  5
22F
330
1F
100
AcDbEntity
  8
0
  6
Continuous
 62
     7
370
    15
100
AcDbCircle
 10
188.7352668214
 20
169.8767664113
 30
0.0
 40
0.2499999999999817
100
AcDbArc
 50
120.0
 51
240.0
  0
LINE
  5
230
330
1F
100
AcDbEntity
  8
0
  6
Continuous
 62
     7
370
    15
100
AcDbLine
 10
188.9352633515
 20
170.2809129307
 30
0.0
 11
188.6102690258
 21
170.093277509
 31
0.0
  0
ARC
  5
231
330
1F
100
AcDbEntity
  8
0
  6
Continuous
 62
     7
370
    15
100
AcDbCircle
 10
188.8852668214
 20
170.3675141402
 30
0.0
 40
0.0999999999999991
100
AcDbArc
 50
299.9999999992
 51
60.0
  0
LINE
  5
232
330
1F
100
AcDbEntity
  8
0
  6
Continuous
 62
     7
370
    15
100
AcDbLine
 10
188.6102690258
 20
170.6417594502
 30
0.0
 11
188.9352633515
 21
170.4541240285
 31
0.0
  0
ARC
  5
233
330
1F
100
AcDbEntity
  8
0
  6
Continuous
 62
     7
370
    15
100
AcDbCircle
 10
188.7352668214
 20
170.858261869
 30
0.0
 40
0.2500000000000377
100
AcDbArc
 50
120.0
 51
240.0000000006
  0
LINE
  5
234
330
1F
100
AcDbEntity
  8
0
  6
Continuous
 62
     7
370
    15
100
AcDbLine
 10
188.9352633515
 20
171.2624077151
 30
0.0
 11
188.6102690258
 21
171.0747722933
 31
0.0
  0
ARC
  5
235
330
1F
100
AcDbEntity
  8
0
  6
Continuous
 62
     7
370
    15
100
AcDbCircle
 10
188.8852668214
 20
171.3490095978
 30
0.0
 40
0.1000000000000379
100
AcDbArc
 50
299.9999999997
 51
60.0
  0
LINE
  5
236
330
1F
100
AcDbEntity
  8
0
  6
Continuous
 62
     7
370
    15
100
AcDbLine
 10
188.6102690258
 20
171.6232542346
 30
0.0
 11
188.9352633515
 21
171.4356188128
 31
0.0
  0
ARC
  5
237
330
1F
100
AcDbEntity
  8
0
  6
Continuous
 62
     7
370
    15
100
AcDbCircle
 10
188.7352668214
 20
171.8397573266
 30
0.0
 40
0.2499999999999883
100
AcDbArc
 50
120.0
 51
240.0000000006
  0
LINE
  5
238
330
1F
100
AcDbEntity
  8
0
  6
Continuous
 62
     7
370
    15
100
AcDbLine
 10
188.9352633515
 20
172.2439024995
 30
0.0
 11
188.6102690258
 21
172.0562670777
 31
0.0
  0
ARC
  5
239
330
1F
100
AcDbEntity
  8
0
  6
Continuous
 62
     7
370
    15
100
AcDbCircle
 10
188.8852668214
 20
172.3305050554
 30
0.0
 40
0.1000000000000237
100
AcDbArc
 50
300.0
 51
60.0
  0
LINE
  5
23A
330
1F
100
AcDbEntity
  8
0
  6
Continuous
 62
     7
370
    15
100
AcDbLine
 10
188.6102690258
 20
172.6047490189
 30
0.0
 11
188.9352633515
 21
172.4171135972
 31
0.0
  0
ARC
  5
23B
330
1F
100
AcDbEntity
  8
0
  6
Continuous
 62
     7
370
    15
100
AcDbCircle
 10
188.7352668214
 20
172.8212527842
 30
0.0
 40
0.2500000000000129
100
AcDbArc
 50
120.0
 51
240.0
  0
LINE
  5
23C
330
1F
100
AcDbEntity
  8
0
  6
Continuous
 62
     7
370
    15
100
AcDbLine
 10
188.9352633515
 20
173.2253972838
 30
0.0
 11
188.6102690258
 21
173.0377618621
 31
0.0
  0
ARC
  5
23D
330
1F
100
AcDbEntity
  8
0
  6
Continuous
 62
     7
370
    15
100
AcDbCircle
 10
188.8852668214
 20
173.312000513
 30
0.0
 40
0.100000000000091
100
AcDbArc
 50
300.0
 51
0.0
  0
LINE
  5
23E
330
1F
100
AcDbEntity
  8
0
  6
Continuous
 62
     7
370
    15
100
AcDbLine
 10
188.9852641979
 20
182.0748541901
 30
0.0
 11
188.9852641979
 21
173.3120028327
 31
0.0
  0
ARC
  5
23F
330
1F
100
AcDbEntity
  8
0
  6
Continuous
 62
     7
370
    15
100
AcDbCircle
 10
189.6852668214
 20
182.0748527842
 30
0.0
 40
0.7000000000000455
100
AcDbArc
 50
90.0
 51
180.0
  0
LINE
  5
240
330
1F
100
AcDbEntity
  8
0
  6
Continuous
 62
     7
370
    15
100
AcDbLine
 10
190.0852679172
 20
182.7748511384
 30
0.0
 11
189.6852685967
 21
182.7748511384
 31
0.0
  0
ARC
  5
241
330
1F
100
AcDbEntity
  8
0
  6
Continuous
 62
     7
370
    15
100
AcDbCircle
 10
190.0852668214
 20
182.0748527842
 30
0.0
 40
0.700000000000017
100
AcDbArc
 50
0.0
 51
90.0
  0
LINE
  5
242
330
1F
100
AcDbEntity
  8
0
  6
Continuous
 62
     7
370
    15
100
AcDbLine
 10
190.7852648654
 20
173.3120028327
 30
0.0
 11
190.7852648654
 21
182.0748541901
 31
0.0
  0
ARC
  5
243
330
1F
100
AcDbEntity
  8
0
  6
Continuous
 62
     7
370
    15
100
AcDbCircle
 10
190.8852668214
 20
173.312000513
 30
0.0
 40
0.0999999999999849
100
AcDbArc
 50
180.0
 51
240.0
  0
LINE
  5
244
330
1F
100
AcDbEntity
  8
0
  6
Continuous
 62
     7
370
    15
100
AcDbLine
 10
191.160267488
 20
173.0377618621
 30
0.0
 11
190.8352657118
 21
173.2253972838
 31
0.0
  0
ARC
  5
245
330
1F
100
AcDbEntity
  8
0
  6
Continuous
 62
     7
370
    15
100
AcDbCircle
 10
191.0352668214
 20
172.8212527842
 30
0.0
 40
0.2500000000000243
100
AcDbArc
 50
300.0
 51
60.0
  0
LINE
  5
246
330
1F
100
AcDbEntity
  8
0
  6
Continuous
 62
     7
370
    15
100
AcDbLine
 10
190.8352657118
 20
172.4171135972
 30
0.0
 11
191.160267488
 21
172.6047490189
 31
0.0
  0
ARC
  5
247
330
1F
100
AcDbEntity
  8
0
  6
Continuous
 62
     7
370
    15
100
AcDbCircle
 10
190.8852668214
 20
172.3305050554
 30
0.0
 40
0.1000000000000341
100
AcDbArc
 50
120.0
 51
240.0
  0
LINE
  5
248
330
1F
100
AcDbEntity
  8
0
  6
Continuous
 62
     7
370
    15
100
AcDbLine
 10
191.160267488
 20
172.0562670777
 30
0.0
 11
190.8352657118
 21
172.2439024995
 31
0.0
  0
ARC
  5
249
330
1F
100
AcDbEntity
  8
0
  6
Continuous
 62
     7
370
    15
100
AcDbCircle
 10
191.0352668214
 20
171.8397573266
 30
0.0
 40
0.2499999999999855
100
AcDbArc
 50
300.0
 51
60.0
  0
LINE
  5
24A
330
1F
100
AcDbEntity
  8
0
  6
Continuous
 62
     7
370
    15
100
AcDbLine
 10
190.8352657118
 20
171.4356188128
 30
0.0
 11
191.160267488
 21
171.6232542346
 31
0.0
  0
ARC
  5
24B
330
1F
100
AcDbEntity
  8
0
  6
Continuous
 62
     7
370
    15
100
AcDbCircle
 10
190.8852668214
 20
171.3490095978
 30
0.0
 40
0.0999999999999811
100
AcDbArc
 50
119.9999999999
 51
240.0
  0
LINE
  5
24C
330
1F
100
AcDbEntity
  8
0
  6
Continuous
 62
     7
370
    15
100
AcDbLine
 10
191.160267488
 20
171.0747722933
 30
0.0
 11
190.8352657118
 21
171.2624077151
 31
0.0
  0
ARC
  5
24D
330
1F
100
AcDbEntity
  8
0
  6
Continuous
 62
     7
370
    15
100
AcDbCircle
 10
191.0352668214
 20
170.858261869
 30
0.0
 40
0.2500000000000347
100
AcDbArc
 50
300.0
 51
60.0
  0
LINE
  5
24E
330
1F
100
AcDbEntity
  8
0
  6
Continuous
 62
     7
370
    15
100
AcDbLine
 10
190.8352657118
 20
170.4541240285
 30
0.0
 11
191.160267488
 21
170.6417594502
 31
0.0
  0
ARC
  5
24F
330
1F
100
AcDbEntity
  8
0
  6
Continuous
 62
     7
370
    15
100
AcDbCircle
 10
190.8852668214
 20
170.3675141402
 30
0.0
 40
0.0999999999999849
100
AcDbArc
 50
120.0
 51
240.0
  0
LINE
  5
250
330
1F
100
AcDbEntity
  8
0
  6
Continuous
 62
     7
370
    15
100
AcDbLine
 10
191.160267488
 20
170.093277509
 30
0.0
 11
190.8352657118
 21
170.2809129307
 31
0.0
  0
ARC
  5
251
330
1F
100
AcDbEntity
  8
0
  6
Continuous
 62
     7
370
    15
100
AcDbCircle
 10
191.0352668214
 20
169.8767664113
 30
0.0
 40
0.2499999999999675
100
AcDbArc
 50
300.0
 51
60.0
  0
LINE
  5
252
330
1F
100
AcDbEntity
  8
0
  6
Continuous
 62
     7
370
    15
100
AcDbLine
 10
190.8352657118
 20
169.4726143429
 30
0.0
 11
191.160267488
 21
169.6602646659
 31
0.0
  0
ARC
  5
253
330
1F
100
AcDbEntity
  8
0
  6
Continuous
 62
     7
370
    15
100
AcDbCircle
 10
190.8852668214
 20
169.3860186825
 30
0.0
 40
0.1000000000000057
100
AcDbArc
 50
120.0
 51
240.0000000001
  0
LINE
  5
254
330
1F
100
AcDbEntity
  8
0
  6
Continuous
 62
     7
370
    15
100
AcDbLine
 10
191.160267488
 20
169.1117827246
 30
0.0
 11
190.8352657118
 21
169.2994181464
 31
0.0
  0
ARC
  5
255
330
1F
100
AcDbEntity
  8
0
  6
Continuous
 62
     7
370
    15
100
AcDbCircle
 10
191.0352668214
 20
168.8952709537
 30
0.0
 40
0.2500000000000063
100
AcDbArc
 50
300.0
 51
60.0
  0
LINE
  5
256
330
1F
100
AcDbEntity
  8
0
  6
Continuous
 62
     7
370
    15
100
AcDbLine
 10
190.8352657118
 20
168.4911195586
 30
0.0
 11
191.160267488
 21
168.6787698815
 31
0.0
  0
ARC
  5
257
330
1F
100
AcDbEntity
  8
0
  6
Continuous
 62
     7
370
    15
100
AcDbCircle
 10
190.8852668214
 20
168.4045232249
 30
0.0
 40
0.0999999999999887
100
AcDbArc
 50
120.0
 51
240.0
  0
LINE
  5
258
330
1F
100
AcDbEntity
  8
0
  6
Continuous
 62
     7
370
    15
100
AcDbLine
 10
191.160267488
 20
168.1302879403
 30
0.0
 11
190.8352657118
 21
168.317923362
 31
0.0
  0
ARC
  5
259
330
1F
100
AcDbEntity
  8
0
  6
Continuous
 62
     7
370
    15
100
AcDbCircle
 10
191.0352668214
 20
167.9137754961
 30
0.0
 40
0.2499999999999571
100
AcDbArc
 50
300.0
 51
60.0
  0
LINE
  5
25A
330
1F
100
AcDbEntity
  8
0
  6
Continuous
 62
     7
370
    15
100
AcDbLine
 10
190.8352657118
 20
167.5096247742
 30
0.0
 11
191.160267488
 21
167.6972750971
 31
0.0
  0
ARC
  5
25B
330
1F
100
AcDbEntity
  8
0
  6
Continuous
 62
     7
370
    15
100
AcDbCircle
 10
190.8852668214
 20
167.4230277673
 30
0.0
 40
0.1000000000000057
100
AcDbArc
 50
120.0
 51
240.0000000001
  0
LINE
  5
25C
330
1F
100
AcDbEntity
  8
0
  6
Continuous
 62
     7
370
    15
100
AcDbLine
 10
191.160267488
 20
167.1487931559
 30
0.0
 11
190.8352657118
 21
167.3364285777
 31
0.0
  0
ARC
  5
25D
330
1F
100
AcDbEntity
  8
0
  6
Continuous
 62
     7
370
    15
100
AcDbCircle
 10
191.0352668214
 20
166.9322800385
 30
0.0
 40
0.2500000000000063
100
AcDbArc
 50
300.0
 51
60.0
  0
LINE
  5
25E
330
1F
100
AcDbEntity
  8
0
  6
Continuous
 62
     7
370
    15
100
AcDbLine
 10
190.8352657118
 20
166.5281299899
 30
0.0
 11
191.160267488
 21
166.7157803128
 31
0.0
  0
ARC
  5
25F
330
1F
100
AcDbEntity
  8
0
  6
Continuous
 62
     7
370
    15
100
AcDbCircle
 10
190.8852668214
 20
166.4415323097
 30
0.0
 40
0.0999999999999849
100
AcDbArc
 50
120.0
 51
240.0
  0
LINE
  5
260
330
1F
100
AcDbEntity
  8
0
  6
Continuous
 62
     7
370
    15
100
AcDbLine
 10
191.160267488
 20
166.1672983716
 30
0.0
 11
190.8352657118
 21
166.3549337933
 31
0.0
  0
ARC
  5
261
330
1F
100
AcDbEntity
  8
0
  6
Continuous
 62
     7
370
    15
100
AcDbCircle
 10
191.0352668214
 20
165.9507845809
 30
0.0
 40
0.2499999999999571
100
AcDbArc
 50
300.0
 51
60.0
  0
LINE
  5
262
330
1F
100
AcDbEntity
  8
0
  6
Continuous
 62
     7
370
    15
100
AcDbLine
 10
190.8352657118
 20
165.5466352055
 30
0.0
 11
191.160267488
 21
165.7342855284
 31
0.0
  0
ARC
  5
263
330
1F
100
AcDbEntity
  8
0
  6
Continuous
 62
     7
370
    15
100
AcDbCircle
 10
190.8852668214
 20
165.460036852
 30
0.0
 40
0.1000000000000199
100
AcDbArc
 50
119.9999999999
 51
240.0
  0
LINE
  5
264
330
1F
100
AcDbEntity
  8
0
  6
Continuous
 62
     7
370
    15
100
AcDbLine
 10
191.160267488
 20
165.1857886861
 30
0.0
 11
190.8352657118
 21
165.373439009
 31
0.0
  0
ARC
  5
265
330
1F
100
AcDbEntity
  8
0
  6
Continuous
 62
     7
370
    15
100
AcDbCircle
 10
191.0352668214
 20
164.9692891232
 30
0.0
 40
0.2500000000000205
100
AcDbArc
 50
300.0
 51
60.0
  0
LINE
  5
266
330
1F
100
AcDbEntity
  8
0
  6
Continuous
 62
     7
370
    15
100
AcDbLine
 10
190.8352657118
 20
164.5651404212
 30
0.0
 11
191.160267488
 21
164.7527758429
 31
0.0
  0
ARC
  5
267
330
1F
100
AcDbEntity
  8
0
  6
Continuous
 62
     7
370
    15
100
AcDbCircle
 10
190.8852668214
 20
164.4785413944
 30
0.0
 40
0.0999999999999849
100
AcDbArc
 50
120.0
 51
240.0
  0
LINE
  5
268
330
1F
100
AcDbEntity
  8
0
  6
Continuous
 62
     7
370
    15
100
AcDbLine
 10
191.160267488
 20
164.2042939017
 30
0.0
 11
190.8352657118
 21
164.3919442246
 31
0.0
  0
ARC
  5
269
330
1F
100
AcDbEntity
  8
0
  6
Continuous
 62
     7
370
    15
100
AcDbCircle
 10
191.0352668214
 20
163.9877936656
 30
0.0
 40
0.2499999999999959
100
AcDbArc
 50
300.0
 51
60.0
  0
LINE
  5
26A
330
1F
100
AcDbEntity
  8
0
  6
Continuous
 62
     7
370
    15
100
AcDbLine
 10
190.8352657118
 20
163.5836456368
 30
0.0
 11
191.160267488
 21
163.7712810586
 31
0.0
  0
ARC
  5
26B
330
1F
100
AcDbEntity
  8
0
  6
Continuous
 62
     7
370
    15
100
AcDbCircle
 10
190.8852668214
 20
163.4970459368
 30
0.0
 40
0.1000000000000057
100
AcDbArc
 50
120.0
 51
240.0000000001
  0
LINE
  5
26C
330
1F
100
AcDbEntity
  8
0
  6
Continuous
 62
     7
370
    15
100
AcDbLine
 10
191.160267488
 20
163.2227991173
 30
0.0
 11
190.8352657118
 21
163.4104494403
 31
0.0
  0
ARC
  5
26D
330
1F
100
AcDbEntity
  8
0
  6
Continuous
 62
     7
370
    15
100
AcDbCircle
 10
191.0352668214
 20
163.006298208
 30
0.0
 40
0.2499999999999921
100
AcDbArc
 50
300.0
 51
60.0
  0
LINE
  5
26E
330
1F
100
AcDbEntity
  8
0
  6
Continuous
 62
     7
370
    15
100
AcDbLine
 10
190.8352657118
 20
162.6021508525
 30
0.0
 11
191.160267488
 21
162.7897862742
 31
0.0
  0
ARC
  5
26F
330
1F
100
AcDbEntity
  8
0
  6
Continuous
 62
     7
370
    15
100
AcDbCircle
 10
190.8852668214
 20
162.5155504792
 30
0.0
 40
0.1000000000000095
100
AcDbArc
 50
120.0000000001
 51
240.0
  0
LINE
  5
270
330
1F
100
AcDbEntity
  8
0
  6
Continuous
 62
     7
370
    15
100
AcDbLine
 10
191.160267488
 20
162.241304333
 30
0.0
 11
190.8352657118
 21
162.4289546559
 31
0.0
  0
ARC
  5
271
330
1F
100
AcDbEntity
  8
0
  6
Continuous
 62
     7
370
    15
100
AcDbCircle
 10
191.0352668214
 20
162.0248027504
 30
0.0
 40
0.2500000000000063
100
AcDbArc
 50
300.0
 51
60.0
  0
LINE
  5
272
330
1F
100
AcDbEntity
  8
0
  6
Continuous
 62
     7
370
    15
100
AcDbLine
 10
190.8352657118
 20
161.6206560681
 30
0.0
 11
191.160267488
 21
161.8082914899
 31
0.0
  0
ARC
  5
273
330
1F
100
AcDbEntity
  8
0
  6
Continuous
 62
     7
370
    15
100
AcDbCircle
 10
190.8852668214
 20
161.5340550216
 30
0.0
 40
0.1000000000000095
100
AcDbArc
 50
120.0
 51
240.0
  0
LINE
  5
274
330
1F
100
AcDbEntity
  8
0
  6
Continuous
 62
     7
370
    15
100
AcDbLine
 10
191.160267488
 20
161.2598095486
 30
0.0
 11
190.8352657118
 21
161.4474598715
 31
0.0
  0
ARC
  5
275
330
1F
100
AcDbEntity
  8
0
  6
Continuous
 62
     7
370
    15
100
AcDbCircle
 10
191.0352668214
 20
161.0433072927
 30
0.0
 40
0.2500000000000101
100
AcDbArc
 50
300.0
 51
60.0
  0
LINE
  5
276
330
1F
100
AcDbEntity
  8
0
  6
Continuous
 62
     7
370
    15
100
AcDbLine
 10
190.8352657118
 20
160.6391612837
 30
0.0
 11
191.160267488
 21
160.8267967055
 31
0.0
  0
ARC
  5
277
330
1F
100
AcDbEntity
  8
0
  6
Continuous
 62
     7
370
    15
100
AcDbCircle
 10
190.8852668214
 20
160.5525595639
 30
0.0
 40
0.0999999999999811
100
AcDbArc
 50
120.0
 51
240.0
  0
LINE
  5
278
330
1F
100
AcDbEntity
  8
0
  6
Continuous
 62
     7
370
    15
100
AcDbLine
 10
191.160267488
 20
160.2783147643
 30
0.0
 11
190.8352657118
 21
160.465950186
 31
0.0
  0
ARC
  5
279
330
1F
100
AcDbEntity
  8
0
  6
Continuous
 62
     7
370
    15
100
AcDbCircle
 10
191.0352668214
 20
160.0618118351
 30
0.0
 40
0.2500000000000309
100
AcDbArc
 50
300.0
 51
60.0
  0
LINE
  5
27A
330
1F
100
AcDbEntity
  8
0
  6
Continuous
 62
     7
370
    15
100
AcDbLine
 10
190.8352657118
 20
159.6576664994
 30
0.0
 11
191.160267488
 21
159.8453019211
 31
0.0
  0
ARC
  5
27B
330
1F
100
AcDbEntity
  8
0
  6
Continuous
 62
     7
370
    15
100
AcDbCircle
 10
190.8852668214
 20
159.5710641063
 30
0.0
 40
0.1000000000000161
100
AcDbArc
 50
119.9999999999
 51
240.0
  0
LINE
  5
27C
330
1F
100
AcDbEntity
  8
0
  6
Continuous
 62
     7
370
    15
100
AcDbLine
 10
191.1752655068
 20
159.2881624053
 30
0.0
 11
190.8352657118
 21
159.4844554017
 31
0.0
  0
ARC
  5
27D
330
1F
100
AcDbEntity
  8
0
  6
Continuous
 62
     7
370
    15
100
AcDbCircle
 10
191.0502686248
 20
159.0716550823
 30
0.0
 40
0.2499999999892491
100
AcDbArc
 50
0.064626054
 51
59.9999999972
  0
ARC
  5
27E
330
1F
100
AcDbEntity
  8
0
  6
Continuous
 62
     7
370
    15
100
AcDbCircle
 10
193.8852668213
 20
159.0748527842
 30
0.0
 40
2.585000000000023
100
AcDbArc
 50
180.064626054
 51
269.9999
  0
LINE
  5
27F
330
1F
100
AcDbEntity
  8
0
  6
Continuous
 62
     7
370
    15
100
AcDbLine
 10
194.4852678933
 20
156.4898584435
 30
0.0
 11
193.8852651873
 21
156.4898584435
 31
0.0
  0
ARC
  5
280
330
1F
100
AcDbEntity
  8
0
  6
Continuous
 62
     7
370
    15
100
AcDbCircle
 10
194.4852668214
 20
159.0748527842
 30
0.0
 40
2.585000000000023
100
AcDbArc
 50
270.0001
 51
359.935373946
  0
ARC
  5
281
330
1F
100
AcDbEntity
  8
0
  6
Continuous
 62
     7
370
    15
100
AcDbCircle
 10
197.320265018
 20
159.0716550823
 30
0.0
 40
0.2499999999891365
100
AcDbArc
 50
120.0000000028
 51
179.935373946
  0
LINE
  5
282
330
1F
100
AcDbEntity
  8
0
  6
Continuous
 62
     7
370
    15
100
AcDbLine
 10
197.5352673688
 20
159.4844554017
 30
0.0
 11
197.1952675739
 21
159.2881624053
 31
0.0
  0
ARC
  5
283
330
1F
100
AcDbEntity
  8
0
  6
Continuous
 62
     7
370
    15
100
AcDbCircle
 10
197.4852668214
 20
159.5710641063
 30
0.0
 40
0.0999999999999991
100
AcDbArc
 50
299.9999999999
 51
60.0
  0
LINE
  5
284
330
1F
100
AcDbEntity
  8
0
  6
Continuous
 62
     7
370
    15
100
AcDbLine
 10
197.2102655926
 20
159.8453019211
 30
0.0
 11
197.5352673688
 21
159.6576664994
 31
0.0
  0
ARC
  5
285
330
1F
100
AcDbEntity
  8
0
  6
Continuous
 62
     7
370
    15
100
AcDbCircle
 10
197.3352668214
 20
160.0618118351
 30
0.0
 40
0.2500000000000063
100
AcDbArc
 50
120.0
 51
240.0000000001
  0
LINE
  5
286
330
1F
100
AcDbEntity
  8
0
  6
Continuous
 62
     7
370
    15
100
AcDbLine
 10
197.5352673688
 20
160.465950186
 30
0.0
 11
197.2102655926
 21
160.2783147643
 31
0.0
  0
ARC
  5
287
330
1F
100
AcDbEntity
  8
0
  6
Continuous
 62
     7
370
    15
100
AcDbCircle
 10
197.4852668214
 20
160.5525595639
 30
0.0
 40
0.0999999999999887
100
AcDbArc
 50
299.9999999998
 51
60.0
  0
LINE
  5
288
330
1F
100
AcDbEntity
  8
0
  6
Continuous
 62
     7
370
    15
100
AcDbLine
 10
197.2102655926
 20
160.8267967055
 30
0.0
 11
197.5352673688
 21
160.6391612837
 31
0.0
  0
ARC
  5
289
330
1F
100
AcDbEntity
  8
0
  6
Continuous
 62
     7
370
    15
100
AcDbCircle
 10
197.3352668214
 20
161.0433072927
 30
0.0
 40
0.2500000000000271
100
AcDbArc
 50
120.0
 51
240.0000000001
  0
LINE
  5
28A
330
1F
100
AcDbEntity
  8
0
  6
Continuous
 62
     7
370
    15
100
AcDbLine
 10
197.5352673688
 20
161.4474598715
 30
0.0
 11
197.2102655926
 21
161.2598095486
 31
0.0
  0
ARC
  5
28B
330
1F
100
AcDbEntity
  8
0
  6
Continuous
 62
     7
370
    15
100
AcDbCircle
 10
197.4852668214
 20
161.5340550216
 30
0.0
 40
0.1000000000000047
100
AcDbArc
 50
299.9999999998
 51
59.9999999999
  0
LINE
  5
28C
330
1F
100
AcDbEntity
  8
0
  6
Continuous
 62
     7
370
    15
100
AcDbLine
 10
197.2102655926
 20
161.8082914899
 30
0.0
 11
197.5352673688
 21
161.6206560681
 31
0.0
  0
ARC
  5
28D
330
1F
100
AcDbEntity
  8
0
  6
Continuous
 62
     7
370
    15
100
AcDbCircle
 10
197.3352668214
 20
162.0248027504
 30
0.0
 40
0.2499999999999835
100
AcDbArc
 50
120.0
 51
240.0000000001
  0
LINE
  5
28E
330
1F
100
AcDbEntity
  8
0
  6
Continuous
 62
     7
370
    15
100
AcDbLine
 10
197.5352673688
 20
162.4289546559
 30
0.0
 11
197.2102655926
 21
162.241304333
 31
0.0
  0
ARC
  5
28F
330
1F
100
AcDbEntity
  8
0
  6
Continuous
 62
     7
370
    15
100
AcDbCircle
 10
197.4852668214
 20
162.5155504792
 30
0.0
 40
0.1000000000000171
100
AcDbArc
 50
299.9999999999
 51
59.9999999999
  0
LINE
  5
290
330
1F
100
AcDbEntity
  8
0
  6
Continuous
 62
     7
370
    15
100
AcDbLine
 10
197.2102655926
 20
162.7897862742
 30
0.0
 11
197.5352673688
 21
162.6021508525
 31
0.0
  0
ARC
  5
291
330
1F
100
AcDbEntity
  8
0
  6
Continuous
 62
     7
370
    15
100
AcDbCircle
 10
197.3352668214
 20
163.006298208
 30
0.0
 40
0.2500000000000223
100
AcDbArc
 50
120.0
 51
240.0000000001
  0
LINE
  5
292
330
1F
100
AcDbEntity
  8
0
  6
Continuous
 62
     7
370
    15
100
AcDbLine
 10
197.5352673688
 20
163.4104494403
 30
0.0
 11
197.2102655926
 21
163.2227991173
 31
0.0
  0
ARC
  5
293
330
1F
100
AcDbEntity
  8
0
  6
Continuous
 62
     7
370
    15
100
AcDbCircle
 10
197.4852668214
 20
163.4970459368
 30
0.0
 40
0.1000000000000275
100
AcDbArc
 50
299.9999999997
 51
60.0
  0
LINE
  5
294
330
1F
100
AcDbEntity
  8
0
  6
Continuous
 62
     7
370
    15
100
AcDbLine
 10
197.2102655926
 20
163.7712810586
 30
0.0
 11
197.5352673688
 21
163.5836456368
 31
0.0
  0
ARC
  5
295
330
1F
100
AcDbEntity
  8
0
  6
Continuous
 62
     7
370
    15
100
AcDbCircle
 10
197.3352668214
 20
163.9877936656
 30
0.0
 40
0.2499999999999987
100
AcDbArc
 50
120.0
 51
240.0
  0
LINE
  5
296
330
1F
100
AcDbEntity
  8
0
  6
Continuous
 62
     7
370
    15
100
AcDbLine
 10
197.5352673688
 20
164.3919442246
 30
0.0
 11
197.2102655926
 21
164.2042939017
 31
0.0
  0
ARC
  5
297
330
1F
100
AcDbEntity
  8
0
  6
Continuous
 62
     7
370
    15
100
AcDbCircle
 10
197.4852668214
 20
164.4785413944
 30
0.0
 40
0.0999999999999887
100
AcDbArc
 50
299.9999999999
 51
60.0
  0
LINE
  5
298
330
1F
100
AcDbEntity
  8
0
  6
Continuous
 62
     7
370
    15
100
AcDbLine
 10
197.2102655926
 20
164.7527758429
 30
0.0
 11
197.5352673688
 21
164.5651404212
 31
0.0
  0
ARC
  5
299
330
1F
100
AcDbEntity
  8
0
  6
Continuous
 62
     7
370
    15
100
AcDbCircle
 10
197.3352668214
 20
164.9692891232
 30
0.0
 40
0.2500000000000167
100
AcDbArc
 50
120.0
 51
240.0000000001
  0
LINE
  5
29A
330
1F
100
AcDbEntity
  8
0
  6
Continuous
 62
     7
370
    15
100
AcDbLine
 10
197.5352673688
 20
165.373439009
 30
0.0
 11
197.2102655926
 21
165.1857886861
 31
0.0
  0
ARC
  5
29B
330
1F
100
AcDbEntity
  8
0
  6
Continuous
 62
     7
370
    15
100
AcDbCircle
 10
197.4852668214
 20
165.460036852
 30
0.0
 40
0.0999999999999981
100
AcDbArc
 50
299.9999999999
 51
60.0
  0
LINE
  5
29C
330
1F
100
AcDbEntity
  8
0
  6
Continuous
 62
     7
370
    15
100
AcDbLine
 10
197.2102655926
 20
165.7342855284
 30
0.0
 11
197.5352673688
 21
165.5466352055
 31
0.0
  0
ARC
  5
29D
330
1F
100
AcDbEntity
  8
0
  6
Continuous
 62
     7
370
    15
100
AcDbCircle
 10
197.3352668214
 20
165.9507845809
 30
0.0
 40
0.2499999999999685
100
AcDbArc
 50
120.0
 51
240.0
  0
LINE
  5
29E
330
1F
100
AcDbEntity
  8
0
  6
Continuous
 62
     7
370
    15
100
AcDbLine
 10
197.5352673688
 20
166.3549337933
 30
0.0
 11
197.2102655926
 21
166.1672983716
 31
0.0
  0
ARC
  5
29F
330
1F
100
AcDbEntity
  8
0
  6
Continuous
 62
     7
370
    15
100
AcDbCircle
 10
197.4852668214
 20
166.4415323097
 30
0.0
 40
0.1000000000000161
100
AcDbArc
 50
299.9999999999
 51
60.0
  0
LINE
  5
2A0
330
1F
100
AcDbEntity
  8
0
  6
Continuous
 62
     7
370
    15
100
AcDbLine
 10
197.2102655926
 20
166.7157803128
 30
0.0
 11
197.5352673688
 21
166.5281299899
 31
0.0
  0
ARC
  5
2A1
330
1F
100
AcDbEntity
  8
0
  6
Continuous
 62
     7
370
    15
100
AcDbCircle
 10
197.3352668214
 20
166.9322800385
 30
0.0
 40
0.2499999999999921
100
AcDbArc
 50
120.0
 51
240.0000000001
  0
LINE
  5
2A2
330
1F
100
AcDbEntity
  8
0
  6
Continuous
 62
     7
370
    15
100
AcDbLine
 10
197.5352673688
 20
167.3364285777
 30
0.0
 11
197.2102655926
 21
167.1487931559
 31
0.0
  0
ARC
  5
2A3
330
1F
100
AcDbEntity
  8
0
  6
Continuous
 62
     7
370
    15
100
AcDbCircle
 10
197.4852668214
 20
167.4230277673
 30
0.0
 40
0.1000000000000095
100
AcDbArc
 50
299.9999999999
 51
60.0
  0
LINE
  5
2A4
330
1F
100
AcDbEntity
  8
0
  6
Continuous
 62
     7
370
    15
100
AcDbLine
 10
197.2102655926
 20
167.6972750971
 30
0.0
 11
197.5352673688
 21
167.5096247742
 31
0.0
  0
ARC
  5
2A5
330
1F
100
AcDbEntity
  8
0
  6
Continuous
 62
     7
370
    15
100
AcDbCircle
 10
197.3352668214
 20
167.9137754961
 30
0.0
 40
0.2499999999999921
100
AcDbArc
 50
120.0
 51
240.0
  0
LINE
  5
2A6
330
1F
100
AcDbEntity
  8
0
  6
Continuous
 62
     7
370
    15
100
AcDbLine
 10
197.5352673688
 20
168.317923362
 30
0.0
 11
197.2102655926
 21
168.1302879403
 31
0.0
  0
ARC
  5
2A7
330
1F
100
AcDbEntity
  8
0
  6
Continuous
 62
     7
370
    15
100
AcDbCircle
 10
197.4852668214
 20
168.4045232249
 30
0.0
 40
0.1000000000000085
100
AcDbArc
 50
299.9999999999
 51
59.9999999999
  0
LINE
  5
2A8
330
1F
100
AcDbEntity
  8
0
  6
Continuous
 62
     7
370
    15
100
AcDbLine
 10
197.2102655926
 20
168.6787698815
 30
0.0
 11
197.5352673688
 21
168.4911195586
 31
0.0
  0
ARC
  5
2A9
330
1F
100
AcDbEntity
  8
0
  6
Continuous
 62
     7
370
    15
100
AcDbCircle
 10
197.3352668214
 20
168.8952709537
 30
0.0
 40
0.2499999999999977
100
AcDbArc
 50
120.0
 51
240.0000000001
  0
LINE
  5
2AA
330
1F
100
AcDbEntity
  8
0
  6
Continuous
 62
     7
370
    15
100
AcDbLine
 10
197.5352673688
 20
169.2994181464
 30
0.0
 11
197.2102655926
 21
169.1117827246
 31
0.0
  0
ARC
  5
2AB
330
1F
100
AcDbEntity
  8
0
  6
Continuous
 62
     7
370
    15
100
AcDbCircle
 10
197.4852668214
 20
169.3860186825
 30
0.0
 40
0.1000000000000133
100
AcDbArc
 50
300.0
 51
60.0
  0
LINE
  5
2AC
330
1F
100
AcDbEntity
  8
0
  6
Continuous
 62
     7
370
    15
100
AcDbLine
 10
197.2102655926
 20
169.6602646659
 30
0.0
 11
197.5352673688
 21
169.4726143429
 31
0.0
  0
ARC
  5
2AD
330
1F
100
AcDbEntity
  8
0
  6
Continuous
 62
     7
370
    15
100
AcDbCircle
 10
197.3352668214
 20
169.8767664113
 30
0.0
 40
0.2499999999999921
100
AcDbArc
 50
120.0
 51
240.0
  0
LINE
  5
2AE
330
1F
100
AcDbEntity
  8
0
  6
Continuous
 62
     7
370
    15
100
AcDbLine
 10
197.5352673688
 20
170.2809129307
 30
0.0
 11
197.2102655926
 21
170.093277509
 31
0.0
  0
ARC
  5
2AF
330
1F
100
AcDbEntity
  8
0
  6
Continuous
 62
     7
370
    15
100
AcDbCircle
 10
197.4852668214
 20
170.3675141402
 30
0.0
 40
0.0999999999999981
100
AcDbArc
 50
299.9999999999
 51
60.0
  0
LINE
  5
2B0
330
1F
100
AcDbEntity
  8
0
  6
Continuous
 62
     7
370
    15
100
AcDbLine
 10
197.2102655926
 20
170.6417594502
 30
0.0
 11
197.5352673688
 21
170.4541240285
 31
0.0
  0
ARC
  5
2B1
330
1F
100
AcDbEntity
  8
0
  6
Continuous
 62
     7
370
    15
100
AcDbCircle
 10
197.3352668214
 20
170.858261869
 30
0.0
 40
0.250000000000008
100
AcDbArc
 50
120.0
 51
240.0000000001
  0
LINE
  5
2B2
330
1F
100
AcDbEntity
  8
0
  6
Continuous
 62
     7
370
    15
100
AcDbLine
 10
197.5352673688
 20
171.2624077151
 30
0.0
 11
197.2102655926
 21
171.0747722933
 31
0.0
  0
ARC
  5
2B3
330
1F
100
AcDbEntity
  8
0
  6
Continuous
 62
     7
370
    15
100
AcDbCircle
 10
197.4852668214
 20
171.3490095978
 30
0.0
 40
0.1000000000000349
100
AcDbArc
 50
299.9999999996
 51
60.0
  0
LINE
  5
2B4
330
1F
100
AcDbEntity
  8
0
  6
Continuous
 62
     7
370
    15
100
AcDbLine
 10
197.2102655926
 20
171.6232542346
 30
0.0
 11
197.5352673688
 21
171.4356188128
 31
0.0
  0
ARC
  5
2B5
330
1F
100
AcDbEntity
  8
0
  6
Continuous
 62
     7
370
    15
100
AcDbCircle
 10
197.3352668214
 20
171.8397573266
 30
0.0
 40
0.2499999999999741
100
AcDbArc
 50
120.0
 51
240.0000000006
  0
LINE
  5
2B6
330
1F
100
AcDbEntity
  8
0
  6
Continuous
 62
     7
370
    15
100
AcDbLine
 10
197.5352673688
 20
172.2439024995
 30
0.0
 11
197.2102655926
 21
172.0562670777
 31
0.0
  0
ARC
  5
2B7
330
1F
100
AcDbEntity
  8
0
  6
Continuous
 62
     7
370
    15
100
AcDbCircle
 10
197.4852668214
 20
172.3305050554
 30
0.0
 40
0.1000000000000237
100
AcDbArc
 50
299.9999999999
 51
60.0
  0
LINE
  5
2B8
330
1F
100
AcDbEntity
  8
0
  6
Continuous
 62
     7
370
    15
100
AcDbLine
 10
197.2102655926
 20
172.6047490189
 30
0.0
 11
197.5352673688
 21
172.4171135972
 31
0.0
  0
ARC
  5
2B9
330
1F
100
AcDbEntity
  8
0
  6
Continuous
 62
     7
370
    15
100
AcDbCircle
 10
197.3352668214
 20
172.8212527842
 30
0.0
 40
0.2500000000000129
100
AcDbArc
 50
120.0
 51
240.0
  0
LINE
  5
2BA
330
1F
100
AcDbEntity
  8
0
  6
Continuous
 62
     7
370
    15
100
AcDbLine
 10
197.5352673688
 20
173.2253972838
 30
0.0
 11
197.2102655926
 21
173.0377618621
 31
0.0
  0
ARC
  5
2BB
330
1F
100
AcDbEntity
  8
0
  6
Continuous
 62
     7
370
    15
100
AcDbCircle
 10
197.4852668214
 20
173.312000513
 30
0.0
 40
0.1000000000001364
100
AcDbArc
 50
300.0
 51
0.0
  0
LINE
  5
2BC
330
1F
100
AcDbEntity
  8
0
  6
Continuous
 62
     7
370
    15
100
AcDbLine
 10
197.5852682152
 20
182.0748541901
 30
0.0
 11
197.5852682152
 21
173.3120028327
 31
0.0
  0
ARC
  5
2BD
330
1F
100
AcDbEntity
  8
0
  6
Continuous
 62
     7
370
    15
100
AcDbCircle
 10
198.2852668214
 20
182.0748527842
 30
0.0
 40
0.700000000000017
100
AcDbArc
 50
90.0
 51
180.0
  0
LINE
  5
2BE
330
1F
100
AcDbEntity
  8
0
  6
Continuous
 62
     7
370
    15
100
AcDbLine
 10
198.685264484
 20
182.7748511384
 30
0.0
 11
198.2852651634
 21
182.7748511384
 31
0.0
  0
ARC
  5
2BF
330
1F
100
AcDbEntity
  8
0
  6
Continuous
 62
     7
370
    15
100
AcDbCircle
 10
198.6852668214
 20
182.0748527842
 30
0.0
 40
0.700000000000017
100
AcDbArc
 50
0.0
 51
90.0
  0
LINE
  5
2C0
330
1F
100
AcDbEntity
  8
0
  6
Continuous
 62
     7
370
    15
100
AcDbLine
 10
199.3852688828
 20
173.3120028327
 30
0.0
 11
199.3852688828
 21
182.0748541901
 31
0.0
  0
ARC
  5
2C1
330
1F
100
AcDbEntity
  8
0
  6
Continuous
 62
     7
370
    15
100
AcDbCircle
 10
199.4852668214
 20
173.312000513
 30
0.0
 40
0.0999999999999659
100
AcDbArc
 50
180.0
 51
240.0
  0
LINE
  5
2C2
330
1F
100
AcDbEntity
  8
0
  6
Continuous
 62
     7
370
    15
100
AcDbLine
 10
199.7602640548
 20
173.0377618621
 30
0.0
 11
199.4352697292
 21
173.2253972838
 31
0.0
  0
ARC
  5
2C3
330
1F
100
AcDbEntity
  8
0
  6
Continuous
 62
     7
370
    15
100
AcDbCircle
 10
199.6352668214
 20
172.8212527842
 30
0.0
 40
0.2499999999999987
100
AcDbArc
 50
300.0
 51
60.0
  0
LINE
  5
2C4
330
1F
100
AcDbEntity
  8
0
  6
Continuous
 62
     7
370
    15
100
AcDbLine
 10
199.4352697292
 20
172.4171135972
 30
0.0
 11
199.7602640548
 21
172.6047490189
 31
0.0
  0
ARC
  5
2C5
330
1F
100
AcDbEntity
  8
0
  6
Continuous
 62
     7
370
    15
100
AcDbCircle
 10
199.4852668214
 20
172.3305050554
 30
0.0
 40
0.1000000000000199
100
AcDbArc
 50
120.0
 51
240.0
  0
LINE
  5
2C6
330
1F
100
AcDbEntity
  8
0
  6
Continuous
 62
     7
370
    15
100
AcDbLine
 10
199.7602640548
 20
172.0562670777
 30
0.0
 11
199.4352697292
 21
172.2439024995
 31
0.0
  0
ARC
  5
2C7
330
1F
100
AcDbEntity
  8
0
  6
Continuous
 62
     7
370
    15
100
AcDbCircle
 10
199.6352668214
 20
171.8397573266
 30
0.0
 40
0.2499999999999855
100
AcDbArc
 50
300.0
 51
60.0
  0
LINE
  5
2C8
330
1F
100
AcDbEntity
  8
0
  6
Continuous
 62
     7
370
    15
100
AcDbLine
 10
199.4352697292
 20
171.4356188128
 30
0.0
 11
199.7602640548
 21
171.6232542346
 31
0.0
  0
ARC
  5
2C9
330
1F
100
AcDbEntity
  8
0
  6
Continuous
 62
     7
370
    15
100
AcDbCircle
 10
199.4852668214
 20
171.3490095978
 30
0.0
 40
0.0999999999999811
100
AcDbArc
 50
120.0
 51
240.0
  0
LINE
  5
2CA
330
1F
100
AcDbEntity
  8
0
  6
Continuous
 62
     7
370
    15
100
AcDbLine
 10
199.7602640548
 20
171.0747722933
 30
0.0
 11
199.4352697292
 21
171.2624077151
 31
0.0
  0
ARC
  5
2CB
330
1F
100
AcDbEntity
  8
0
  6
Continuous
 62
     7
370
    15
100
AcDbCircle
 10
199.6352668214
 20
170.858261869
 30
0.0
 40
0.2499999999999959
100
AcDbArc
 50
300.0
 51
60.0
  0
LINE
  5
2CC
330
1F
100
AcDbEntity
  8
0
  6
Continuous
 62
     7
370
    15
100
AcDbLine
 10
199.4352697292
 20
170.4541240285
 30
0.0
 11
199.7602640548
 21
170.6417594502
 31
0.0
  0
ARC
  5
2CD
330
1F
100
AcDbEntity
  8
0
  6
Continuous
 62
     7
370
    15
100
AcDbCircle
 10
199.4852668214
 20
170.3675141402
 30
0.0
 40
0.1000000000000095
100
AcDbArc
 50
119.9999999999
 51
240.0
  0
LINE
  5
2CE
330
1F
100
AcDbEntity
  8
0
  6
Continuous
 62
     7
370
    15
100
AcDbLine
 10
199.7602640548
 20
170.093277509
 30
0.0
 11
199.4352697292
 21
170.2809129307
 31
0.0
  0
ARC
  5
2CF
330
1F
100
AcDbEntity
  8
0
  6
Continuous
 62
     7
370
    15
100
AcDbCircle
 10
199.6352668214
 20
169.8767664114
 30
0.0
 40
0.2499999999999855
100
AcDbArc
 50
300.0
 51
60.0
  0
LINE
  5
2D0
330
1F
100
AcDbEntity
  8
0
  6
Continuous
 62
     7
370
    15
100
AcDbLine
 10
199.4352697292
 20
169.4726143429
 30
0.0
 11
199.7602640548
 21
169.6602646659
 31
0.0
  0
ARC
  5
2D1
330
1F
100
AcDbEntity
  8
0
  6
Continuous
 62
     7
370
    15
100
AcDbCircle
 10
199.4852668214
 20
169.3860186825
 30
0.0
 40
0.1000000000000095
100
AcDbArc
 50
120.0
 51
240.0
  0
LINE
  5
2D2
330
1F
100
AcDbEntity
  8
0
  6
Continuous
 62
     7
370
    15
100
AcDbLine
 10
199.7602640548
 20
169.1117827246
 30
0.0
 11
199.4352697292
 21
169.2994181464
 31
0.0
  0
ARC
  5
2D3
330
1F
100
AcDbEntity
  8
0
  6
Continuous
 62
     7
370
    15
100
AcDbCircle
 10
199.6352668214
 20
168.8952709537
 30
0.0
 40
0.2500000000000205
100
AcDbArc
 50
300.0
 51
60.0
  0
LINE
  5
2D4
330
1F
100
AcDbEntity
  8
0
  6
Continuous
 62
     7
370
    15
100
AcDbLine
 10
199.4352697292
 20
168.4911195586
 30
0.0
 11
199.7602640548
 21
168.6787698815
 31
0.0
  0
ARC
  5
2D5
330
1F
100
AcDbEntity
  8
0
  6
Continuous
 62
     7
370
    15
100
AcDbCircle
 10
199.4852668214
 20
168.4045232249
 30
0.0
 40
0.1000000000000095
100
AcDbArc
 50
120.0
 51
240.0
  0
LINE
  5
2D6
330
1F
100
AcDbEntity
  8
0
  6
Continuous
 62
     7
370
    15
100
AcDbLine
 10
199.7602640548
 20
168.1302879403
 30
0.0
 11
199.4352697292
 21
168.317923362
 31
0.0
  0
ARC
  5
2D7
330
1F
100
AcDbEntity
  8
0
  6
Continuous
 62
     7
370
    15
100
AcDbCircle
 10
199.6352668214
 20
167.9137754961
 30
0.0
 40
0.2499999999999675
100
AcDbArc
 50
300.0
 51
60.0
  0
LINE
  5
2D8
330
1F
100
AcDbEntity
  8
0
  6
Continuous
 62
     7
370
    15
100
AcDbLine
 10
199.4352697292
 20
167.5096247742
 30
0.0
 11
199.7602640548
 21
167.6972750971
 31
0.0
  0
ARC
  5
2D9
330
1F
100
AcDbEntity
  8
0
  6
Continuous
 62
     7
370
    15
100
AcDbCircle
 10
199.4852668214
 20
167.4230277673
 30
0.0
 40
0.1000000000000057
100
AcDbArc
 50
120.0
 51
240.0000000001
  0
LINE
  5
2DA
330
1F
100
AcDbEntity
  8
0
  6
Continuous
 62
     7
370
    15
100
AcDbLine
 10
199.7602640548
 20
167.1487931559
 30
0.0
 11
199.4352697292
 21
167.3364285777
 31
0.0
  0
ARC
  5
2DB
330
1F
100
AcDbEntity
  8
0
  6
Continuous
 62
     7
370
    15
100
AcDbCircle
 10
199.6352668214
 20
166.9322800385
 30
0.0
 40
0.2500000000000205
100
AcDbArc
 50
300.0
 51
60.0
  0
LINE
  5
2DC
330
1F
100
AcDbEntity
  8
0
  6
Continuous
 62
     7
370
    15
100
AcDbLine
 10
199.4352697292
 20
166.5281299899
 30
0.0
 11
199.7602640548
 21
166.7157803128
 31
0.0
  0
ARC
  5
2DD
330
1F
100
AcDbEntity
  8
0
  6
Continuous
 62
     7
370
    15
100
AcDbCircle
 10
199.4852668214
 20
166.4415323097
 30
0.0
 40
0.0999999999999849
100
AcDbArc
 50
120.0
 51
240.0
  0
LINE
  5
2DE
330
1F
100
AcDbEntity
  8
0
  6
Continuous
 62
     7
370
    15
100
AcDbLine
 10
199.7602640548
 20
166.1672983716
 30
0.0
 11
199.4352697292
 21
166.3549337933
 31
0.0
  0
ARC
  5
2DF
330
1F
100
AcDbEntity
  8
0
  6
Continuous
 62
     7
370
    15
100
AcDbCircle
 10
199.6352668214
 20
165.9507845809
 30
0.0
 40
0.2499999999999817
100
AcDbArc
 50
300.0
 51
60.0
  0
LINE
  5
2E0
330
1F
100
AcDbEntity
  8
0
  6
Continuous
 62
     7
370
    15
100
AcDbLine
 10
199.4352697292
 20
165.5466352055
 30
0.0
 11
199.7602640548
 21
165.7342855284
 31
0.0
  0
ARC
  5
2E1
330
1F
100
AcDbEntity
  8
0
  6
Continuous
 62
     7
370
    15
100
AcDbCircle
 10
199.4852668214
 20
165.4600368521
 30
0.0
 40
0.0999999999999953
100
AcDbArc
 50
120.0
 51
240.0
  0
LINE
  5
2E2
330
1F
100
AcDbEntity
  8
0
  6
Continuous
 62
     7
370
    15
100
AcDbLine
 10
199.7602640548
 20
165.1857886861
 30
0.0
 11
199.4352697292
 21
165.373439009
 31
0.0
  0
ARC
  5
2E3
330
1F
100
AcDbEntity
  8
0
  6
Continuous
 62
     7
370
    15
100
AcDbCircle
 10
199.6352668214
 20
164.9692891232
 30
0.0
 40
0.2500000000000205
100
AcDbArc
 50
300.0
 51
60.0
  0
LINE
  5
2E4
330
1F
100
AcDbEntity
  8
0
  6
Continuous
 62
     7
370
    15
100
AcDbLine
 10
199.4352697292
 20
164.5651404212
 30
0.0
 11
199.7602640548
 21
164.7527758429
 31
0.0
  0
ARC
  5
2E5
330
1F
100
AcDbEntity
  8
0
  6
Continuous
 62
     7
370
    15
100
AcDbCircle
 10
199.4852668214
 20
164.4785413944
 30
0.0
 40
0.1000000000000067
100
AcDbArc
 50
120.0000000001
 51
240.0
  0
LINE
  5
2E6
330
1F
100
AcDbEntity
  8
0
  6
Continuous
 62
     7
370
    15
100
AcDbLine
 10
199.7602640548
 20
164.2042939017
 30
0.0
 11
199.4352697292
 21
164.3919442246
 31
0.0
  0
ARC
  5
2E7
330
1F
100
AcDbEntity
  8
0
  6
Continuous
 62
     7
370
    15
100
AcDbCircle
 10
199.6352668214
 20
163.9877936656
 30
0.0
 40
0.2499999999999959
100
AcDbArc
 50
300.0
 51
60.0
  0
LINE
  5
2E8
330
1F
100
AcDbEntity
  8
0
  6
Continuous
 62
     7
370
    15
100
AcDbLine
 10
199.4352697292
 20
163.5836456368
 30
0.0
 11
199.7602640548
 21
163.7712810586
 31
0.0
  0
ARC
  5
2E9
330
1F
100
AcDbEntity
  8
0
  6
Continuous
 62
     7
370
    15
100
AcDbCircle
 10
199.4852668214
 20
163.4970459368
 30
0.0
 40
0.1000000000000057
100
AcDbArc
 50
120.0000000001
 51
240.0000000001
  0
LINE
  5
2EA
330
1F
100
AcDbEntity
  8
0
  6
Continuous
 62
     7
370
    15
100
AcDbLine
 10
199.7602640548
 20
163.2227991173
 30
0.0
 11
199.4352697292
 21
163.4104494403
 31
0.0
  0
ARC
  5
2EB
330
1F
100
AcDbEntity
  8
0
  6
Continuous
 62
     7
370
    15
100
AcDbCircle
 10
199.6352668214
 20
163.006298208
 30
0.0
 40
0.2500000000000451
100
AcDbArc
 50
300.0
 51
60.0
  0
LINE
  5
2EC
330
1F
100
AcDbEntity
  8
0
  6
Continuous
 62
     7
370
    15
100
AcDbLine
 10
199.4352697292
 20
162.6021508525
 30
0.0
 11
199.7602640548
 21
162.7897862742
 31
0.0
  0
ARC
  5
2ED
330
1F
100
AcDbEntity
  8
0
  6
Continuous
 62
     7
370
    15
100
AcDbCircle
 10
199.4852668214
 20
162.5155504792
 30
0.0
 40
0.0999999999999887
100
AcDbArc
 50
120.0
 51
240.0
  0
LINE
  5
2EE
330
1F
100
AcDbEntity
  8
0
  6
Continuous
 62
     7
370
    15
100
AcDbLine
 10
199.7602640548
 20
162.241304333
 30
0.0
 11
199.4352697292
 21
162.4289546559
 31
0.0
  0
ARC
  5
2EF
330
1F
100
AcDbEntity
  8
0
  6
Continuous
 62
     7
370
    15
100
AcDbCircle
 10
199.6352668214
 20
162.0248027504
 30
0.0
 40
0.2499999999999959
100
AcDbArc
 50
300.0
 51
60.0
  0
LINE
  5
2F0
330
1F
100
AcDbEntity
  8
0
  6
Continuous
 62
     7
370
    15
100
AcDbLine
 10
199.4352697292
 20
161.6206560681
 30
0.0
 11
199.7602640548
 21
161.8082914899
 31
0.0
  0
ARC
  5
2F1
330
1F
100
AcDbEntity
  8
0
  6
Continuous
 62
     7
370
    15
100
AcDbCircle
 10
199.4852668214
 20
161.5340550216
 30
0.0
 40
0.1000000000000341
100
AcDbArc
 50
120.0000000001
 51
240.0
  0
LINE
  5
2F2
330
1F
100
AcDbEntity
  8
0
  6
Continuous
 62
     7
370
    15
100
AcDbLine
 10
199.7602640548
 20
161.2598095486
 30
0.0
 11
199.4352697292
 21
161.4474598715
 31
0.0
  0
ARC
  5
2F3
330
1F
100
AcDbEntity
  8
0
  6
Continuous
 62
     7
370
    15
100
AcDbCircle
 10
199.6352668214
 20
161.0433072928
 30
0.0
 40
0.2500000000000205
100
AcDbArc
 50
300.0
 51
60.0
  0
LINE
  5
2F4
330
1F
100
AcDbEntity
  8
0
  6
Continuous
 62
     7
370
    15
100
AcDbLine
 10
199.4352697292
 20
160.6391612837
 30
0.0
 11
199.7602640548
 21
160.8267967055
 31
0.0
  0
ARC
  5
2F5
330
1F
100
AcDbEntity
  8
0
  6
Continuous
 62
     7
370
    15
100
AcDbCircle
 10
199.4852668214
 20
160.5525595639
 30
0.0
 40
0.0999999999999887
100
AcDbArc
 50
120.0
 51
240.0
  0
LINE
  5
2F6
330
1F
100
AcDbEntity
  8
0
  6
Continuous
 62
     7
370
    15
100
AcDbLine
 10
199.7602640548
 20
160.2783147643
 30
0.0
 11
199.4352697292
 21
160.465950186
 31
0.0
  0
ARC
  5
2F7
330
1F
100
AcDbEntity
  8
0
  6
Continuous
 62
     7
370
    15
100
AcDbCircle
 10
199.6352668214
 20
160.0618118351
 30
0.0
 40
0.2500000000000101
100
AcDbArc
 50
300.0
 51
60.0
  0
LINE
  5
2F8
330
1F
100
AcDbEntity
  8
0
  6
Continuous
 62
     7
370
    15
100
AcDbLine
 10
199.4352697292
 20
159.6576664994
 30
0.0
 11
199.7602640548
 21
159.8453019211
 31
0.0
  0
ARC
  5
2F9
330
1F
100
AcDbEntity
  8
0
  6
Continuous
 62
     7
370
    15
100
AcDbCircle
 10
199.4852668214
 20
159.5710641063
 30
0.0
 40
0.1000000000000095
100
AcDbArc
 50
120.0
 51
240.0
  0
LINE
  5
2FA
330
1F
100
AcDbEntity
  8
0
  6
Continuous
 62
     7
370
    15
100
AcDbLine
 10
199.7752695241
 20
159.2881624053
 30
0.0
 11
199.4352697292
 21
159.4844554017
 31
0.0
  0
ARC
  5
2FB
330
1F
100
AcDbEntity
  8
0
  6
Continuous
 62
     7
370
    15
100
AcDbCircle
 10
199.6502686248
 20
159.0716550823
 30
0.0
 40
0.2499999999892775
100
AcDbArc
 50
0.064626054
 51
59.9999999972
  0
ARC
  5
2FC
330
1F
100
AcDbEntity
  8
0
  6
Continuous
 62
     7
370
    15
100
AcDbCircle
 10
202.4852668213
 20
159.0748527842
 30
0.0
 40
2.584999999999999
100
AcDbArc
 50
180.064626054
 51
269.9999
  0
LINE
  5
2FD
330
1F
100
AcDbEntity
  8
0
  6
Continuous
 62
     7
370
    15
100
AcDbLine
 10
203.0852719107
 20
156.4898584435
 30
0.0
 11
202.4852617541
 21
156.4898584435
 31
0.0
  0
ARC
  5
2FE
330
1F
100
AcDbEntity
  8
0
  6
Continuous
 62
     7
370
    15
100
AcDbCircle
 10
203.0852668214
 20
159.0748527842
 30
0.0
 40
2.584999999999999
100
AcDbArc
 50
270.0001
 51
359.935373946
  0
ARC
  5
2FF
330
1F
100
AcDbEntity
  8
0
  6
Continuous
 62
     7
370
    15
100
AcDbCircle
 10
205.920265018
 20
159.0716550823
 30
0.0
 40
0.2499999999891306
100
AcDbArc
 50
120.0000000028
 51
179.935373946
  0
LINE
  5
300
330
1F
100
AcDbEntity
  8
0
  6
Continuous
 62
     7
370
    15
100
AcDbLine
 10
206.1352639356
 20
159.4844554017
 30
0.0
 11
205.7952641406
 21
159.2881624053
 31
0.0
  0
ARC
  5
301
330
1F
100
AcDbEntity
  8
0
  6
Continuous
 62
     7
370
    15
100
AcDbCircle
 10
206.0852668214
 20
159.5710641063
 30
0.0
 40
0.1000000000000283
100
AcDbArc
 50
299.9999999997
 51
60.0
  0
LINE
  5
302
330
1F
100
AcDbEntity
  8
0
  6
Continuous
 62
     7
370
    15
100
AcDbLine
 10
205.81026961
 20
159.8453019211
 30
0.0
 11
206.1352639356
 21
159.6576664994
 31
0.0
  0
ARC
  5
303
330
1F
100
AcDbEntity
  8
0
  6
Continuous
 62
     7
370
    15
100
AcDbCircle
 10
205.9352668214
 20
160.0618118351
 30
0.0
 40
0.2500000000000205
100
AcDbArc
 50
120.0
 51
240.0000000001
  0
LINE
  5
304
330
1F
100
AcDbEntity
  8
0
  6
Continuous
 62
     7
370
    15
100
AcDbLine
 10
206.1352639356
 20
160.465950186
 30
0.0
 11
205.81026961
 21
160.2783147643
 31
0.0
  0
ARC
  5
305
330
1F
100
AcDbEntity
  8
0
  6
Continuous
 62
     7
370
    15
100
AcDbCircle
 10
206.0852668214
 20
160.5525595639
 30
0.0
 40
0.1000000000000037
100
AcDbArc
 50
299.9999999997
 51
60.0
  0
LINE
  5
306
330
1F
100
AcDbEntity
  8
0
  6
Continuous
 62
     7
370
    15
100
AcDbLine
 10
205.81026961
 20
160.8267967055
 30
0.0
 11
206.1352639356
 21
160.6391612837
 31
0.0
  0
ARC
  5
307
330
1F
100
AcDbEntity
  8
0
  6
Continuous
 62
     7
370
    15
100
AcDbCircle
 10
205.9352668214
 20
161.0433072928
 30
0.0
 40
0.2500000000000032
100
AcDbArc
 50
120.0
 51
240.0000000002
  0
LINE
  5
308
330
1F
100
AcDbEntity
  8
0
  6
Continuous
 62
     7
370
    15
100
AcDbLine
 10
206.1352639356
 20
161.4474598715
 30
0.0
 11
205.81026961
 21
161.2598095486
 31
0.0
  0
ARC
  5
309
330
1F
100
AcDbEntity
  8
0
  6
Continuous
 62
     7
370
    15
100
AcDbCircle
 10
206.0852668214
 20
161.5340550216
 30
0.0
 40
0.1000000000000029
100
AcDbArc
 50
299.9999999998
 51
60.0
  0
LINE
  5
30A
330
1F
100
AcDbEntity
  8
0
  6
Continuous
 62
     7
370
    15
100
AcDbLine
 10
205.81026961
 20
161.8082914899
 30
0.0
 11
206.1352639356
 21
161.6206560681
 31
0.0
  0
ARC
  5
30B
330
1F
100
AcDbEntity
  8
0
  6
Continuous
 62
     7
370
    15
100
AcDbCircle
 10
205.9352668214
 20
162.0248027504
 30
0.0
 40
0.2500000000000091
100
AcDbArc
 50
120.0
 51
240.0
  0
LINE
  5
30C
330
1F
100
AcDbEntity
  8
0
  6
Continuous
 62
     7
370
    15
100
AcDbLine
 10
206.1352639356
 20
162.4289546559
 30
0.0
 11
205.81026961
 21
162.241304333
 31
0.0
  0
ARC
  5
30D
330
1F
100
AcDbEntity
  8
0
  6
Continuous
 62
     7
370
    15
100
AcDbCircle
 10
206.0852668214
 20
162.5155504792
 30
0.0
 40
0.0999999999999887
100
AcDbArc
 50
299.9999999998
 51
60.0
  0
LINE
  5
30E
330
1F
100
AcDbEntity
  8
0
  6
Continuous
 62
     7
370
    15
100
AcDbLine
 10
205.81026961
 20
162.7897862742
 30
0.0
 11
206.1352639356
 21
162.6021508525
 31
0.0
  0
ARC
  5
30F
330
1F
100
AcDbEntity
  8
0
  6
Continuous
 62
     7
370
    15
100
AcDbCircle
 10
205.9352668214
 20
163.006298208
 30
0.0
 40
0.2500000000000279
100
AcDbArc
 50
120.0
 51
240.0000000002
  0
LINE
  5
310
330
1F
100
AcDbEntity
  8
0
  6
Continuous
 62
     7
370
    15
100
AcDbLine
 10
206.1352639356
 20
163.4104494403
 30
0.0
 11
205.81026961
 21
163.2227991173
 31
0.0
  0
ARC
  5
311
330
1F
100
AcDbEntity
  8
0
  6
Continuous
 62
     7
370
    15
100
AcDbCircle
 10
206.0852668214
 20
163.4970459368
 30
0.0
 40
0.1000000000000171
100
AcDbArc
 50
299.9999999996
 51
59.9999999999
  0
LINE
  5
312
330
1F
100
AcDbEntity
  8
0
  6
Continuous
 62
     7
370
    15
100
AcDbLine
 10
205.81026961
 20
163.7712810586
 30
0.0
 11
206.1352639356
 21
163.5836456368
 31
0.0
  0
ARC
  5
313
330
1F
100
AcDbEntity
  8
0
  6
Continuous
 62
     7
370
    15
100
AcDbCircle
 10
205.9352668214
 20
163.9877936656
 30
0.0
 40
0.2499999999999977
100
AcDbArc
 50
120.0
 51
240.0000000001
  0
LINE
  5
314
330
1F
100
AcDbEntity
  8
0
  6
Continuous
 62
     7
370
    15
100
AcDbLine
 10
206.1352639356
 20
164.3919442246
 30
0.0
 11
205.81026961
 21
164.2042939017
 31
0.0
  0
ARC
  5
315
330
1F
100
AcDbEntity
  8
0
  6
Continuous
 62
     7
370
    15
100
AcDbCircle
 10
206.0852668214
 20
164.4785413944
 30
0.0
 40
0.1000000000000171
100
AcDbArc
 50
299.9999999998
 51
59.9999999999
  0
LINE
  5
316
330
1F
100
AcDbEntity
  8
0
  6
Continuous
 62
     7
370
    15
100
AcDbLine
 10
205.81026961
 20
164.7527758429
 30
0.0
 11
206.1352639356
 21
164.5651404212
 31
0.0
  0
ARC
  5
317
330
1F
100
AcDbEntity
  8
0
  6
Continuous
 62
     7
370
    15
100
AcDbCircle
 10
205.9352668214
 20
164.9692891232
 30
0.0
 40
0.2500000000000147
100
AcDbArc
 50
120.0
 51
240.0000000001
  0
LINE
  5
318
330
1F
100
AcDbEntity
  8
0
  6
Continuous
 62
     7
370
    15
100
AcDbLine
 10
206.1352639356
 20
165.373439009
 30
0.0
 11
205.81026961
 21
165.1857886861
 31
0.0
  0
ARC
  5
319
330
1F
100
AcDbEntity
  8
0
  6
Continuous
 62
     7
370
    15
100
AcDbCircle
 10
206.0852668214
 20
165.4600368521
 30
0.0
 40
0.1000000000000379
100
AcDbArc
 50
299.9999999997
 51
60.0
  0
LINE
  5
31A
330
1F
100
AcDbEntity
  8
0
  6
Continuous
 62
     7
370
    15
100
AcDbLine
 10
205.81026961
 20
165.7342855284
 30
0.0
 11
206.1352639356
 21
165.5466352055
 31
0.0
  0
ARC
  5
31B
330
1F
100
AcDbEntity
  8
0
  6
Continuous
 62
     7
370
    15
100
AcDbCircle
 10
205.9352668214
 20
165.9507845809
 30
0.0
 40
0.2500000000000025
100
AcDbArc
 50
120.0
 51
240.0
  0
LINE
  5
31C
330
1F
100
AcDbEntity
  8
0
  6
Continuous
 62
     7
370
    15
100
AcDbLine
 10
206.1352639356
 20
166.3549337933
 30
0.0
 11
205.81026961
 21
166.1672983716
 31
0.0
  0
ARC
  5
31D
330
1F
100
AcDbEntity
  8
0
  6
Continuous
 62
     7
370
    15
100
AcDbCircle
 10
206.0852668214
 20
166.4415323097
 30
0.0
 40
0.1000000000000085
100
AcDbArc
 50
299.9999999999
 51
60.0
  0
LINE
  5
31E
330
1F
100
AcDbEntity
  8
0
  6
Continuous
 62
     7
370
    15
100
AcDbLine
 10
205.81026961
 20
166.7157803128
 30
0.0
 11
206.1352639356
 21
166.5281299899
 31
0.0
  0
ARC
  5
31F
330
1F
100
AcDbEntity
  8
0
  6
Continuous
 62
     7
370
    15
100
AcDbCircle
 10
205.9352668214
 20
166.9322800385
 30
0.0
 40
0.2499999999999921
100
AcDbArc
 50
120.0
 51
240.0000000001
  0
LINE
  5
320
330
1F
100
AcDbEntity
  8
0
  6
Continuous
 62
     7
370
    15
100
AcDbLine
 10
206.1352639356
 20
167.3364285777
 30
0.0
 11
205.81026961
 21
167.1487931559
 31
0.0
  0
ARC
  5
321
330
1F
100
AcDbEntity
  8
0
  6
Continuous
 62
     7
370
    15
100
AcDbCircle
 10
206.0852668214
 20
167.4230277673
 30
0.0
 40
0.1000000000000085
100
AcDbArc
 50
299.9999999999
 51
60.0
  0
LINE
  5
322
330
1F
100
AcDbEntity
  8
0
  6
Continuous
 62
     7
370
    15
100
AcDbLine
 10
205.81026961
 20
167.6972750971
 30
0.0
 11
206.1352639356
 21
167.5096247742
 31
0.0
  0
ARC
  5
323
330
1F
100
AcDbEntity
  8
0
  6
Continuous
 62
     7
370
    15
100
AcDbCircle
 10
205.9352668214
 20
167.9137754961
 30
0.0
 40
0.2500000000000205
100
AcDbArc
 50
120.0
 51
240.0
  0
LINE
  5
324
330
1F
100
AcDbEntity
  8
0
  6
Continuous
 62
     7
370
    15
100
AcDbLine
 10
206.1352639356
 20
168.317923362
 30
0.0
 11
205.81026961
 21
168.1302879403
 31
0.0
  0
ARC
  5
325
330
1F
100
AcDbEntity
  8
0
  6
Continuous
 62
     7
370
    15
100
AcDbCircle
 10
206.0852668214
 20
168.4045232249
 30
0.0
 40
0.1000000000000085
100
AcDbArc
 50
299.9999999999
 51
60.0
  0
LINE
  5
326
330
1F
100
AcDbEntity
  8
0
  6
Continuous
 62
     7
370
    15
100
AcDbLine
 10
205.81026961
 20
168.6787698815
 30
0.0
 11
206.1352639356
 21
168.4911195586
 31
0.0
  0
ARC
  5
327
330
1F
100
AcDbEntity
  8
0
  6
Continuous
 62
     7
370
    15
100
AcDbCircle
 10
205.9352668214
 20
168.8952709537
 30
0.0
 40
0.2500000000000261
100
AcDbArc
 50
120.0
 51
240.0000000001
  0
LINE
  5
328
330
1F
100
AcDbEntity
  8
0
  6
Continuous
 62
     7
370
    15
100
AcDbLine
 10
206.1352639356
 20
169.2994181464
 30
0.0
 11
205.81026961
 21
169.1117827246
 31
0.0
  0
ARC
  5
329
330
1F
100
AcDbEntity
  8
0
  6
Continuous
 62
     7
370
    15
100
AcDbCircle
 10
206.0852668214
 20
169.3860186825
 30
0.0
 40
0.1000000000000237
100
AcDbArc
 50
299.9999999999
 51
60.0
  0
LINE
  5
32A
330
1F
100
AcDbEntity
  8
0
  6
Continuous
 62
     7
370
    15
100
AcDbLine
 10
205.81026961
 20
169.6602646659
 30
0.0
 11
206.1352639356
 21
169.4726143429
 31
0.0
  0
ARC
  5
32B
330
1F
100
AcDbEntity
  8
0
  6
Continuous
 62
     7
370
    15
100
AcDbCircle
 10
205.9352668214
 20
169.8767664114
 30
0.0
 40
0.2499999999999959
100
AcDbArc
 50
120.0
 51
240.0
  0
LINE
  5
32C
330
1F
100
AcDbEntity
  8
0
  6
Continuous
 62
     7
370
    15
100
AcDbLine
 10
206.1352639356
 20
170.2809129307
 30
0.0
 11
205.81026961
 21
170.093277509
 31
0.0
  0
ARC
  5
32D
330
1F
100
AcDbEntity
  8
0
  6
Continuous
 62
     7
370
    15
100
AcDbCircle
 10
206.0852668214
 20
170.3675141402
 30
0.0
 40
0.0999999999999895
100
AcDbArc
 50
299.9999999997
 51
60.0
  0
LINE
  5
32E
330
1F
100
AcDbEntity
  8
0
  6
Continuous
 62
     7
370
    15
100
AcDbLine
 10
205.81026961
 20
170.6417594502
 30
0.0
 11
206.1352639356
 21
170.4541240285
 31
0.0
  0
ARC
  5
32F
330
1F
100
AcDbEntity
  8
0
  6
Continuous
 62
     7
370
    15
100
AcDbCircle
 10
205.9352668214
 20
170.858261869
 30
0.0
 40
0.250000000000024
100
AcDbArc
 50
120.0
 51
240.0000000002
  0
LINE
  5
330
330
1F
100
AcDbEntity
  8
0
  6
Continuous
 62
     7
370
    15
100
AcDbLine
 10
206.1352639356
 20
171.2624077151
 30
0.0
 11
205.81026961
 21
171.0747722933
 31
0.0
  0
ARC
  5
331
330
1F
100
AcDbEntity
  8
0
  6
Continuous
 62
     7
370
    15
100
AcDbCircle
 10
206.0852668214
 20
171.3490095978
 30
0.0
 40
0.1000000000000044
100
AcDbArc
 50
299.9999999993
 51
60.0
  0
LINE
  5
332
330
1F
100
AcDbEntity
  8
0
  6
Continuous
 62
     7
370
    15
100
AcDbLine
 10
205.81026961
 20
171.6232542346
 30
0.0
 11
206.1352639356
 21
171.4356188128
 31
0.0
  0
ARC
  5
333
330
1F
100
AcDbEntity
  8
0
  6
Continuous
 62
     7
370
    15
100
AcDbCircle
 10
205.9352668214
 20
171.8397573266
 30
0.0
 40
0.2500000000000093
100
AcDbArc
 50
120.0
 51
240.0000000006
  0
LINE
  5
334
330
1F
100
AcDbEntity
  8
0
  6
Continuous
 62
     7
370
    15
100
AcDbLine
 10
206.1352639356
 20
172.2439024995
 30
0.0
 11
205.81026961
 21
172.0562670777
 31
0.0
  0
ARC
  5
335
330
1F
100
AcDbEntity
  8
0
  6
Continuous
 62
     7
370
    15
100
AcDbCircle
 10
206.0852668214
 20
172.3305050554
 30
0.0
 40
0.1000000000000369
100
AcDbArc
 50
299.9999999999
 51
60.0
  0
LINE
  5
336
330
1F
100
AcDbEntity
  8
0
  6
Continuous
 62
     7
370
    15
100
AcDbLine
 10
205.81026961
 20
172.6047490189
 30
0.0
 11
206.1352639356
 21
172.4171135972
 31
0.0
  0
ARC
  5
337
330
1F
100
AcDbEntity
  8
0
  6
Continuous
 62
     7
370
    15
100
AcDbCircle
 10
205.9352668214
 20
172.8212527842
 30
0.0
 40
0.2500000000000043
100
AcDbArc
 50
120.0
 51
240.0000000001
  0
LINE
  5
338
330
1F
100
AcDbEntity
  8
0
  6
Continuous
 62
     7
370
    15
100
AcDbLine
 10
206.1352639356
 20
173.2253972838
 30
0.0
 11
205.81026961
 21
173.0377618621
 31
0.0
  0
ARC
  5
339
330
1F
100
AcDbEntity
  8
0
  6
Continuous
 62
     7
370
    15
100
AcDbCircle
 10
206.0852668214
 20
173.312000513
 30
0.0
 40
0.1000000000001156
100
AcDbArc
 50
300.0
 51
0.0
  0
LINE
  5
33A
330
1F
100
AcDbEntity
  8
0
  6
Continuous
 62
     7
370
    15
100
AcDbLine
 10
206.185264782
 20
182.0748541901
 30
0.0
 11
206.185264782
 21
173.3120028327
 31
0.0
  0
ARC
  5
33B
330
1F
100
AcDbEntity
  8
0
  6
Continuous
 62
     7
370
    15
100
AcDbCircle
 10
206.8852668214
 20
182.0748527842
 30
0.0
 40
0.7000000000000455
100
AcDbArc
 50
90.0
 51
180.0
  0
LINE
  5
33C
330
1F
100
AcDbEntity
  8
0
  6
Continuous
 62
     7
370
    15
100
AcDbLine
 10
207.2852685013
 20
182.7748511384
 30
0.0
 11
206.8852691808
 21
182.7748511384
 31
0.0
  0
ARC
  5
33D
330
1F
100
AcDbEntity
  8
0
  6
Continuous
 62
     7
370
    15
100
AcDbCircle
 10
207.2852668214
 20
182.0748527842
 30
0.0
 40
0.700000000000017
100
AcDbArc
 50
0.0
 51
90.0
  0
LINE
  5
33E
330
1F
100
AcDbEntity
  8
0
  6
Continuous
 62
     7
370
    15
100
AcDbLine
 10
207.9852654495
 20
173.3120028327
 30
0.0
 11
207.9852654495
 21
182.0748541901
 31
0.0
  0
ARC
  5
33F
330
1F
100
AcDbEntity
  8
0
  6
Continuous
 62
     7
370
    15
100
AcDbCircle
 10
208.0852668214
 20
173.312000513
 30
0.0
 40
0.0999999999999745
100
AcDbArc
 50
180.0
 51
240.0
  0
LINE
  5
340
330
1F
100
AcDbEntity
  8
0
  6
Continuous
 62
     7
370
    15
100
AcDbLine
 10
208.3602680722
 20
173.0377618621
 30
0.0
 11
208.0352662959
 21
173.2253972838
 31
0.0
  0
ARC
  5
341
330
1F
100
AcDbEntity
  8
0
  6
Continuous
 62
     7
370
    15
100
AcDbCircle
 10
208.2352668214
 20
172.8212527842
 30
0.0
 40
0.2500000000000167
100
AcDbArc
 50
300.0
 51
60.0
  0
LINE
  5
342
330
1F
100
AcDbEntity
  8
0
  6
Continuous
 62
     7
370
    15
100
AcDbLine
 10
208.0352662959
 20
172.4171135972
 30
0.0
 11
208.3602680722
 21
172.6047490189
 31
0.0
  0
ARC
  5
343
330
1F
100
AcDbEntity
  8
0
  6
Continuous
 62
     7
370
    15
100
AcDbCircle
 10
208.0852668214
 20
172.3305050554
 30
0.0
 40
0.1000000000000199
100
AcDbArc
 50
119.9999999999
 51
240.0
  0
LINE
  5
344
330
1F
100
AcDbEntity
  8
0
  6
Continuous
 62
     7
370
    15
100
AcDbLine
 10
208.3602680722
 20
172.0562670777
 30
0.0
 11
208.0352662959
 21
172.2439024995
 31
0.0
  0
ARC
  5
345
330
1F
100
AcDbEntity
  8
0
  6
Continuous
 62
     7
370
    15
100
AcDbCircle
 10
208.2352668214
 20
171.8397573266
 30
0.0
 40
0.2500000000000157
100
AcDbArc
 50
300.0
 51
60.0000000001
  0
LINE
  5
346
330
1F
100
AcDbEntity
  8
0
  6
Continuous
 62
     7
370
    15
100
AcDbLine
 10
208.0352662959
 20
171.4356188128
 30
0.0
 11
208.3602680722
 21
171.6232542346
 31
0.0
  0
ARC
  5
347
330
1F
100
AcDbEntity
  8
0
  6
Continuous
 62
     7
370
    15
100
AcDbCircle
 10
208.0852668214
 20
171.3490095978
 30
0.0
 40
0.0999999999999991
100
AcDbArc
 50
120.0
 51
240.0
  0
LINE
  5
348
330
1F
100
AcDbEntity
  8
0
  6
Continuous
 62
     7
370
    15
100
AcDbLine
 10
208.3602680722
 20
171.0747722933
 30
0.0
 11
208.0352662959
 21
171.2624077151
 31
0.0
  0
ARC
  5
349
330
1F
100
AcDbEntity
  8
0
  6
Continuous
 62
     7
370
    15
100
AcDbCircle
 10
208.2352668214
 20
170.858261869
 30
0.0
 40
0.2499999999999817
100
AcDbArc
 50
300.0
 51
60.0
  0
LINE
  5
34A
330
1F
100
AcDbEntity
  8
0
  6
Continuous
 62
     7
370
    15
100
AcDbLine
 10
208.0352662959
 20
170.4541240285
 30
0.0
 11
208.3602680722
 21
170.6417594502
 31
0.0
  0
ARC
  5
34B
330
1F
100
AcDbEntity
  8
0
  6
Continuous
 62
     7
370
    15
100
AcDbCircle
 10
208.0852668214
 20
170.3675141402
 30
0.0
 40
0.1000000000000095
100
AcDbArc
 50
120.0
 51
240.0
  0
LINE
  5
34C
330
1F
100
AcDbEntity
  8
0
  6
Continuous
 62
     7
370
    15
100
AcDbLine
 10
208.3602680722
 20
170.093277509
 30
0.0
 11
208.0352662959
 21
170.2809129307
 31
0.0
  0
ARC
  5
34D
330
1F
100
AcDbEntity
  8
0
  6
Continuous
 62
     7
370
    15
100
AcDbCircle
 10
208.2352668214
 20
169.8767664114
 30
0.0
 40
0.2500000000000101
100
AcDbArc
 50
300.0
 51
60.0
  0
LINE
  5
34E
330
1F
100
AcDbEntity
  8
0
  6
Continuous
 62
     7
370
    15
100
AcDbLine
 10
208.0352662959
 20
169.4726143429
 30
0.0
 11
208.3602680722
 21
169.6602646659
 31
0.0
  0
ARC
  5
34F
330
1F
100
AcDbEntity
  8
0
  6
Continuous
 62
     7
370
    15
100
AcDbCircle
 10
208.0852668214
 20
169.3860186825
 30
0.0
 40
0.0999999999999915
100
AcDbArc
 50
119.9999999999
 51
240.0
  0
LINE
  5
350
330
1F
100
AcDbEntity
  8
0
  6
Continuous
 62
     7
370
    15
100
AcDbLine
 10
208.3602680722
 20
169.1117827246
 30
0.0
 11
208.0352662959
 21
169.2994181464
 31
0.0
  0
ARC
  5
351
330
1F
100
AcDbEntity
  8
0
  6
Continuous
 62
     7
370
    15
100
AcDbCircle
 10
208.2352668214
 20
168.8952709537
 30
0.0
 40
0.2499999999999817
100
AcDbArc
 50
300.0
 51
60.0
  0
LINE
  5
352
330
1F
100
AcDbEntity
  8
0
  6
Continuous
 62
     7
370
    15
100
AcDbLine
 10
208.0352662959
 20
168.4911195586
 30
0.0
 11
208.3602680722
 21
168.6787698815
 31
0.0
  0
ARC
  5
353
330
1F
100
AcDbEntity
  8
0
  6
Continuous
 62
     7
370
    15
100
AcDbCircle
 10
208.0852668214
 20
168.4045232249
 30
0.0
 40
0.1000000000000199
100
AcDbArc
 50
119.9999999999
 51
240.0
  0
LINE
  5
354
330
1F
100
AcDbEntity
  8
0
  6
Continuous
 62
     7
370
    15
100
AcDbLine
 10
208.3602680722
 20
168.1302879403
 30
0.0
 11
208.0352662959
 21
168.317923362
 31
0.0
  0
ARC
  5
355
330
1F
100
AcDbEntity
  8
0
  6
Continuous
 62
     7
370
    15
100
AcDbCircle
 10
208.2352668214
 20
167.9137754961
 30
0.0
 40
0.2499999999999817
100
AcDbArc
 50
300.0
 51
60.0
  0
LINE
  5
356
330
1F
100
AcDbEntity
  8
0
  6
Continuous
 62
     7
370
    15
100
AcDbLine
 10
208.0352662959
 20
167.5096247742
 30
0.0
 11
208.3602680722
 21
167.6972750971
 31
0.0
  0
ARC
  5
357
330
1F
100
AcDbEntity
  8
0
  6
Continuous
 62
     7
370
    15
100
AcDbCircle
 10
208.0852668214
 20
167.4230277673
 30
0.0
 40
0.1000000000000237
100
AcDbArc
 50
120.0
 51
240.0
  0
LINE
  5
358
330
1F
100
AcDbEntity
  8
0
  6
Continuous
 62
     7
370
    15
100
AcDbLine
 10
208.3602680722
 20
167.1487931559
 30
0.0
 11
208.0352662959
 21
167.3364285777
 31
0.0
  0
ARC
  5
359
330
1F
100
AcDbEntity
  8
0
  6
Continuous
 62
     7
370
    15
100
AcDbCircle
 10
208.2352668214
 20
166.9322800385
 30
0.0
 40
0.2500000000000101
100
AcDbArc
 50
300.0
 51
60.0
  0
LINE
  5
35A
330
1F
100
AcDbEntity
  8
0
  6
Continuous
 62
     7
370
    15
100
AcDbLine
 10
208.0352662959
 20
166.5281299899
 30
0.0
 11
208.3602680722
 21
166.7157803128
 31
0.0
  0
ARC
  5
35B
330
1F
100
AcDbEntity
  8
0
  6
Continuous
 62
     7
370
    15
100
AcDbCircle
 10
208.0852668214
 20
166.4415323097
 30
0.0
 40
0.1000000000000133
100
AcDbArc
 50
120.0
 51
240.0
  0
LINE
  5
35C
330
1F
100
AcDbEntity
  8
0
  6
Continuous
 62
     7
370
    15
100
AcDbLine
 10
208.3602680722
 20
166.1672983716
 30
0.0
 11
208.0352662959
 21
166.3549337933
 31
0.0
  0
ARC
  5
35D
330
1F
100
AcDbEntity
  8
0
  6
Continuous
 62
     7
370
    15
100
AcDbCircle
 10
208.2352668214
 20
165.9507845809
 30
0.0
 40
0.2499999999999713
100
AcDbArc
 50
300.0
 51
60.0
  0
LINE
  5
35E
330
1F
100
AcDbEntity
  8
0
  6
Continuous
 62
     7
370
    15
100
AcDbLine
 10
208.0352662959
 20
165.5466352055
 30
0.0
 11
208.3602680722
 21
165.7342855284
 31
0.0
  0
ARC
  5
35F
330
1F
100
AcDbEntity
  8
0
  6
Continuous
 62
     7
370
    15
100
AcDbCircle
 10
208.0852668214
 20
165.4600368521
 30
0.0
 40
0.1000000000000314
100
AcDbArc
 50
120.0000000001
 51
240.0
  0
LINE
  5
360
330
1F
100
AcDbEntity
  8
0
  6
Continuous
 62
     7
370
    15
100
AcDbLine
 10
208.3602680722
 20
165.1857886861
 30
0.0
 11
208.0352662959
 21
165.373439009
 31
0.0
  0
ARC
  5
361
330
1F
100
AcDbEntity
  8
0
  6
Continuous
 62
     7
370
    15
100
AcDbCircle
 10
208.2352668214
 20
164.9692891232
 30
0.0
 40
0.2500000000000139
100
AcDbArc
 50
300.0
 51
60.0
  0
LINE
  5
362
330
1F
100
AcDbEntity
  8
0
  6
Continuous
 62
     7
370
    15
100
AcDbLine
 10
208.0352662959
 20
164.5651404212
 30
0.0
 11
208.3602680722
 21
164.7527758429
 31
0.0
  0
ARC
  5
363
330
1F
100
AcDbEntity
  8
0
  6
Continuous
 62
     7
370
    15
100
AcDbCircle
 10
208.0852668214
 20
164.4785413944
 30
0.0
 40
0.1000000000000314
100
AcDbArc
 50
120.0000000001
 51
240.0
  0
LINE
  5
364
330
1F
100
AcDbEntity
  8
0
  6
Continuous
 62
     7
370
    15
100
AcDbLine
 10
208.3602680722
 20
164.2042939017
 30
0.0
 11
208.0352662959
 21
164.3919442246
 31
0.0
  0
ARC
  5
365
330
1F
100
AcDbEntity
  8
0
  6
Continuous
 62
     7
370
    15
100
AcDbCircle
 10
208.2352668214
 20
163.9877936656
 30
0.0
 40
0.2499999999999997
100
AcDbArc
 50
300.0
 51
60.0
  0
LINE
  5
366
330
1F
100
AcDbEntity
  8
0
  6
Continuous
 62
     7
370
    15
100
AcDbLine
 10
208.0352662959
 20
163.5836456368
 30
0.0
 11
208.3602680722
 21
163.7712810586
 31
0.0
  0
ARC
  5
367
330
1F
100
AcDbEntity
  8
0
  6
Continuous
 62
     7
370
    15
100
AcDbCircle
 10
208.0852668214
 20
163.4970459368
 30
0.0
 40
0.1000000000000199
100
AcDbArc
 50
120.0000000001
 51
240.0
  0
LINE
  5
368
330
1F
100
AcDbEntity
  8
0
  6
Continuous
 62
     7
370
    15
100
AcDbLine
 10
208.3602680722
 20
163.2227991173
 30
0.0
 11
208.0352662959
 21
163.4104494403
 31
0.0
  0
ARC
  5
369
330
1F
100
AcDbEntity
  8
0
  6
Continuous
 62
     7
370
    15
100
AcDbCircle
 10
208.2352668214
 20
163.006298208
 30
0.0
 40
0.2499999999999817
100
AcDbArc
 50
300.0
 51
60.0
  0
LINE
  5
36A
330
1F
100
AcDbEntity
  8
0
  6
Continuous
 62
     7
370
    15
100
AcDbLine
 10
208.0352662959
 20
162.6021508525
 30
0.0
 11
208.3602680722
 21
162.7897862742
 31
0.0
  0
ARC
  5
36B
330
1F
100
AcDbEntity
  8
0
  6
Continuous
 62
     7
370
    15
100
AcDbCircle
 10
208.0852668214
 20
162.5155504792
 30
0.0
 40
0.1000000000000275
100
AcDbArc
 50
120.0
 51
240.0
  0
LINE
  5
36C
330
1F
100
AcDbEntity
  8
0
  6
Continuous
 62
     7
370
    15
100
AcDbLine
 10
208.3602680722
 20
162.241304333
 30
0.0
 11
208.0352662959
 21
162.4289546559
 31
0.0
  0
ARC
  5
36D
330
1F
100
AcDbEntity
  8
0
  6
Continuous
 62
     7
370
    15
100
AcDbCircle
 10
208.2352668214
 20
162.0248027504
 30
0.0
 40
0.2499999999999883
100
AcDbArc
 50
300.0
 51
60.0
  0
LINE
  5
36E
330
1F
100
AcDbEntity
  8
0
  6
Continuous
 62
     7
370
    15
100
AcDbLine
 10
208.0352662959
 20
161.6206560681
 30
0.0
 11
208.3602680722
 21
161.8082914899
 31
0.0
  0
ARC
  5
36F
330
1F
100
AcDbEntity
  8
0
  6
Continuous
 62
     7
370
    15
100
AcDbCircle
 10
208.0852668214
 20
161.5340550216
 30
0.0
 40
0.1000000000000095
100
AcDbArc
 50
120.0
 51
240.0
  0
LINE
  5
370
330
1F
100
AcDbEntity
  8
0
  6
Continuous
 62
     7
370
    15
100
AcDbLine
 10
208.3602680722
 20
161.2598095486
 30
0.0
 11
208.0352662959
 21
161.4474598715
 31
0.0
  0
ARC
  5
371
330
1F
100
AcDbEntity
  8
0
  6
Continuous
 62
     7
370
    15
100
AcDbCircle
 10
208.2352668214
 20
161.0433072928
 30
0.0
 40
0.2500000000000101
100
AcDbArc
 50
300.0
 51
60.0
  0
LINE
  5
372
330
1F
100
AcDbEntity
  8
0
  6
Continuous
 62
     7
370
    15
100
AcDbLine
 10
208.0352662959
 20
160.6391612837
 30
0.0
 11
208.3602680722
 21
160.8267967055
 31
0.0
  0
ARC
  5
373
330
1F
100
AcDbEntity
  8
0
  6
Continuous
 62
     7
370
    15
100
AcDbCircle
 10
208.0852668214
 20
160.5525595639
 30
0.0
 40
0.1000000000000067
100
AcDbArc
 50
120.0000000001
 51
240.0
  0
LINE
  5
374
330
1F
100
AcDbEntity
  8
0
  6
Continuous
 62
     7
370
    15
100
AcDbLine
 10
208.3602680722
 20
160.2783147643
 30
0.0
 11
208.0352662959
 21
160.465950186
 31
0.0
  0
ARC
  5
375
330
1F
100
AcDbEntity
  8
0
  6
Continuous
 62
     7
370
    15
100
AcDbCircle
 10
208.2352668214
 20
160.0618118351
 30
0.0
 40
0.2499999999999959
100
AcDbArc
 50
300.0
 51
60.0
  0
LINE
  5
376
330
1F
100
AcDbEntity
  8
0
  6
Continuous
 62
     7
370
    15
100
AcDbLine
 10
208.0352662959
 20
159.6576664994
 30
0.0
 11
208.3602680722
 21
159.8453019211
 31
0.0
  0
ARC
  5
377
330
1F
100
AcDbEntity
  8
0
  6
Continuous
 62
     7
370
    15
100
AcDbCircle
 10
208.0852668214
 20
159.5710641063
 30
0.0
 40
0.1000000000000029
100
AcDbArc
 50
120.0
 51
240.0
  0
LINE
  5
378
330
1F
100
AcDbEntity
  8
0
  6
Continuous
 62
     7
370
    15
100
AcDbLine
 10
208.3752660909
 20
159.2881624053
 30
0.0
 11
208.0352662959
 21
159.4844554017
 31
0.0
  0
ARC
  5
379
330
1F
100
AcDbEntity
  8
0
  6
Continuous
 62
     7
370
    15
100
AcDbCircle
 10
208.2502686248
 20
159.0716550823
 30
0.0
 40
0.249999999989288
100
AcDbArc
 50
0.064626054
 51
59.9999999972
  0
ARC
  5
37A
330
1F
100
AcDbEntity
  8
0
  6
Continuous
 62
     7
370
    15
100
AcDbCircle
 10
211.0852668213
 20
159.0748527842
 30
0.0
 40
2.584999999999995
100
AcDbArc
 50
180.0646260541
 51
269.9999
  0
LINE
  5
37B
330
1F
100
AcDbEntity
  8
0
  6
Continuous
 62
     7
370
    15
100
AcDbLine
 10
211.6852684775
 20
156.4898584435
 30
0.0
 11
211.0852657714
 21
156.4898584435
 31
0.0
  0
ARC
  5
37C
330
1F
100
AcDbEntity
  8
0
  6
Continuous
 62
     7
370
    15
100
AcDbCircle
 10
211.6852668214
 20
159.0748527842
 30
0.0
 40
2.584999999999999
100
AcDbArc
 50
270.0001
 51
359.935373946
  0
ARC
  5
37D
330
1F
100
AcDbEntity
  8
0
  6
Continuous
 62
     7
370
    15
100
AcDbCircle
 10
214.520265018
 20
159.0716550823
 30
0.0
 40
0.2499999999891593
100
AcDbArc
 50
120.0000000028
 51
179.9353739459
  0
LINE
  5
37E
330
1F
100
AcDbEntity
  8
0
  6
Continuous
 62
     7
370
    15
100
AcDbLine
 10
214.7352679529
 20
159.4844554017
 30
0.0
 11
214.395268158
 21
159.2881624053
 31
0.0
  0
ARC
  5
37F
330
1F
100
AcDbEntity
  8
0
  6
Continuous
 62
     7
370
    15
100
AcDbCircle
 10
214.6852668214
 20
159.5710641063
 30
0.0
 40
0.0999999999999981
100
AcDbArc
 50
299.9999999999
 51
60.0
  0
LINE
  5
380
330
1F
100
AcDbEntity
  8
0
  6
Continuous
 62
     7
370
    15
100
AcDbLine
 10
214.4102661767
 20
159.8453019211
 30
0.0
 11
214.7352679529
 21
159.6576664994
 31
0.0
  0
ARC
  5
381
330
1F
100
AcDbEntity
  8
0
  6
Continuous
 62
     7
370
    15
100
AcDbCircle
 10
214.5352668214
 20
160.0618118351
 30
0.0
 40
0.2500000000000157
100
AcDbArc
 50
120.0
 51
240.0000000001
  0
LINE
  5
382
330
1F
100
AcDbEntity
  8
0
  6
Continuous
 62
     7
370
    15
100
AcDbLine
 10
214.7352679529
 20
160.465950186
 30
0.0
 11
214.4102661767
 21
160.2783147643
 31
0.0
  0
ARC
  5
383
330
1F
100
AcDbEntity
  8
0
  6
Continuous
 62
     7
370
    15
100
AcDbCircle
 10
214.6852668214
 20
160.552559564
 30
0.0
 40
0.1000000000000047
100
AcDbArc
 50
299.9999999998
 51
60.0
  0
LINE
  5
384
330
1F
100
AcDbEntity
  8
0
  6
Continuous
 62
     7
370
    15
100
AcDbLine
 10
214.4102661767
 20
160.8267967055
 30
0.0
 11
214.7352679529
 21
160.6391612837
 31
0.0
  0
ARC
  5
385
330
1F
100
AcDbEntity
  8
0
  6
Continuous
 62
     7
370
    15
100
AcDbCircle
 10
214.5352668214
 20
161.0433072928
 30
0.0
 40
0.2500000000000223
100
AcDbArc
 50
120.0
 51
240.0000000001
  0
LINE
  5
386
330
1F
100
AcDbEntity
  8
0
  6
Continuous
 62
     7
370
    15
100
AcDbLine
 10
214.7352679529
 20
161.4474598715
 30
0.0
 11
214.4102661767
 21
161.2598095486
 31
0.0
  0
ARC
  5
387
330
1F
100
AcDbEntity
  8
0
  6
Continuous
 62
     7
370
    15
100
AcDbCircle
 10
214.6852668214
 20
161.5340550216
 30
0.0
 40
0.1000000000000171
100
AcDbArc
 50
299.9999999998
 51
59.9999999999
  0
LINE
  5
388
330
1F
100
AcDbEntity
  8
0
  6
Continuous
 62
     7
370
    15
100
AcDbLine
 10
214.4102661767
 20
161.8082914899
 30
0.0
 11
214.7352679529
 21
161.6206560681
 31
0.0
  0
ARC
  5
389
330
1F
100
AcDbEntity
  8
0
  6
Continuous
 62
     7
370
    15
100
AcDbCircle
 10
214.5352668214
 20
162.0248027504
 30
0.0
 40
0.2500000000000157
100
AcDbArc
 50
120.0
 51
240.0000000001
  0
LINE
  5
38A
330
1F
100
AcDbEntity
  8
0
  6
Continuous
 62
     7
370
    15
100
AcDbLine
 10
214.7352679529
 20
162.4289546559
 30
0.0
 11
214.4102661767
 21
162.241304333
 31
0.0
  0
ARC
  5
38B
330
1F
100
AcDbEntity
  8
0
  6
Continuous
 62
     7
370
    15
100
AcDbCircle
 10
214.6852668214
 20
162.5155504792
 30
0.0
 40
0.1000000000000171
100
AcDbArc
 50
299.9999999999
 51
59.9999999999
  0
LINE
  5
38C
330
1F
100
AcDbEntity
  8
0
  6
Continuous
 62
     7
370
    15
100
AcDbLine
 10
214.4102661767
 20
162.7897862742
 30
0.0
 11
214.7352679529
 21
162.6021508525
 31
0.0
  0
ARC
  5
38D
330
1F
100
AcDbEntity
  8
0
  6
Continuous
 62
     7
370
    15
100
AcDbCircle
 10
214.5352668214
 20
163.006298208
 30
0.0
 40
0.2500000000000309
100
AcDbArc
 50
120.0
 51
240.0000000001
  0
LINE
  5
38E
330
1F
100
AcDbEntity
  8
0
  6
Continuous
 62
     7
370
    15
100
AcDbLine
 10
214.7352679529
 20
163.4104494403
 30
0.0
 11
214.4102661767
 21
163.2227991173
 31
0.0
  0
ARC
  5
38F
330
1F
100
AcDbEntity
  8
0
  6
Continuous
 62
     7
370
    15
100
AcDbCircle
 10
214.6852668214
 20
163.4970459368
 30
0.0
 40
0.1000000000000029
100
AcDbArc
 50
299.9999999998
 51
60.0
  0
LINE
  5
390
330
1F
100
AcDbEntity
  8
0
  6
Continuous
 62
     7
370
    15
100
AcDbLine
 10
214.4102661767
 20
163.7712810586
 30
0.0
 11
214.7352679529
 21
163.5836456368
 31
0.0
  0
ARC
  5
391
330
1F
100
AcDbEntity
  8
0
  6
Continuous
 62
     7
370
    15
100
AcDbCircle
 10
214.5352668214
 20
163.9877936656
 30
0.0
 40
0.2499999999999949
100
AcDbArc
 50
120.0
 51
240.0000000001
  0
LINE
  5
392
330
1F
100
AcDbEntity
  8
0
  6
Continuous
 62
     7
370
    15
100
AcDbLine
 10
214.7352679529
 20
164.3919442246
 30
0.0
 11
214.4102661767
 21
164.2042939017
 31
0.0
  0
ARC
  5
393
330
1F
100
AcDbEntity
  8
0
  6
Continuous
 62
     7
370
    15
100
AcDbCircle
 10
214.6852668214
 20
164.4785413944
 30
0.0
 40
0.1000000000000047
100
AcDbArc
 50
299.9999999998
 51
59.9999999999
  0
LINE
  5
394
330
1F
100
AcDbEntity
  8
0
  6
Continuous
 62
     7
370
    15
100
AcDbLine
 10
214.4102661767
 20
164.7527758429
 30
0.0
 11
214.7352679529
 21
164.5651404212
 31
0.0
  0
ARC
  5
395
330
1F
100
AcDbEntity
  8
0
  6
Continuous
 62
     7
370
    15
100
AcDbCircle
 10
214.5352668214
 20
164.9692891233
 30
0.0
 40
0.2499999999999977
100
AcDbArc
 50
120.0
 51
240.0000000001
  0
LINE
  5
396
330
1F
100
AcDbEntity
  8
0
  6
Continuous
 62
     7
370
    15
100
AcDbLine
 10
214.7352679529
 20
165.373439009
 30
0.0
 11
214.4102661767
 21
165.1857886861
 31
0.0
  0
ARC
  5
397
330
1F
100
AcDbEntity
  8
0
  6
Continuous
 62
     7
370
    15
100
AcDbCircle
 10
214.6852668214
 20
165.4600368521
 30
0.0
 40
0.1000000000000047
100
AcDbArc
 50
299.9999999998
 51
60.0
  0
LINE
  5
398
330
1F
100
AcDbEntity
  8
0
  6
Continuous
 62
     7
370
    15
100
AcDbLine
 10
214.4102661767
 20
165.7342855284
 30
0.0
 11
214.7352679529
 21
165.5466352055
 31
0.0
  0
ARC
  5
399
330
1F
100
AcDbEntity
  8
0
  6
Continuous
 62
     7
370
    15
100
AcDbCircle
 10
214.5352668214
 20
165.9507845809
 30
0.0
 40
0.2499999999999845
100
AcDbArc
 50
120.0
 51
240.0
  0
LINE
  5
39A
330
1F
100
AcDbEntity
  8
0
  6
Continuous
 62
     7
370
    15
100
AcDbLine
 10
214.7352679529
 20
166.3549337933
 30
0.0
 11
214.4102661767
 21
166.1672983716
 31
0.0
  0
ARC
  5
39B
330
1F
100
AcDbEntity
  8
0
  6
Continuous
 62
     7
370
    15
100
AcDbCircle
 10
214.6852668214
 20
166.4415323097
 30
0.0
 40
0.1000000000000133
100
AcDbArc
 50
299.9999999998
 51
60.0
  0
LINE
  5
39C
330
1F
100
AcDbEntity
  8
0
  6
Continuous
 62
     7
370
    15
100
AcDbLine
 10
214.4102661767
 20
166.7157803128
 30
0.0
 11
214.7352679529
 21
166.5281299899
 31
0.0
  0
ARC
  5
39D
330
1F
100
AcDbEntity
  8
0
  6
Continuous
 62
     7
370
    15
100
AcDbCircle
 10
214.5352668214
 20
166.9322800385
 30
0.0
 40
0.2500000000000309
100
AcDbArc
 50
120.0
 51
240.0000000001
  0
LINE
  5
39E
330
1F
100
AcDbEntity
  8
0
  6
Continuous
 62
     7
370
    15
100
AcDbLine
 10
214.7352679529
 20
167.3364285777
 30
0.0
 11
214.4102661767
 21
167.1487931559
 31
0.0
  0
ARC
  5
39F
330
1F
100
AcDbEntity
  8
0
  6
Continuous
 62
     7
370
    15
100
AcDbCircle
 10
214.6852668214
 20
167.4230277673
 30
0.0
 40
0.1000000000000085
100
AcDbArc
 50
299.9999999999
 51
60.0
  0
LINE
  5
3A0
330
1F
100
AcDbEntity
  8
0
  6
Continuous
 62
     7
370
    15
100
AcDbLine
 10
214.4102661767
 20
167.6972750971
 30
0.0
 11
214.7352679529
 21
167.5096247742
 31
0.0
  0
ARC
  5
3A1
330
1F
100
AcDbEntity
  8
0
  6
Continuous
 62
     7
370
    15
100
AcDbCircle
 10
214.5352668214
 20
167.9137754961
 30
0.0
 40
0.2499999999999921
100
AcDbArc
 50
120.0
 51
240.0
  0
LINE
  5
3A2
330
1F
100
AcDbEntity
  8
0
  6
Continuous
 62
     7
370
    15
100
AcDbLine
 10
214.7352679529
 20
168.317923362
 30
0.0
 11
214.4102661767
 21
168.1302879403
 31
0.0
  0
ARC
  5
3A3
330
1F
100
AcDbEntity
  8
0
  6
Continuous
 62
     7
370
    15
100
AcDbCircle
 10
214.6852668214
 20
168.4045232249
 30
0.0
 40
0.1000000000000171
100
AcDbArc
 50
299.9999999998
 51
59.9999999999
  0
LINE
  5
3A4
330
1F
100
AcDbEntity
  8
0
  6
Continuous
 62
     7
370
    15
100
AcDbLine
 10
214.4102661767
 20
168.6787698815
 30
0.0
 11
214.7352679529
 21
168.4911195586
 31
0.0
  0
ARC
  5
3A5
330
1F
100
AcDbEntity
  8
0
  6
Continuous
 62
     7
370
    15
100
AcDbCircle
 10
214.5352668214
 20
168.8952709537
 30
0.0
 40
0.2500000000000053
100
AcDbArc
 50
120.0
 51
240.0000000001
  0
LINE
  5
3A6
330
1F
100
AcDbEntity
  8
0
  6
Continuous
 62
     7
370
    15
100
AcDbLine
 10
214.7352679529
 20
169.2994181464
 30
0.0
 11
214.4102661767
 21
169.1117827246
 31
0.0
  0
ARC
  5
3A7
330
1F
100
AcDbEntity
  8
0
  6
Continuous
 62
     7
370
    15
100
AcDbCircle
 10
214.6852668214
 20
169.3860186826
 30
0.0
 40
0.1000000000000133
100
AcDbArc
 50
299.9999999999
 51
60.0
  0
LINE
  5
3A8
330
1F
100
AcDbEntity
  8
0
  6
Continuous
 62
     7
370
    15
100
AcDbLine
 10
214.4102661767
 20
169.6602646659
 30
0.0
 11
214.7352679529
 21
169.4726143429
 31
0.0
  0
ARC
  5
3A9
330
1F
100
AcDbEntity
  8
0
  6
Continuous
 62
     7
370
    15
100
AcDbCircle
 10
214.5352668214
 20
169.8767664114
 30
0.0
 40
0.2500000000000205
100
AcDbArc
 50
120.0
 51
240.0
  0
LINE
  5
3AA
330
1F
100
AcDbEntity
  8
0
  6
Continuous
 62
     7
370
    15
100
AcDbLine
 10
214.7352679529
 20
170.2809129307
 30
0.0
 11
214.4102661767
 21
170.093277509
 31
0.0
  0
ARC
  5
3AB
330
1F
100
AcDbEntity
  8
0
  6
Continuous
 62
     7
370
    15
100
AcDbCircle
 10
214.6852668214
 20
170.3675141402
 30
0.0
 40
0.1000000000000133
100
AcDbArc
 50
300.0000000001
 51
60.0
  0
LINE
  5
3AC
330
1F
100
AcDbEntity
  8
0
  6
Continuous
 62
     7
370
    15
100
AcDbLine
 10
214.4102661767
 20
170.6417594502
 30
0.0
 11
214.7352679529
 21
170.4541240285
 31
0.0
  0
ARC
  5
3AD
330
1F
100
AcDbEntity
  8
0
  6
Continuous
 62
     7
370
    15
100
AcDbCircle
 10
214.5352668214
 20
170.858261869
 30
0.0
 40
0.2500000000000309
100
AcDbArc
 50
120.0
 51
239.9999999999
  0
LINE
  5
3AE
330
1F
100
AcDbEntity
  8
0
  6
Continuous
 62
     7
370
    15
100
AcDbLine
 10
214.7352679529
 20
171.2624077151
 30
0.0
 11
214.4102661767
 21
171.0747722933
 31
0.0
  0
ARC
  5
3AF
330
1F
100
AcDbEntity
  8
0
  6
Continuous
 62
     7
370
    15
100
AcDbCircle
 10
214.6852668213
 20
171.3490095978
 30
0.0
 40
0.0999999999996431
100
AcDbArc
 50
300.0000000117
 51
60.0
  0
LINE
  5
3B0
330
1F
100
AcDbEntity
  8
0
  6
Continuous
 62
     7
370
    15
100
AcDbLine
 10
214.4102661767
 20
171.6232542346
 30
0.0
 11
214.7352679529
 21
171.4356188128
 31
0.0
  0
ARC
  5
3B1
330
1F
100
AcDbEntity
  8
0
  6
Continuous
 62
     7
370
    15
100
AcDbCircle
 10
214.5352668213
 20
171.8397573266
 30
0.0
 40
0.2500000000013879
100
AcDbArc
 50
120.0
 51
240.0000000006
  0
LINE
  5
3B2
330
1F
100
AcDbEntity
  8
0
  6
Continuous
 62
     7
370
    15
100
AcDbLine
 10
214.7352679529
 20
172.2439024995
 30
0.0
 11
214.4102661767
 21
172.0562670777
 31
0.0
  0
ARC
  5
3B3
330
1F
100
AcDbEntity
  8
0
  6
Continuous
 62
     7
370
    15
100
AcDbCircle
 10
214.6852668213
 20
172.3305050554
 30
0.0
 40
0.1000000000000095
100
AcDbArc
 50
300.0
 51
60.0
  0
LINE
  5
3B4
330
1F
100
AcDbEntity
  8
0
  6
Continuous
 62
     7
370
    15
100
AcDbLine
 10
214.4102661767
 20
172.6047490189
 30
0.0
 11
214.7352679529
 21
172.4171135972
 31
0.0
  0
ARC
  5
3B5
330
1F
100
AcDbEntity
  8
0
  6
Continuous
 62
     7
370
    15
100
AcDbCircle
 10
214.5352668213
 20
172.8212527842
 30
0.0
 40
0.2500000000000243
100
AcDbArc
 50
120.0
 51
240.0
  0
LINE
  5
3B6
330
1F
100
AcDbEntity
  8
0
  6
Continuous
 62
     7
370
    15
100
AcDbLine
 10
214.7352679529
 20
173.2253972838
 30
0.0
 11
214.4102661767
 21
173.0377618621
 31
0.0
  0
ARC
  5
3B7
330
1F
100
AcDbEntity
  8
0
  6
Continuous
 62
     7
370
    15
100
AcDbCircle
 10
214.6852668213
 20
173.312000513
 30
0.0
 40
0.1000000000001648
100
AcDbArc
 50
300.0
 51
0.0
  0
LINE
  5
3B8
330
1F
100
AcDbEntity
  8
0
  6
Continuous
 62
     7
370
    15
100
AcDbLine
 10
214.7852687993
 20
182.0748541901
 30
0.0
 11
214.7852687993
 21
173.3120028327
 31
0.0
  0
ARC
  5
3B9
330
1F
100
AcDbEntity
  8
0
  6
Continuous
 62
     7
370
    15
100
AcDbCircle
 10
215.4852668213
 20
182.0748527842
 30
0.0
 40
0.700000000000017
100
AcDbArc
 50
90.0
 51
180.0
  0
LINE
  5
3BA
330
1F
100
AcDbEntity
  8
0
  6
Continuous
 62
     7
370
    15
100
AcDbLine
 10
215.8852650681
 20
182.7748511384
 30
0.0
 11
215.4852657476
 21
182.7748511384
 31
0.0
  0
ARC
  5
3BB
330
1F
100
AcDbEntity
  8
0
  6
Continuous
 62
     7
370
    15
100
AcDbCircle
 10
215.8852668213
 20
182.0748527842
 30
0.0
 40
0.700000000000017
100
AcDbArc
 50
0.0
 51
90.0
  0
LINE
  5
3BC
330
1F
100
AcDbEntity
  8
0
  6
Continuous
 62
     7
370
    15
100
AcDbLine
 10
216.5852694669
 20
173.3120028327
 30
0.0
 11
216.5852694669
 21
182.0748541901
 31
0.0
  0
ARC
  5
3BD
330
1F
100
AcDbEntity
  8
0
  6
Continuous
 62
     7
370
    15
100
AcDbCircle
 10
216.6852668213
 20
173.312000513
 30
0.0
 40
0.0999999999999215
100
AcDbArc
 50
180.0
 51
240.0
  0
LINE
  5
3BE
330
1F
100
AcDbEntity
  8
0
  6
Continuous
 62
     7
370
    15
100
AcDbLine
 10
216.9602646389
 20
173.0377618621
 30
0.0
 11
216.6352703133
 21
173.2253972838
 31
0.0
  0
ARC
  5
3BF
330
1F
100
AcDbEntity
  8
0
  6
Continuous
 62
     7
370
    15
100
AcDbCircle
 10
216.8352668213
 20
172.8212527842
 30
0.0
 40
0.2500000000000243
100
AcDbArc
 50
300.0
 51
60.0
  0
LINE
  5
3C0
330
1F
100
AcDbEntity
  8
0
  6
Continuous
 62
     7
370
    15
100
AcDbLine
 10
216.6352703133
 20
172.4171135972
 30
0.0
 11
216.9602646389
 21
172.6047490189
 31
0.0
  0
ARC
  5
3C1
330
1F
100
AcDbEntity
  8
0
  6
Continuous
 62
     7
370
    15
100
AcDbCircle
 10
216.6852668213
 20
172.3305050554
 30
0.0
 40
0.1000000000000483
100
AcDbArc
 50
120.0
 51
240.0
  0
LINE
  5
3C2
330
1F
100
AcDbEntity
  8
0
  6
Continuous
 62
     7
370
    15
100
AcDbLine
 10
216.9602646389
 20
172.0562670777
 30
0.0
 11
216.6352703133
 21
172.2439024995
 31
0.0
  0
ARC
  5
3C3
330
1F
100
AcDbEntity
  8
0
  6
Continuous
 62
     7
370
    15
100
AcDbCircle
 10
216.8352668213
 20
171.8397573266
 30
0.0
 40
0.2499999999999883
100
AcDbArc
 50
300.0
 51
60.0
  0
LINE
  5
3C4
330
1F
100
AcDbEntity
  8
0
  6
Continuous
 62
     7
370
    15
100
AcDbLine
 10
216.6352703133
 20
171.4356188128
 30
0.0
 11
216.9602646389
 21
171.6232542346
 31
0.0
  0
ARC
  5
3C5
330
1F
100
AcDbEntity
  8
0
  6
Continuous
 62
     7
370
    15
100
AcDbCircle
 10
216.6852668213
 20
171.3490095978
 30
0.0
 40
0.1000000000000199
100
AcDbArc
 50
120.0
 51
240.0
  0
LINE
  5
3C6
330
1F
100
AcDbEntity
  8
0
  6
Continuous
 62
     7
370
    15
100
AcDbLine
 10
216.9602646389
 20
171.0747722933
 30
0.0
 11
216.6352703133
 21
171.2624077151
 31
0.0
  0
ARC
  5
3C7
330
1F
100
AcDbEntity
  8
0
  6
Continuous
 62
     7
370
    15
100
AcDbCircle
 10
216.8352668213
 20
170.858261869
 30
0.0
 40
0.2500000000000205
100
AcDbArc
 50
300.0
 51
60.0
  0
LINE
  5
3C8
330
1F
100
AcDbEntity
  8
0
  6
Continuous
 62
     7
370
    15
100
AcDbLine
 10
216.6352703133
 20
170.4541240285
 30
0.0
 11
216.9602646389
 21
170.6417594502
 31
0.0
  0
ARC
  5
3C9
330
1F
100
AcDbEntity
  8
0
  6
Continuous
 62
     7
370
    15
100
AcDbCircle
 10
216.6852668213
 20
170.3675141402
 30
0.0
 40
0.0999999999999991
100
AcDbArc
 50
120.0
 51
240.0
  0
LINE
  5
3CA
330
1F
100
AcDbEntity
  8
0
  6
Continuous
 62
     7
370
    15
100
AcDbLine
 10
216.9602646389
 20
170.093277509
 30
0.0
 11
216.6352703133
 21
170.2809129307
 31
0.0
  0
ARC
  5
3CB
330
1F
100
AcDbEntity
  8
0
  6
Continuous
 62
     7
370
    15
100
AcDbCircle
 10
216.8352668213
 20
169.8767664114
 30
0.0
 40
0.2499999999999959
100
AcDbArc
 50
300.0
 51
60.0
  0
LINE
  5
3CC
330
1F
100
AcDbEntity
  8
0
  6
Continuous
 62
     7
370
    15
100
AcDbLine
 10
216.6352703133
 20
169.4726143429
 30
0.0
 11
216.9602646389
 21
169.6602646659
 31
0.0
  0
ARC
  5
3CD
330
1F
100
AcDbEntity
  8
0
  6
Continuous
 62
     7
370
    15
100
AcDbCircle
 10
216.6852668213
 20
169.3860186825
 30
0.0
 40
0.1000000000000199
100
AcDbArc
 50
120.0
 51
240.0
  0
LINE
  5
3CE
330
1F
100
AcDbEntity
  8
0
  6
Continuous
 62
     7
370
    15
100
AcDbLine
 10
216.9602646389
 20
169.1117827246
 30
0.0
 11
216.6352703133
 21
169.2994181464
 31
0.0
  0
ARC
  5
3CF
330
1F
100
AcDbEntity
  8
0
  6
Continuous
 62
     7
370
    15
100
AcDbCircle
 10
216.8352668213
 20
168.8952709537
 30
0.0
 40
0.2500000000000205
100
AcDbArc
 50
300.0
 51
60.0
  0
LINE
  5
3D0
330
1F
100
AcDbEntity
  8
0
  6
Continuous
 62
     7
370
    15
100
AcDbLine
 10
216.6352703133
 20
168.4911195586
 30
0.0
 11
216.9602646389
 21
168.6787698815
 31
0.0
  0
ARC
  5
3D1
330
1F
100
AcDbEntity
  8
0
  6
Continuous
 62
     7
370
    15
100
AcDbCircle
 10
216.6852668213
 20
168.4045232249
 30
0.0
 40
0.1000000000000029
100
AcDbArc
 50
120.0
 51
240.0
  0
LINE
  5
3D2
330
1F
100
AcDbEntity
  8
0
  6
Continuous
 62
     7
370
    15
100
AcDbLine
 10
216.9602646389
 20
168.1302879403
 30
0.0
 11
216.6352703133
 21
168.317923362
 31
0.0
  0
ARC
  5
3D3
330
1F
100
AcDbEntity
  8
0
  6
Continuous
 62
     7
370
    15
100
AcDbCircle
 10
216.8352668213
 20
167.9137754961
 30
0.0
 40
0.2499999999999959
100
AcDbArc
 50
300.0
 51
60.0
  0
LINE
  5
3D4
330
1F
100
AcDbEntity
  8
0
  6
Continuous
 62
     7
370
    15
100
AcDbLine
 10
216.6352703133
 20
167.5096247742
 30
0.0
 11
216.9602646389
 21
167.6972750971
 31
0.0
  0
ARC
  5
3D5
330
1F
100
AcDbEntity
  8
0
  6
Continuous
 62
     7
370
    15
100
AcDbCircle
 10
216.6852668213
 20
167.4230277673
 30
0.0
 40
0.1000000000000199
100
AcDbArc
 50
120.0
 51
240.0
  0
LINE
  5
3D6
330
1F
100
AcDbEntity
  8
0
  6
Continuous
 62
     7
370
    15
100
AcDbLine
 10
216.9602646389
 20
167.1487931559
 30
0.0
 11
216.6352703133
 21
167.3364285777
 31
0.0
  0
ARC
  5
3D7
330
1F
100
AcDbEntity
  8
0
  6
Continuous
 62
     7
370
    15
100
AcDbCircle
 10
216.8352668213
 20
166.9322800385
 30
0.0
 40
0.2500000000000205
100
AcDbArc
 50
300.0
 51
60.0
  0
LINE
  5
3D8
330
1F
100
AcDbEntity
  8
0
  6
Continuous
 62
     7
370
    15
100
AcDbLine
 10
216.6352703133
 20
166.5281299899
 30
0.0
 11
216.9602646389
 21
166.7157803128
 31
0.0
  0
ARC
  5
3D9
330
1F
100
AcDbEntity
  8
0
  6
Continuous
 62
     7
370
    15
100
AcDbCircle
 10
216.6852668213
 20
166.4415323097
 30
0.0
 40
0.0999999999999991
100
AcDbArc
 50
120.0
 51
240.0
  0
LINE
  5
3DA
330
1F
100
AcDbEntity
  8
0
  6
Continuous
 62
     7
370
    15
100
AcDbLine
 10
216.9602646389
 20
166.1672983716
 30
0.0
 11
216.6352703133
 21
166.3549337933
 31
0.0
  0
ARC
  5
3DB
330
1F
100
AcDbEntity
  8
0
  6
Continuous
 62
     7
370
    15
100
AcDbCircle
 10
216.8352668213
 20
165.9507845809
 30
0.0
 40
0.2499999999999959
100
AcDbArc
 50
300.0
 51
60.0
  0
LINE
  5
3DC
330
1F
100
AcDbEntity
  8
0
  6
Continuous
 62
     7
370
    15
100
AcDbLine
 10
216.6352703133
 20
165.5466352055
 30
0.0
 11
216.9602646389
 21
165.7342855284
 31
0.0
  0
ARC
  5
3DD
330
1F
100
AcDbEntity
  8
0
  6
Continuous
 62
     7
370
    15
100
AcDbCircle
 10
216.6852668213
 20
165.4600368521
 30
0.0
 40
0.1000000000000199
100
AcDbArc
 50
120.0
 51
240.0
  0
LINE
  5
3DE
330
1F
100
AcDbEntity
  8
0
  6
Continuous
 62
     7
370
    15
100
AcDbLine
 10
216.9602646389
 20
165.1857886861
 30
0.0
 11
216.6352703133
 21
165.373439009
 31
0.0
  0
ARC
  5
3DF
330
1F
100
AcDbEntity
  8
0
  6
Continuous
 62
     7
370
    15
100
AcDbCircle
 10
216.8352668213
 20
164.9692891232
 30
0.0
 40
0.2500000000000205
100
AcDbArc
 50
300.0
 51
60.0
  0
LINE
  5
3E0
330
1F
100
AcDbEntity
  8
0
  6
Continuous
 62
     7
370
    15
100
AcDbLine
 10
216.6352703133
 20
164.5651404212
 30
0.0
 11
216.9602646389
 21
164.7527758429
 31
0.0
  0
ARC
  5
3E1
330
1F
100
AcDbEntity
  8
0
  6
Continuous
 62
     7
370
    15
100
AcDbCircle
 10
216.6852668213
 20
164.4785413944
 30
0.0
 40
0.1000000000000029
100
AcDbArc
 50
120.0
 51
240.0
  0
LINE
  5
3E2
330
1F
100
AcDbEntity
  8
0
  6
Continuous
 62
     7
370
    15
100
AcDbLine
 10
216.9602646389
 20
164.2042939017
 30
0.0
 11
216.6352703133
 21
164.3919442246
 31
0.0
  0
ARC
  5
3E3
330
1F
100
AcDbEntity
  8
0
  6
Continuous
 62
     7
370
    15
100
AcDbCircle
 10
216.8352668213
 20
163.9877936656
 30
0.0
 40
0.2499999999999959
100
AcDbArc
 50
300.0
 51
60.0
  0
LINE
  5
3E4
330
1F
100
AcDbEntity
  8
0
  6
Continuous
 62
     7
370
    15
100
AcDbLine
 10
216.6352703133
 20
163.5836456368
 30
0.0
 11
216.9602646389
 21
163.7712810586
 31
0.0
  0
ARC
  5
3E5
330
1F
100
AcDbEntity
  8
0
  6
Continuous
 62
     7
370
    15
100
AcDbCircle
 10
216.6852668213
 20
163.4970459368
 30
0.0
 40
0.1000000000000199
100
AcDbArc
 50
120.0
 51
240.0
  0
LINE
  5
3E6
330
1F
100
AcDbEntity
  8
0
  6
Continuous
 62
     7
370
    15
100
AcDbLine
 10
216.9602646389
 20
163.2227991173
 30
0.0
 11
216.6352703133
 21
163.4104494403
 31
0.0
  0
ARC
  5
3E7
330
1F
100
AcDbEntity
  8
0
  6
Continuous
 62
     7
370
    15
100
AcDbCircle
 10
216.8352668213
 20
163.006298208
 30
0.0
 40
0.2500000000000205
100
AcDbArc
 50
300.0
 51
60.0
  0
LINE
  5
3E8
330
1F
100
AcDbEntity
  8
0
  6
Continuous
 62
     7
370
    15
100
AcDbLine
 10
216.6352703133
 20
162.6021508525
 30
0.0
 11
216.9602646389
 21
162.7897862742
 31
0.0
  0
ARC
  5
3E9
330
1F
100
AcDbEntity
  8
0
  6
Continuous
 62
     7
370
    15
100
AcDbCircle
 10
216.6852668213
 20
162.5155504792
 30
0.0
 40
0.1000000000000029
100
AcDbArc
 50
120.0
 51
240.0
  0
LINE
  5
3EA
330
1F
100
AcDbEntity
  8
0
  6
Continuous
 62
     7
370
    15
100
AcDbLine
 10
216.9602646389
 20
162.241304333
 30
0.0
 11
216.6352703133
 21
162.4289546559
 31
0.0
  0
ARC
  5
3EB
330
1F
100
AcDbEntity
  8
0
  6
Continuous
 62
     7
370
    15
100
AcDbCircle
 10
216.8352668213
 20
162.0248027504
 30
0.0
 40
0.2499999999999959
100
AcDbArc
 50
300.0
 51
60.0
  0
LINE
  5
3EC
330
1F
100
AcDbEntity
  8
0
  6
Continuous
 62
     7
370
    15
100
AcDbLine
 10
216.6352703133
 20
161.6206560681
 30
0.0
 11
216.9602646389
 21
161.8082914899
 31
0.0
  0
ARC
  5
3ED
330
1F
100
AcDbEntity
  8
0
  6
Continuous
 62
     7
370
    15
100
AcDbCircle
 10
216.6852668213
 20
161.5340550216
 30
0.0
 40
0.1000000000000275
100
AcDbArc
 50
120.0
 51
240.0
  0
LINE
  5
3EE
330
1F
100
AcDbEntity
  8
0
  6
Continuous
 62
     7
370
    15
100
AcDbLine
 10
216.9602646389
 20
161.2598095486
 30
0.0
 11
216.6352703133
 21
161.4474598715
 31
0.0
  0
ARC
  5
3EF
330
1F
100
AcDbEntity
  8
0
  6
Continuous
 62
     7
370
    15
100
AcDbCircle
 10
216.8352668213
 20
161.0433072928
 30
0.0
 40
0.2500000000000205
100
AcDbArc
 50
300.0
 51
60.0
  0
LINE
  5
3F0
330
1F
100
AcDbEntity
  8
0
  6
Continuous
 62
     7
370
    15
100
AcDbLine
 10
216.6352703133
 20
160.6391612837
 30
0.0
 11
216.9602646389
 21
160.8267967055
 31
0.0
  0
ARC
  5
3F1
330
1F
100
AcDbEntity
  8
0
  6
Continuous
 62
     7
370
    15
100
AcDbCircle
 10
216.6852668213
 20
160.5525595639
 30
0.0
 40
0.1000000000000029
100
AcDbArc
 50
120.0
 51
240.0
  0
LINE
  5
3F2
330
1F
100
AcDbEntity
  8
0
  6
Continuous
 62
     7
370
    15
100
AcDbLine
 10
216.9602646389
 20
160.2783147643
 30
0.0
 11
216.6352703133
 21
160.465950186
 31
0.0
  0
ARC
  5
3F3
330
1F
100
AcDbEntity
  8
0
  6
Continuous
 62
     7
370
    15
100
AcDbCircle
 10
216.8352668213
 20
160.0618118351
 30
0.0
 40
0.2499999999999959
100
AcDbArc
 50
300.0
 51
60.0
  0
LINE
  5
3F4
330
1F
100
AcDbEntity
  8
0
  6
Continuous
 62
     7
370
    15
100
AcDbLine
 10
216.6352703133
 20
159.6576664994
 30
0.0
 11
216.9602646389
 21
159.8453019211
 31
0.0
  0
ARC
  5
3F5
330
1F
100
AcDbEntity
  8
0
  6
Continuous
 62
     7
370
    15
100
AcDbCircle
 10
216.6852668213
 20
159.5710641063
 30
0.0
 40
0.1000000000000237
100
AcDbArc
 50
120.0
 51
240.0
  0
LINE
  5
3F6
330
1F
100
AcDbEntity
  8
0
  6
Continuous
 62
     7
370
    15
100
AcDbLine
 10
216.9752701082
 20
159.2881624053
 30
0.0
 11
216.6352703133
 21
159.4844554017
 31
0.0
  0
ARC
  5
3F7
330
1F
100
AcDbEntity
  8
0
  6
Continuous
 62
     7
370
    15
100
AcDbCircle
 10
216.8502686247
 20
159.0716550823
 30
0.0
 40
0.2499999999892725
100
AcDbArc
 50
0.064626054
 51
59.9999999972
  0
ARC
  5
3F8
330
1F
100
AcDbEntity
  8
0
  6
Continuous
 62
     7
370
    15
100
AcDbCircle
 10
219.6852668213
 20
159.0748527842
 30
0.0
 40
2.585000000000028
100
AcDbArc
 50
180.064626054
 51
269.9999
  0
LINE
  5
3F9
330
1F
100
AcDbEntity
  8
0
  6
Continuous
 62
     7
370
    15
100
AcDbLine
 10
220.2852724948
 20
156.4898584435
 30
0.0
 11
219.6852623382
 21
156.4898584435
 31
0.0
  0
ARC
  5
3FA
330
1F
100
AcDbEntity
  8
0
  6
Continuous
 62
     7
370
    15
100
AcDbCircle
 10
220.2852668214
 20
159.0748527842
 30
0.0
 40
2.584999999999999
100
AcDbArc
 50
270.0001
 51
359.935373946
  0
ARC
  5
3FB
330
1F
100
AcDbEntity
  8
0
  6
Continuous
 62
     7
370
    15
100
AcDbCircle
 10
223.1202650179
 20
159.0716550823
 30
0.0
 40
0.249999999989102
100
AcDbArc
 50
120.0000000028
 51
179.935373946
  0
LINE
  5
3FC
330
1F
100
AcDbEntity
  8
0
  6
Continuous
 62
     7
370
    15
100
AcDbLine
 10
223.3352645197
 20
159.4844554017
 30
0.0
 11
222.9952647248
 21
159.2881624053
 31
0.0
  0
ARC
  5
3FD
330
1F
100
AcDbEntity
  8
0
  6
Continuous
 62
     7
370
    15
100
AcDbCircle
 10
223.2852668213
 20
159.5710641063
 30
0.0
 40
0.1000000000000237
100
AcDbArc
 50
300.0
 51
60.0
  0
LINE
  5
3FE
330
1F
100
AcDbEntity
  8
0
  6
Continuous
 62
     7
370
    15
100
AcDbLine
 10
223.0102701941
 20
159.8453019211
 30
0.0
 11
223.3352645197
 21
159.6576664994
 31
0.0
  0
ARC
  5
3FF
330
1F
100
AcDbEntity
  8
0
  6
Continuous
 62
     7
370
    15
100
AcDbCircle
 10
223.1352668213
 20
160.0618118351
 30
0.0
 40
0.2500000000000205
100
AcDbArc
 50
120.0
 51
240.0
  0
LINE
  5
400
330
1F
100
AcDbEntity
  8
0
  6
Continuous
 62
     7
370
    15
100
AcDbLine
 10
223.3352645197
 20
160.465950186
 30
0.0
 11
223.0102701941
 21
160.2783147643
 31
0.0
  0
ARC
  5
401
330
1F
100
AcDbEntity
  8
0
  6
Continuous
 62
     7
370
    15
100
AcDbCircle
 10
223.2852668213
 20
160.5525595639
 30
0.0
 40
0.1000000000000029
100
AcDbArc
 50
300.0
 51
60.0
  0
LINE
  5
402
330
1F
100
AcDbEntity
  8
0
  6
Continuous
 62
     7
370
    15
100
AcDbLine
 10
223.0102701941
 20
160.8267967055
 30
0.0
 11
223.3352645197
 21
160.6391612837
 31
0.0
  0
ARC
  5
403
330
1F
100
AcDbEntity
  8
0
  6
Continuous
 62
     7
370
    15
100
AcDbCircle
 10
223.1352668213
 20
161.0433072928
 30
0.0
 40
0.2500000000000347
100
AcDbArc
 50
120.0
 51
240.0
  0
LINE
  5
404
330
1F
100
AcDbEntity
  8
0
  6
Continuous
 62
     7
370
    15
100
AcDbLine
 10
223.3352645197
 20
161.4474598715
 30
0.0
 11
223.0102701941
 21
161.2598095486
 31
0.0
  0
ARC
  5
405
330
1F
100
AcDbEntity
  8
0
  6
Continuous
 62
     7
370
    15
100
AcDbCircle
 10
223.2852668213
 20
161.5340550216
 30
0.0
 40
0.1000000000000275
100
AcDbArc
 50
300.0
 51
60.0
  0
LINE
  5
406
330
1F
100
AcDbEntity
  8
0
  6
Continuous
 62
     7
370
    15
100
AcDbLine
 10
223.0102701941
 20
161.8082914899
 30
0.0
 11
223.3352645197
 21
161.6206560681
 31
0.0
  0
ARC
  5
407
330
1F
100
AcDbEntity
  8
0
  6
Continuous
 62
     7
370
    15
100
AcDbCircle
 10
223.1352668213
 20
162.0248027504
 30
0.0
 40
0.2500000000000205
100
AcDbArc
 50
120.0
 51
240.0
  0
LINE
  5
408
330
1F
100
AcDbEntity
  8
0
  6
Continuous
 62
     7
370
    15
100
AcDbLine
 10
223.3352645197
 20
162.4289546559
 30
0.0
 11
223.0102701941
 21
162.241304333
 31
0.0
  0
ARC
  5
409
330
1F
100
AcDbEntity
  8
0
  6
Continuous
 62
     7
370
    15
100
AcDbCircle
 10
223.2852668213
 20
162.5155504792
 30
0.0
 40
0.1000000000000029
100
AcDbArc
 50
300.0
 51
60.0
  0
LINE
  5
40A
330
1F
100
AcDbEntity
  8
0
  6
Continuous
 62
     7
370
    15
100
AcDbLine
 10
223.0102701941
 20
162.7897862742
 30
0.0
 11
223.3352645197
 21
162.6021508525
 31
0.0
  0
ARC
  5
40B
330
1F
100
AcDbEntity
  8
0
  6
Continuous
 62
     7
370
    15
100
AcDbCircle
 10
223.1352668213
 20
163.006298208
 30
0.0
 40
0.2500000000000347
100
AcDbArc
 50
120.0
 51
240.0
  0
LINE
  5
40C
330
1F
100
AcDbEntity
  8
0
  6
Continuous
 62
     7
370
    15
100
AcDbLine
 10
223.3352645197
 20
163.4104494403
 30
0.0
 11
223.0102701941
 21
163.2227991173
 31
0.0
  0
ARC
  5
40D
330
1F
100
AcDbEntity
  8
0
  6
Continuous
 62
     7
370
    15
100
AcDbCircle
 10
223.2852668213
 20
163.4970459368
 30
0.0
 40
0.1000000000000199
100
AcDbArc
 50
300.0
 51
60.0
  0
LINE
  5
40E
330
1F
100
AcDbEntity
  8
0
  6
Continuous
 62
     7
370
    15
100
AcDbLine
 10
223.0102701941
 20
163.7712810586
 30
0.0
 11
223.3352645197
 21
163.5836456368
 31
0.0
  0
ARC
  5
40F
330
1F
100
AcDbEntity
  8
0
  6
Continuous
 62
     7
370
    15
100
AcDbCircle
 10
223.1352668213
 20
163.9877936656
 30
0.0
 40
0.2500000000000205
100
AcDbArc
 50
120.0
 51
240.0
  0
LINE
  5
410
330
1F
100
AcDbEntity
  8
0
  6
Continuous
 62
     7
370
    15
100
AcDbLine
 10
223.3352645197
 20
164.3919442246
 30
0.0
 11
223.0102701941
 21
164.2042939017
 31
0.0
  0
ARC
  5
411
330
1F
100
AcDbEntity
  8
0
  6
Continuous
 62
     7
370
    15
100
AcDbCircle
 10
223.2852668213
 20
164.4785413944
 30
0.0
 40
0.1000000000000029
100
AcDbArc
 50
300.0
 51
60.0
  0
LINE
  5
412
330
1F
100
AcDbEntity
  8
0
  6
Continuous
 62
     7
370
    15
100
AcDbLine
 10
223.0102701941
 20
164.7527758429
 30
0.0
 11
223.3352645197
 21
164.5651404212
 31
0.0
  0
ARC
  5
413
330
1F
100
AcDbEntity
  8
0
  6
Continuous
 62
     7
370
    15
100
AcDbCircle
 10
223.1352668213
 20
164.9692891232
 30
0.0
 40
0.2500000000000347
100
AcDbArc
 50
120.0
 51
240.0
  0
LINE
  5
414
330
1F
100
AcDbEntity
  8
0
  6
Continuous
 62
     7
370
    15
100
AcDbLine
 10
223.3352645197
 20
165.373439009
 30
0.0
 11
223.0102701941
 21
165.1857886861
 31
0.0
  0
ARC
  5
415
330
1F
100
AcDbEntity
  8
0
  6
Continuous
 62
     7
370
    15
100
AcDbCircle
 10
223.2852668213
 20
165.4600368521
 30
0.0
 40
0.1000000000000199
100
AcDbArc
 50
300.0
 51
60.0
  0
LINE
  5
416
330
1F
100
AcDbEntity
  8
0
  6
Continuous
 62
     7
370
    15
100
AcDbLine
 10
223.0102701941
 20
165.7342855284
 30
0.0
 11
223.3352645197
 21
165.5466352055
 31
0.0
  0
ARC
  5
417
330
1F
100
AcDbEntity
  8
0
  6
Continuous
 62
     7
370
    15
100
AcDbCircle
 10
223.1352668213
 20
165.9507845809
 30
0.0
 40
0.2499999999999959
100
AcDbArc
 50
120.0
 51
240.0
  0
LINE
  5
418
330
1F
100
AcDbEntity
  8
0
  6
Continuous
 62
     7
370
    15
100
AcDbLine
 10
223.3352645197
 20
166.3549337933
 30
0.0
 11
223.0102701941
 21
166.1672983716
 31
0.0
  0
ARC
  5
419
330
1F
100
AcDbEntity
  8
0
  6
Continuous
 62
     7
370
    15
100
AcDbCircle
 10
223.2852668213
 20
166.4415323097
 30
0.0
 40
0.0999999999999991
100
AcDbArc
 50
300.0
 51
60.0
  0
LINE
  5
41A
330
1F
100
AcDbEntity
  8
0
  6
Continuous
 62
     7
370
    15
100
AcDbLine
 10
223.0102701941
 20
166.7157803128
 30
0.0
 11
223.3352645197
 21
166.5281299899
 31
0.0
  0
ARC
  5
41B
330
1F
100
AcDbEntity
  8
0
  6
Continuous
 62
     7
370
    15
100
AcDbCircle
 10
223.1352668213
 20
166.9322800385
 30
0.0
 40
0.2500000000000347
100
AcDbArc
 50
120.0
 51
240.0
  0
LINE
  5
41C
330
1F
100
AcDbEntity
  8
0
  6
Continuous
 62
     7
370
    15
100
AcDbLine
 10
223.3352645197
 20
167.3364285777
 30
0.0
 11
223.0102701941
 21
167.1487931559
 31
0.0
  0
ARC
  5
41D
330
1F
100
AcDbEntity
  8
0
  6
Continuous
 62
     7
370
    15
100
AcDbCircle
 10
223.2852668213
 20
167.4230277673
 30
0.0
 40
0.1000000000000199
100
AcDbArc
 50
300.0
 51
60.0
  0
LINE
  5
41E
330
1F
100
AcDbEntity
  8
0
  6
Continuous
 62
     7
370
    15
100
AcDbLine
 10
223.0102701941
 20
167.6972750971
 30
0.0
 11
223.3352645197
 21
167.5096247742
 31
0.0
  0
ARC
  5
41F
330
1F
100
AcDbEntity
  8
0
  6
Continuous
 62
     7
370
    15
100
AcDbCircle
 10
223.1352668213
 20
167.9137754961
 30
0.0
 40
0.2499999999999959
100
AcDbArc
 50
120.0
 51
240.0
  0
LINE
  5
420
330
1F
100
AcDbEntity
  8
0
  6
Continuous
 62
     7
370
    15
100
AcDbLine
 10
223.3352645197
 20
168.317923362
 30
0.0
 11
223.0102701941
 21
168.1302879403
 31
0.0
  0
ARC
  5
421
330
1F
100
AcDbEntity
  8
0
  6
Continuous
 62
     7
370
    15
100
AcDbCircle
 10
223.2852668213
 20
168.4045232249
 30
0.0
 40
0.1000000000000029
100
AcDbArc
 50
300.0
 51
60.0
  0
LINE
  5
422
330
1F
100
AcDbEntity
  8
0
  6
Continuous
 62
     7
370
    15
100
AcDbLine
 10
223.0102701941
 20
168.6787698815
 30
0.0
 11
223.3352645197
 21
168.4911195586
 31
0.0
  0
ARC
  5
423
330
1F
100
AcDbEntity
  8
0
  6
Continuous
 62
     7
370
    15
100
AcDbCircle
 10
223.1352668213
 20
168.8952709537
 30
0.0
 40
0.2500000000000451
100
AcDbArc
 50
120.0
 51
240.0
  0
LINE
  5
424
330
1F
100
AcDbEntity
  8
0
  6
Continuous
 62
     7
370
    15
100
AcDbLine
 10
223.3352645197
 20
169.2994181464
 30
0.0
 11
223.0102701941
 21
169.1117827246
 31
0.0
  0
ARC
  5
425
330
1F
100
AcDbEntity
  8
0
  6
Continuous
 62
     7
370
    15
100
AcDbCircle
 10
223.2852668213
 20
169.3860186825
 30
0.0
 40
0.1000000000000199
100
AcDbArc
 50
300.0
 51
60.0
  0
LINE
  5
426
330
1F
100
AcDbEntity
  8
0
  6
Continuous
 62
     7
370
    15
100
AcDbLine
 10
223.0102701941
 20
169.6602646659
 30
0.0
 11
223.3352645197
 21
169.4726143429
 31
0.0
  0
ARC
  5
427
330
1F
100
AcDbEntity
  8
0
  6
Continuous
 62
     7
370
    15
100
AcDbCircle
 10
223.1352668213
 20
169.8767664114
 30
0.0
 40
0.2499999999999959
100
AcDbArc
 50
120.0
 51
240.0
  0
LINE
  5
428
330
1F
100
AcDbEntity
  8
0
  6
Continuous
 62
     7
370
    15
100
AcDbLine
 10
223.3352645197
 20
170.2809129307
 30
0.0
 11
223.0102701941
 21
170.093277509
 31
0.0
  0
ARC
  5
429
330
1F
100
AcDbEntity
  8
0
  6
Continuous
 62
     7
370
    15
100
AcDbCircle
 10
223.2852668213
 20
170.3675141402
 30
0.0
 40
0.0999999999999991
100
AcDbArc
 50
300.0
 51
60.0
  0
LINE
  5
42A
330
1F
100
AcDbEntity
  8
0
  6
Continuous
 62
     7
370
    15
100
AcDbLine
 10
223.0102701941
 20
170.6417594502
 30
0.0
 11
223.3352645197
 21
170.4541240285
 31
0.0
  0
ARC
  5
42B
330
1F
100
AcDbEntity
  8
0
  6
Continuous
 62
     7
370
    15
100
AcDbCircle
 10
223.1352668213
 20
170.858261869
 30
0.0
 40
0.2500000000000451
100
AcDbArc
 50
120.0
 51
240.0
  0
LINE
  5
42C
330
1F
100
AcDbEntity
  8
0
  6
Continuous
 62
     7
370
    15
100
AcDbLine
 10
223.3352645197
 20
171.2624077151
 30
0.0
 11
223.0102701941
 21
171.0747722933
 31
0.0
  0
ARC
  5
42D
330
1F
100
AcDbEntity
  8
0
  6
Continuous
 62
     7
370
    15
100
AcDbCircle
 10
223.2852668213
 20
171.3490095978
 30
0.0
 40
0.1000000000000199
100
AcDbArc
 50
300.0
 51
60.0
  0
LINE
  5
42E
330
1F
100
AcDbEntity
  8
0
  6
Continuous
 62
     7
370
    15
100
AcDbLine
 10
223.0102701941
 20
171.6232542346
 30
0.0
 11
223.3352645197
 21
171.4356188128
 31
0.0
  0
ARC
  5
42F
330
1F
100
AcDbEntity
  8
0
  6
Continuous
 62
     7
370
    15
100
AcDbCircle
 10
223.1352668213
 20
171.8397573266
 30
0.0
 40
0.2500000000000025
100
AcDbArc
 50
120.0
 51
240.0
  0
LINE
  5
430
330
1F
100
AcDbEntity
  8
0
  6
Continuous
 62
     7
370
    15
100
AcDbLine
 10
223.3352645197
 20
172.2439024995
 30
0.0
 11
223.0102701941
 21
172.0562670777
 31
0.0
  0
ARC
  5
431
330
1F
100
AcDbEntity
  8
0
  6
Continuous
 62
     7
370
    15
100
AcDbCircle
 10
223.2852668213
 20
172.3305050554
 30
0.0
 40
0.1000000000000237
100
AcDbArc
 50
300.0
 51
60.0
  0
LINE
  5
432
330
1F
100
AcDbEntity
  8
0
  6
Continuous
 62
     7
370
    15
100
AcDbLine
 10
223.0102701941
 20
172.6047490189
 30
0.0
 11
223.3352645197
 21
172.4171135972
 31
0.0
  0
ARC
  5
433
330
1F
100
AcDbEntity
  8
0
  6
Continuous
 62
     7
370
    15
100
AcDbCircle
 10
223.1352668213
 20
172.8212527842
 30
0.0
 40
0.2500000000000385
100
AcDbArc
 50
120.0
 51
240.0
  0
LINE
  5
434
330
1F
100
AcDbEntity
  8
0
  6
Continuous
 62
     7
370
    15
100
AcDbLine
 10
223.3352645197
 20
173.2253972838
 30
0.0
 11
223.0102701941
 21
173.0377618621
 31
0.0
  0
ARC
  5
435
330
1F
100
AcDbEntity
  8
0
  6
Continuous
 62
     7
370
    15
100
AcDbCircle
 10
223.2852668213
 20
173.312000513
 30
0.0
 40
0.1000000000001364
100
AcDbArc
 50
300.0
 51
0.0
  0
LINE
  5
436
330
1F
100
AcDbEntity
  8
0
  6
Continuous
 62
     7
370
    15
100
AcDbLine
 10
223.3852653661
 20
182.0748541901
 30
0.0
 11
223.3852653661
 21
173.3120028327
 31
0.0
  0
ARC
  5
437
330
1F
100
AcDbEntity
  8
0
  6
Continuous
 62
     7
370
    15
100
AcDbCircle
 10
224.0852668213
 20
182.0748527842
 30
0.0
 40
0.700000000000017
100
AcDbArc
 50
90.0
 51
180.0
  0
LINE
  5
438
330
1F
100
AcDbEntity
  8
0
  6
Continuous
 62
     7
370
    15
100
AcDbLine
 10
224.4852690854
 20
182.7748511384
 30
0.0
 11
224.0852697649
 21
182.7748511384
 31
0.0
  0
ARC
  5
439
330
1F
100
AcDbEntity
  8
0
  6
Continuous
 62
     7
370
    15
100
AcDbCircle
 10
224.4852668213
 20
182.0748527842
 30
0.0
 40
0.700000000000017
100
AcDbArc
 50
0.0
 51
90.0
  0
LINE
  5
43A
330
1F
100
AcDbEntity
  8
0
  6
Continuous
 62
     7
370
    15
100
AcDbLine
 10
225.1852660337
 20
173.3120028327
 30
0.0
 11
225.1852660337
 21
182.0748541901
 31
0.0
  0
ARC
  5
43B
330
1F
100
AcDbEntity
  8
0
  6
Continuous
 62
     7
370
    15
100
AcDbCircle
 10
225.2852668213
 20
173.312000513
 30
0.0
 40
0.0999999999999357
100
AcDbArc
 50
180.0
 51
240.0
  0
LINE
  5
43C
330
1F
100
AcDbEntity
  8
0
  6
Continuous
 62
     7
370
    15
100
AcDbLine
 10
225.5602686563
 20
173.0377618621
 30
0.0
 11
225.2352668801
 21
173.2253972838
 31
0.0
  0
ARC
  5
43D
330
1F
100
AcDbEntity
  8
0
  6
Continuous
 62
     7
370
    15
100
AcDbCircle
 10
225.4352668213
 20
172.8212527842
 30
0.0
 40
0.2500000000000385
100
AcDbArc
 50
300.0
 51
60.0
  0
LINE
  5
43E
330
1F
100
AcDbEntity
  8
0
  6
Continuous
 62
     7
370
    15
100
AcDbLine
 10
225.2352668801
 20
172.4171135972
 30
0.0
 11
225.5602686563
 21
172.6047490189
 31
0.0
  0
ARC
  5
43F
330
1F
100
AcDbEntity
  8
0
  6
Continuous
 62
     7
370
    15
100
AcDbCircle
 10
225.2852668213
 20
172.3305050554
 30
0.0
 40
0.1000000000000483
100
AcDbArc
 50
120.0
 51
240.0
  0
LINE
  5
440
330
1F
100
AcDbEntity
  8
0
  6
Continuous
 62
     7
370
    15
100
AcDbLine
 10
225.5602686563
 20
172.0562670777
 30
0.0
 11
225.2352668801
 21
172.2439024995
 31
0.0
  0
ARC
  5
441
330
1F
100
AcDbEntity
  8
0
  6
Continuous
 62
     7
370
    15
100
AcDbCircle
 10
225.4352668213
 20
171.8397573266
 30
0.0
 40
0.2500000000000025
100
AcDbArc
 50
300.0
 51
60.0
  0
LINE
  5
442
330
1F
100
AcDbEntity
  8
0
  6
Continuous
 62
     7
370
    15
100
AcDbLine
 10
225.2352668801
 20
171.4356188128
 30
0.0
 11
225.5602686563
 21
171.6232542346
 31
0.0
  0
ARC
  5
443
330
1F
100
AcDbEntity
  8
0
  6
Continuous
 62
     7
370
    15
100
AcDbCircle
 10
225.2852668213
 20
171.3490095978
 30
0.0
 40
0.1000000000000199
100
AcDbArc
 50
120.0
 51
240.0
  0
LINE
  5
444
330
1F
100
AcDbEntity
  8
0
  6
Continuous
 62
     7
370
    15
100
AcDbLine
 10
225.5602686563
 20
171.0747722933
 30
0.0
 11
225.2352668801
 21
171.2624077151
 31
0.0
  0
ARC
  5
445
330
1F
100
AcDbEntity
  8
0
  6
Continuous
 62
     7
370
    15
100
AcDbCircle
 10
225.4352668213
 20
170.858261869
 30
0.0
 40
0.2500000000000205
100
AcDbArc
 50
300.0
 51
60.0
  0
LINE
  5
446
330
1F
100
AcDbEntity
  8
0
  6
Continuous
 62
     7
370
    15
100
AcDbLine
 10
225.2352668801
 20
170.4541240285
 30
0.0
 11
225.5602686563
 21
170.6417594502
 31
0.0
  0
ARC
  5
447
330
1F
100
AcDbEntity
  8
0
  6
Continuous
 62
     7
370
    15
100
AcDbCircle
 10
225.2852668213
 20
170.3675141402
 30
0.0
 40
0.0999999999999991
100
AcDbArc
 50
120.0
 51
240.0
  0
LINE
  5
448
330
1F
100
AcDbEntity
  8
0
  6
Continuous
 62
     7
370
    15
100
AcDbLine
 10
225.5602686563
 20
170.093277509
 30
0.0
 11
225.2352668801
 21
170.2809129307
 31
0.0
  0
ARC
  5
449
330
1F
100
AcDbEntity
  8
0
  6
Continuous
 62
     7
370
    15
100
AcDbCircle
 10
225.4352668213
 20
169.8767664114
 30
0.0
 40
0.2499999999999959
100
AcDbArc
 50
300.0
 51
60.0
  0
LINE
  5
44A
330
1F
100
AcDbEntity
  8
0
  6
Continuous
 62
     7
370
    15
100
AcDbLine
 10
225.2352668801
 20
169.4726143429
 30
0.0
 11
225.5602686563
 21
169.6602646659
 31
0.0
  0
ARC
  5
44B
330
1F
100
AcDbEntity
  8
0
  6
Continuous
 62
     7
370
    15
100
AcDbCircle
 10
225.2852668213
 20
169.3860186825
 30
0.0
 40
0.1000000000000199
100
AcDbArc
 50
120.0
 51
240.0
  0
LINE
  5
44C
330
1F
100
AcDbEntity
  8
0
  6
Continuous
 62
     7
370
    15
100
AcDbLine
 10
225.5602686563
 20
169.1117827246
 30
0.0
 11
225.2352668801
 21
169.2994181464
 31
0.0
  0
ARC
  5
44D
330
1F
100
AcDbEntity
  8
0
  6
Continuous
 62
     7
370
    15
100
AcDbCircle
 10
225.4352668213
 20
168.8952709537
 30
0.0
 40
0.2500000000000205
100
AcDbArc
 50
300.0
 51
60.0
  0
LINE
  5
44E
330
1F
100
AcDbEntity
  8
0
  6
Continuous
 62
     7
370
    15
100
AcDbLine
 10
225.2352668801
 20
168.4911195586
 30
0.0
 11
225.5602686563
 21
168.6787698815
 31
0.0
  0
ARC
  5
44F
330
1F
100
AcDbEntity
  8
0
  6
Continuous
 62
     7
370
    15
100
AcDbCircle
 10
225.2852668213
 20
168.4045232249
 30
0.0
 40
0.0999999999999887
100
AcDbArc
 50
120.0
 51
240.0
  0
LINE
  5
450
330
1F
100
AcDbEntity
  8
0
  6
Continuous
 62
     7
370
    15
100
AcDbLine
 10
225.5602686563
 20
168.1302879403
 30
0.0
 11
225.2352668801
 21
168.317923362
 31
0.0
  0
ARC
  5
451
330
1F
100
AcDbEntity
  8
0
  6
Continuous
 62
     7
370
    15
100
AcDbCircle
 10
225.4352668213
 20
167.9137754961
 30
0.0
 40
0.2499999999999959
100
AcDbArc
 50
300.0
 51
60.0
  0
LINE
  5
452
330
1F
100
AcDbEntity
  8
0
  6
Continuous
 62
     7
370
    15
100
AcDbLine
 10
225.2352668801
 20
167.5096247742
 30
0.0
 11
225.5602686563
 21
167.6972750971
 31
0.0
  0
ARC
  5
453
330
1F
100
AcDbEntity
  8
0
  6
Continuous
 62
     7
370
    15
100
AcDbCircle
 10
225.2852668213
 20
167.4230277673
 30
0.0
 40
0.1000000000000199
100
AcDbArc
 50
120.0
 51
240.0
  0
LINE
  5
454
330
1F
100
AcDbEntity
  8
0
  6
Continuous
 62
     7
370
    15
100
AcDbLine
 10
225.5602686563
 20
167.1487931559
 30
0.0
 11
225.2352668801
 21
167.3364285777
 31
0.0
  0
ARC
  5
455
330
1F
100
AcDbEntity
  8
0
  6
Continuous
 62
     7
370
    15
100
AcDbCircle
 10
225.4352668213
 20
166.9322800385
 30
0.0
 40
0.2500000000000347
100
AcDbArc
 50
300.0
 51
60.0
  0
LINE
  5
456
330
1F
100
AcDbEntity
  8
0
  6
Continuous
 62
     7
370
    15
100
AcDbLine
 10
225.2352668801
 20
166.5281299899
 30
0.0
 11
225.5602686563
 21
166.7157803128
 31
0.0
  0
ARC
  5
457
330
1F
100
AcDbEntity
  8
0
  6
Continuous
 62
     7
370
    15
100
AcDbCircle
 10
225.2852668213
 20
166.4415323097
 30
0.0
 40
0.0999999999999991
100
AcDbArc
 50
120.0
 51
240.0
  0
LINE
  5
458
330
1F
100
AcDbEntity
  8
0
  6
Continuous
 62
     7
370
    15
100
AcDbLine
 10
225.5602686563
 20
166.1672983716
 30
0.0
 11
225.2352668801
 21
166.3549337933
 31
0.0
  0
ARC
  5
459
330
1F
100
AcDbEntity
  8
0
  6
Continuous
 62
     7
370
    15
100
AcDbCircle
 10
225.4352668213
 20
165.9507845809
 30
0.0
 40
0.2499999999999959
100
AcDbArc
 50
300.0
 51
60.0
  0
LINE
  5
45A
330
1F
100
AcDbEntity
  8
0
  6
Continuous
 62
     7
370
    15
100
AcDbLine
 10
225.2352668801
 20
165.5466352055
 30
0.0
 11
225.5602686563
 21
165.7342855284
 31
0.0
  0
ARC
  5
45B
330
1F
100
AcDbEntity
  8
0
  6
Continuous
 62
     7
370
    15
100
AcDbCircle
 10
225.2852668213
 20
165.4600368521
 30
0.0
 40
0.1000000000000199
100
AcDbArc
 50
120.0
 51
240.0
  0
LINE
  5
45C
330
1F
100
AcDbEntity
  8
0
  6
Continuous
 62
     7
370
    15
100
AcDbLine
 10
225.5602686563
 20
165.1857886861
 30
0.0
 11
225.2352668801
 21
165.373439009
 31
0.0
  0
ARC
  5
45D
330
1F
100
AcDbEntity
  8
0
  6
Continuous
 62
     7
370
    15
100
AcDbCircle
 10
225.4352668213
 20
164.9692891232
 30
0.0
 40
0.2500000000000347
100
AcDbArc
 50
300.0
 51
60.0
  0
LINE
  5
45E
330
1F
100
AcDbEntity
  8
0
  6
Continuous
 62
     7
370
    15
100
AcDbLine
 10
225.2352668801
 20
164.5651404212
 30
0.0
 11
225.5602686563
 21
164.7527758429
 31
0.0
  0
ARC
  5
45F
330
1F
100
AcDbEntity
  8
0
  6
Continuous
 62
     7
370
    15
100
AcDbCircle
 10
225.2852668213
 20
164.4785413944
 30
0.0
 40
0.0999999999999887
100
AcDbArc
 50
120.0
 51
240.0
  0
LINE
  5
460
330
1F
100
AcDbEntity
  8
0
  6
Continuous
 62
     7
370
    15
100
AcDbLine
 10
225.5602686563
 20
164.2042939017
 30
0.0
 11
225.2352668801
 21
164.3919442246
 31
0.0
  0
ARC
  5
461
330
1F
100
AcDbEntity
  8
0
  6
Continuous
 62
     7
370
    15
100
AcDbCircle
 10
225.4352668213
 20
163.9877936656
 30
0.0
 40
0.2500000000000101
100
AcDbArc
 50
300.0
 51
60.0
  0
LINE
  5
462
330
1F
100
AcDbEntity
  8
0
  6
Continuous
 62
     7
370
    15
100
AcDbLine
 10
225.2352668801
 20
163.5836456368
 30
0.0
 11
225.5602686563
 21
163.7712810586
 31
0.0
  0
ARC
  5
463
330
1F
100
AcDbEntity
  8
0
  6
Continuous
 62
     7
370
    15
100
AcDbCircle
 10
225.2852668213
 20
163.4970459368
 30
0.0
 40
0.1000000000000199
100
AcDbArc
 50
120.0
 51
240.0
  0
LINE
  5
464
330
1F
100
AcDbEntity
  8
0
  6
Continuous
 62
     7
370
    15
100
AcDbLine
 10
225.5602686563
 20
163.2227991173
 30
0.0
 11
225.2352668801
 21
163.4104494403
 31
0.0
  0
ARC
  5
465
330
1F
100
AcDbEntity
  8
0
  6
Continuous
 62
     7
370
    15
100
AcDbCircle
 10
225.4352668213
 20
163.006298208
 30
0.0
 40
0.2500000000000347
100
AcDbArc
 50
300.0
 51
60.0
  0
LINE
  5
466
330
1F
100
AcDbEntity
  8
0
  6
Continuous
 62
     7
370
    15
100
AcDbLine
 10
225.2352668801
 20
162.6021508525
 30
0.0
 11
225.5602686563
 21
162.7897862742
 31
0.0
  0
ARC
  5
467
330
1F
100
AcDbEntity
  8
0
  6
Continuous
 62
     7
370
    15
100
AcDbCircle
 10
225.2852668213
 20
162.5155504792
 30
0.0
 40
0.0999999999999887
100
AcDbArc
 50
120.0
 51
240.0
  0
LINE
  5
468
330
1F
100
AcDbEntity
  8
0
  6
Continuous
 62
     7
370
    15
100
AcDbLine
 10
225.5602686563
 20
162.241304333
 30
0.0
 11
225.2352668801
 21
162.4289546559
 31
0.0
  0
ARC
  5
469
330
1F
100
AcDbEntity
  8
0
  6
Continuous
 62
     7
370
    15
100
AcDbCircle
 10
225.4352668213
 20
162.0248027504
 30
0.0
 40
0.2500000000000101
100
AcDbArc
 50
300.0
 51
60.0
  0
LINE
  5
46A
330
1F
100
AcDbEntity
  8
0
  6
Continuous
 62
     7
370
    15
100
AcDbLine
 10
225.2352668801
 20
161.6206560681
 30
0.0
 11
225.5602686563
 21
161.8082914899
 31
0.0
  0
ARC
  5
46B
330
1F
100
AcDbEntity
  8
0
  6
Continuous
 62
     7
370
    15
100
AcDbCircle
 10
225.2852668213
 20
161.5340550216
 30
0.0
 40
0.1000000000000133
100
AcDbArc
 50
120.0
 51
240.0
  0
LINE
  5
46C
330
1F
100
AcDbEntity
  8
0
  6
Continuous
 62
     7
370
    15
100
AcDbLine
 10
225.5602686563
 20
161.2598095486
 30
0.0
 11
225.2352668801
 21
161.4474598715
 31
0.0
  0
ARC
  5
46D
330
1F
100
AcDbEntity
  8
0
  6
Continuous
 62
     7
370
    15
100
AcDbCircle
 10
225.4352668213
 20
161.0433072928
 30
0.0
 40
0.2500000000000347
100
AcDbArc
 50
300.0
 51
60.0
  0
LINE
  5
46E
330
1F
100
AcDbEntity
  8
0
  6
Continuous
 62
     7
370
    15
100
AcDbLine
 10
225.2352668801
 20
160.6391612837
 30
0.0
 11
225.5602686563
 21
160.8267967055
 31
0.0
  0
ARC
  5
46F
330
1F
100
AcDbEntity
  8
0
  6
Continuous
 62
     7
370
    15
100
AcDbCircle
 10
225.2852668213
 20
160.5525595639
 30
0.0
 40
0.0999999999999887
100
AcDbArc
 50
120.0
 51
240.0
  0
LINE
  5
470
330
1F
100
AcDbEntity
  8
0
  6
Continuous
 62
     7
370
    15
100
AcDbLine
 10
225.5602686563
 20
160.2783147643
 30
0.0
 11
225.2352668801
 21
160.465950186
 31
0.0
  0
ARC
  5
471
330
1F
100
AcDbEntity
  8
0
  6
Continuous
 62
     7
370
    15
100
AcDbCircle
 10
225.4352668213
 20
160.0618118351
 30
0.0
 40
0.2500000000000101
100
AcDbArc
 50
300.0
 51
60.0
  0
LINE
  5
472
330
1F
100
AcDbEntity
  8
0
  6
Continuous
 62
     7
370
    15
100
AcDbLine
 10
225.2352668801
 20
159.6576664994
 30
0.0
 11
225.5602686563
 21
159.8453019211
 31
0.0
  0
ARC
  5
473
330
1F
100
AcDbEntity
  8
0
  6
Continuous
 62
     7
370
    15
100
AcDbCircle
 10
225.2852668213
 20
159.5710641063
 30
0.0
 40
0.1000000000000237
100
AcDbArc
 50
120.0
 51
240.0
  0
LINE
  5
474
330
1F
100
AcDbEntity
  8
0
  6
Continuous
 62
     7
370
    15
100
AcDbLine
 10
225.5752704003
 20
159.2881624053
 30
0.0
 11
225.2352668801
 21
159.4844554017
 31
0.0
  0
ARC
  5
475
330
1F
100
AcDbEntity
  8
0
  6
Continuous
 62
     7
370
    15
100
AcDbCircle
 10
225.4502686247
 20
159.0716550823
 30
0.0
 40
0.2499999999893294
100
AcDbArc
 50
0.064626054
 51
59.9999999972
  0
ARC
  5
476
330
1F
100
AcDbEntity
  8
0
  6
Continuous
 62
     7
370
    15
100
AcDbCircle
 10
228.2853915031
 20
159.0749776065
 30
0.0
 40
2.58512482548487
100
AcDbArc
 50
180.0673894511
 51
269.9971366029
  0
LINE
  5
477
330
1F
100
AcDbEntity
  8
0
  6
Continuous
 62
     7
370
    15
100
AcDbLine
 10
230.2852704087
 20
156.4897541354
 30
0.0
 11
228.2852626302
 21
156.4898584435
 31
0.0
  0
ARC
  5
478
330
1F
100
AcDbEntity
  8
0
  6
Continuous
 62
     7
370
    15
100
AcDbCircle
 10
230.2852667381
 20
159.0747528324
 30
0.0
 40
2.58500000000054
100
AcDbArc
 50
270.0001
 51
359.93739496
  0
ARC
  5
479
330
1F
100
AcDbEntity
  8
0
  6
Continuous
 62
     7
370
    15
100
AcDbCircle
 10
233.1202649902
 20
159.0716551304
 30
0.0
 40
0.249999944474043
100
AcDbArc
 50
120.0000000028
 51
179.93739496
  0
LINE
  5
47A
330
1F
100
AcDbEntity
  8
0
  6
Continuous
 62
     7
370
    15
100
AcDbLine
 10
233.3352661588
 20
159.4844554017
 30
0.0
 11
232.9952663639
 21
159.2881624053
 31
0.0
  0
ARC
  5
47B
330
1F
100
AcDbEntity
  8
0
  6
Continuous
 62
     7
370
    15
100
AcDbCircle
 10
233.2852668213
 20
159.5710641063
 30
0.0
 40
0.1000000000000237
100
AcDbArc
 50
300.0
 51
60.0
  0
LINE
  5
47C
330
1F
100
AcDbEntity
  8
0
  6
Continuous
 62
     7
370
    15
100
AcDbLine
 10
233.0102681079
 20
159.8453019211
 30
0.0
 11
233.3352661588
 21
159.6576664994
 31
0.0
  0
ARC
  5
47D
330
1F
100
AcDbEntity
  8
0
  6
Continuous
 62
     7
370
    15
100
AcDbCircle
 10
233.1352668213
 20
160.0618118351
 30
0.0
 40
0.2499999999999921
100
AcDbArc
 50
120.0
 51
240.0
  0
LINE
  5
47E
330
1F
100
AcDbEntity
  8
0
  6
Continuous
 62
     7
370
    15
100
AcDbLine
 10
233.3352661588
 20
160.465950186
 30
0.0
 11
233.0102681079
 21
160.2783147643
 31
0.0
  0
ARC
  5
47F
330
1F
100
AcDbEntity
  8
0
  6
Continuous
 62
     7
370
    15
100
AcDbCircle
 10
233.2852668213
 20
160.5525595639
 30
0.0
 40
0.1000000000000171
100
AcDbArc
 50
300.0
 51
59.9999999999
  0
LINE
  5
480
330
1F
100
AcDbEntity
  8
0
  6
Continuous
 62
     7
370
    15
100
AcDbLine
 10
233.0102681079
 20
160.8267967055
 30
0.0
 11
233.3352661588
 21
160.6391612837
 31
0.0
  0
ARC
  5
481
330
1F
100
AcDbEntity
  8
0
  6
Continuous
 62
     7
370
    15
100
AcDbCircle
 10
233.1352668213
 20
161.0433072928
 30
0.0
 40
0.2500000000000063
100
AcDbArc
 50
120.0
 51
240.0
  0
LINE
  5
482
330
1F
100
AcDbEntity
  8
0
  6
Continuous
 62
     7
370
    15
100
AcDbLine
 10
233.3352661588
 20
161.4474598715
 30
0.0
 11
233.0102681079
 21
161.2598095486
 31
0.0
  0
ARC
  5
483
330
1F
100
AcDbEntity
  8
0
  6
Continuous
 62
     7
370
    15
100
AcDbCircle
 10
233.2852668213
 20
161.5340550216
 30
0.0
 40
0.1000000000000275
100
AcDbArc
 50
300.0
 51
60.0
  0
LINE
  5
484
330
1F
100
AcDbEntity
  8
0
  6
Continuous
 62
     7
370
    15
100
AcDbLine
 10
233.0102681079
 20
161.8082914899
 30
0.0
 11
233.3352661588
 21
161.6206560681
 31
0.0
  0
ARC
  5
485
330
1F
100
AcDbEntity
  8
0
  6
Continuous
 62
     7
370
    15
100
AcDbCircle
 10
233.1352668213
 20
162.0248027504
 30
0.0
 40
0.2499999999999921
100
AcDbArc
 50
120.0
 51
240.0
  0
LINE
  5
486
330
1F
100
AcDbEntity
  8
0
  6
Continuous
 62
     7
370
    15
100
AcDbLine
 10
233.3352661588
 20
162.4289546559
 30
0.0
 11
233.0102681079
 21
162.241304333
 31
0.0
  0
ARC
  5
487
330
1F
100
AcDbEntity
  8
0
  6
Continuous
 62
     7
370
    15
100
AcDbCircle
 10
233.2852668213
 20
162.5155504792
 30
0.0
 40
0.1000000000000171
100
AcDbArc
 50
300.0
 51
59.9999999999
  0
LINE
  5
488
330
1F
100
AcDbEntity
  8
0
  6
Continuous
 62
     7
370
    15
100
AcDbLine
 10
233.0102681079
 20
162.7897862742
 30
0.0
 11
233.3352661588
 21
162.6021508525
 31
0.0
  0
ARC
  5
489
330
1F
100
AcDbEntity
  8
0
  6
Continuous
 62
     7
370
    15
100
AcDbCircle
 10
233.1352668213
 20
163.006298208
 30
0.0
 40
0.2500000000000063
100
AcDbArc
 50
120.0
 51
240.0
  0
LINE
  5
48A
330
1F
100
AcDbEntity
  8
0
  6
Continuous
 62
     7
370
    15
100
AcDbLine
 10
233.3352661588
 20
163.4104494403
 30
0.0
 11
233.0102681079
 21
163.2227991173
 31
0.0
  0
ARC
  5
48B
330
1F
100
AcDbEntity
  8
0
  6
Continuous
 62
     7
370
    15
100
AcDbCircle
 10
233.2852668213
 20
163.4970459368
 30
0.0
 40
0.1000000000000341
100
AcDbArc
 50
300.0
 51
59.9999999999
  0
LINE
  5
48C
330
1F
100
AcDbEntity
  8
0
  6
Continuous
 62
     7
370
    15
100
AcDbLine
 10
233.0102681079
 20
163.7712810586
 30
0.0
 11
233.3352661588
 21
163.5836456368
 31
0.0
  0
ARC
  5
48D
330
1F
100
AcDbEntity
  8
0
  6
Continuous
 62
     7
370
    15
100
AcDbCircle
 10
233.1352668213
 20
163.9877936656
 30
0.0
 40
0.2499999999999921
100
AcDbArc
 50
120.0
 51
240.0
  0
LINE
  5
48E
330
1F
100
AcDbEntity
  8
0
  6
Continuous
 62
     7
370
    15
100
AcDbLine
 10
233.3352661588
 20
164.3919442246
 30
0.0
 11
233.0102681079
 21
164.2042939017
 31
0.0
  0
ARC
  5
48F
330
1F
100
AcDbEntity
  8
0
  6
Continuous
 62
     7
370
    15
100
AcDbCircle
 10
233.2852668213
 20
164.4785413944
 30
0.0
 40
0.1000000000000171
100
AcDbArc
 50
300.0
 51
59.9999999999
  0
LINE
  5
490
330
1F
100
AcDbEntity
  8
0
  6
Continuous
 62
     7
370
    15
100
AcDbLine
 10
233.0102681079
 20
164.7527758429
 30
0.0
 11
233.3352661588
 21
164.5651404212
 31
0.0
  0
ARC
  5
491
330
1F
100
AcDbEntity
  8
0
  6
Continuous
 62
     7
370
    15
100
AcDbCircle
 10
233.1352668213
 20
164.9692891232
 30
0.0
 40
0.2500000000000063
100
AcDbArc
 50
120.0
 51
240.0
  0
LINE
  5
492
330
1F
100
AcDbEntity
  8
0
  6
Continuous
 62
     7
370
    15
100
AcDbLine
 10
233.3352661588
 20
165.373439009
 30
0.0
 11
233.0102681079
 21
165.1857886861
 31
0.0
  0
ARC
  5
493
330
1F
100
AcDbEntity
  8
0
  6
Continuous
 62
     7
370
    15
100
AcDbCircle
 10
233.2852668213
 20
165.4600368521
 30
0.0
 40
0.1000000000000341
100
AcDbArc
 50
300.0
 51
60.0
  0
LINE
  5
494
330
1F
100
AcDbEntity
  8
0
  6
Continuous
 62
     7
370
    15
100
AcDbLine
 10
233.0102681079
 20
165.7342855284
 30
0.0
 11
233.3352661588
 21
165.5466352055
 31
0.0
  0
ARC
  5
495
330
1F
100
AcDbEntity
  8
0
  6
Continuous
 62
     7
370
    15
100
AcDbCircle
 10
233.1352668213
 20
165.9507845809
 30
0.0
 40
0.2499999999999675
100
AcDbArc
 50
120.0
 51
240.0
  0
LINE
  5
496
330
1F
100
AcDbEntity
  8
0
  6
Continuous
 62
     7
370
    15
100
AcDbLine
 10
233.3352661588
 20
166.3549337933
 30
0.0
 11
233.0102681079
 21
166.1672983716
 31
0.0
  0
ARC
  5
497
330
1F
100
AcDbEntity
  8
0
  6
Continuous
 62
     7
370
    15
100
AcDbCircle
 10
233.2852668213
 20
166.4415323097
 30
0.0
 40
0.1000000000000133
100
AcDbArc
 50
300.0
 51
60.0
  0
LINE
  5
498
330
1F
100
AcDbEntity
  8
0
  6
Continuous
 62
     7
370
    15
100
AcDbLine
 10
233.0102681079
 20
166.7157803128
 30
0.0
 11
233.3352661588
 21
166.5281299899
 31
0.0
  0
ARC
  5
499
330
1F
100
AcDbEntity
  8
0
  6
Continuous
 62
     7
370
    15
100
AcDbCircle
 10
233.1352668213
 20
166.9322800385
 30
0.0
 40
0.2500000000000063
100
AcDbArc
 50
120.0
 51
240.0
  0
LINE
  5
49A
330
1F
100
AcDbEntity
  8
0
  6
Continuous
 62
     7
370
    15
100
AcDbLine
 10
233.3352661588
 20
167.3364285777
 30
0.0
 11
233.0102681079
 21
167.1487931559
 31
0.0
  0
ARC
  5
49B
330
1F
100
AcDbEntity
  8
0
  6
Continuous
 62
     7
370
    15
100
AcDbCircle
 10
233.2852668213
 20
167.4230277673
 30
0.0
 40
0.1000000000000341
100
AcDbArc
 50
300.0
 51
60.0
  0
LINE
  5
49C
330
1F
100
AcDbEntity
  8
0
  6
Continuous
 62
     7
370
    15
100
AcDbLine
 10
233.0102681079
 20
167.6972750971
 30
0.0
 11
233.3352661588
 21
167.5096247742
 31
0.0
  0
ARC
  5
49D
330
1F
100
AcDbEntity
  8
0
  6
Continuous
 62
     7
370
    15
100
AcDbCircle
 10
233.1352668213
 20
167.9137754961
 30
0.0
 40
0.2499999999999675
100
AcDbArc
 50
120.0
 51
240.0
  0
LINE
  5
49E
330
1F
100
AcDbEntity
  8
0
  6
Continuous
 62
     7
370
    15
100
AcDbLine
 10
233.3352661588
 20
168.317923362
 30
0.0
 11
233.0102681079
 21
168.1302879403
 31
0.0
  0
ARC
  5
49F
330
1F
100
AcDbEntity
  8
0
  6
Continuous
 62
     7
370
    15
100
AcDbCircle
 10
233.2852668213
 20
168.4045232249
 30
0.0
 40
0.1000000000000171
100
AcDbArc
 50
300.0
 51
59.9999999999
  0
LINE
  5
4A0
330
1F
100
AcDbEntity
  8
0
  6
Continuous
 62
     7
370
    15
100
AcDbLine
 10
233.0102681079
 20
168.6787698815
 30
0.0
 11
233.3352661588
 21
168.4911195586
 31
0.0
  0
ARC
  5
4A1
330
1F
100
AcDbEntity
  8
0
  6
Continuous
 62
     7
370
    15
100
AcDbCircle
 10
233.1352668213
 20
168.8952709537
 30
0.0
 40
0.2500000000000167
100
AcDbArc
 50
120.0
 51
240.0
  0
LINE
  5
4A2
330
1F
100
AcDbEntity
  8
0
  6
Continuous
 62
     7
370
    15
100
AcDbLine
 10
233.3352661588
 20
169.2994181464
 30
0.0
 11
233.0102681079
 21
169.1117827246
 31
0.0
  0
ARC
  5
4A3
330
1F
100
AcDbEntity
  8
0
  6
Continuous
 62
     7
370
    15
100
AcDbCircle
 10
233.2852668213
 20
169.3860186825
 30
0.0
 40
0.1000000000000341
100
AcDbArc
 50
300.0
 51
60.0
  0
LINE
  5
4A4
330
1F
100
AcDbEntity
  8
0
  6
Continuous
 62
     7
370
    15
100
AcDbLine
 10
233.0102681079
 20
169.6602646659
 30
0.0
 11
233.3352661588
 21
169.4726143429
 31
0.0
  0
ARC
  5
4A5
330
1F
100
AcDbEntity
  8
0
  6
Continuous
 62
     7
370
    15
100
AcDbCircle
 10
233.1352668213
 20
169.8767664114
 30
0.0
 40
0.2499999999999675
100
AcDbArc
 50
120.0
 51
240.0
  0
LINE
  5
4A6
330
1F
100
AcDbEntity
  8
0
  6
Continuous
 62
     7
370
    15
100
AcDbLine
 10
233.3352661588
 20
170.2809129307
 30
0.0
 11
233.0102681079
 21
170.093277509
 31
0.0
  0
ARC
  5
4A7
330
1F
100
AcDbEntity
  8
0
  6
Continuous
 62
     7
370
    15
100
AcDbCircle
 10
233.2852668213
 20
170.3675141402
 30
0.0
 40
0.1000000000000133
100
AcDbArc
 50
300.0
 51
60.0
  0
LINE
  5
4A8
330
1F
100
AcDbEntity
  8
0
  6
Continuous
 62
     7
370
    15
100
AcDbLine
 10
233.0102681079
 20
170.6417594502
 30
0.0
 11
233.3352661588
 21
170.4541240285
 31
0.0
  0
ARC
  5
4A9
330
1F
100
AcDbEntity
  8
0
  6
Continuous
 62
     7
370
    15
100
AcDbCircle
 10
233.1352668213
 20
170.858261869
 30
0.0
 40
0.2500000000000167
100
AcDbArc
 50
120.0
 51
240.0
  0
LINE
  5
4AA
330
1F
100
AcDbEntity
  8
0
  6
Continuous
 62
     7
370
    15
100
AcDbLine
 10
233.3352661588
 20
171.2624077151
 30
0.0
 11
233.0102681079
 21
171.0747722933
 31
0.0
  0
ARC
  5
4AB
330
1F
100
AcDbEntity
  8
0
  6
Continuous
 62
     7
370
    15
100
AcDbCircle
 10
233.2852668213
 20
171.3490095978
 30
0.0
 40
0.1000000000000341
100
AcDbArc
 50
300.0
 51
60.0
  0
LINE
  5
4AC
330
1F
100
AcDbEntity
  8
0
  6
Continuous
 62
     7
370
    15
100
AcDbLine
 10
233.0102681079
 20
171.6232542346
 30
0.0
 11
233.3352661588
 21
171.4356188128
 31
0.0
  0
ARC
  5
4AD
330
1F
100
AcDbEntity
  8
0
  6
Continuous
 62
     7
370
    15
100
AcDbCircle
 10
233.1352668213
 20
171.8397573266
 30
0.0
 40
0.2499999999999883
100
AcDbArc
 50
120.0
 51
240.0
  0
LINE
  5
4AE
330
1F
100
AcDbEntity
  8
0
  6
Continuous
 62
     7
370
    15
100
AcDbLine
 10
233.3352661588
 20
172.2439024995
 30
0.0
 11
233.0102681079
 21
172.0562670777
 31
0.0
  0
ARC
  5
4AF
330
1F
100
AcDbEntity
  8
0
  6
Continuous
 62
     7
370
    15
100
AcDbCircle
 10
233.2852668213
 20
172.3305050554
 30
0.0
 40
0.1000000000000237
100
AcDbArc
 50
300.0
 51
60.0
  0
LINE
  5
4B0
330
1F
100
AcDbEntity
  8
0
  6
Continuous
 62
     7
370
    15
100
AcDbLine
 10
233.0102681079
 20
172.6047490189
 30
0.0
 11
233.3352661588
 21
172.4171135972
 31
0.0
  0
ARC
  5
4B1
330
1F
100
AcDbEntity
  8
0
  6
Continuous
 62
     7
370
    15
100
AcDbCircle
 10
233.1352668213
 20
172.8212527842
 30
0.0
 40
0.2500000000000129
100
AcDbArc
 50
120.0
 51
240.0
  0
LINE
  5
4B2
330
1F
100
AcDbEntity
  8
0
  6
Continuous
 62
     7
370
    15
100
AcDbLine
 10
233.3352661588
 20
173.2253972838
 30
0.0
 11
233.0102681079
 21
173.0377618621
 31
0.0
  0
ARC
  5
4B3
330
1F
100
AcDbEntity
  8
0
  6
Continuous
 62
     7
370
    15
100
AcDbCircle
 10
233.2852668213
 20
173.312000513
 30
0.0
 40
0.1000000000001648
100
AcDbArc
 50
300.0
 51
0.0
  0
LINE
  5
4B4
330
1F
100
AcDbEntity
  8
0
  6
Continuous
 62
     7
370
    15
100
AcDbLine
 10
233.3852670052
 20
182.074749882
 30
0.0
 11
233.3852670052
 21
173.3120028327
 31
0.0
  0
ARC
  5
4B5
330
1F
100
AcDbEntity
  8
0
  6
Continuous
 62
     7
370
    15
100
AcDbCircle
 10
234.0852668213
 20
182.0747527842
 30
0.0
 40
0.700000000000017
100
AcDbArc
 50
90.0
 51
180.0
  0
LINE
  5
4B6
330
1F
100
AcDbEntity
  8
0
  6
Continuous
 62
     7
370
    15
100
AcDbLine
 10
234.4852669993
 20
182.7747468302
 30
0.0
 11
234.0852676788
 21
182.7747468302
 31
0.0
  0
ARC
  5
4B7
330
1F
100
AcDbEntity
  8
0
  6
Continuous
 62
     7
370
    15
100
AcDbCircle
 10
234.4852668213
 20
182.0747527842
 30
0.0
 40
0.700000000000017
100
AcDbArc
 50
0.0
 51
90.0
  0
LINE
  5
4B8
330
1F
100
AcDbEntity
  8
0
  6
Continuous
 62
     7
370
    15
100
AcDbLine
 10
235.1852676728
 20
151.7747585128
 30
0.0
 11
235.1852676728
 21
182.074749882
 31
0.0
  0
ARC
  5
4B9
330
1F
100
AcDbEntity
  8
0
  6
Continuous
 62
     7
370
    15
100
AcDbCircle
 10
234.1852668213
 20
151.7747527842
 30
0.0
 40
1.0
100
AcDbArc
 50
270.0
 51
0.0
  0
DIMENSION
  5
4BA
330
1F
100
AcDbEntity
  8
0
  6
Continuous
 62
     7
370
     0
100
AcDbDimension
  2
_D
 10
235.1852668213
 20
137.8081151549
 30
0.0
 11
191.6634886528
 21
137.8081151549
 31
0.0
 70
   160
  1
<>
 71
     2
 42
-1.0
  3
SLDDIMSTYLE0
100
AcDbAlignedDimension
 13
153.1852668213
 23
151.7747527842
 33
0.0
 14
235.1852668213
 24
151.7747527842
 34
0.0
 50
0.0
100
AcDbRotatedDimension
  0
DIMENSION
  5
4C6
330
1F
100
AcDbEntity
  8
0
  6
Continuous
 62
     7
370
     0
100
AcDbDimension
  2
_D_1
 10
246.4049293061
 20
150.7747527842
 30
0.0
 11
246.4049293061
 21
164.2837516843
 31
0.0
 70
   160
  1
<>
 71
     2
 42
-1.0
  3
SLDDIMSTYLE1
100
AcDbAlignedDimension
 13
230.2852712498
 23
156.4897528324
 33
0.0
 14
234.1852668213
 24
150.7747527842
 34
0.0
 50
90.0
100
AcDbRotatedDimension
  0
DIMENSION
  5
4D3
330
1F
100
AcDbEntity
  8
0
  6
Continuous
 62
     7
370
     0
100
AcDbDimension
  2
_D_2
 10
143.1852668213
 20
182.7747527842
 30
0.0
 11
143.1852668213
 21
166.8617770783
 31
0.0
 70
   160
  1
<>
 71
     2
 42
-1.0
  3
SLDDIMSTYLE0
100
AcDbAlignedDimension
 13
154.1852668213
 23
150.7747527842
 33
0.0
 14
153.8852668213
 24
182.7747527842
 34
0.0
 50
90.0
100
AcDbRotatedDimension
  0
ENDSEC
  0
SECTION
  2
OBJECTS
  0
DICTIONARY
  5
C
330
0
100
AcDbDictionary
281
     1
  3
ACAD_GROUP
350
D
  3
ACAD_LAYOUT
350
1A
  3
ACAD_MLINESTYLE
350
17
  3
ACAD_PLOTSETTINGS
350
19
  3
ACAD_PLOTSTYLENAME
350
E
  0
DICTIONARY
  5
D
102
{ACAD_REACTORS
330
C
102
}
330
C
100
AcDbDictionary
281
     1
  0
DICTIONARY
  5
1A
102
{ACAD_REACTORS
330
C
102
}
330
C
100
AcDbDictionary
281
     1
  3
Layout1
350
1E
  3
Layout2
350
26
  3
Model
350
22
  0
DICTIONARY
  5
17
102
{ACAD_REACTORS
330
C
102
}
330
C
100
AcDbDictionary
281
     1
  3
Standard
350
18
  0
DICTIONARY
  5
19
102
{ACAD_REACTORS
330
C
102
}
330
C
100
AcDbDictionary
281
     1
  0
ACDBDICTIONARYWDFLT
  5
E
102
{ACAD_REACTORS
330
C
102
}
330
C
100
AcDbDictionary
281
     1
  3
Normal
350
F
100
AcDbDictionaryWithDefault
340
F
  0
LAYOUT
  5
1E
102
{ACAD_REACTORS
330
1A
102
}
330
1A
100
AcDbPlotSettings
  1

  2
none_device
  4

  6

 40
0.0
 41
0.0
 42
0.0
 43
0.0
 44
0.0
 45
0.0
 46
0.0
 47
0.0
 48
0.0
 49
0.0
140
0.0
141
0.0
142
1.0
143
1.0
 70
   688
 72
     0
 73
     0
 74
     5
  7

 75
    16
147
1.0
148
0.0
149
0.0
100
AcDbLayout
  1
Layout1
 70
     1
 71
     1
 10
0.0
 20
0.0
 11
420.0
 21
297.0
 12
0.0
 22
0.0
 32
0.0
 14
1.0000000000E+20
 24
1.0000000000E+20
 34
1.0000000000E+20
 15
-1.0000000000E+20
 25
-1.0000000000E+20
 35
-1.0000000000E+20
146
0.0
 13
0.0
 23
0.0
 33
0.0
 16
1.0
 26
0.0
 36
0.0
 17
0.0
 27
1.0
 37
0.0
 76
     0
330
1B
  0
LAYOUT
  5
26
102
{ACAD_REACTORS
330
1A
102
}
330
1A
100
AcDbPlotSettings
  1

  2
none_device
  4

  6

 40
0.0
 41
0.0
 42
0.0
 43
0.0
 44
0.0
 45
0.0
 46
0.0
 47
0.0
 48
0.0
 49
0.0
140
0.0
141
0.0
142
1.0
143
1.0
 70
   688
 72
     0
 73
     0
 74
     5
  7

 75
    16
147
1.0
148
0.0
149
0.0
100
AcDbLayout
  1
Layout2
 70
     1
 71
     2
 10
0.0
 20
0.0
 11
0.0
 21
0.0
 12
0.0
 22
0.0
 32
0.0
 14
0.0
 24
0.0
 34
0.0
 15
0.0
 25
0.0
 35
0.0
146
0.0
 13
0.0
 23
0.0
 33
0.0
 16
1.0
 26
0.0
 36
0.0
 17
0.0
 27
1.0
 37
0.0
 76
     0
330
23
  0
LAYOUT
  5
22
102
{ACAD_REACTORS
330
1A
102
}
330
1A
100
AcDbPlotSettings
  1

  2
none_device
  4

  6

 40
0.0
 41
0.0
 42
0.0
 43
0.0
 44
0.0
 45
0.0
 46
0.0
 47
0.0
 48
0.0
 49
0.0
140
0.0
141
0.0
142
1.0
143
1.0
 70
  1712
 72
     0
 73
     0
 74
     0
  7

 75
     0
147
1.0
148
0.0
149
0.0
100
AcDbLayout
  1
Model
 70
     1
 71
     0
 10
0.0
 20
0.0
 11
420.0
 21
297.0
 12
0.0
 22
0.0
 32
0.0
 14
0.0
 24
0.0
 34
0.0
 15
420.0
 25
297.0
 35
0.0
146
0.0
 13
0.0
 23
0.0
 33
0.0
 16
1.0
 26
0.0
 36
0.0
 17
0.0
 27
1.0
 37
0.0
 76
     0
330
1F
331
29
  0
MLINESTYLE
  5
18
102
{ACAD_REACTORS
330
17
102
}
330
17
100
AcDbMlineStyle
  2
Standard
 70
     0
  3

 62
   256
 51
90.0
 52
90.0
 71
     2
 49
0.5
 62
   256
  6
BYLAYER
 49
-0.5
 62
   256
  6
BYLAYER
  0
ACDBPLACEHOLDER
  5
F
102
{ACAD_REACTORS
330
E
102
}
330
E
  0
ENDSEC
  0
EOF
