  0
SECTION
  2
HEADER
  9
$ACADVER
  1
AC1015
  9
$ACADMAINTVER
 70
     6
  9
$DWGCODEPAGE
  3
ANSI_1252
  9
$INSBASE
 10
0.0
 20
0.0
 30
0.0
  9
$EXTMIN
 10
0.0
 20
0.0
 30
0.0
  9
$EXTMAX
 10
420.0
 20
297.0
 30
0.0
  9
$LIMMIN
 10
0.0
 20
0.0
  9
$LIMMAX
 10
420.0
 20
297.0
  9
$ORTHOMODE
 70
     0
  9
$REGENMODE
 70
     1
  9
$FILLMODE
 70
     1
  9
$QTEXTMODE
 70
     0
  9
$MIRRTEXT
 70
     1
  9
$LTSCALE
 40
1.0
  9
$ATTMODE
 70
     1
  9
$TEXTSIZE
 40
3.5
  9
$TRACEWID
 40
1.0
  9
$TEXTSTYLE
  7
Standard
  9
$CLAYER
  8
0
  9
$CELTYPE
  6
ByLayer
  9
$CECOLOR
 62
   256
  9
$CELTSCALE
 40
1.0
  9
$DISPSILH
 70
     0
  9
$DIMSCALE
 40
1.0
  9
$DIMASZ
 40
3.302
  9
$DIMEXO
 40
1.0
  9
$DIMDLI
 40
3.75
  9
$DIMRND
 40
0.0
  9
$DIMDLE
 40
0.0
  9
$DIMEXE
 40
1.0
  9
$DIMTP
 40
0.0
  9
$DIMTM
 40
0.0
  9
$DIMTXT
 40
3.5
  9
$DIMCEN
 40
2.5
  9
$DIMTSZ
 40
0.0
  9
$DIMTOL
 70
     0
  9
$DIMLIM
 70
     0
  9
$DIMTIH
 70
     1
  9
$DIMTOH
 70
     1
  9
$DIMSE1
 70
     0
  9
$DIMSE2
 70
     0
  9
$DIMTAD
 70
     1
  9
$DIMZIN
 70
     0
  9
$DIMBLK
  1

  9
$DIMASO
 70
     1
  9
$DIMSHO
 70
     1
  9
$DIMPOST
  1

  9
$DIMAPOST
  1

  9
$DIMALT
 70
     0
  9
$DIMALTD
 70
     3
  9
$DIMALTF
 40
0.0393700787
  9
$DIMLFAC
 40
2.0
  9
$DIMTOFL
 70
     1
  9
$DIMTVP
 40
0.0
  9
$DIMTIX
 70
     0
  9
$DIMSOXD
 70
     0
  9
$DIMSAH
 70
     0
  9
$DIMBLK1
  1

  9
$DIMBLK2
  1

  9
$DIMSTYLE
  2
ISO-25
  9
$DIMCLRD
 70
     0
  9
$DIMCLRE
 70
     0
  9
$DIMCLRT
 70
     0
  9
$DIMTFAC
 40
1.0
  9
$DIMGAP
 40
1.524
  9
$DIMJUST
 70
     0
  9
$DIMSD1
 70
     0
  9
$DIMSD2
 70
     0
  9
$DIMTOLJ
 70
     0
  9
$DIMTZIN
 70
     0
  9
$DIMALTZ
 70
     0
  9
$DIMALTTZ
 70
     0
  9
$DIMUPT
 70
     0
  9
$DIMDEC
 70
     2
  9
$DIMTDEC
 70
     2
  9
$DIMALTU
 70
     2
  9
$DIMALTTD
 70
     3
  9
$DIMTXSTY
  7
Standard
  9
$DIMAUNIT
 70
     0
  9
$DIMADEC
 70
     2
  9
$DIMALTRND
 40
0.0
  9
$DIMAZIN
 70
     0
  9
$DIMDSEP
 70
    44
  9
$DIMATFIT
 70
     3
  9
$DIMFRAC
 70
     0
  9
$DIMLDRBLK
  1

  9
$DIMLUNIT
 70
     2
  9
$DIMLWD
 70
    -2
  9
$DIMLWE
 70
    -2
  9
$DIMTMOVE
 70
     0
  9
$LUNITS
 70
     2
  9
$LUPREC
 70
     2
  9
$SKETCHINC
 40
1.0
  9
$FILLETRAD
 40
10.0
  9
$AUNITS
 70
     0
  9
$AUPREC
 70
     2
  9
$MENU
  1
.
  9
$ELEVATION
 40
0.0
  9
$PELEVATION
 40
0.0
  9
$THICKNESS
 40
0.0
  9
$LIMCHECK
 70
     0
  9
$CHAMFERA
 40
10.0
  9
$CHAMFERB
 40
10.0
  9
$CHAMFERC
 40
20.0
  9
$CHAMFERD
 40
0.0
  9
$SKPOLY
 70
     0
  9
$TDCREATE
 40
2456455.739468935
  9
$TDUCREATE
 40
2456455.656135602
  9
$TDUPDATE
 40
2456455.739469838
  9
$TDUUPDATE
 40
2456455.656136505
  9
$TDINDWG
 40
0.0000000116
  9
$TDUSRTIMER
 40
0.0000000116
  9
$USRTIMER
 70
     1
  9
$ANGBASE
 50
0.0
  9
$ANGDIR
 70
     0
  9
$PDMODE
 70
     0
  9
$PDSIZE
 40
-1.0
  9
$PLINEWID
 40
0.0
  9
$SPLFRAME
 70
     0
  9
$SPLINETYPE
 70
     6
  9
$SPLINESEGS
 70
     8
  9
$HANDSEED
  5
55B
  9
$SURFTAB1
 70
     6
  9
$SURFTAB2
 70
     6
  9
$SURFTYPE
 70
     6
  9
$SURFU
 70
     6
  9
$SURFV
 70
     6
  9
$UCSBASE
  2

  9
$UCSNAME
  2

  9
$UCSORG
 10
0.0
 20
0.0
 30
0.0
  9
$UCSXDIR
 10
1.0
 20
0.0
 30
0.0
  9
$UCSYDIR
 10
0.0
 20
1.0
 30
0.0
  9
$UCSORTHOREF
  2

  9
$UCSORTHOVIEW
 70
     0
  9
$UCSORGTOP
 10
0.0
 20
0.0
 30
0.0
  9
$UCSORGBOTTOM
 10
0.0
 20
0.0
 30
0.0
  9
$UCSORGLEFT
 10
0.0
 20
0.0
 30
0.0
  9
$UCSORGRIGHT
 10
0.0
 20
0.0
 30
0.0
  9
$UCSORGFRONT
 10
0.0
 20
0.0
 30
0.0
  9
$UCSORGBACK
 10
0.0
 20
0.0
 30
0.0
  9
$PUCSBASE
  2

  9
$PUCSNAME
  2

  9
$PUCSORG
 10
0.0
 20
0.0
 30
0.0
  9
$PUCSXDIR
 10
1.0
 20
0.0
 30
0.0
  9
$PUCSYDIR
 10
0.0
 20
1.0
 30
0.0
  9
$PUCSORTHOREF
  2

  9
$PUCSORTHOVIEW
 70
     0
  9
$PUCSORGTOP
 10
0.0
 20
0.0
 30
0.0
  9
$PUCSORGBOTTOM
 10
0.0
 20
0.0
 30
0.0
  9
$PUCSORGLEFT
 10
0.0
 20
0.0
 30
0.0
  9
$PUCSORGRIGHT
 10
0.0
 20
0.0
 30
0.0
  9
$PUCSORGFRONT
 10
0.0
 20
0.0
 30
0.0
  9
$PUCSORGBACK
 10
0.0
 20
0.0
 30
0.0
  9
$USERI1
 70
     0
  9
$USERI2
 70
     0
  9
$USERI3
 70
     0
  9
$USERI4
 70
     0
  9
$USERI5
 70
     0
  9
$USERR1
 40
0.0
  9
$USERR2
 40
0.0
  9
$USERR3
 40
0.0
  9
$USERR4
 40
0.0
  9
$USERR5
 40
0.0
  9
$WORLDVIEW
 70
     1
  9
$SHADEDGE
 70
     3
  9
$SHADEDIF
 70
    70
  9
$TILEMODE
 70
     1
  9
$MAXACTVP
 70
    64
  9
$PINSBASE
 10
0.0
 20
0.0
 30
0.0
  9
$PLIMCHECK
 70
     0
  9
$PEXTMIN
 10
1.0000000000E+20
 20
1.0000000000E+20
 30
1.0000000000E+20
  9
$PEXTMAX
 10
-1.0000000000E+20
 20
-1.0000000000E+20
 30
-1.0000000000E+20
  9
$PLIMMIN
 10
0.0
 20
0.0
  9
$PLIMMAX
 10
420.0
 20
297.0
  9
$UNITMODE
 70
     0
  9
$VISRETAIN
 70
     1
  9
$PLINEGEN
 70
     0
  9
$PSLTSCALE
 70
     1
  9
$TREEDEPTH
 70
  3020
  9
$CMLSTYLE
  2
Standard
  9
$CMLJUST
 70
     0
  9
$CMLSCALE
 40
20.0
  9
$PROXYGRAPHICS
 70
     1
  9
$MEASUREMENT
 70
     1
  9
$CELWEIGHT
370
    -1
  9
$ENDCAPS
280
     0
  9
$JOINSTYLE
280
     0
  9
$LWDISPLAY
290
     1
  9
$INSUNITS
 70
     4
  9
$HYPERLINKBASE
  1

  9
$STYLESHEET
  1

  9
$XEDIT
290
     1
  9
$CEPSNTYPE
380
     0
  9
$PSTYLEMODE
290
     1
  9
$FINGERPRINTGUID
  2
{13457E3B-61A9-4EA4-BB50-055690AAE29B}
  9
$VERSIONGUID
  2
{FAEB1C32-E019-11D5-929B-00C0DF256EC4}
  9
$EXTNAMES
290
     1
  9
$PSVPSCALE
 40
0.0
  9
$OLESTARTUP
290
     0
  0
ENDSEC
  0
SECTION
  2
CLASSES
  0
CLASS
  1
ACDBDICTIONARYWDFLT
  2
AcDbDictionaryWithDefault
  3
ObjectDBX Classes
 90
        0
280
     0
281
     0
  0
CLASS
  1
VISUALSTYLE
  2
AcDbVisualStyle
  3
ObjectDBX Classes
 90
     4095
280
     0
281
     0
  0
CLASS
  1
MATERIAL
  2
AcDbMaterial
  3
ObjectDBX Classes
 90
     1153
280
     0
281
     0
  0
CLASS
  1
ACDBPLACEHOLDER
  2
AcDbPlaceHolder
  3
ObjectDBX Classes
 90
        0
280
     0
281
     0
  0
CLASS
  1
LAYOUT
  2
AcDbLayout
  3
ObjectDBX Classes
 90
        0
280
     0
281
     0
  0
ENDSEC
  0
SECTION
  2
TABLES
  0
TABLE
  2
VPORT
  5
8
330
0
100
AcDbSymbolTable
 70
     1
  0
VPORT
  5
29
330
8
100
AcDbSymbolTableRecord
100
AcDbViewportTableRecord
  2
*Active
 70
     0
 10
0.0
 20
0.0
 11
1.0
 21
1.0
 12
210.0
 22
148.5
 13
0.0
 23
0.0
 14
10.0
 24
10.0
 15
10.0
 25
10.0
 16
0.0
 26
0.0
 36
1.0
 17
0.0
 27
0.0
 37
0.0
 40
297.0
 41
1.4141414141
 42
50.0
 43
0.0
 44
0.0
 50
0.0
 51
0.0
 71
     0
 72
  2000
 73
     1
 74
     3
 75
     0
 76
     0
 77
     0
 78
     0
281
     0
 65
     1
110
0.0
120
0.0
130
0.0
111
1.0
121
0.0
131
0.0
112
0.0
122
1.0
132
0.0
 79
     0
146
0.0
  0
ENDTAB
  0
TABLE
  2
LTYPE
  5
5
330
0
100
AcDbSymbolTable
 70
     6
  0
LTYPE
  5
14
330
5
100
AcDbSymbolTableRecord
100
AcDbLinetypeTableRecord
  2
ByBlock
 70
     0
  3

 72
    65
 73
     0
 40
0.0
  0
LTYPE
  5
15
330
5
100
AcDbSymbolTableRecord
100
AcDbLinetypeTableRecord
  2
ByLayer
 70
     0
  3

 72
    65
 73
     0
 40
0.0
  0
LTYPE
  5
16
330
5
100
AcDbSymbolTableRecord
100
AcDbLinetypeTableRecord
  2
Continuous
 70
     0
  3
Solid line
 72
    65
 73
     0
 40
0.0
  0
LTYPE
  5
3F
330
5
100
AcDbSymbolTableRecord
100
AcDbLinetypeTableRecord
  2
HIDDEN
 70
     0
  3
Hidden __ __ __ __ __ __ __ __ __ __ __ __ __ __
 72
    65
 73
     2
 40
1.905
 49
1.27
 74
     0
 49
-0.635
 74
     0
  0
LTYPE
  5
40
330
5
100
AcDbSymbolTableRecord
100
AcDbLinetypeTableRecord
  2
PHANTOM
 70
     0
  3
Phantom ______  __  __  ______  __  __  ______
 72
    65
 73
     6
 40
12.7
 49
6.35
 74
     0
 49
-1.27
 74
     0
 49
1.27
 74
     0
 49
-1.27
 74
     0
 49
1.27
 74
     0
 49
-1.27
 74
     0
  0
LTYPE
  5
41
330
5
100
AcDbSymbolTableRecord
100
AcDbLinetypeTableRecord
  2
CENTER
 70
     0
  3
Center ____ _ ____ _ ____ _ ____ _ ____ _ ____
 72
    65
 73
     4
 40
10.16
 49
6.35
 74
     0
 49
-1.27
 74
     0
 49
1.27
 74
     0
 49
-1.27
 74
     0
  0
LTYPE
  5
42
330
5
100
AcDbSymbolTableRecord
100
AcDbLinetypeTableRecord
  2
CENTERX2
 70
     0
  3
Center (2x) ________  __  ________  __  _____
 72
    65
 73
     4
 40
20.32
 49
12.7
 74
     0
 49
-2.54
 74
     0
 49
2.54
 74
     0
 49
-2.54
 74
     0
  0
LTYPE
  5
43
330
5
100
AcDbSymbolTableRecord
100
AcDbLinetypeTableRecord
  2
DOT2
 70
     0
  3
Dot (.5x) ........................................
 72
    65
 73
     2
 40
0.635
 49
0.0
 74
     0
 49
-0.635
 74
     0
  0
ENDTAB
  0
TABLE
  2
LAYER
  5
2
330
0
100
AcDbSymbolTable
 70
     1
  0
LAYER
  5
10
330
2
100
AcDbSymbolTableRecord
100
AcDbLayerTableRecord
  2
0
 70
     0
 62
     7
  6
Continuous
370
    -3
390
F
  0
ENDTAB
  0
TABLE
  2
STYLE
  5
3
330
0
100
AcDbSymbolTable
 70
     2
  0
STYLE
  5
11
330
3
100
AcDbSymbolTableRecord
100
AcDbTextStyleTableRecord
  2
Standard
 70
     0
 40
0.0
 41
1.0
 50
0.0
 71
     0
 42
3.5
  3
txt
  4

  0
STYLE
  5
539
330
3
100
AcDbSymbolTableRecord
100
AcDbTextStyleTableRecord
  2
SLDTEXTSTYLE0
 70
     0
 40
0.0
 41
0.75
 50
0.0
 71
     0
 42
0.2
  3
TXT
  4

  0
ENDTAB
  0
TABLE
  2
VIEW
  5
6
330
0
100
AcDbSymbolTable
 70
     0
  0
ENDTAB
  0
TABLE
  2
UCS
  5
7
330
0
100
AcDbSymbolTable
 70
     0
  0
ENDTAB
  0
TABLE
  2
APPID
  5
9
330
0
100
AcDbSymbolTable
 70
     1
  0
APPID
  5
12
330
9
100
AcDbSymbolTableRecord
100
AcDbRegAppTableRecord
  2
ACAD
 70
     0
  0
ENDTAB
  0
TABLE
  2
DIMSTYLE
  5
A
330
0
100
AcDbSymbolTable
 70
     3
100
AcDbDimStyleTable
  0
DIMSTYLE
105
27
330
A
100
AcDbSymbolTableRecord
100
AcDbDimStyleTableRecord
  2
ISO-25
 70
     0
 41
2.5
 42
0.625
 43
3.75
 44
1.25
 73
     0
 74
     0
 77
     1
 78
     8
140
2.5
141
2.5
143
0.0393700787
147
0.625
171
     3
172
     1
178
     0
271
     2
272
     2
274
     3
278
    44
283
     0
284
     8
340
11
  0
DIMSTYLE
105
53A
102
{ACAD_REACTORS
330
538
330
544
102
}
330
A
100
AcDbSymbolTableRecord
100
AcDbDimStyleTableRecord
  2
SLDDIMSTYLE0
 70
     0
 41
3.302
 44
0.0
 45
0.000000001
 73
     0
 74
     0
 77
     1
 78
    12
 79
     3
140
3.5
147
0.875
173
     1
178
     0
271
     2
272
     2
276
     2
284
    12
340
539
  0
DIMSTYLE
105
54F
102
{ACAD_REACTORS
330
54E
102
}
330
A
100
AcDbSymbolTableRecord
100
AcDbDimStyleTableRecord
  2
SLDDIMSTYLE1
 70
     0
 41
3.302
 44
0.0
 45
0.000000001
 73
     0
 74
     0
 77
     1
 78
    12
 79
     3
140
3.5
147
0.875
172
     1
173
     1
178
     0
271
     2
272
     2
276
     2
284
    12
289
     0
340
539
  0
ENDTAB
  0
TABLE
  2
BLOCK_RECORD
  5
1
330
0
100
AcDbSymbolTable
 70
     4
  0
BLOCK_RECORD
  5
1F
330
1
100
AcDbSymbolTableRecord
100
AcDbBlockTableRecord
  2
*Model_Space
340
22
  0
BLOCK_RECORD
  5
1B
330
1
100
AcDbSymbolTableRecord
100
AcDbBlockTableRecord
  2
*Paper_Space
340
1E
  0
BLOCK_RECORD
  5
23
330
1
100
AcDbSymbolTableRecord
100
AcDbBlockTableRecord
  2
*Paper_Space0
340
26
  0
BLOCK_RECORD
  5
53B
330
1
100
AcDbSymbolTableRecord
100
AcDbBlockTableRecord
  2
_D
340
0
  0
BLOCK_RECORD
  5
545
330
1
100
AcDbSymbolTableRecord
100
AcDbBlockTableRecord
  2
_D_1
340
0
  0
BLOCK_RECORD
  5
550
330
1
100
AcDbSymbolTableRecord
100
AcDbBlockTableRecord
  2
_D_2
340
0
  0
ENDTAB
  0
ENDSEC
  0
SECTION
  2
BLOCKS
  0
BLOCK
  5
20
330
1F
100
AcDbEntity
  8
0
100
AcDbBlockBegin
  2
*Model_Space
 70
     0
 10
0.0
 20
0.0
 30
0.0
  3
*Model_Space
  1

  0
ENDBLK
  5
21
330
1F
100
AcDbEntity
  8
0
100
AcDbBlockEnd
  0
BLOCK
  5
1C
330
1B
100
AcDbEntity
 67
     1
  8
0
100
AcDbBlockBegin
  2
*Paper_Space
 70
     0
 10
0.0
 20
0.0
 30
0.0
  3
*Paper_Space
  1

  0
ENDBLK
  5
1D
330
1B
100
AcDbEntity
 67
     1
  8
0
100
AcDbBlockEnd
  0
BLOCK
  5
24
330
23
100
AcDbEntity
  8
0
100
AcDbBlockBegin
  2
*Paper_Space0
 70
     0
 10
0.0
 20
0.0
 30
0.0
  3
*Paper_Space0
  1

  0
ENDBLK
  5
25
330
23
100
AcDbEntity
  8
0
100
AcDbBlockEnd
  0
BLOCK
  5
53C
330
53B
100
AcDbEntity
  8
0
100
AcDbBlockBegin
  2
_D
 70
     0
 10
0.0
 20
0.0
 30
0.0
  3
_D
  1

  0
SOLID
  5
53E
330
53B
100
AcDbEntity
  8
0
  6
Continuous
 62
     7
370
     0
100
AcDbTrace
 10
139.3769761293
 20
115.894548084
 30
0.0
 11
142.6789761293
 21
115.386548084
 31
0.0
 12
142.6789761293
 22
116.402548084
 32
0.0
 13
142.6789761293
 23
116.402548084
 33
0.0
  0
SOLID
  5
53F
330
53B
100
AcDbEntity
  8
0
  6
Continuous
 62
     7
370
     0
100
AcDbTrace
 10
269.3769913881
 20
115.894548084
 30
0.0
 11
266.0749913881
 21
116.402548084
 31
0.0
 12
266.0749913881
 22
115.386548084
 32
0.0
 13
266.0749913881
 23
115.386548084
 33
0.0
  0
LINE
  5
540
330
53B
100
AcDbEntity
  8
0
  6
Continuous
 62
     7
370
     0
100
AcDbLine
 10
139.3769761293
 20
131.394548084
 30
0.0
 11
139.3769761293
 21
114.894548084
 31
0.0
  0
LINE
  5
541
330
53B
100
AcDbEntity
  8
0
  6
Continuous
 62
     7
370
     0
100
AcDbLine
 10
269.3769913881
 20
131.394548084
 30
0.0
 11
269.3769913881
 21
114.894548084
 31
0.0
  0
LINE
  5
542
330
53B
100
AcDbEntity
  8
0
  6
Continuous
 62
     7
370
     0
100
AcDbLine
 10
139.3769761293
 20
115.894548084
 30
0.0
 11
269.3769913881
 21
115.894548084
 31
0.0
  0
MTEXT
  5
543
330
53B
100
AcDbEntity
  8
0
  6
Continuous
 62
     7
370
     0
100
AcDbMText
 10
199.3835205986
 20
120.4062849986
 30
-49.9
 40
3.5
 41
0.0
 71
     1
 72
     1
  1
130
  7
SLDTEXTSTYLE0
 73
     1
 44
1.0
  0
ENDBLK
  5
53D
330
53B
100
AcDbEntity
  8
0
100
AcDbBlockEnd
  0
BLOCK
  5
546
330
545
100
AcDbEntity
  8
0
100
AcDbBlockBegin
  2
_D_1
 70
     0
 10
0.0
 20
0.0
 30
0.0
  3
_D_1
  1

  0
SOLID
  5
548
330
545
100
AcDbEntity
  8
0
  6
Continuous
 62
     7
370
     0
100
AcDbTrace
 10
287.9320250067
 20
131.894548084
 30
0.0
 11
288.4400250067
 21
135.196548084
 31
0.0
 12
287.4240250067
 22
135.196548084
 32
0.0
 13
287.4240250067
 23
135.196548084
 33
0.0
  0
SOLID
  5
549
330
545
100
AcDbEntity
  8
0
  6
Continuous
 62
     7
370
     0
100
AcDbTrace
 10
287.9320250067
 20
186.8945518987
 30
0.0
 11
287.4240250067
 21
183.5925518987
 31
0.0
 12
288.4400250067
 22
183.5925518987
 32
0.0
 13
288.4400250067
 23
183.5925518987
 33
0.0
  0
LINE
  5
54A
330
545
100
AcDbEntity
  8
0
  6
Continuous
 62
     7
370
     0
100
AcDbLine
 10
269.8769913881
 20
131.894548084
 30
0.0
 11
288.9320250067
 21
131.894548084
 31
0.0
  0
LINE
  5
54B
330
545
100
AcDbEntity
  8
0
  6
Continuous
 62
     7
370
     0
100
AcDbLine
 10
269.8769913881
 20
186.8945518987
 30
0.0
 11
288.9320250067
 21
186.8945518987
 31
0.0
  0
LINE
  5
54C
330
545
100
AcDbEntity
  8
0
  6
Continuous
 62
     7
370
     0
100
AcDbLine
 10
287.9320250067
 20
131.894548084
 30
0.0
 11
287.9320250067
 21
186.8945518987
 31
0.0
  0
MTEXT
  5
54D
330
545
100
AcDbEntity
  8
0
  6
Continuous
 62
     7
370
     0
100
AcDbMText
 10
283.4202880921
 20
154.4441388207
 30
-49.9
 40
3.5
 41
0.0
 71
     1
 72
     1
  1
55
  7
SLDTEXTSTYLE0
 11
-3.269436733918102E-15
 21
1.0
 31
0.0
 73
     1
 44
1.0
  0
ENDBLK
  5
547
330
545
100
AcDbEntity
  8
0
100
AcDbBlockEnd
  0
BLOCK
  5
551
330
550
100
AcDbEntity
  8
0
100
AcDbBlockBegin
  2
_D_2
 70
     0
 10
0.0
 20
0.0
 30
0.0
  3
_D_2
  1

  0
SOLID
  5
553
330
550
100
AcDbEntity
  8
0
  6
Continuous
 62
     7
370
     0
100
AcDbTrace
 10
279.3769913881
 20
131.894548084
 30
0.0
 11
278.8689913881
 21
128.592548084
 31
0.0
 12
279.8849913881
 22
128.592548084
 32
0.0
 13
279.8849913881
 23
128.592548084
 33
0.0
  0
SOLID
  5
554
330
550
100
AcDbEntity
  8
0
  6
Continuous
 62
     7
370
     0
100
AcDbTrace
 10
279.3769913881
 20
139.8945518987
 30
0.0
 11
279.8849913881
 21
143.1965518987
 31
0.0
 12
278.8689913881
 22
143.1965518987
 32
0.0
 13
278.8689913881
 23
143.1965518987
 33
0.0
  0
LINE
  5
555
330
550
100
AcDbEntity
  8
0
  6
Continuous
 62
     7
370
     0
100
AcDbLine
 10
269.8769913881
 20
131.894548084
 30
0.0
 11
280.3769913881
 21
131.894548084
 31
0.0
  0
LINE
  5
556
330
550
100
AcDbEntity
  8
0
  6
Continuous
 62
     7
370
     0
100
AcDbLine
 10
265.3769913881
 20
139.8945518987
 30
0.0
 11
280.3769913881
 21
139.8945518987
 31
0.0
  0
LINE
  5
557
330
550
100
AcDbEntity
  8
0
  6
Continuous
 62
     7
370
     0
100
AcDbLine
 10
279.3769913881
 20
131.894548084
 30
0.0
 11
279.3769913881
 21
125.544548084
 31
0.0
  0
LINE
  5
558
330
550
100
AcDbEntity
  8
0
  6
Continuous
 62
     7
370
     0
100
AcDbLine
 10
279.3769913881
 20
131.894548084
 30
0.0
 11
279.3769913881
 21
139.8945518987
 31
0.0
  0
LINE
  5
559
330
550
100
AcDbEntity
  8
0
  6
Continuous
 62
     7
370
     0
100
AcDbLine
 10
279.3769913881
 20
139.8945518987
 30
0.0
 11
279.3769913881
 21
146.2445518987
 31
0.0
  0
MTEXT
  5
55A
330
550
100
AcDbEntity
  8
0
  6
Continuous
 62
     7
370
     0
100
AcDbMText
 10
274.8652544735
 20
133.9190741185
 30
-49.9
 40
3.5
 41
0.0
 71
     1
 72
     1
  1
8
  7
SLDTEXTSTYLE0
 11
-3.269436733918102E-15
 21
1.0
 31
0.0
 73
     1
 44
1.0
  0
ENDBLK
  5
552
330
550
100
AcDbEntity
  8
0
100
AcDbBlockEnd
  0
ENDSEC
  0
SECTION
  2
ENTITIES
  0
LINE
  5
44
330
1F
100
AcDbEntity
  8
0
  6
Continuous
 62
     7
370
    15
100
AcDbLine
 10
142.3769875734
 20
186.8945547001
 30
0.0
 11
139.8769899576
 21
186.8945547001
 31
0.0
  0
ARC
  5
45
330
1F
100
AcDbEntity
  8
0
  6
Continuous
 62
     7
370
    15
100
AcDbCircle
 10
142.3769913881
 20
185.8945518987
 30
0.0
 40
1.0
100
AcDbArc
 50
0.0
 51
90.0
  0
ARC
  5
46
330
1F
100
AcDbEntity
  8
0
  6
Continuous
 62
     7
370
    15
100
AcDbCircle
 10
143.8769170567
 20
185.8945089834
 30
0.0
 40
0.4999256704904145
100
AcDbArc
 50
179.9950815386
 51
240.0049947553
  0
ARC
  5
47
330
1F
100
AcDbEntity
  8
0
  6
Continuous
 62
     7
370
    15
100
AcDbCircle
 10
143.3770561568
 20
185.0285501803
 30
0.0
 40
0.4999471054014936
100
AcDbArc
 50
299.9984741211
 51
60.0049947553
  0
ARC
  5
48
330
1F
100
AcDbEntity
  8
0
  6
Continuous
 62
     7
370
    15
100
AcDbCircle
 10
143.8770066469
 20
184.1625572698
 30
0.0
 40
0.5000000000000241
100
AcDbArc
 50
119.9984741211
 51
180.000579834
  0
ARC
  5
49
330
1F
100
AcDbEntity
  8
0
  6
Continuous
 62
     7
370
    15
100
AcDbCircle
 10
143.8769707428
 20
184.1625581799
 30
0.0
 40
0.4999640959311806
100
AcDbArc
 50
180.0006841776
 51
240.0021972656
  0
ARC
  5
4A
330
1F
100
AcDbEntity
  8
0
  6
Continuous
 62
     7
370
    15
100
AcDbCircle
 10
143.3770934648
 20
183.2965446982
 30
0.0
 40
0.4999642252217426
100
AcDbArc
 50
299.9933252014
 51
60.0092993103
  0
ARC
  5
4B
330
1F
100
AcDbEntity
  8
0
  6
Continuous
 62
     7
370
    15
100
AcDbCircle
 10
143.8769427422
 20
182.4305473824
 30
0.0
 40
0.4999360953441142
100
AcDbArc
 50
119.9933252014
 51
179.9997253418
  0
ARC
  5
4C
330
1F
100
AcDbEntity
  8
0
  6
Continuous
 62
     7
370
    15
100
AcDbCircle
 10
143.8770177181
 20
182.4305742347
 30
0.0
 40
0.5000110718394479
100
AcDbArc
 50
180.0028023593
 51
239.9996337891
  0
ARC
  5
4D
330
1F
100
AcDbEntity
  8
0
  6
Continuous
 62
     7
370
    15
100
AcDbCircle
 10
143.3770784077
 20
181.564542438
 30
0.0
 40
0.4999641232579257
100
AcDbArc
 50
299.9928780165
 51
60.0067557726
  0
ARC
  5
4E
330
1F
100
AcDbEntity
  8
0
  6
Continuous
 62
     7
370
    15
100
AcDbCircle
 10
143.8769142697
 20
180.6985527536
 30
0.0
 40
0.4999228815758984
100
AcDbArc
 50
119.9928780164
 51
179.9996948242
  0
ARC
  5
4F
330
1F
100
AcDbEntity
  8
0
  6
Continuous
 62
     7
370
    15
100
AcDbCircle
 10
143.8770458956
 20
180.6986058661
 30
0.0
 40
0.5000545100629064
100
AcDbArc
 50
180.0057804912
 51
239.999206543
  0
ARC
  5
50
330
1F
100
AcDbEntity
  8
0
  6
Continuous
 62
     7
370
    15
100
AcDbCircle
 10
143.3770478916
 20
179.8325401796
 30
0.0
 40
0.4999793786853344
100
AcDbArc
 50
299.9959067578
 51
60.0032997852
  0
ARC
  5
51
330
1F
100
AcDbEntity
  8
0
  6
Continuous
 62
     7
370
    15
100
AcDbCircle
 10
143.8769447839
 20
178.9665504942
 30
0.0
 40
0.4999381370450319
100
AcDbArc
 50
119.9959067578
 51
180.0006103516
  0
ARC
  5
52
330
1F
100
AcDbEntity
  8
0
  6
Continuous
 62
     7
370
    15
100
AcDbCircle
 10
143.8770177185
 20
178.9665773482
 30
0.0
 40
0.5000110726690461
100
AcDbArc
 50
180.0036874318
 51
239.9996337891
  0
ARC
  5
53
330
1F
100
AcDbEntity
  8
0
  6
Continuous
 62
     7
370
    15
100
AcDbCircle
 10
143.3770695967
 20
178.1005455508
 30
0.0
 40
0.499968527891196
100
AcDbArc
 50
299.9937525291
 51
60.00588126
  0
ARC
  5
54
330
1F
100
AcDbEntity
  8
0
  6
Continuous
 62
     7
370
    15
100
AcDbCircle
 10
143.8769274843
 20
177.2345482359
 30
0.0
 40
0.4999360961850556
100
AcDbArc
 50
119.9937525291
 51
180.0006103516
  0
ARC
  5
55
330
1F
100
AcDbEntity
  8
0
  6
Continuous
 62
     7
370
    15
100
AcDbCircle
 10
143.8769997653
 20
177.2345747144
 30
0.0
 40
0.5000083781716717
100
AcDbArc
 50
180.0036444253
 51
240.0007324219
  0
ARC
  5
56
330
1F
100
AcDbEntity
  8
0
  6
Continuous
 62
     7
370
    15
100
AcDbCircle
 10
143.3770478913
 20
176.3685356636
 30
0.0
 40
0.4999793793195181
100
AcDbArc
 50
299.9959067578
 51
60.0048256641
  0
ARC
  5
57
330
1F
100
AcDbEntity
  8
0
  6
Continuous
 62
     7
370
    15
100
AcDbCircle
 10
143.8769447839
 20
175.5025459776
 30
0.0
 40
0.4999381370450566
100
AcDbArc
 50
119.9959067578
 51
180.0006103516
  0
ARC
  5
58
330
1F
100
AcDbEntity
  8
0
  6
Continuous
 62
     7
370
    15
100
AcDbCircle
 10
143.877016661
 20
175.5025517599
 30
0.0
 40
0.5000100142319259
100
AcDbArc
 50
180.0012728536
 51
239.9985440409
  0
ARC
  5
59
330
1F
100
AcDbEntity
  8
0
  6
Continuous
 62
     7
370
    15
100
AcDbCircle
 10
143.3770512129
 20
174.6365313943
 30
0.0
 40
0.4999683484288293
100
AcDbArc
 50
299.9946051448
 51
60.0045965171
  0
ARC
  5
5A
330
1F
100
AcDbEntity
  8
0
  6
Continuous
 62
     7
370
    15
100
AcDbCircle
 10
143.8769163127
 20
173.7705513486
 30
0.0
 40
0.4999249246291331
100
AcDbArc
 50
119.9946051448
 51
180.000579834
  0
ARC
  5
5B
330
1F
100
AcDbEntity
  8
0
  6
Continuous
 62
     7
370
    15
100
AcDbCircle
 10
143.8770309518
 20
173.7705741923
 30
0.0
 40
0.5000395644646132
100
AcDbArc
 50
180.0031971869
 51
239.9985423151
  0
ARC
  5
5C
330
1F
100
AcDbEntity
  8
0
  6
Continuous
 62
     7
370
    15
100
AcDbCircle
 10
143.377042944
 20
172.9045285458
 30
0.0
 40
0.4999719714373245
100
AcDbArc
 50
299.9950323808
 51
60.0038079307
  0
ARC
  5
5D
330
1F
100
AcDbEntity
  8
0
  6
Continuous
 62
     7
370
    15
100
AcDbCircle
 10
143.876916312
 20
172.0385490903
 30
0.0
 40
0.4999249238578173
100
AcDbArc
 50
119.9950323808
 51
180.0005493164
  0
ARC
  5
5E
330
1F
100
AcDbEntity
  8
0
  6
Continuous
 62
     7
370
    15
100
AcDbCircle
 10
143.8770309518
 20
172.038571934
 30
0.0
 40
0.5000395644402724
100
AcDbArc
 50
180.0031666693
 51
239.9985423151
  0
ARC
  5
5F
330
1F
100
AcDbEntity
  8
0
  6
Continuous
 62
     7
370
    15
100
AcDbCircle
 10
143.377073492
 20
171.1725262885
 30
0.0
 40
0.499956698963889
100
AcDbArc
 50
299.9939536386
 51
60.0068398096
  0
ARC
  5
60
330
1F
100
AcDbEntity
  8
0
  6
Continuous
 62
     7
370
    15
100
AcDbCircle
 10
143.8769295271
 20
170.3065392037
 30
0.0
 40
0.4999381389869538
100
AcDbArc
 50
119.9939536386
 51
179.9997253418
  0
ARC
  5
61
330
1F
100
AcDbEntity
  8
0
  6
Continuous
 62
     7
370
    15
100
AcDbCircle
 10
143.8769868495
 20
170.306565853
 30
0.0
 40
0.4999954619469689
100
AcDbArc
 50
180.0027791927
 51
240.001159668
  0
ARC
  5
62
330
1F
100
AcDbEntity
  8
0
  6
Continuous
 62
     7
370
    15
100
AcDbCircle
 10
143.3770169574
 20
169.4405521187
 30
0.0
 40
0.4999793782614283
100
AcDbArc
 50
300.0015260131
 51
60.001159668
  0
ARC
  5
63
330
1F
100
AcDbEntity
  8
0
  6
Continuous
 62
     7
370
    15
100
AcDbCircle
 10
143.8770527788
 20
168.5745179397
 30
0.0
 40
0.5000461323398125
100
AcDbArc
 50
120.0015260131
 51
179.9975279419
  0
ARC
  5
64
330
1F
100
AcDbEntity
  8
0
  6
Continuous
 62
     7
370
    15
100
AcDbCircle
 10
143.8769605212
 20
168.5745179437
 30
0.0
 40
0.4999538747532011
100
AcDbArc
 50
179.9975279419
 51
240.0026856811
  0
ARC
  5
65
330
1F
100
AcDbEntity
  8
0
  6
Continuous
 62
     7
370
    15
100
AcDbCircle
 10
143.3770183679
 20
167.7085522547
 30
0.0
 40
0.4999654878837013
100
AcDbArc
 50
299.9982201256
 51
59.9996337891
  0
ARC
  5
66
330
1F
100
AcDbEntity
  8
0
  6
Continuous
 62
     7
370
    15
100
AcDbCircle
 10
143.8769722903
 20
166.8425445326
 30
0.0
 40
0.4999961610537599
100
AcDbArc
 50
119.9982201256
 51
180.0008033119
  0
ARC
  5
67
330
1F
100
AcDbEntity
  8
0
  6
Continuous
 62
     7
370
    15
100
AcDbCircle
 10
143.8769799684
 20
166.8425445327
 30
0.0
 40
0.5000038391638408
100
AcDbArc
 50
180.0008033119
 51
240.0004479088
  0
ARC
  5
68
330
1F
100
AcDbEntity
  8
0
  6
Continuous
 62
     7
370
    15
100
AcDbCircle
 10
143.3770042894
 20
165.9765411869
 30
0.0
 40
0.4999648976061259
100
AcDbArc
 50
300.000122135
 51
60.0007019043
  0
ARC
  5
69
330
1F
100
AcDbEntity
  8
0
  6
Continuous
 62
     7
370
    15
100
AcDbCircle
 10
143.8770010394
 20
165.1105256757
 30
0.0
 40
0.5000249101276385
100
AcDbArc
 50
120.000122135
 51
179.9989013025
  0
ARC
  5
6A
330
1F
100
AcDbEntity
  8
0
  6
Continuous
 62
     7
370
    15
100
AcDbCircle
 10
143.8769512213
 20
165.1105256767
 30
0.0
 40
0.4999750920325792
100
AcDbArc
 50
179.9989013025
 51
240.0028076819
  0
ARC
  5
6B
330
1F
100
AcDbEntity
  8
0
  6
Continuous
 62
     7
370
    15
100
AcDbCircle
 10
143.3770135145
 20
164.2445389287
 30
0.0
 40
0.4999602851660675
100
AcDbArc
 50
299.9992065734
 51
60.001159668
  0
ARC
  5
6C
330
1F
100
AcDbEntity
  8
0
  6
Continuous
 62
     7
370
    15
100
AcDbCircle
 10
143.8769872002
 20
163.3785314077
 30
0.0
 40
0.5000110708291093
100
AcDbArc
 50
119.9992065734
 51
179.9998473817
  0
ARC
  5
6D
330
1F
100
AcDbEntity
  8
0
  6
Continuous
 62
     7
370
    15
100
AcDbCircle
 10
143.8769650583
 20
163.3785314077
 30
0.0
 40
0.4999889289666393
100
AcDbArc
 50
179.9998473817
 51
239.9999389953
  0
ARC
  5
6E
330
1F
100
AcDbEntity
  8
0
  6
Continuous
 62
     7
370
    15
100
AcDbCircle
 10
143.3769716097
 20
162.5125322641
 30
0.0
 40
0.499985053404515
100
AcDbArc
 50
300.0055593769
 51
59.999206543
  0
ARC
  5
6F
330
1F
100
AcDbEntity
  8
0
  6
Continuous
 62
     7
370
    15
100
AcDbCircle
 10
143.8771049602
 20
161.6464699686
 30
0.0
 40
0.5001135757202161
100
AcDbArc
 50
120.0055593769
 51
179.9930673321
  0
ARC
  5
70
330
1F
100
AcDbEntity
  8
0
  6
Continuous
 62
     7
370
    15
100
AcDbCircle
 10
143.876877861
 20
161.646469996
 30
0.0
 40
0.4998864764884567
100
AcDbArc
 50
179.9930673321
 51
240.0071462909
  0
ARC
  5
71
330
1F
100
AcDbEntity
  8
0
  6
Continuous
 62
     7
370
    15
100
AcDbCircle
 10
143.3769980227
 20
160.7805344118
 30
0.0
 40
0.4999756605453932
100
AcDbArc
 50
300.002258429
 51
59.9996337891
  0
ARC
  5
72
330
1F
100
AcDbEntity
  8
0
  6
Continuous
 62
     7
370
    15
100
AcDbCircle
 10
143.8770485923
 20
159.9145002554
 30
0.0
 40
0.5000572050009685
100
AcDbArc
 50
120.002258429
 51
179.9967955261
  0
ARC
  5
73
330
1F
100
AcDbEntity
  8
0
  6
Continuous
 62
     7
370
    15
100
AcDbCircle
 10
143.8769913881
 20
159.914533283
 30
0.0
 40
0.4999999999999672
100
AcDbArc
 50
180.000579834
 51
240.001159668
  0
ARC
  5
74
330
1F
100
AcDbEntity
  8
0
  6
Continuous
 62
     7
370
    15
100
AcDbCircle
 10
143.3770291138
 20
159.0485327436
 30
0.0
 40
0.4999596040761322
100
AcDbArc
 50
299.9980419783
 51
60.001159668
  0
ARC
  5
75
330
1F
100
AcDbEntity
  8
0
  6
Continuous
 62
     7
370
    15
100
AcDbCircle
 10
143.8769825129
 20
158.1825197095
 30
0.0
 40
0.5000063836363371
100
AcDbArc
 50
119.9980419783
 51
179.9992724749
  0
ARC
  5
76
330
1F
100
AcDbEntity
  8
0
  6
Continuous
 62
     7
370
    15
100
AcDbCircle
 10
143.8769761293
 20
158.1825233953
 30
0.0
 40
0.4999999999999302
100
AcDbArc
 50
179.9996948242
 51
240.001739502
  0
ARC
  5
77
330
1F
100
AcDbEntity
  8
0
  6
Continuous
 62
     7
370
    15
100
AcDbCircle
 10
143.3770270611
 20
157.3165254908
 30
0.0
 40
0.4999507194144711
100
AcDbArc
 50
299.9985400306
 51
60.001739502
  0
ARC
  5
78
330
1F
100
AcDbEntity
  8
0
  6
Continuous
 62
     7
370
    15
100
AcDbCircle
 10
143.8769693218
 20
156.4505491356
 30
0.0
 40
0.4999779339779538
100
AcDbArc
 50
119.9985400306
 51
180.002070321
  0
ARC
  5
79
330
1F
100
AcDbEntity
  8
0
  6
Continuous
 62
     7
370
    15
100
AcDbCircle
 10
143.8769913881
 20
156.4505363957
 30
0.0
 40
0.5000000000000048
100
AcDbArc
 50
180.0006103516
 51
239.9996337891
  0
ARC
  5
7A
330
1F
100
AcDbEntity
  8
0
  6
Continuous
 62
     7
370
    15
100
AcDbCircle
 10
143.377000566
 20
155.5845396714
 30
0.0
 40
0.4999705739332329
100
AcDbArc
 50
299.9991405724
 51
59.9996337891
  0
ARC
  5
7B
330
1F
100
AcDbEntity
  8
0
  6
Continuous
 62
     7
370
    15
100
AcDbCircle
 10
143.8769695971
 20
154.7185379088
 30
0.0
 40
0.4999934678151358
100
AcDbArc
 50
119.9991405724
 51
180.0010425331
  0
ARC
  5
7C
330
1F
100
AcDbEntity
  8
0
  6
Continuous
 62
     7
370
    15
100
AcDbCircle
 10
143.8769761293
 20
154.7185341374
 30
0.0
 40
0.5000000000000122
100
AcDbArc
 50
180.0006103516
 51
239.999206543
  0
ARC
  5
7D
330
1F
100
AcDbEntity
  8
0
  6
Continuous
 62
     7
370
    15
100
AcDbCircle
 10
143.3769716103
 20
153.8525286029
 30
0.0
 40
0.4999850523018901
100
AcDbArc
 50
300.003606084
 51
59.999206543
  0
ARC
  5
7E
330
1F
100
AcDbEntity
  8
0
  6
Continuous
 62
     7
370
    15
100
AcDbCircle
 10
143.8770459001
 20
152.9865004064
 30
0.0
 40
0.5000545131758611
100
AcDbArc
 50
120.003606084
 51
179.9961192578
  0
ARC
  5
7F
330
1F
100
AcDbEntity
  8
0
  6
Continuous
 62
     7
370
    15
100
AcDbCircle
 10
143.8769913881
 20
152.9865318791
 30
0.0
 40
0.5000000000000889
100
AcDbArc
 50
179.9997253418
 51
239.9996337891
  0
ARC
  5
80
330
1F
100
AcDbEntity
  8
0
  6
Continuous
 62
     7
370
    15
100
AcDbCircle
 10
143.377000566
 20
152.1205351548
 30
0.0
 40
0.4999705739705246
100
AcDbArc
 50
299.9987133049
 51
59.9996337891
  0
ARC
  5
81
330
1F
100
AcDbEntity
  8
0
  6
Continuous
 62
     7
370
    15
100
AcDbCircle
 10
143.8769566818
 20
151.2545408487
 30
0.0
 40
0.4999805527196665
100
AcDbArc
 50
119.9987133049
 51
180.0018665291
  0
ARC
  5
82
330
1F
100
AcDbEntity
  8
0
  6
Continuous
 62
     7
370
    15
100
AcDbCircle
 10
143.8769761293
 20
151.2545296208
 30
0.0
 40
0.5000000000000809
100
AcDbArc
 50
180.000579834
 51
240.0007019043
  0
ARC
  5
83
330
1F
100
AcDbEntity
  8
0
  6
Continuous
 62
     7
370
    15
100
AcDbCircle
 10
143.3770042895
 20
150.3885284917
 30
0.0
 40
0.4999648975448349
100
AcDbArc
 50
299.999023419
 51
60.0007019043
  0
ARC
  5
84
330
1F
100
AcDbEntity
  8
0
  6
Continuous
 62
     7
370
    15
100
AcDbCircle
 10
143.8769678264
 20
149.5225321562
 30
0.0
 40
0.4999916971348254
100
AcDbArc
 50
119.999023419
 51
180.0011291689
  0
ARC
  5
85
330
1F
100
AcDbEntity
  8
0
  6
Continuous
 62
     7
370
    15
100
AcDbCircle
 10
143.8769761293
 20
149.5225273625
 30
0.0
 40
0.5000000000000809
100
AcDbArc
 50
180.000579834
 51
239.9996337891
  0
ARC
  5
86
330
1F
100
AcDbEntity
  8
0
  6
Continuous
 62
     7
370
    15
100
AcDbCircle
 10
143.3769827639
 20
148.6565262331
 30
0.0
 40
0.499975660545432
100
AcDbArc
 50
300.002258429
 51
59.9996337891
  0
ARC
  5
87
330
1F
100
AcDbEntity
  8
0
  6
Continuous
 62
     7
370
    15
100
AcDbCircle
 10
143.8770333336
 20
147.7904920767
 30
0.0
 40
0.5000572050009401
100
AcDbArc
 50
120.002258429
 51
179.9967955261
  0
ARC
  5
88
330
1F
100
AcDbEntity
  8
0
  6
Continuous
 62
     7
370
    15
100
AcDbCircle
 10
143.8769761293
 20
147.7905251042
 30
0.0
 40
0.4999999999999838
100
AcDbArc
 50
180.000579834
 51
239.999206543
  0
ARC
  5
89
330
1F
100
AcDbEntity
  8
0
  6
Continuous
 62
     7
370
    15
100
AcDbCircle
 10
143.3769694071
 20
146.9245157538
 30
0.0
 40
0.4999894586170986
100
AcDbArc
 50
300.0059866241
 51
59.999206543
  0
ARC
  5
8A
330
1F
100
AcDbEntity
  8
0
  6
Continuous
 62
     7
370
    15
100
AcDbCircle
 10
143.8771178815
 20
146.0584421817
 30
0.0
 40
0.500126499048791
100
AcDbArc
 50
120.0059866241
 51
179.9913583466
  0
ARC
  5
8B
330
1F
100
AcDbEntity
  8
0
  6
Continuous
 62
     7
370
    15
100
AcDbCircle
 10
143.8769913881
 20
146.0585152165
 30
0.0
 40
0.5000000000000321
100
AcDbArc
 50
179.9997253418
 51
239.9987487793
  0
ARC
  5
8C
330
1F
100
AcDbEntity
  8
0
  6
Continuous
 62
     7
370
    15
100
AcDbCircle
 10
143.3769849329
 20
145.1925223068
 30
0.0
 40
0.4999750871890595
100
AcDbArc
 50
300.0020093477
 51
59.9987487793
  0
ARC
  5
8D
330
1F
100
AcDbEntity
  8
0
  6
Continuous
 62
     7
370
    15
100
AcDbCircle
 10
143.8770295666
 20
144.3264897366
 30
0.0
 40
0.5000534365322654
100
AcDbArc
 50
120.0020093477
 51
179.9996386015
  0
ARC
  5
8E
330
1F
100
AcDbEntity
  8
0
  6
Continuous
 62
     7
370
    15
100
AcDbCircle
 10
143.8769761285
 20
144.3264900687
 30
0.0
 40
0.4999999984817512
100
AcDbArc
 50
179.9996766206
 51
239.9987487793
  0
ARC
  5
8F
330
1F
100
AcDbEntity
  8
0
  6
Continuous
 62
     7
370
    15
100
AcDbCircle
 10
143.3769696741
 20
143.4604971603
 30
0.0
 40
0.4999750871890984
100
AcDbArc
 50
300.0020093477
 51
59.9987487793
  0
ARC
  5
90
330
1F
100
AcDbEntity
  8
0
  6
Continuous
 62
     7
370
    15
100
AcDbCircle
 10
143.8770143095
 20
142.5944645872
 30
0.0
 40
0.5000534399506136
100
AcDbArc
 50
120.0020093477
 51
179.9964647734
  0
LINE
  5
91
330
1F
100
AcDbEntity
  8
0
  6
Continuous
 62
     7
370
    15
100
AcDbLine
 10
143.3770045011
 20
140.8945508854
 30
0.0
 11
143.3769746988
 21
142.5944977061
 31
0.0
  0
ARC
  5
92
330
1F
100
AcDbEntity
  8
0
  6
Continuous
 62
     7
370
    15
100
AcDbCircle
 10
144.3770093405
 20
140.8945698511
 30
0.0
 40
1.000017952596172
100
AcDbArc
 50
180.0010285803
 51
269.9989714197
  0
LINE
  5
93
330
1F
100
AcDbEntity
  8
0
  6
Continuous
 62
     7
370
    15
100
AcDbLine
 10
152.3925199478
 20
139.8945488588
 30
0.0
 11
144.3769916265
 21
139.8945488588
 31
0.0
  0
ARC
  5
94
330
1F
100
AcDbEntity
  8
0
  6
Continuous
 62
     7
370
    15
100
AcDbCircle
 10
152.3925248354
 20
140.8945579135
 30
0.0
 40
1.000006014814147
100
AcDbArc
 50
270.0
 51
359.0829557107
  0
LINE
  5
95
330
1F
100
AcDbEntity
  8
0
  6
Continuous
 62
     7
370
    15
100
AcDbLine
 10
153.4162595241
 20
142.3501782672
 30
0.0
 11
153.392402765
 21
140.8785544889
 31
0.0
  0
ARC
  5
96
330
1F
100
AcDbEntity
  8
0
  6
Continuous
 62
     7
370
    15
100
AcDbCircle
 10
152.9165257014
 20
142.3582846141
 30
0.0
 40
0.4998046361093916
100
AcDbArc
 50
359.071052657
 51
59.0994185344
  0
ARC
  5
97
330
1F
100
AcDbEntity
  8
0
  6
Continuous
 62
     7
370
    15
100
AcDbCircle
 10
153.430054075
 20
143.2160885101
 30
0.0
 40
0.4999648009239996
100
AcDbArc
 50
119.0845399708
 51
239.0864868164
  0
ARC
  5
98
330
1F
100
AcDbEntity
  8
0
  6
Continuous
 62
     7
370
    15
100
AcDbCircle
 10
152.9439622133
 20
144.0899559514
 30
0.0
 40
0.5000000000000019
100
AcDbArc
 50
299.0857696533
 51
59.0864868164
  0
ARC
  5
99
330
1F
100
AcDbEntity
  8
0
  6
Continuous
 62
     7
370
    15
100
AcDbCircle
 10
153.457687742
 20
144.947869516
 30
0.0
 40
0.4999648009240241
100
AcDbArc
 50
119.0845399708
 51
239.0864868164
  0
ARC
  5
9A
330
1F
100
AcDbEntity
  8
0
  6
Continuous
 62
     7
370
    15
100
AcDbCircle
 10
152.9715958803
 20
145.8217369573
 30
0.0
 40
0.5000000000000198
100
AcDbArc
 50
299.0857696533
 51
59.0864868164
  0
ARC
  5
9B
330
1F
100
AcDbEntity
  8
0
  6
Continuous
 62
     7
370
    15
100
AcDbCircle
 10
153.485321409
 20
146.6796505218
 30
0.0
 40
0.4999648009240533
100
AcDbArc
 50
119.0845399708
 51
239.0864868164
  0
ARC
  5
9C
330
1F
100
AcDbEntity
  8
0
  6
Continuous
 62
     7
370
    15
100
AcDbCircle
 10
152.9992295473
 20
147.5535179631
 30
0.0
 40
0.5000000000000344
100
AcDbArc
 50
299.0857696533
 51
59.0864868164
  0
ARC
  5
9D
330
1F
100
AcDbEntity
  8
0
  6
Continuous
 62
     7
370
    15
100
AcDbCircle
 10
153.512955076
 20
148.4114315277
 30
0.0
 40
0.4999648009240342
100
AcDbArc
 50
119.0845399708
 51
239.0864868164
  0
ARC
  5
9E
330
1F
100
AcDbEntity
  8
0
  6
Continuous
 62
     7
370
    15
100
AcDbCircle
 10
153.0268632143
 20
149.285298969
 30
0.0
 40
0.5000000000000047
100
AcDbArc
 50
299.0857696533
 51
59.0864868164
  0
ARC
  5
9F
330
1F
100
AcDbEntity
  8
0
  6
Continuous
 62
     7
370
    15
100
AcDbCircle
 10
153.540588743
 20
150.1432125335
 30
0.0
 40
0.4999648009240387
100
AcDbArc
 50
119.0845399708
 51
239.0864868164
  0
ARC
  5
A0
330
1F
100
AcDbEntity
  8
0
  6
Continuous
 62
     7
370
    15
100
AcDbCircle
 10
153.0544968813
 20
151.0170799748
 30
0.0
 40
0.5000000000000198
100
AcDbArc
 50
299.0857696533
 51
59.0864868164
  0
ARC
  5
A1
330
1F
100
AcDbEntity
  8
0
  6
Continuous
 62
     7
370
    15
100
AcDbCircle
 10
153.56822241
 20
151.8749935394
 30
0.0
 40
0.4999648009240288
100
AcDbArc
 50
119.0845399708
 51
239.0864868164
  0
ARC
  5
A2
330
1F
100
AcDbEntity
  8
0
  6
Continuous
 62
     7
370
    15
100
AcDbCircle
 10
153.0821305483
 20
152.7488609807
 30
0.0
 40
0.4999999999999881
100
AcDbArc
 50
299.0857696533
 51
59.0864868164
  0
ARC
  5
A3
330
1F
100
AcDbEntity
  8
0
  6
Continuous
 62
     7
370
    15
100
AcDbCircle
 10
153.5958560769
 20
153.6067745453
 30
0.0
 40
0.4999648009240204
100
AcDbArc
 50
119.0845399708
 51
239.0864868164
  0
ARC
  5
A4
330
1F
100
AcDbEntity
  8
0
  6
Continuous
 62
     7
370
    15
100
AcDbCircle
 10
153.1097642152
 20
154.4806419866
 30
0.0
 40
0.4999999999999909
100
AcDbArc
 50
299.0857696533
 51
59.0864868164
  0
ARC
  5
A5
330
1F
100
AcDbEntity
  8
0
  6
Continuous
 62
     7
370
    15
100
AcDbCircle
 10
153.6234897439
 20
155.3385555511
 30
0.0
 40
0.4999648009240241
100
AcDbArc
 50
119.0845399708
 51
239.0864868164
  0
ARC
  5
A6
330
1F
100
AcDbEntity
  8
0
  6
Continuous
 62
     7
370
    15
100
AcDbCircle
 10
153.1373978822
 20
156.2124229924
 30
0.0
 40
0.5000000000000198
100
AcDbArc
 50
299.0857696533
 51
59.0864868164
  0
ARC
  5
A7
330
1F
100
AcDbEntity
  8
0
  6
Continuous
 62
     7
370
    15
100
AcDbCircle
 10
153.6511234109
 20
157.070336557
 30
0.0
 40
0.4999648009240533
100
AcDbArc
 50
119.0845399708
 51
239.0864868164
  0
ARC
  5
A8
330
1F
100
AcDbEntity
  8
0
  6
Continuous
 62
     7
370
    15
100
AcDbCircle
 10
153.1650315492
 20
157.9442039983
 30
0.0
 40
0.5000000000000295
100
AcDbArc
 50
299.0857696533
 51
59.0864868164
  0
ARC
  5
A9
330
1F
100
AcDbEntity
  8
0
  6
Continuous
 62
     7
370
    15
100
AcDbCircle
 10
153.6787570779
 20
158.8021175628
 30
0.0
 40
0.4999648009240142
100
AcDbArc
 50
119.0845399708
 51
239.0864868164
  0
ARC
  5
AA
330
1F
100
AcDbEntity
  8
0
  6
Continuous
 62
     7
370
    15
100
AcDbCircle
 10
153.1926652162
 20
159.6759850041
 30
0.0
 40
0.5000000000000295
100
AcDbArc
 50
299.0857696533
 51
59.0864868164
  0
ARC
  5
AB
330
1F
100
AcDbEntity
  8
0
  6
Continuous
 62
     7
370
    15
100
AcDbCircle
 10
153.7063907449
 20
160.5338985687
 30
0.0
 40
0.4999648009240387
100
AcDbArc
 50
119.0845399708
 51
239.0864868164
  0
ARC
  5
AC
330
1F
100
AcDbEntity
  8
0
  6
Continuous
 62
     7
370
    15
100
AcDbCircle
 10
153.2202988832
 20
161.40776601
 30
0.0
 40
0.5000000000000198
100
AcDbArc
 50
299.0857696533
 51
59.0864868164
  0
ARC
  5
AD
330
1F
100
AcDbEntity
  8
0
  6
Continuous
 62
     7
370
    15
100
AcDbCircle
 10
153.7340244119
 20
162.2656795746
 30
0.0
 40
0.4999648009240288
100
AcDbArc
 50
119.0845399708
 51
239.0864868164
  0
ARC
  5
AE
330
1F
100
AcDbEntity
  8
0
  6
Continuous
 62
     7
370
    15
100
AcDbCircle
 10
153.2479325502
 20
163.1395470159
 30
0.0
 40
0.5000000000000019
100
AcDbArc
 50
299.0857696533
 51
59.0864868164
  0
ARC
  5
AF
330
1F
100
AcDbEntity
  8
0
  6
Continuous
 62
     7
370
    15
100
AcDbCircle
 10
153.7616580789
 20
163.9974605804
 30
0.0
 40
0.4999648009240241
100
AcDbArc
 50
119.0845399708
 51
239.0864868164
  0
ARC
  5
B0
330
1F
100
AcDbEntity
  8
0
  6
Continuous
 62
     7
370
    15
100
AcDbCircle
 10
153.2755662172
 20
164.8713280217
 30
0.0
 40
0.5000000000000344
100
AcDbArc
 50
299.0857696533
 51
59.0864868164
  0
ARC
  5
B1
330
1F
100
AcDbEntity
  8
0
  6
Continuous
 62
     7
370
    15
100
AcDbCircle
 10
153.7892917459
 20
165.7292415863
 30
0.0
 40
0.4999648009240241
100
AcDbArc
 50
119.0845399708
 51
239.0864868164
  0
ARC
  5
B2
330
1F
100
AcDbEntity
  8
0
  6
Continuous
 62
     7
370
    15
100
AcDbCircle
 10
153.3031998842
 20
166.6031090276
 30
0.0
 40
0.5000000000000019
100
AcDbArc
 50
299.0857696533
 51
59.0864868164
  0
ARC
  5
B3
330
1F
100
AcDbEntity
  8
0
  6
Continuous
 62
     7
370
    15
100
AcDbCircle
 10
153.8169254129
 20
167.4610225921
 30
0.0
 40
0.4999648009240387
100
AcDbArc
 50
119.0845399708
 51
239.0864868164
  0
ARC
  5
B4
330
1F
100
AcDbEntity
  8
0
  6
Continuous
 62
     7
370
    15
100
AcDbCircle
 10
153.3308335512
 20
168.3348900334
 30
0.0
 40
0.5000000000000268
100
AcDbArc
 50
299.0857696533
 51
59.0864868164
  0
ARC
  5
B5
330
1F
100
AcDbEntity
  8
0
  6
Continuous
 62
     7
370
    15
100
AcDbCircle
 10
153.8445590799
 20
169.192803598
 30
0.0
 40
0.4999648009240142
100
AcDbArc
 50
119.0845399708
 51
239.0864868164
  0
ARC
  5
B6
330
1F
100
AcDbEntity
  8
0
  6
Continuous
 62
     7
370
    15
100
AcDbCircle
 10
153.3584672182
 20
170.0666710393
 30
0.0
 40
0.5000000000000019
100
AcDbArc
 50
299.0857696533
 51
59.0864868164
  0
ARC
  5
B7
330
1F
100
AcDbEntity
  8
0
  6
Continuous
 62
     7
370
    15
100
AcDbCircle
 10
153.8721927469
 20
170.9245846039
 30
0.0
 40
0.499964800924059
100
AcDbArc
 50
119.0845399708
 51
239.0864868164
  0
ARC
  5
B8
330
1F
100
AcDbEntity
  8
0
  6
Continuous
 62
     7
370
    15
100
AcDbCircle
 10
153.3861008852
 20
171.7984520452
 30
0.0
 40
0.5000000000000019
100
AcDbArc
 50
299.0857696533
 51
59.0864868164
  0
ARC
  5
B9
330
1F
100
AcDbEntity
  8
0
  6
Continuous
 62
     7
370
    15
100
AcDbCircle
 10
153.8998264139
 20
172.6563656097
 30
0.0
 40
0.4999648009240142
100
AcDbArc
 50
119.0845399708
 51
239.0864868164
  0
ARC
  5
BA
330
1F
100
AcDbEntity
  8
0
  6
Continuous
 62
     7
370
    15
100
AcDbCircle
 10
153.4137345522
 20
173.530233051
 30
0.0
 40
0.50000000000001
100
AcDbArc
 50
299.0857696533
 51
59.0864868164
  0
ARC
  5
BB
330
1F
100
AcDbEntity
  8
0
  6
Continuous
 62
     7
370
    15
100
AcDbCircle
 10
153.9274600808
 20
174.3881466156
 30
0.0
 40
0.4999648009240241
100
AcDbArc
 50
119.0845399708
 51
239.0864868164
  0
ARC
  5
BC
330
1F
100
AcDbEntity
  8
0
  6
Continuous
 62
     7
370
    15
100
AcDbCircle
 10
153.4413682192
 20
175.2620140569
 30
0.0
 40
0.5000000000000158
100
AcDbArc
 50
299.0857696533
 51
59.0864868164
  0
ARC
  5
BD
330
1F
100
AcDbEntity
  8
0
  6
Continuous
 62
     7
370
    15
100
AcDbCircle
 10
153.9550937478
 20
176.1199276214
 30
0.0
 40
0.4999648009240452
100
AcDbArc
 50
119.0845399708
 51
239.0864868164
  0
ARC
  5
BE
330
1F
100
AcDbEntity
  8
0
  6
Continuous
 62
     7
370
    15
100
AcDbCircle
 10
153.4690018861
 20
176.9937950627
 30
0.0
 40
0.5000000000000019
100
AcDbArc
 50
299.0857696533
 51
59.0864868164
  0
ARC
  5
BF
330
1F
100
AcDbEntity
  8
0
  6
Continuous
 62
     7
370
    15
100
AcDbCircle
 10
153.9827274148
 20
177.8517086273
 30
0.0
 40
0.4999648009240387
100
AcDbArc
 50
119.0845399708
 51
239.0864868164
  0
ARC
  5
C0
330
1F
100
AcDbEntity
  8
0
  6
Continuous
 62
     7
370
    15
100
AcDbCircle
 10
153.4966355531
 20
178.7255760686
 30
0.0
 40
0.5000000000000268
100
AcDbArc
 50
299.0857696533
 51
59.0864868164
  0
ARC
  5
C1
330
1F
100
AcDbEntity
  8
0
  6
Continuous
 62
     7
370
    15
100
AcDbCircle
 10
154.0103610818
 20
179.5834896332
 30
0.0
 40
0.4999648009240232
100
AcDbArc
 50
119.0845399708
 51
239.0864868164
  0
ARC
  5
C2
330
1F
100
AcDbEntity
  8
0
  6
Continuous
 62
     7
370
    15
100
AcDbCircle
 10
153.5242692201
 20
180.4573570745
 30
0.0
 40
0.4999999999999881
100
AcDbArc
 50
299.0857696533
 51
59.0864868164
  0
ARC
  5
C3
330
1F
100
AcDbEntity
  8
0
  6
Continuous
 62
     7
370
    15
100
AcDbCircle
 10
154.0379947488
 20
181.315270639
 30
0.0
 40
0.499964800924059
100
AcDbArc
 50
119.0845399708
 51
239.0864868164
  0
ARC
  5
C4
330
1F
100
AcDbEntity
  8
0
  6
Continuous
 62
     7
370
    15
100
AcDbCircle
 10
153.5519212996
 20
182.1891270544
 30
0.0
 40
0.4999814140410017
100
AcDbArc
 50
299.0845399708
 51
359.0866789013
  0
ARC
  5
C5
330
1F
100
AcDbEntity
  8
0
  6
Continuous
 62
     7
370
    15
100
AcDbCircle
 10
153.5519028871
 20
182.1891380803
 30
0.0
 40
0.4999999999999679
100
AcDbArc
 50
359.0854492187
 51
59.0864868164
  0
ARC
  5
C6
330
1F
100
AcDbEntity
  8
0
  6
Continuous
 62
     7
370
    15
100
AcDbCircle
 10
154.0656284158
 20
183.0470516449
 30
0.0
 40
0.4999648009240142
100
AcDbArc
 50
119.0845399708
 51
239.0864868164
  0
ARC
  5
C7
330
1F
100
AcDbEntity
  8
0
  6
Continuous
 62
     7
370
    15
100
AcDbCircle
 10
153.5795549665
 20
183.9209080603
 30
0.0
 40
0.4999814140410582
100
AcDbArc
 50
299.0845399708
 51
359.0866789013
  0
ARC
  5
C8
330
1F
100
AcDbEntity
  8
0
  6
Continuous
 62
     7
370
    15
100
AcDbCircle
 10
153.5795365541
 20
183.9209190862
 30
0.0
 40
0.4999999999999958
100
AcDbArc
 50
359.0854492188
 51
59.0864868164
  0
ARC
  5
C9
330
1F
100
AcDbEntity
  8
0
  6
Continuous
 62
     7
370
    15
100
AcDbCircle
 10
154.0932620828
 20
184.7788326507
 30
0.0
 40
0.4999648009240241
100
AcDbArc
 50
119.0845399708
 51
239.0864868164
  0
ARC
  5
CA
330
1F
100
AcDbEntity
  8
0
  6
Continuous
 62
     7
370
    15
100
AcDbCircle
 10
153.6072188311
 20
185.652670985
 30
0.0
 40
0.4999509341244301
100
AcDbArc
 50
299.0825229028
 51
359.0921749732
  0
LINE
  5
CB
330
1F
100
AcDbEntity
  8
0
  6
Continuous
 62
     7
370
    15
100
AcDbLine
 10
154.1150345771
 20
186.1446612136
 30
0.0
 11
154.1071071594
 21
185.6447496073
 31
0.0
  0
ARC
  5
CC
330
1F
100
AcDbEntity
  8
0
  6
Continuous
 62
     7
370
    15
100
AcDbCircle
 10
154.8769913881
 20
186.1324944076
 30
0.0
 40
0.7620599825124984
100
AcDbArc
 50
0.9146167173
 51
179.0853832827
  0
LINE
  5
CD
330
1F
100
AcDbEntity
  8
0
  6
Continuous
 62
     7
370
    15
100
AcDbLine
 10
155.6607618301
 20
184.7788207786
 30
0.0
 11
155.6389614313
 21
186.1446612136
 31
0.0
  0
ARC
  5
CE
330
1F
100
AcDbEntity
  8
0
  6
Continuous
 62
     7
370
    15
100
AcDbCircle
 10
156.1607690701
 20
184.786803987
 30
0.0
 40
0.5000736947332088
100
AcDbArc
 50
180.9146167173
 51
240.8961000515
  0
ARC
  5
CF
330
1F
100
AcDbEntity
  8
0
  6
Continuous
 62
     7
370
    15
100
AcDbCircle
 10
155.6743045972
 20
183.9129398095
 30
0.0
 40
0.5000694370359798
100
AcDbArc
 50
300.9327835885
 51
60.8961000515
  0
ARC
  5
D0
330
1F
100
AcDbEntity
  8
0
  6
Continuous
 62
     7
370
    15
100
AcDbCircle
 10
156.188525631
 20
183.0548536687
 30
0.0
 40
0.500298043717836
100
AcDbArc
 50
120.9327835885
 51
180.8948073539
  0
ARC
  5
D1
330
1F
100
AcDbEntity
  8
0
  6
Continuous
 62
     7
370
    15
100
AcDbCircle
 10
156.1882249086
 20
183.0550209539
 30
0.0
 40
0.5000000000000158
100
AcDbArc
 50
180.9145126343
 51
240.9142303467
  0
ARC
  5
D2
330
1F
100
AcDbEntity
  8
0
  6
Continuous
 62
     7
370
    15
100
AcDbCircle
 10
155.7021206582
 20
182.1811533147
 30
0.0
 40
0.4999709960584903
100
AcDbArc
 50
300.9151777741
 51
60.9142303467
  0
ARC
  5
D3
330
1F
100
AcDbEntity
  8
0
  6
Continuous
 62
     7
370
    15
100
AcDbCircle
 10
156.2158905985
 20
181.3232221344
 30
0.0
 40
0.5000317348502127
100
AcDbArc
 50
120.9151777741
 51
180.9124131683
  0
ARC
  5
D4
330
1F
100
AcDbEntity
  8
0
  6
Continuous
 62
     7
370
    15
100
AcDbCircle
 10
156.2158585756
 20
181.323239948
 30
0.0
 40
0.5000000000000544
100
AcDbArc
 50
180.9145126343
 51
240.9142303467
  0
ARC
  5
D5
330
1F
100
AcDbEntity
  8
0
  6
Continuous
 62
     7
370
    15
100
AcDbCircle
 10
155.7297543252
 20
180.4493723089
 30
0.0
 40
0.4999709960585235
100
AcDbArc
 50
300.9151777741
 51
60.9142303467
  0
ARC
  5
D6
330
1F
100
AcDbEntity
  8
0
  6
Continuous
 62
     7
370
    15
100
AcDbCircle
 10
156.2434922426
 20
179.5914589421
 30
0.0
 40
0.5000000000000491
100
AcDbArc
 50
120.9130783081
 51
240.9142303467
  0
ARC
  5
D7
330
1F
100
AcDbEntity
  8
0
  6
Continuous
 62
     7
370
    15
100
AcDbCircle
 10
155.7573879922
 20
178.717591303
 30
0.0
 40
0.4999709960585566
100
AcDbArc
 50
300.9151777741
 51
60.9142303467
  0
ARC
  5
D8
330
1F
100
AcDbEntity
  8
0
  6
Continuous
 62
     7
370
    15
100
AcDbCircle
 10
156.2711259096
 20
177.8596779363
 30
0.0
 40
0.5000000000000544
100
AcDbArc
 50
120.9130783081
 51
240.9142303467
  0
ARC
  5
D9
330
1F
100
AcDbEntity
  8
0
  6
Continuous
 62
     7
370
    15
100
AcDbCircle
 10
155.7850216592
 20
176.9858102972
 30
0.0
 40
0.4999709960585317
100
AcDbArc
 50
300.9151777741
 51
60.9142303467
  0
ARC
  5
DA
330
1F
100
AcDbEntity
  8
0
  6
Continuous
 62
     7
370
    15
100
AcDbCircle
 10
156.2987595766
 20
176.1278969304
 30
0.0
 40
0.5000000000000295
100
AcDbArc
 50
120.9130783081
 51
240.9142303467
  0
ARC
  5
DB
330
1F
100
AcDbEntity
  8
0
  6
Continuous
 62
     7
370
    15
100
AcDbCircle
 10
155.8126553262
 20
175.2540292913
 30
0.0
 40
0.4999709960585179
100
AcDbArc
 50
300.9151777741
 51
60.9142303467
  0
ARC
  5
DC
330
1F
100
AcDbEntity
  8
0
  6
Continuous
 62
     7
370
    15
100
AcDbCircle
 10
156.3263932436
 20
174.3961159246
 30
0.0
 40
0.5000000000000491
100
AcDbArc
 50
120.9130783081
 51
240.9142303467
  0
ARC
  5
DD
330
1F
100
AcDbEntity
  8
0
  6
Continuous
 62
     7
370
    15
100
AcDbCircle
 10
155.8402889932
 20
173.5222482854
 30
0.0
 40
0.4999709960585151
100
AcDbArc
 50
300.9151777741
 51
60.9142303467
  0
ARC
  5
DE
330
1F
100
AcDbEntity
  8
0
  6
Continuous
 62
     7
370
    15
100
AcDbCircle
 10
156.3540269106
 20
172.6643349187
 30
0.0
 40
0.5000000000000158
100
AcDbArc
 50
120.9130783081
 51
240.9142303467
  0
ARC
  5
DF
330
1F
100
AcDbEntity
  8
0
  6
Continuous
 62
     7
370
    15
100
AcDbCircle
 10
155.8679226601
 20
171.7904672796
 30
0.0
 40
0.4999709960584903
100
AcDbArc
 50
300.9151777741
 51
60.9142303467
  0
ARC
  5
E0
330
1F
100
AcDbEntity
  8
0
  6
Continuous
 62
     7
370
    15
100
AcDbCircle
 10
156.3816605775
 20
170.9325539128
 30
0.0
 40
0.5000000000000544
100
AcDbArc
 50
120.9130783081
 51
240.9142303467
  0
ARC
  5
E1
330
1F
100
AcDbEntity
  8
0
  6
Continuous
 62
     7
370
    15
100
AcDbCircle
 10
155.8955563271
 20
170.0586862737
 30
0.0
 40
0.4999709960585089
100
AcDbArc
 50
300.9151777741
 51
60.9142303467
  0
ARC
  5
E2
330
1F
100
AcDbEntity
  8
0
  6
Continuous
 62
     7
370
    15
100
AcDbCircle
 10
156.4092942445
 20
169.200772907
 30
0.0
 40
0.5000000000000538
100
AcDbArc
 50
120.9130783081
 51
240.9142303467
  0
ARC
  5
E3
330
1F
100
AcDbEntity
  8
0
  6
Continuous
 62
     7
370
    15
100
AcDbCircle
 10
155.9231899941
 20
168.3269052679
 30
0.0
 40
0.4999709960585566
100
AcDbArc
 50
300.9151777741
 51
60.9142303467
  0
ARC
  5
E4
330
1F
100
AcDbEntity
  8
0
  6
Continuous
 62
     7
370
    15
100
AcDbCircle
 10
156.4369279115
 20
167.4689919011
 30
0.0
 40
0.5000000000000158
100
AcDbArc
 50
120.9130783081
 51
240.9142303467
  0
ARC
  5
E5
330
1F
100
AcDbEntity
  8
0
  6
Continuous
 62
     7
370
    15
100
AcDbCircle
 10
155.9508236611
 20
166.595124262
 30
0.0
 40
0.4999709960585317
100
AcDbArc
 50
300.9151777741
 51
60.9142303467
  0
ARC
  5
E6
330
1F
100
AcDbEntity
  8
0
  6
Continuous
 62
     7
370
    15
100
AcDbCircle
 10
156.4645615785
 20
165.7372108953
 30
0.0
 40
0.5000000000000544
100
AcDbArc
 50
120.9130783081
 51
240.9142303467
  0
ARC
  5
E7
330
1F
100
AcDbEntity
  8
0
  6
Continuous
 62
     7
370
    15
100
AcDbCircle
 10
155.9784573281
 20
164.8633432561
 30
0.0
 40
0.4999709960585187
100
AcDbArc
 50
300.9151777741
 51
60.9142303467
  0
ARC
  5
E8
330
1F
100
AcDbEntity
  8
0
  6
Continuous
 62
     7
370
    15
100
AcDbCircle
 10
156.4921952455
 20
164.0054298894
 30
0.0
 40
0.5000000000000246
100
AcDbArc
 50
120.9130783081
 51
240.9142303467
  0
ARC
  5
E9
330
1F
100
AcDbEntity
  8
0
  6
Continuous
 62
     7
370
    15
100
AcDbCircle
 10
156.0060909951
 20
163.1315622503
 30
0.0
 40
0.4999709960585151
100
AcDbArc
 50
300.9151777741
 51
60.9142303467
  0
ARC
  5
EA
330
1F
100
AcDbEntity
  8
0
  6
Continuous
 62
     7
370
    15
100
AcDbCircle
 10
156.5198289125
 20
162.2736488835
 30
0.0
 40
0.5000000000000158
100
AcDbArc
 50
120.9130783081
 51
240.9142303467
  0
ARC
  5
EB
330
1F
100
AcDbEntity
  8
0
  6
Continuous
 62
     7
370
    15
100
AcDbCircle
 10
156.0337246621
 20
161.3997812444
 30
0.0
 40
0.4999709960584903
100
AcDbArc
 50
300.9151777741
 51
60.9142303467
  0
ARC
  5
EC
330
1F
100
AcDbEntity
  8
0
  6
Continuous
 62
     7
370
    15
100
AcDbCircle
 10
156.5474625795
 20
160.5418678777
 30
0.0
 40
0.5000000000000544
100
AcDbArc
 50
120.9130783081
 51
240.9142303467
  0
ARC
  5
ED
330
1F
100
AcDbEntity
  8
0
  6
Continuous
 62
     7
370
    15
100
AcDbCircle
 10
156.0613583291
 20
159.6680002386
 30
0.0
 40
0.4999709960585089
100
AcDbArc
 50
300.9151777741
 51
60.9142303467
  0
ARC
  5
EE
330
1F
100
AcDbEntity
  8
0
  6
Continuous
 62
     7
370
    15
100
AcDbCircle
 10
156.5750962465
 20
158.8100868718
 30
0.0
 40
0.5000000000000637
100
AcDbArc
 50
120.9130783081
 51
240.9142303467
  0
ARC
  5
EF
330
1F
100
AcDbEntity
  8
0
  6
Continuous
 62
     7
370
    15
100
AcDbCircle
 10
156.0889919961
 20
157.9362192327
 30
0.0
 40
0.4999709960585566
100
AcDbArc
 50
300.9151777741
 51
60.9142303467
  0
ARC
  5
F0
330
1F
100
AcDbEntity
  8
0
  6
Continuous
 62
     7
370
    15
100
AcDbCircle
 10
156.6027299135
 20
157.078305866
 30
0.0
 40
0.5000000000000544
100
AcDbArc
 50
120.9130783081
 51
240.9142303467
  0
ARC
  5
F1
330
1F
100
AcDbEntity
  8
0
  6
Continuous
 62
     7
370
    15
100
AcDbCircle
 10
156.1166256631
 20
156.2044382268
 30
0.0
 40
0.4999709960585317
100
AcDbArc
 50
300.9151777741
 51
60.9142303467
  0
ARC
  5
F2
330
1F
100
AcDbEntity
  8
0
  6
Continuous
 62
     7
370
    15
100
AcDbCircle
 10
156.6303635805
 20
155.3465248601
 30
0.0
 40
0.5000000000000544
100
AcDbArc
 50
120.9130783081
 51
240.9142303467
  0
ARC
  5
F3
330
1F
100
AcDbEntity
  8
0
  6
Continuous
 62
     7
370
    15
100
AcDbCircle
 10
156.1442593301
 20
154.472657221
 30
0.0
 40
0.4999709960584943
100
AcDbArc
 50
300.9151777741
 51
60.9142303467
  0
ARC
  5
F4
330
1F
100
AcDbEntity
  8
0
  6
Continuous
 62
     7
370
    15
100
AcDbCircle
 10
156.6579972475
 20
153.6147438542
 30
0.0
 40
0.5000000000000491
100
AcDbArc
 50
120.9130783081
 51
240.9142303467
  0
ARC
  5
F5
330
1F
100
AcDbEntity
  8
0
  6
Continuous
 62
     7
370
    15
100
AcDbCircle
 10
156.1718929971
 20
152.7408762151
 30
0.0
 40
0.4999709960585151
100
AcDbArc
 50
300.9151777741
 51
60.9142303467
  0
ARC
  5
F6
330
1F
100
AcDbEntity
  8
0
  6
Continuous
 62
     7
370
    15
100
AcDbCircle
 10
156.6856309145
 20
151.8829628484
 30
0.0
 40
0.5000000000000158
100
AcDbArc
 50
120.9130783081
 51
240.9142303467
  0
ARC
  5
F7
330
1F
100
AcDbEntity
  8
0
  6
Continuous
 62
     7
370
    15
100
AcDbCircle
 10
156.199526664
 20
151.0090952093
 30
0.0
 40
0.4999709960584903
100
AcDbArc
 50
300.9151777741
 51
60.9142303467
  0
ARC
  5
F8
330
1F
100
AcDbEntity
  8
0
  6
Continuous
 62
     7
370
    15
100
AcDbCircle
 10
156.7132645815
 20
150.1511818425
 30
0.0
 40
0.5000000000000158
100
AcDbArc
 50
120.9130783081
 51
240.9142303467
  0
ARC
  5
F9
330
1F
100
AcDbEntity
  8
0
  6
Continuous
 62
     7
370
    15
100
AcDbCircle
 10
156.227160331
 20
149.2773142034
 30
0.0
 40
0.4999709960585317
100
AcDbArc
 50
300.9151777741
 51
60.9142303467
  0
ARC
  5
FA
330
1F
100
AcDbEntity
  8
0
  6
Continuous
 62
     7
370
    15
100
AcDbCircle
 10
156.7408982484
 20
148.4194008367
 30
0.0
 40
0.5000000000000393
100
AcDbArc
 50
120.9130783081
 51
240.9142303467
  0
ARC
  5
FB
330
1F
100
AcDbEntity
  8
0
  6
Continuous
 62
     7
370
    15
100
AcDbCircle
 10
156.254793998
 20
147.5455331976
 30
0.0
 40
0.4999709960585566
100
AcDbArc
 50
300.9151777741
 51
60.9142303467
  0
ARC
  5
FC
330
1F
100
AcDbEntity
  8
0
  6
Continuous
 62
     7
370
    15
100
AcDbCircle
 10
156.7685319154
 20
146.6876198308
 30
0.0
 40
0.5000000000000158
100
AcDbArc
 50
120.9130783081
 51
240.9142303467
  0
ARC
  5
FD
330
1F
100
AcDbEntity
  8
0
  6
Continuous
 62
     7
370
    15
100
AcDbCircle
 10
156.282427665
 20
145.8137521917
 30
0.0
 40
0.4999709960585317
100
AcDbArc
 50
300.9151777741
 51
60.9142303467
  0
ARC
  5
FE
330
1F
100
AcDbEntity
  8
0
  6
Continuous
 62
     7
370
    15
100
AcDbCircle
 10
156.7961655824
 20
144.9558388249
 30
0.0
 40
0.5000000000000544
100
AcDbArc
 50
120.9130783081
 51
240.9142303467
  0
ARC
  5
FF
330
1F
100
AcDbEntity
  8
0
  6
Continuous
 62
     7
370
    15
100
AcDbCircle
 10
156.310061332
 20
144.0819711858
 30
0.0
 40
0.4999709960585187
100
AcDbArc
 50
300.9151777741
 51
60.9142303467
  0
ARC
  5
100
330
1F
100
AcDbEntity
  8
0
  6
Continuous
 62
     7
370
    15
100
AcDbCircle
 10
156.823684235
 20
143.2241217959
 30
0.0
 40
0.4998860283907134
100
AcDbArc
 50
120.9055354238
 51
180.9244206309
  0
LINE
  5
101
330
1F
100
AcDbEntity
  8
0
  6
Continuous
 62
     7
370
    15
100
AcDbLine
 10
156.3615783422
 20
140.87856939
 30
0.0
 11
156.3238635032
 21
143.2160549418
 31
0.0
  0
ARC
  5
102
330
1F
100
AcDbEntity
  8
0
  6
Continuous
 62
     7
370
    15
100
AcDbCircle
 10
157.3614579408
 20
140.8945576654
 30
0.0
 40
1.000005766750917
100
AcDbArc
 50
180.9161559311
 51
270.0
  0
LINE
  5
103
330
1F
100
AcDbEntity
  8
0
  6
Continuous
 62
     7
370
    15
100
AcDbLine
 10
165.3925313919
 20
139.8945488588
 30
0.0
 11
157.3614611595
 21
139.8945488588
 31
0.0
  0
ARC
  5
104
330
1F
100
AcDbEntity
  8
0
  6
Continuous
 62
     7
370
    15
100
AcDbCircle
 10
165.3925248354
 20
140.8945579135
 30
0.0
 40
1.000006014814116
100
AcDbArc
 50
270.0
 51
359.0829557107
  0
LINE
  5
105
330
1F
100
AcDbEntity
  8
0
  6
Continuous
 62
     7
370
    15
100
AcDbLine
 10
166.4162709682
 20
142.3501782672
 30
0.0
 11
166.392399308
 21
140.8785544889
 31
0.0
  0
ARC
  5
106
330
1F
100
AcDbEntity
  8
0
  6
Continuous
 62
     7
370
    15
100
AcDbCircle
 10
165.9163285463
 20
142.3581749455
 30
0.0
 40
0.5000000000000198
100
AcDbArc
 50
359.083984375
 51
59.0864868164
  0
ARC
  5
107
330
1F
100
AcDbEntity
  8
0
  6
Continuous
 62
     7
370
    15
100
AcDbCircle
 10
166.430054075
 20
143.2160885101
 30
0.0
 40
0.4999648009240142
100
AcDbArc
 50
119.0845399708
 51
239.0864868164
  0
ARC
  5
108
330
1F
100
AcDbEntity
  8
0
  6
Continuous
 62
     7
370
    15
100
AcDbCircle
 10
165.9439622133
 20
144.0899559514
 30
0.0
 40
0.5000000000000295
100
AcDbArc
 50
299.0857696533
 51
59.0864868164
  0
ARC
  5
109
330
1F
100
AcDbEntity
  8
0
  6
Continuous
 62
     7
370
    15
100
AcDbCircle
 10
166.457687742
 20
144.947869516
 30
0.0
 40
0.4999648009240387
100
AcDbArc
 50
119.0845399708
 51
239.0864868164
  0
ARC
  5
10A
330
1F
100
AcDbEntity
  8
0
  6
Continuous
 62
     7
370
    15
100
AcDbCircle
 10
165.9715958803
 20
145.8217369573
 30
0.0
 40
0.5000000000000198
100
AcDbArc
 50
299.0857696533
 51
59.0864868164
  0
ARC
  5
10B
330
1F
100
AcDbEntity
  8
0
  6
Continuous
 62
     7
370
    15
100
AcDbCircle
 10
166.485321409
 20
146.6796505218
 30
0.0
 40
0.4999648009240142
100
AcDbArc
 50
119.0845399708
 51
239.0864868164
  0
ARC
  5
10C
330
1F
100
AcDbEntity
  8
0
  6
Continuous
 62
     7
370
    15
100
AcDbCircle
 10
165.9992295473
 20
147.5535179631
 30
0.0
 40
0.4999999999999881
100
AcDbArc
 50
299.0857696533
 51
59.0864868164
  0
ARC
  5
10D
330
1F
100
AcDbEntity
  8
0
  6
Continuous
 62
     7
370
    15
100
AcDbCircle
 10
166.512955076
 20
148.4114315277
 30
0.0
 40
0.4999648009240204
100
AcDbArc
 50
119.0845399708
 51
239.0864868164
  0
ARC
  5
10E
330
1F
100
AcDbEntity
  8
0
  6
Continuous
 62
     7
370
    15
100
AcDbCircle
 10
166.0268632143
 20
149.285298969
 30
0.0
 40
0.4999999999999954
100
AcDbArc
 50
299.0857696533
 51
59.0864868164
  0
ARC
  5
10F
330
1F
100
AcDbEntity
  8
0
  6
Continuous
 62
     7
370
    15
100
AcDbCircle
 10
166.540588743
 20
150.1432125335
 30
0.0
 40
0.499964800924048
100
AcDbArc
 50
119.0845399708
 51
239.0864868164
  0
ARC
  5
110
330
1F
100
AcDbEntity
  8
0
  6
Continuous
 62
     7
370
    15
100
AcDbCircle
 10
166.0544968813
 20
151.0170799748
 30
0.0
 40
0.5000000000000198
100
AcDbArc
 50
299.0857696533
 51
59.0864868164
  0
ARC
  5
111
330
1F
100
AcDbEntity
  8
0
  6
Continuous
 62
     7
370
    15
100
AcDbCircle
 10
166.56822241
 20
151.8749935394
 30
0.0
 40
0.4999648009240533
100
AcDbArc
 50
119.0845399708
 51
239.0864868164
  0
ARC
  5
112
330
1F
100
AcDbEntity
  8
0
  6
Continuous
 62
     7
370
    15
100
AcDbCircle
 10
166.0821305483
 20
152.7488609807
 30
0.0
 40
0.5000000000000295
100
AcDbArc
 50
299.0857696533
 51
59.0864868164
  0
ARC
  5
113
330
1F
100
AcDbEntity
  8
0
  6
Continuous
 62
     7
370
    15
100
AcDbCircle
 10
166.5958560769
 20
153.6067745453
 30
0.0
 40
0.4999648009240142
100
AcDbArc
 50
119.0845399708
 51
239.0864868164
  0
ARC
  5
114
330
1F
100
AcDbEntity
  8
0
  6
Continuous
 62
     7
370
    15
100
AcDbCircle
 10
166.1097642152
 20
154.4806419866
 30
0.0
 40
0.5000000000000295
100
AcDbArc
 50
299.0857696533
 51
59.0864868164
  0
ARC
  5
115
330
1F
100
AcDbEntity
  8
0
  6
Continuous
 62
     7
370
    15
100
AcDbCircle
 10
166.6234897439
 20
155.3385555511
 30
0.0
 40
0.4999648009240387
100
AcDbArc
 50
119.0845399708
 51
239.0864868164
  0
ARC
  5
116
330
1F
100
AcDbEntity
  8
0
  6
Continuous
 62
     7
370
    15
100
AcDbCircle
 10
166.1373978822
 20
156.2124229924
 30
0.0
 40
0.5000000000000242
100
AcDbArc
 50
299.0857696533
 51
359.0854492188
  0
ARC
  5
117
330
1F
100
AcDbEntity
  8
0
  6
Continuous
 62
     7
370
    15
100
AcDbCircle
 10
166.1374639423
 20
156.2124219379
 30
0.0
 40
0.4999339314841097
100
AcDbArc
 50
359.0854492188
 51
59.0916791468
  0
ARC
  5
118
330
1F
100
AcDbEntity
  8
0
  6
Continuous
 62
     7
370
    15
100
AcDbCircle
 10
166.6510735395
 20
157.0703182771
 30
0.0
 40
0.4999565360509653
100
AcDbArc
 50
119.0785269788
 51
239.0916791468
  0
ARC
  5
119
330
1F
100
AcDbEntity
  8
0
  6
Continuous
 62
     7
370
    15
100
AcDbCircle
 10
166.1650315492
 20
157.9442039983
 30
0.0
 40
0.5000000000000019
100
AcDbArc
 50
299.0857696533
 51
59.0864868164
  0
ARC
  5
11A
330
1F
100
AcDbEntity
  8
0
  6
Continuous
 62
     7
370
    15
100
AcDbCircle
 10
166.6787570779
 20
158.8021175628
 30
0.0
 40
0.4999648009239996
100
AcDbArc
 50
119.0845399708
 51
239.0864868164
  0
ARC
  5
11B
330
1F
100
AcDbEntity
  8
0
  6
Continuous
 62
     7
370
    15
100
AcDbCircle
 10
166.1926652162
 20
159.6759850041
 30
0.0
 40
0.5000000000000158
100
AcDbArc
 50
299.0857696533
 51
59.0864868164
  0
ARC
  5
11C
330
1F
100
AcDbEntity
  8
0
  6
Continuous
 62
     7
370
    15
100
AcDbCircle
 10
166.7063907449
 20
160.5338985687
 30
0.0
 40
0.499964800924048
100
AcDbArc
 50
119.0845399708
 51
239.0864868164
  0
ARC
  5
11D
330
1F
100
AcDbEntity
  8
0
  6
Continuous
 62
     7
370
    15
100
AcDbCircle
 10
166.2202988832
 20
161.40776601
 30
0.0
 40
0.5000000000000198
100
AcDbArc
 50
299.0857696533
 51
59.0864868164
  0
ARC
  5
11E
330
1F
100
AcDbEntity
  8
0
  6
Continuous
 62
     7
370
    15
100
AcDbCircle
 10
166.7340244119
 20
162.2656795746
 30
0.0
 40
0.4999648009240533
100
AcDbArc
 50
119.0845399708
 51
239.0864868164
  0
ARC
  5
11F
330
1F
100
AcDbEntity
  8
0
  6
Continuous
 62
     7
370
    15
100
AcDbCircle
 10
166.2479325502
 20
163.1395470159
 30
0.0
 40
0.5000000000000295
100
AcDbArc
 50
299.0857696533
 51
59.0864868164
  0
ARC
  5
120
330
1F
100
AcDbEntity
  8
0
  6
Continuous
 62
     7
370
    15
100
AcDbCircle
 10
166.7616580789
 20
163.9974605804
 30
0.0
 40
0.4999648009240387
100
AcDbArc
 50
119.0845399708
 51
239.0864868164
  0
ARC
  5
121
330
1F
100
AcDbEntity
  8
0
  6
Continuous
 62
     7
370
    15
100
AcDbCircle
 10
166.2755662172
 20
164.8713280217
 30
0.0
 40
0.5000000000000295
100
AcDbArc
 50
299.0857696533
 51
59.0864868164
  0
ARC
  5
122
330
1F
100
AcDbEntity
  8
0
  6
Continuous
 62
     7
370
    15
100
AcDbCircle
 10
166.7892917459
 20
165.7292415863
 30
0.0
 40
0.4999648009240387
100
AcDbArc
 50
119.0845399708
 51
239.0864868164
  0
ARC
  5
123
330
1F
100
AcDbEntity
  8
0
  6
Continuous
 62
     7
370
    15
100
AcDbCircle
 10
166.3031998842
 20
166.6031090276
 30
0.0
 40
0.5000000000000198
100
AcDbArc
 50
299.0857696533
 51
59.0864868164
  0
ARC
  5
124
330
1F
100
AcDbEntity
  8
0
  6
Continuous
 62
     7
370
    15
100
AcDbCircle
 10
166.8169254129
 20
167.4610225921
 30
0.0
 40
0.4999648009239996
100
AcDbArc
 50
119.0845399708
 51
239.0864868164
  0
ARC
  5
125
330
1F
100
AcDbEntity
  8
0
  6
Continuous
 62
     7
370
    15
100
AcDbCircle
 10
166.3308335512
 20
168.3348900334
 30
0.0
 40
0.4999999999999881
100
AcDbArc
 50
299.0857696533
 51
59.0864868164
  0
ARC
  5
126
330
1F
100
AcDbEntity
  8
0
  6
Continuous
 62
     7
370
    15
100
AcDbCircle
 10
166.8445590799
 20
169.192803598
 30
0.0
 40
0.4999648009240241
100
AcDbArc
 50
119.0845399708
 51
239.0864868164
  0
ARC
  5
127
330
1F
100
AcDbEntity
  8
0
  6
Continuous
 62
     7
370
    15
100
AcDbCircle
 10
166.3584672182
 20
170.0666710393
 30
0.0
 40
0.5000000000000295
100
AcDbArc
 50
299.0857696533
 51
59.0864868164
  0
ARC
  5
128
330
1F
100
AcDbEntity
  8
0
  6
Continuous
 62
     7
370
    15
100
AcDbCircle
 10
166.8721927469
 20
170.9245846039
 30
0.0
 40
0.4999648009240729
100
AcDbArc
 50
119.0845399708
 51
239.0864868164
  0
ARC
  5
129
330
1F
100
AcDbEntity
  8
0
  6
Continuous
 62
     7
370
    15
100
AcDbCircle
 10
166.3861192976
 20
171.7984410193
 30
0.0
 40
0.4999814140411736
100
AcDbArc
 50
299.0845399708
 51
359.0866789013
  0
ARC
  5
12A
330
1F
100
AcDbEntity
  8
0
  6
Continuous
 62
     7
370
    15
100
AcDbCircle
 10
166.3860821293
 20
171.7984416118
 30
0.0
 40
0.5000185870623644
100
AcDbArc
 50
359.0866789013
 51
59.0852571339
  0
ARC
  5
12B
330
1F
100
AcDbEntity
  8
0
  6
Continuous
 62
     7
370
    15
100
AcDbCircle
 10
166.8998264139
 20
172.6563656097
 30
0.0
 40
0.4999648009240387
100
AcDbArc
 50
119.0845399708
 51
239.0864868164
  0
ARC
  5
12C
330
1F
100
AcDbEntity
  8
0
  6
Continuous
 62
     7
370
    15
100
AcDbCircle
 10
166.4137529646
 20
173.5302220251
 30
0.0
 40
0.4999814140411493
100
AcDbArc
 50
299.0845399708
 51
359.0866789013
  0
ARC
  5
12D
330
1F
100
AcDbEntity
  8
0
  6
Continuous
 62
     7
370
    15
100
AcDbCircle
 10
166.4137157963
 20
173.5302226177
 30
0.0
 40
0.5000185870623368
100
AcDbArc
 50
359.0866789013
 51
59.0852571339
  0
ARC
  5
12E
330
1F
100
AcDbEntity
  8
0
  6
Continuous
 62
     7
370
    15
100
AcDbCircle
 10
166.9274600808
 20
174.3881466156
 30
0.0
 40
0.4999648009240387
100
AcDbArc
 50
119.0845399708
 51
239.0864868164
  0
ARC
  5
12F
330
1F
100
AcDbEntity
  8
0
  6
Continuous
 62
     7
370
    15
100
AcDbCircle
 10
166.4413866316
 20
175.262003031
 30
0.0
 40
0.4999814140410334
100
AcDbArc
 50
299.0845399708
 51
359.0866789013
  0
ARC
  5
130
330
1F
100
AcDbEntity
  8
0
  6
Continuous
 62
     7
370
    15
100
AcDbCircle
 10
166.4413494633
 20
175.2620036235
 30
0.0
 40
0.5000185870624492
100
AcDbArc
 50
359.0866789013
 51
59.0852571339
  0
ARC
  5
131
330
1F
100
AcDbEntity
  8
0
  6
Continuous
 62
     7
370
    15
100
AcDbCircle
 10
166.9550937478
 20
176.1199276214
 30
0.0
 40
0.499964800924059
100
AcDbArc
 50
119.0845399708
 51
239.0864868164
  0
ARC
  5
132
330
1F
100
AcDbEntity
  8
0
  6
Continuous
 62
     7
370
    15
100
AcDbCircle
 10
166.4690202986
 20
176.9937840368
 30
0.0
 40
0.4999814140410306
100
AcDbArc
 50
299.0845399708
 51
359.0866789013
  0
ARC
  5
133
330
1F
100
AcDbEntity
  8
0
  6
Continuous
 62
     7
370
    15
100
AcDbCircle
 10
166.4689831303
 20
176.9937846294
 30
0.0
 40
0.5000185870623998
100
AcDbArc
 50
359.0866789013
 51
59.0852571339
  0
ARC
  5
134
330
1F
100
AcDbEntity
  8
0
  6
Continuous
 62
     7
370
    15
100
AcDbCircle
 10
166.9827274148
 20
177.8517086273
 30
0.0
 40
0.4999648009239996
100
AcDbArc
 50
119.0845399708
 51
239.0864868164
  0
ARC
  5
135
330
1F
100
AcDbEntity
  8
0
  6
Continuous
 62
     7
370
    15
100
AcDbCircle
 10
166.4966539656
 20
178.7255650427
 30
0.0
 40
0.4999814140410582
100
AcDbArc
 50
299.0845399708
 51
359.0866789013
  0
ARC
  5
136
330
1F
100
AcDbEntity
  8
0
  6
Continuous
 62
     7
370
    15
100
AcDbCircle
 10
166.4966167973
 20
178.7255656352
 30
0.0
 40
0.5000185870623644
100
AcDbArc
 50
359.0866789013
 51
59.0852571339
  0
ARC
  5
137
330
1F
100
AcDbEntity
  8
0
  6
Continuous
 62
     7
370
    15
100
AcDbCircle
 10
167.0103610818
 20
179.5834896332
 30
0.0
 40
0.4999648009240241
100
AcDbArc
 50
119.0845399708
 51
239.0864868164
  0
ARC
  5
138
330
1F
100
AcDbEntity
  8
0
  6
Continuous
 62
     7
370
    15
100
AcDbCircle
 10
166.5242876326
 20
180.4573460486
 30
0.0
 40
0.4999814140410884
100
AcDbArc
 50
299.0845399708
 51
359.0866789013
  0
ARC
  5
139
330
1F
100
AcDbEntity
  8
0
  6
Continuous
 62
     7
370
    15
100
AcDbCircle
 10
166.5242504643
 20
180.4573466411
 30
0.0
 40
0.5000185870624212
100
AcDbArc
 50
359.0866789013
 51
59.0852571339
  0
ARC
  5
13A
330
1F
100
AcDbEntity
  8
0
  6
Continuous
 62
     7
370
    15
100
AcDbCircle
 10
167.0379947488
 20
181.315270639
 30
0.0
 40
0.499964800924059
100
AcDbArc
 50
119.0845399708
 51
239.0864868164
  0
ARC
  5
13B
330
1F
100
AcDbEntity
  8
0
  6
Continuous
 62
     7
370
    15
100
AcDbCircle
 10
166.5519212996
 20
182.1891270544
 30
0.0
 40
0.4999814140411452
100
AcDbArc
 50
299.0845399708
 51
359.0866789013
  0
ARC
  5
13C
330
1F
100
AcDbEntity
  8
0
  6
Continuous
 62
     7
370
    15
100
AcDbCircle
 10
166.5518841313
 20
182.1891276469
 30
0.0
 40
0.5000185870623644
100
AcDbArc
 50
359.0866789013
 51
59.0852571339
  0
ARC
  5
13D
330
1F
100
AcDbEntity
  8
0
  6
Continuous
 62
     7
370
    15
100
AcDbCircle
 10
167.0656284158
 20
183.0470516449
 30
0.0
 40
0.4999648009240387
100
AcDbArc
 50
119.0845399708
 51
239.0864868164
  0
ARC
  5
13E
330
1F
100
AcDbEntity
  8
0
  6
Continuous
 62
     7
370
    15
100
AcDbCircle
 10
166.5795549665
 20
183.9209080603
 30
0.0
 40
0.4999814140411245
100
AcDbArc
 50
299.0845399708
 51
359.0866789013
  0
ARC
  5
13F
330
1F
100
AcDbEntity
  8
0
  6
Continuous
 62
     7
370
    15
100
AcDbCircle
 10
166.5795838628
 20
183.9209075996
 30
0.0
 40
0.4999525141458627
100
AcDbArc
 50
359.0866789013
 51
59.0904494643
  0
ARC
  5
140
330
1F
100
AcDbEntity
  8
0
  6
Continuous
 62
     7
370
    15
100
AcDbCircle
 10
167.0932245991
 20
184.778814173
 30
0.0
 40
0.4999627296106283
100
AcDbArc
 50
119.0797566613
 51
239.0904494643
  0
ARC
  5
141
330
1F
100
AcDbEntity
  8
0
  6
Continuous
 62
     7
370
    15
100
AcDbCircle
 10
166.6072602395
 20
185.6526461902
 30
0.0
 40
0.4999091387107941
100
AcDbArc
 50
299.0797566613
 51
359.0949412147
  0
LINE
  5
142
330
1F
100
AcDbEntity
  8
0
  6
Continuous
 62
     7
370
    15
100
AcDbLine
 10
167.1150311201
 20
186.1446612136
 30
0.0
 11
167.1071037023
 21
185.6447496073
 31
0.0
  0
ARC
  5
143
330
1F
100
AcDbEntity
  8
0
  6
Continuous
 62
     7
370
    15
100
AcDbCircle
 10
167.8769922559
 20
186.1325821315
 30
0.0
 40
0.76205771956599
100
AcDbArc
 50
0.9080230253
 51
179.0919760972
  0
LINE
  5
144
330
1F
100
AcDbEntity
  8
0
  6
Continuous
 62
     7
370
    15
100
AcDbLine
 10
168.660758373
 20
184.7788207786
 30
0.0
 11
168.6389579742
 21
186.1446612136
 31
0.0
  0
ARC
  5
145
330
1F
100
AcDbEntity
  8
0
  6
Continuous
 62
     7
370
    15
100
AcDbCircle
 10
169.1607981763
 20
184.7868044516
 30
0.0
 40
0.5001028046694812
100
AcDbArc
 50
180.9146167173
 51
240.8936507939
  0
ARC
  5
146
330
1F
100
AcDbEntity
  8
0
  6
Continuous
 62
     7
370
    15
100
AcDbCircle
 10
168.6744869912
 20
183.9129343206
 30
0.0
 40
0.4999709960585566
100
AcDbArc
 50
300.9151777741
 51
60.9142303467
  0
ARC
  5
147
330
1F
100
AcDbEntity
  8
0
  6
Continuous
 62
     7
370
    15
100
AcDbCircle
 10
169.1882569315
 20
183.0550031402
 30
0.0
 40
0.5000317348504093
100
AcDbArc
 50
120.9151777741
 51
180.9124131682
  0
ARC
  5
148
330
1F
100
AcDbEntity
  8
0
  6
Continuous
 62
     7
370
    15
100
AcDbCircle
 10
169.1881934735
 20
183.0550021296
 30
0.0
 40
0.4999682687510813
100
AcDbArc
 50
180.9124131682
 51
240.9163298127
  0
ARC
  5
149
330
1F
100
AcDbEntity
  8
0
  6
Continuous
 62
     7
370
    15
100
AcDbCircle
 10
168.7021206582
 20
182.1811533147
 30
0.0
 40
0.4999709960585317
100
AcDbArc
 50
300.9151777741
 51
60.9142303467
  0
ARC
  5
14A
330
1F
100
AcDbEntity
  8
0
  6
Continuous
 62
     7
370
    15
100
AcDbCircle
 10
169.2158905985
 20
181.3232221344
 30
0.0
 40
0.5000317348503881
100
AcDbArc
 50
120.9151777741
 51
180.9124131682
  0
ARC
  5
14B
330
1F
100
AcDbEntity
  8
0
  6
Continuous
 62
     7
370
    15
100
AcDbCircle
 10
169.2158271405
 20
181.3232211237
 30
0.0
 40
0.4999682687510565
100
AcDbArc
 50
180.9124131682
 51
240.9163298127
  0
ARC
  5
14C
330
1F
100
AcDbEntity
  8
0
  6
Continuous
 62
     7
370
    15
100
AcDbCircle
 10
168.7297543252
 20
180.4493723089
 30
0.0
 40
0.4999709960584943
100
AcDbArc
 50
300.9151777741
 51
60.9142303467
  0
ARC
  5
14D
330
1F
100
AcDbEntity
  8
0
  6
Continuous
 62
     7
370
    15
100
AcDbCircle
 10
169.2435242655
 20
179.5914411285
 30
0.0
 40
0.5000317348503442
100
AcDbArc
 50
120.9151777741
 51
180.9124131682
  0
ARC
  5
14E
330
1F
100
AcDbEntity
  8
0
  6
Continuous
 62
     7
370
    15
100
AcDbCircle
 10
169.2434608074
 20
179.5914401179
 30
0.0
 40
0.4999682687511369
100
AcDbArc
 50
180.9124131683
 51
240.9163298127
  0
ARC
  5
14F
330
1F
100
AcDbEntity
  8
0
  6
Continuous
 62
     7
370
    15
100
AcDbCircle
 10
168.7573879922
 20
178.717591303
 30
0.0
 40
0.499970996058529
100
AcDbArc
 50
300.9151777741
 51
60.9142303467
  0
ARC
  5
150
330
1F
100
AcDbEntity
  8
0
  6
Continuous
 62
     7
370
    15
100
AcDbCircle
 10
169.2711579325
 20
177.8596601226
 30
0.0
 40
0.5000317348502961
100
AcDbArc
 50
120.9151777741
 51
180.9124131682
  0
ARC
  5
151
330
1F
100
AcDbEntity
  8
0
  6
Continuous
 62
     7
370
    15
100
AcDbCircle
 10
169.2710944744
 20
177.859659112
 30
0.0
 40
0.4999682687511338
100
AcDbArc
 50
180.9124131683
 51
240.9163298127
  0
ARC
  5
152
330
1F
100
AcDbEntity
  8
0
  6
Continuous
 62
     7
370
    15
100
AcDbCircle
 10
168.7850216592
 20
176.9858102972
 30
0.0
 40
0.4999709960584903
100
AcDbArc
 50
300.9151777741
 51
60.9142303467
  0
ARC
  5
153
330
1F
100
AcDbEntity
  8
0
  6
Continuous
 62
     7
370
    15
100
AcDbCircle
 10
169.2987915995
 20
176.1278791168
 30
0.0
 40
0.5000317348502127
100
AcDbArc
 50
120.9151777741
 51
180.9124131683
  0
ARC
  5
154
330
1F
100
AcDbEntity
  8
0
  6
Continuous
 62
     7
370
    15
100
AcDbCircle
 10
169.2987281414
 20
176.1278781062
 30
0.0
 40
0.4999682687513087
100
AcDbArc
 50
180.9124131683
 51
240.9163298127
  0
ARC
  5
155
330
1F
100
AcDbEntity
  8
0
  6
Continuous
 62
     7
370
    15
100
AcDbCircle
 10
168.8126553262
 20
175.2540292913
 30
0.0
 40
0.4999709960585317
100
AcDbArc
 50
300.9151777741
 51
60.9142303467
  0
ARC
  5
156
330
1F
100
AcDbEntity
  8
0
  6
Continuous
 62
     7
370
    15
100
AcDbCircle
 10
169.3264252665
 20
174.3960981109
 30
0.0
 40
0.5000317348504271
100
AcDbArc
 50
120.9151777741
 51
180.9124131682
  0
ARC
  5
157
330
1F
100
AcDbEntity
  8
0
  6
Continuous
 62
     7
370
    15
100
AcDbCircle
 10
169.3263618084
 20
174.3960971003
 30
0.0
 40
0.4999682687510792
100
AcDbArc
 50
180.9124131682
 51
240.9163298127
  0
ARC
  5
158
330
1F
100
AcDbEntity
  8
0
  6
Continuous
 62
     7
370
    15
100
AcDbCircle
 10
168.8402889932
 20
173.5222482854
 30
0.0
 40
0.4999709960585566
100
AcDbArc
 50
300.9151777741
 51
60.9142303467
  0
ARC
  5
159
330
1F
100
AcDbEntity
  8
0
  6
Continuous
 62
     7
370
    15
100
AcDbCircle
 10
169.3540589335
 20
172.6643171051
 30
0.0
 40
0.5000317348504089
100
AcDbArc
 50
120.9151777741
 51
180.9124131682
  0
ARC
  5
15A
330
1F
100
AcDbEntity
  8
0
  6
Continuous
 62
     7
370
    15
100
AcDbCircle
 10
169.3539954754
 20
172.6643160944
 30
0.0
 40
0.4999682687510565
100
AcDbArc
 50
180.9124131682
 51
240.9163298127
  0
ARC
  5
15B
330
1F
100
AcDbEntity
  8
0
  6
Continuous
 62
     7
370
    15
100
AcDbCircle
 10
168.8679119535
 20
171.7904480323
 30
0.0
 40
0.4999930208605094
100
AcDbArc
 50
300.9155635277
 51
60.9142303467
  0
ARC
  5
15C
330
1F
100
AcDbEntity
  8
0
  6
Continuous
 62
     7
370
    15
100
AcDbCircle
 10
169.3815945174
 20
170.9325528583
 30
0.0
 40
0.4999339314079473
100
AcDbArc
 50
120.9083208481
 51
180.9145126343
  0
ARC
  5
15D
330
1F
100
AcDbEntity
  8
0
  6
Continuous
 62
     7
370
    15
100
AcDbCircle
 10
169.3816605775
 20
170.9325539128
 30
0.0
 40
0.5000000000000019
100
AcDbArc
 50
180.9145126343
 51
240.9142303467
  0
ARC
  5
15E
330
1F
100
AcDbEntity
  8
0
  6
Continuous
 62
     7
370
    15
100
AcDbCircle
 10
168.8955563271
 20
170.0586862737
 30
0.0
 40
0.4999709960585187
100
AcDbArc
 50
300.9151777741
 51
60.9142303467
  0
ARC
  5
15F
330
1F
100
AcDbEntity
  8
0
  6
Continuous
 62
     7
370
    15
100
AcDbCircle
 10
169.4092942445
 20
169.200772907
 30
0.0
 40
0.5000000000000246
100
AcDbArc
 50
120.9130783081
 51
240.9142303467
  0
ARC
  5
160
330
1F
100
AcDbEntity
  8
0
  6
Continuous
 62
     7
370
    15
100
AcDbCircle
 10
168.9231899941
 20
168.3269052679
 30
0.0
 40
0.4999709960585151
100
AcDbArc
 50
300.9151777741
 51
60.9142303467
  0
ARC
  5
161
330
1F
100
AcDbEntity
  8
0
  6
Continuous
 62
     7
370
    15
100
AcDbCircle
 10
169.4369279115
 20
167.4689919011
 30
0.0
 40
0.5000000000000019
100
AcDbArc
 50
120.9130783081
 51
240.9142303467
  0
ARC
  5
162
330
1F
100
AcDbEntity
  8
0
  6
Continuous
 62
     7
370
    15
100
AcDbCircle
 10
168.9508236611
 20
166.595124262
 30
0.0
 40
0.4999709960585041
100
AcDbArc
 50
300.9151777741
 51
60.9142303467
  0
ARC
  5
163
330
1F
100
AcDbEntity
  8
0
  6
Continuous
 62
     7
370
    15
100
AcDbCircle
 10
169.4645615785
 20
165.7372108953
 30
0.0
 40
0.5000000000000019
100
AcDbArc
 50
120.9130783081
 51
240.9142303467
  0
ARC
  5
164
330
1F
100
AcDbEntity
  8
0
  6
Continuous
 62
     7
370
    15
100
AcDbCircle
 10
168.9784573281
 20
164.8633432561
 30
0.0
 40
0.4999709960585479
100
AcDbArc
 50
300.9151777741
 51
60.9142303467
  0
ARC
  5
165
330
1F
100
AcDbEntity
  8
0
  6
Continuous
 62
     7
370
    15
100
AcDbCircle
 10
169.4921952455
 20
164.0054298894
 30
0.0
 40
0.5000000000000393
100
AcDbArc
 50
120.9130783081
 51
240.9142303467
  0
ARC
  5
166
330
1F
100
AcDbEntity
  8
0
  6
Continuous
 62
     7
370
    15
100
AcDbCircle
 10
169.0060909951
 20
163.1315622503
 30
0.0
 40
0.4999709960585566
100
AcDbArc
 50
300.9151777741
 51
60.9142303467
  0
ARC
  5
167
330
1F
100
AcDbEntity
  8
0
  6
Continuous
 62
     7
370
    15
100
AcDbCircle
 10
169.5198289125
 20
162.2736488835
 30
0.0
 40
0.5000000000000019
100
AcDbArc
 50
120.9130783081
 51
240.9142303467
  0
ARC
  5
168
330
1F
100
AcDbEntity
  8
0
  6
Continuous
 62
     7
370
    15
100
AcDbCircle
 10
169.0337246621
 20
161.3997812444
 30
0.0
 40
0.4999709960585317
100
AcDbArc
 50
300.9151777741
 51
60.9142303467
  0
ARC
  5
169
330
1F
100
AcDbEntity
  8
0
  6
Continuous
 62
     7
370
    15
100
AcDbCircle
 10
169.5474625795
 20
160.5418678777
 30
0.0
 40
0.5000000000000019
100
AcDbArc
 50
120.9130783081
 51
240.9142303467
  0
ARC
  5
16A
330
1F
100
AcDbEntity
  8
0
  6
Continuous
 62
     7
370
    15
100
AcDbCircle
 10
169.0613583291
 20
159.6680002386
 30
0.0
 40
0.4999709960584943
100
AcDbArc
 50
300.9151777741
 51
60.9142303467
  0
ARC
  5
16B
330
1F
100
AcDbEntity
  8
0
  6
Continuous
 62
     7
370
    15
100
AcDbCircle
 10
169.5750962465
 20
158.8100868718
 30
0.0
 40
0.5000000000000491
100
AcDbArc
 50
120.9130783081
 51
240.9142303467
  0
ARC
  5
16C
330
1F
100
AcDbEntity
  8
0
  6
Continuous
 62
     7
370
    15
100
AcDbCircle
 10
169.0889919961
 20
157.9362192327
 30
0.0
 40
0.4999709960585151
100
AcDbArc
 50
300.9151777741
 51
60.9142303467
  0
ARC
  5
16D
330
1F
100
AcDbEntity
  8
0
  6
Continuous
 62
     7
370
    15
100
AcDbCircle
 10
169.6027299135
 20
157.078305866
 30
0.0
 40
0.5000000000000019
100
AcDbArc
 50
120.9130783081
 51
240.9142303467
  0
ARC
  5
16E
330
1F
100
AcDbEntity
  8
0
  6
Continuous
 62
     7
370
    15
100
AcDbCircle
 10
169.1166256631
 20
156.2044382268
 30
0.0
 40
0.4999709960585041
100
AcDbArc
 50
300.9151777741
 51
60.9142303467
  0
ARC
  5
16F
330
1F
100
AcDbEntity
  8
0
  6
Continuous
 62
     7
370
    15
100
AcDbCircle
 10
169.6303635805
 20
155.3465248601
 30
0.0
 40
0.5000000000000158
100
AcDbArc
 50
120.9130783081
 51
240.9142303467
  0
ARC
  5
170
330
1F
100
AcDbEntity
  8
0
  6
Continuous
 62
     7
370
    15
100
AcDbCircle
 10
169.1442593301
 20
154.472657221
 30
0.0
 40
0.4999709960585317
100
AcDbArc
 50
300.9151777741
 51
60.9142303467
  0
ARC
  5
171
330
1F
100
AcDbEntity
  8
0
  6
Continuous
 62
     7
370
    15
100
AcDbCircle
 10
169.6579972475
 20
153.6147438542
 30
0.0
 40
0.5000000000000491
100
AcDbArc
 50
120.9130783081
 51
240.9142303467
  0
ARC
  5
172
330
1F
100
AcDbEntity
  8
0
  6
Continuous
 62
     7
370
    15
100
AcDbCircle
 10
169.1718929971
 20
152.7408762151
 30
0.0
 40
0.4999709960585566
100
AcDbArc
 50
300.9151777741
 51
60.9142303467
  0
ARC
  5
173
330
1F
100
AcDbEntity
  8
0
  6
Continuous
 62
     7
370
    15
100
AcDbCircle
 10
169.6856309145
 20
151.8829628484
 30
0.0
 40
0.5000000000000295
100
AcDbArc
 50
120.9130783081
 51
240.9142303467
  0
ARC
  5
174
330
1F
100
AcDbEntity
  8
0
  6
Continuous
 62
     7
370
    15
100
AcDbCircle
 10
169.199526664
 20
151.0090952093
 30
0.0
 40
0.4999709960585317
100
AcDbArc
 50
300.9151777741
 51
60.9142303467
  0
ARC
  5
175
330
1F
100
AcDbEntity
  8
0
  6
Continuous
 62
     7
370
    15
100
AcDbCircle
 10
169.7132645815
 20
150.1511818425
 30
0.0
 40
0.4999999999999881
100
AcDbArc
 50
120.9130783081
 51
240.9142303467
  0
ARC
  5
176
330
1F
100
AcDbEntity
  8
0
  6
Continuous
 62
     7
370
    15
100
AcDbCircle
 10
169.227160331
 20
149.2773142034
 30
0.0
 40
0.4999709960585187
100
AcDbArc
 50
300.9151777741
 51
60.9142303467
  0
ARC
  5
177
330
1F
100
AcDbEntity
  8
0
  6
Continuous
 62
     7
370
    15
100
AcDbCircle
 10
169.7408982484
 20
148.4194008367
 30
0.0
 40
0.5000000000000246
100
AcDbArc
 50
120.9130783081
 51
240.9142303467
  0
ARC
  5
178
330
1F
100
AcDbEntity
  8
0
  6
Continuous
 62
     7
370
    15
100
AcDbCircle
 10
169.254793998
 20
147.5455331976
 30
0.0
 40
0.4999709960585151
100
AcDbArc
 50
300.9151777741
 51
60.9142303467
  0
ARC
  5
179
330
1F
100
AcDbEntity
  8
0
  6
Continuous
 62
     7
370
    15
100
AcDbCircle
 10
169.7685319154
 20
146.6876198308
 30
0.0
 40
0.4999999999999881
100
AcDbArc
 50
120.9130783081
 51
240.9142303467
  0
ARC
  5
17A
330
1F
100
AcDbEntity
  8
0
  6
Continuous
 62
     7
370
    15
100
AcDbCircle
 10
169.282427665
 20
145.8137521917
 30
0.0
 40
0.4999709960585179
100
AcDbArc
 50
300.9151777741
 51
60.9142303467
  0
ARC
  5
17B
330
1F
100
AcDbEntity
  8
0
  6
Continuous
 62
     7
370
    15
100
AcDbCircle
 10
169.7961655824
 20
144.9558388249
 30
0.0
 40
0.4999999999999857
100
AcDbArc
 50
120.9130783081
 51
240.9142303467
  0
ARC
  5
17C
330
1F
100
AcDbEntity
  8
0
  6
Continuous
 62
     7
370
    15
100
AcDbCircle
 10
169.310061332
 20
144.0819711858
 30
0.0
 40
0.4999709960585479
100
AcDbArc
 50
300.9151777741
 51
60.9142303467
  0
ARC
  5
17D
330
1F
100
AcDbEntity
  8
0
  6
Continuous
 62
     7
370
    15
100
AcDbCircle
 10
169.823684235
 20
143.2241217959
 30
0.0
 40
0.4998860283907417
100
AcDbArc
 50
120.9055354238
 51
180.9244206309
  0
LINE
  5
17E
330
1F
100
AcDbEntity
  8
0
  6
Continuous
 62
     7
370
    15
100
AcDbLine
 10
169.3615748851
 20
140.87856939
 30
0.0
 11
169.3238600462
 21
143.2160549418
 31
0.0
  0
ARC
  5
17F
330
1F
100
AcDbEntity
  8
0
  6
Continuous
 62
     7
370
    15
100
AcDbCircle
 10
170.361602209
 20
140.8947042591
 30
0.0
 40
1.000152370840026
100
AcDbArc
 50
180.9244206309
 51
269.9917353001
  0
LINE
  5
180
330
1F
100
AcDbEntity
  8
0
  6
Continuous
 62
     7
370
    15
100
AcDbLine
 10
180.292515394
 20
139.8945488588
 30
0.0
 11
170.3614577024
 21
139.8945488588
 31
0.0
  0
ARC
  5
181
330
1F
100
AcDbEntity
  8
0
  6
Continuous
 62
     7
370
    15
100
AcDbCircle
 10
180.2923109393
 20
140.8947690588
 30
0.0
 40
1.000217181707992
100
AcDbArc
 50
270.0119030537
 51
359.071052657
  0
LINE
  5
182
330
1F
100
AcDbEntity
  8
0
  6
Continuous
 62
     7
370
    15
100
AcDbLine
 10
181.3162549703
 20
142.3501782672
 30
0.0
 11
181.2923982113
 21
140.8785544889
 31
0.0
  0
ARC
  5
183
330
1F
100
AcDbEntity
  8
0
  6
Continuous
 62
     7
370
    15
100
AcDbCircle
 10
180.8163224428
 20
142.3581749455
 30
0.0
 40
0.5000000000000198
100
AcDbArc
 50
359.083984375
 51
59.0864868164
  0
ARC
  5
184
330
1F
100
AcDbEntity
  8
0
  6
Continuous
 62
     7
370
    15
100
AcDbCircle
 10
181.3300479715
 20
143.2160885101
 30
0.0
 40
0.4999648009239996
100
AcDbArc
 50
119.0845399708
 51
239.0864868164
  0
ARC
  5
185
330
1F
100
AcDbEntity
  8
0
  6
Continuous
 62
     7
370
    15
100
AcDbCircle
 10
180.8439561098
 20
144.0899559514
 30
0.0
 40
0.5000000000000268
100
AcDbArc
 50
299.0857696533
 51
59.0864868164
  0
ARC
  5
186
330
1F
100
AcDbEntity
  8
0
  6
Continuous
 62
     7
370
    15
100
AcDbCircle
 10
181.3576816385
 20
144.947869516
 30
0.0
 40
0.4999648009240342
100
AcDbArc
 50
119.0845399708
 51
239.0864868164
  0
ARC
  5
187
330
1F
100
AcDbEntity
  8
0
  6
Continuous
 62
     7
370
    15
100
AcDbCircle
 10
180.8715897768
 20
145.8217369573
 30
0.0
 40
0.5000000000000198
100
AcDbArc
 50
299.0857696533
 51
59.0864868164
  0
ARC
  5
188
330
1F
100
AcDbEntity
  8
0
  6
Continuous
 62
     7
370
    15
100
AcDbCircle
 10
181.3853153055
 20
146.6796505218
 30
0.0
 40
0.4999648009240533
100
AcDbArc
 50
119.0845399708
 51
239.0864868164
  0
ARC
  5
189
330
1F
100
AcDbEntity
  8
0
  6
Continuous
 62
     7
370
    15
100
AcDbCircle
 10
180.8992234438
 20
147.5535179631
 30
0.0
 40
0.5000000000000268
100
AcDbArc
 50
299.0857696533
 51
59.0864868164
  0
ARC
  5
18A
330
1F
100
AcDbEntity
  8
0
  6
Continuous
 62
     7
370
    15
100
AcDbCircle
 10
181.4129489725
 20
148.4114315277
 30
0.0
 40
0.4999648009240142
100
AcDbArc
 50
119.0845399708
 51
239.0864868164
  0
ARC
  5
18B
330
1F
100
AcDbEntity
  8
0
  6
Continuous
 62
     7
370
    15
100
AcDbCircle
 10
180.9268571108
 20
149.285298969
 30
0.0
 40
0.5000000000000019
100
AcDbArc
 50
299.0857696533
 51
59.0864868164
  0
ARC
  5
18C
330
1F
100
AcDbEntity
  8
0
  6
Continuous
 62
     7
370
    15
100
AcDbCircle
 10
181.4405826394
 20
150.1432125335
 30
0.0
 40
0.4999648009240387
100
AcDbArc
 50
119.0845399708
 51
239.0864868164
  0
ARC
  5
18D
330
1F
100
AcDbEntity
  8
0
  6
Continuous
 62
     7
370
    15
100
AcDbCircle
 10
180.9544907777
 20
151.0170799748
 30
0.0
 40
0.5000000000000734
100
AcDbArc
 50
299.0857696533
 51
59.0864868164
  0
ARC
  5
18E
330
1F
100
AcDbEntity
  8
0
  6
Continuous
 62
     7
370
    15
100
AcDbCircle
 10
181.4682163064
 20
151.8749935394
 30
0.0
 40
0.4999648009240142
100
AcDbArc
 50
119.0845399708
 51
239.0864868164
  0
ARC
  5
18F
330
1F
100
AcDbEntity
  8
0
  6
Continuous
 62
     7
370
    15
100
AcDbCircle
 10
180.9821244447
 20
152.7488609807
 30
0.0
 40
0.5000000000000198
100
AcDbArc
 50
299.0857696533
 51
59.0864868164
  0
ARC
  5
190
330
1F
100
AcDbEntity
  8
0
  6
Continuous
 62
     7
370
    15
100
AcDbCircle
 10
181.4958499734
 20
153.6067745453
 30
0.0
 40
0.4999648009239996
100
AcDbArc
 50
119.0845399708
 51
239.0864868164
  0
ARC
  5
191
330
1F
100
AcDbEntity
  8
0
  6
Continuous
 62
     7
370
    15
100
AcDbCircle
 10
181.0097581117
 20
154.4806419866
 30
0.0
 40
0.5000000000000268
100
AcDbArc
 50
299.0857696533
 51
59.0864868164
  0
ARC
  5
192
330
1F
100
AcDbEntity
  8
0
  6
Continuous
 62
     7
370
    15
100
AcDbCircle
 10
181.5234836404
 20
155.3385555511
 30
0.0
 40
0.4999648009240342
100
AcDbArc
 50
119.0845399708
 51
239.0864868164
  0
ARC
  5
193
330
1F
100
AcDbEntity
  8
0
  6
Continuous
 62
     7
370
    15
100
AcDbCircle
 10
181.0373917787
 20
156.2124229924
 30
0.0
 40
0.5000000000000198
100
AcDbArc
 50
299.0857696533
 51
59.0864868164
  0
ARC
  5
194
330
1F
100
AcDbEntity
  8
0
  6
Continuous
 62
     7
370
    15
100
AcDbCircle
 10
181.5511173074
 20
157.070336557
 30
0.0
 40
0.4999648009240533
100
AcDbArc
 50
119.0845399708
 51
239.0864868164
  0
ARC
  5
195
330
1F
100
AcDbEntity
  8
0
  6
Continuous
 62
     7
370
    15
100
AcDbCircle
 10
181.0650254457
 20
157.9442039983
 30
0.0
 40
0.5000000000000268
100
AcDbArc
 50
299.0857696533
 51
59.0864868164
  0
ARC
  5
196
330
1F
100
AcDbEntity
  8
0
  6
Continuous
 62
     7
370
    15
100
AcDbCircle
 10
181.5787509744
 20
158.8021175628
 30
0.0
 40
0.4999648009240142
100
AcDbArc
 50
119.0845399708
 51
239.0864868164
  0
ARC
  5
197
330
1F
100
AcDbEntity
  8
0
  6
Continuous
 62
     7
370
    15
100
AcDbCircle
 10
181.0926775251
 20
159.6759739782
 30
0.0
 40
0.4999814140410334
100
AcDbArc
 50
299.0845399708
 51
359.0866789013
  0
ARC
  5
198
330
1F
100
AcDbEntity
  8
0
  6
Continuous
 62
     7
370
    15
100
AcDbCircle
 10
181.0926591127
 20
159.6759850041
 30
0.0
 40
0.4999999999999679
100
AcDbArc
 50
359.0854492187
 51
59.0864868164
  0
ARC
  5
199
330
1F
100
AcDbEntity
  8
0
  6
Continuous
 62
     7
370
    15
100
AcDbCircle
 10
181.6063846414
 20
160.5338985687
 30
0.0
 40
0.4999648009240387
100
AcDbArc
 50
119.0845399708
 51
239.0864868164
  0
ARC
  5
19A
330
1F
100
AcDbEntity
  8
0
  6
Continuous
 62
     7
370
    15
100
AcDbCircle
 10
181.1202927797
 20
161.40776601
 30
0.0
 40
0.4999999999999958
100
AcDbArc
 50
299.0857696533
 51
359.0854492188
  0
ARC
  5
19B
330
1F
100
AcDbEntity
  8
0
  6
Continuous
 62
     7
370
    15
100
AcDbCircle
 10
181.1202740238
 20
161.4077555766
 30
0.0
 40
0.5000185870624632
100
AcDbArc
 50
359.0866789013
 51
59.0852571339
  0
ARC
  5
19C
330
1F
100
AcDbEntity
  8
0
  6
Continuous
 62
     7
370
    15
100
AcDbCircle
 10
181.6340306971
 20
162.2656793768
 30
0.0
 40
0.4999709959850319
100
AcDbArc
 50
119.0857696533
 51
239.0852571339
  0
ARC
  5
19D
330
1F
100
AcDbEntity
  8
0
  6
Continuous
 62
     7
370
    15
100
AcDbCircle
 10
181.1479264467
 20
163.1395470159
 30
0.0
 40
0.5000000000000158
100
AcDbArc
 50
299.0857696533
 51
359.0854492187
  0
ARC
  5
19E
330
1F
100
AcDbEntity
  8
0
  6
Continuous
 62
     7
370
    15
100
AcDbCircle
 10
181.1479076908
 20
163.1395365825
 30
0.0
 40
0.5000185870623851
100
AcDbArc
 50
359.0866789013
 51
59.0852571339
  0
ARC
  5
19F
330
1F
100
AcDbEntity
  8
0
  6
Continuous
 62
     7
370
    15
100
AcDbCircle
 10
181.6616643641
 20
163.9974603827
 30
0.0
 40
0.4999709959850042
100
AcDbArc
 50
119.0857696533
 51
239.0852571339
  0
ARC
  5
1A0
330
1F
100
AcDbEntity
  8
0
  6
Continuous
 62
     7
370
    15
100
AcDbCircle
 10
181.1755601137
 20
164.8713280217
 30
0.0
 40
0.5000000000000158
100
AcDbArc
 50
299.0857696533
 51
359.0854492187
  0
ARC
  5
1A1
330
1F
100
AcDbEntity
  8
0
  6
Continuous
 62
     7
370
    15
100
AcDbCircle
 10
181.1755413578
 20
164.8713175884
 30
0.0
 40
0.5000185870622804
100
AcDbArc
 50
359.0866789013
 51
59.0852571339
  0
ARC
  5
1A2
330
1F
100
AcDbEntity
  8
0
  6
Continuous
 62
     7
370
    15
100
AcDbCircle
 10
181.6892980311
 20
165.7292413885
 30
0.0
 40
0.4999709959850153
100
AcDbArc
 50
119.0857696533
 51
239.0852571339
  0
ARC
  5
1A3
330
1F
100
AcDbEntity
  8
0
  6
Continuous
 62
     7
370
    15
100
AcDbCircle
 10
181.2031937807
 20
166.6031090276
 30
0.0
 40
0.5000000000000522
100
AcDbArc
 50
299.0857696533
 51
359.0854492188
  0
ARC
  5
1A4
330
1F
100
AcDbEntity
  8
0
  6
Continuous
 62
     7
370
    15
100
AcDbCircle
 10
181.2031750248
 20
166.6030985942
 30
0.0
 40
0.50001858706228
100
AcDbArc
 50
359.0866789013
 51
59.0852571339
  0
ARC
  5
1A5
330
1F
100
AcDbEntity
  8
0
  6
Continuous
 62
     7
370
    15
100
AcDbCircle
 10
181.716931698
 20
167.4610223944
 30
0.0
 40
0.499970995985008
100
AcDbArc
 50
119.0857696533
 51
239.0852571339
  0
ARC
  5
1A6
330
1F
100
AcDbEntity
  8
0
  6
Continuous
 62
     7
370
    15
100
AcDbCircle
 10
181.2308274477
 20
168.3348900334
 30
0.0
 40
0.5000000000000158
100
AcDbArc
 50
299.0857696533
 51
359.0854492187
  0
ARC
  5
1A7
330
1F
100
AcDbEntity
  8
0
  6
Continuous
 62
     7
370
    15
100
AcDbCircle
 10
181.2308086918
 20
168.3348796001
 30
0.0
 40
0.5000185870623648
100
AcDbArc
 50
359.0866789013
 51
59.0852571339
  0
ARC
  5
1A8
330
1F
100
AcDbEntity
  8
0
  6
Continuous
 62
     7
370
    15
100
AcDbCircle
 10
181.744565365
 20
169.1928034003
 30
0.0
 40
0.4999709959850372
100
AcDbArc
 50
119.0857696533
 51
239.0852571339
  0
ARC
  5
1A9
330
1F
100
AcDbEntity
  8
0
  6
Continuous
 62
     7
370
    15
100
AcDbCircle
 10
181.2584611147
 20
170.0666710393
 30
0.0
 40
0.5000000000000531
100
AcDbArc
 50
299.0857696533
 51
359.0854492187
  0
ARC
  5
1AA
330
1F
100
AcDbEntity
  8
0
  6
Continuous
 62
     7
370
    15
100
AcDbCircle
 10
181.2584423588
 20
170.0666606059
 30
0.0
 40
0.5000185870623648
100
AcDbArc
 50
359.0866789013
 51
59.0852571339
  0
ARC
  5
1AB
330
1F
100
AcDbEntity
  8
0
  6
Continuous
 62
     7
370
    15
100
AcDbCircle
 10
181.772199032
 20
170.9245844061
 30
0.0
 40
0.4999709959850429
100
AcDbArc
 50
119.0857696533
 51
239.0852571339
  0
ARC
  5
1AC
330
1F
100
AcDbEntity
  8
0
  6
Continuous
 62
     7
370
    15
100
AcDbCircle
 10
181.2860947817
 20
171.7984520452
 30
0.0
 40
0.5000000000000238
100
AcDbArc
 50
299.0857696533
 51
359.0854492188
  0
ARC
  5
1AD
330
1F
100
AcDbEntity
  8
0
  6
Continuous
 62
     7
370
    15
100
AcDbCircle
 10
181.2860760258
 20
171.7984416118
 30
0.0
 40
0.5000185870624777
100
AcDbArc
 50
359.0866789013
 51
59.0852571339
  0
ARC
  5
1AE
330
1F
100
AcDbEntity
  8
0
  6
Continuous
 62
     7
370
    15
100
AcDbCircle
 10
181.799832699
 20
172.656365412
 30
0.0
 40
0.4999709959850319
100
AcDbArc
 50
119.0857696533
 51
239.0852571339
  0
ARC
  5
1AF
330
1F
100
AcDbEntity
  8
0
  6
Continuous
 62
     7
370
    15
100
AcDbCircle
 10
181.3137284486
 20
173.530233051
 30
0.0
 40
0.5000000000000019
100
AcDbArc
 50
299.0857696533
 51
359.0854492187
  0
ARC
  5
1B0
330
1F
100
AcDbEntity
  8
0
  6
Continuous
 62
     7
370
    15
100
AcDbCircle
 10
181.3137096928
 20
173.5302226177
 30
0.0
 40
0.5000185870623644
100
AcDbArc
 50
359.0866789013
 51
59.0852571339
  0
ARC
  5
1B1
330
1F
100
AcDbEntity
  8
0
  6
Continuous
 62
     7
370
    15
100
AcDbCircle
 10
181.827466366
 20
174.3881464178
 30
0.0
 40
0.4999709959850226
100
AcDbArc
 50
119.0857696533
 51
239.0852571339
  0
ARC
  5
1B2
330
1F
100
AcDbEntity
  8
0
  6
Continuous
 62
     7
370
    15
100
AcDbCircle
 10
181.3413621156
 20
175.2620140569
 30
0.0
 40
0.5000000000000295
100
AcDbArc
 50
299.0857696533
 51
359.0854492187
  0
ARC
  5
1B3
330
1F
100
AcDbEntity
  8
0
  6
Continuous
 62
     7
370
    15
100
AcDbCircle
 10
181.3413433598
 20
175.2620036235
 30
0.0
 40
0.5000185870622804
100
AcDbArc
 50
359.0866789013
 51
59.0852571339
  0
ARC
  5
1B4
330
1F
100
AcDbEntity
  8
0
  6
Continuous
 62
     7
370
    15
100
AcDbCircle
 10
181.855100033
 20
176.1199274237
 30
0.0
 40
0.4999709959850153
100
AcDbArc
 50
119.0857696533
 51
239.0852571339
  0
ARC
  5
1B5
330
1F
100
AcDbEntity
  8
0
  6
Continuous
 62
     7
370
    15
100
AcDbCircle
 10
181.3689957826
 20
176.9937950627
 30
0.0
 40
0.499999999999967
100
AcDbArc
 50
299.0857696533
 51
359.0854492188
  0
ARC
  5
1B6
330
1F
100
AcDbEntity
  8
0
  6
Continuous
 62
     7
370
    15
100
AcDbCircle
 10
181.3689770268
 20
176.9937846294
 30
0.0
 40
0.50001858706228
100
AcDbArc
 50
359.0866789013
 51
59.0852571339
  0
ARC
  5
1B7
330
1F
100
AcDbEntity
  8
0
  6
Continuous
 62
     7
370
    15
100
AcDbCircle
 10
181.8827337
 20
177.8517084295
 30
0.0
 40
0.499970995985008
100
AcDbArc
 50
119.0857696533
 51
239.0852571339
  0
ARC
  5
1B8
330
1F
100
AcDbEntity
  8
0
  6
Continuous
 62
     7
370
    15
100
AcDbCircle
 10
181.3966294496
 20
178.7255760686
 30
0.0
 40
0.4999999999999771
100
AcDbArc
 50
299.0857696533
 51
359.0854492188
  0
ARC
  5
1B9
330
1F
100
AcDbEntity
  8
0
  6
Continuous
 62
     7
370
    15
100
AcDbCircle
 10
181.3966106938
 20
178.7255656352
 30
0.0
 40
0.5000185870623648
100
AcDbArc
 50
359.0866789013
 51
59.0852571339
  0
ARC
  5
1BA
330
1F
100
AcDbEntity
  8
0
  6
Continuous
 62
     7
370
    15
100
AcDbCircle
 10
181.910367367
 20
179.5834894354
 30
0.0
 40
0.4999709959850372
100
AcDbArc
 50
119.0857696533
 51
239.0852571339
  0
ARC
  5
1BB
330
1F
100
AcDbEntity
  8
0
  6
Continuous
 62
     7
370
    15
100
AcDbCircle
 10
181.4242631166
 20
180.4573570745
 30
0.0
 40
0.5000000000000531
100
AcDbArc
 50
299.0857696533
 51
359.0854492187
  0
ARC
  5
1BC
330
1F
100
AcDbEntity
  8
0
  6
Continuous
 62
     7
370
    15
100
AcDbCircle
 10
181.4242443607
 20
180.4573466411
 30
0.0
 40
0.5000185870623648
100
AcDbArc
 50
359.0866789013
 51
59.0852571339
  0
ARC
  5
1BD
330
1F
100
AcDbEntity
  8
0
  6
Continuous
 62
     7
370
    15
100
AcDbCircle
 10
181.938001034
 20
181.3152704413
 30
0.0
 40
0.4999709959850429
100
AcDbArc
 50
119.0857696533
 51
239.0852571339
  0
ARC
  5
1BE
330
1F
100
AcDbEntity
  8
0
  6
Continuous
 62
     7
370
    15
100
AcDbCircle
 10
181.4518967836
 20
182.1891380803
 30
0.0
 40
0.4999999999999954
100
AcDbArc
 50
299.0857696533
 51
359.0854492188
  0
ARC
  5
1BF
330
1F
100
AcDbEntity
  8
0
  6
Continuous
 62
     7
370
    15
100
AcDbCircle
 10
181.4518780277
 20
182.1891276469
 30
0.0
 40
0.5000185870624387
100
AcDbArc
 50
359.0866789013
 51
59.0852571339
  0
ARC
  5
1C0
330
1F
100
AcDbEntity
  8
0
  6
Continuous
 62
     7
370
    15
100
AcDbCircle
 10
181.965634701
 20
183.0470514471
 30
0.0
 40
0.4999709959850319
100
AcDbArc
 50
119.0857696533
 51
239.0852571339
  0
ARC
  5
1C1
330
1F
100
AcDbEntity
  8
0
  6
Continuous
 62
     7
370
    15
100
AcDbCircle
 10
181.4795304506
 20
183.9209190862
 30
0.0
 40
0.5000000000000158
100
AcDbArc
 50
299.0857696533
 51
359.0854492187
  0
ARC
  5
1C2
330
1F
100
AcDbEntity
  8
0
  6
Continuous
 62
     7
370
    15
100
AcDbCircle
 10
181.4795116947
 20
183.9209086528
 30
0.0
 40
0.5000185870623851
100
AcDbArc
 50
359.0866789013
 51
59.0852571339
  0
ARC
  5
1C3
330
1F
100
AcDbEntity
  8
0
  6
Continuous
 62
     7
370
    15
100
AcDbCircle
 10
181.993268368
 20
184.778832453
 30
0.0
 40
0.4999709959850042
100
AcDbArc
 50
119.0857696533
 51
239.0852571339
  0
ARC
  5
1C4
330
1F
100
AcDbEntity
  8
0
  6
Continuous
 62
     7
370
    15
100
AcDbCircle
 10
181.5072097503
 20
185.6526727677
 30
0.0
 40
0.4999539392761
100
AcDbArc
 50
299.0827217788
 51
359.0919760972
  0
LINE
  5
1C5
330
1F
100
AcDbEntity
  8
0
  6
Continuous
 62
     7
370
    15
100
AcDbLine
 10
182.0150300233
 20
186.1446612136
 30
0.0
 11
182.0071026056
 21
185.6447496073
 31
0.0
  0
ARC
  5
1C6
330
1F
100
AcDbEntity
  8
0
  6
Continuous
 62
     7
370
    15
100
AcDbCircle
 10
182.7769861524
 20
186.1324944215
 30
0.0
 40
0.7620591145824512
100
AcDbArc
 50
0.9146167173
 51
179.0853824051
  0
LINE
  5
1C7
330
1F
100
AcDbEntity
  8
0
  6
Continuous
 62
     7
370
    15
100
AcDbLine
 10
183.5607572763
 20
184.7788207786
 30
0.0
 11
183.5389419763
 21
186.1446612136
 31
0.0
  0
ARC
  5
1C8
330
1F
100
AcDbEntity
  8
0
  6
Continuous
 62
     7
370
    15
100
AcDbCircle
 10
184.0607920728
 20
184.7868044516
 30
0.0
 40
0.5001028046694528
100
AcDbArc
 50
180.9146167173
 51
240.8936507939
  0
ARC
  5
1C9
330
1F
100
AcDbEntity
  8
0
  6
Continuous
 62
     7
370
    15
100
AcDbCircle
 10
183.574502039
 20
183.9129346583
 30
0.0
 40
0.4999604192236562
100
AcDbArc
 50
300.9130783081
 51
60.9163298127
  0
ARC
  5
1CA
330
1F
100
AcDbEntity
  8
0
  6
Continuous
 62
     7
370
    15
100
AcDbCircle
 10
184.0882188051
 20
183.0550209539
 30
0.0
 40
0.500000000000011
100
AcDbArc
 50
120.9130783081
 51
180.9145126343
  0
ARC
  5
1CB
330
1F
100
AcDbEntity
  8
0
  6
Continuous
 62
     7
370
    15
100
AcDbCircle
 10
184.0881873699
 20
183.0550021296
 30
0.0
 40
0.4999682687512774
100
AcDbArc
 50
180.9124131683
 51
240.9163298127
  0
ARC
  5
1CC
330
1F
100
AcDbEntity
  8
0
  6
Continuous
 62
     7
370
    15
100
AcDbCircle
 10
183.602135706
 20
182.1811536524
 30
0.0
 40
0.4999604192236319
100
AcDbArc
 50
300.9130783081
 51
60.9163298127
  0
ARC
  5
1CD
330
1F
100
AcDbEntity
  8
0
  6
Continuous
 62
     7
370
    15
100
AcDbCircle
 10
184.1158524721
 20
181.323239948
 30
0.0
 40
0.5000000000000114
100
AcDbArc
 50
120.9130783081
 51
180.9145126343
  0
ARC
  5
1CE
330
1F
100
AcDbEntity
  8
0
  6
Continuous
 62
     7
370
    15
100
AcDbCircle
 10
184.1158210369
 20
181.3232211237
 30
0.0
 40
0.4999682687511089
100
AcDbArc
 50
180.9124131682
 51
240.9163298127
  0
ARC
  5
1CF
330
1F
100
AcDbEntity
  8
0
  6
Continuous
 62
     7
370
    15
100
AcDbCircle
 10
183.629769373
 20
180.4493726466
 30
0.0
 40
0.4999604192235929
100
AcDbArc
 50
300.9130783081
 51
60.9163298127
  0
ARC
  5
1D0
330
1F
100
AcDbEntity
  8
0
  6
Continuous
 62
     7
370
    15
100
AcDbCircle
 10
184.1434861391
 20
179.5914589421
 30
0.0
 40
0.5000000000000637
100
AcDbArc
 50
120.9130783081
 51
180.9145126343
  0
ARC
  5
1D1
330
1F
100
AcDbEntity
  8
0
  6
Continuous
 62
     7
370
    15
100
AcDbCircle
 10
184.1434547039
 20
179.5914401179
 30
0.0
 40
0.4999682687511369
100
AcDbArc
 50
180.9124131683
 51
240.9163298127
  0
ARC
  5
1D2
330
1F
100
AcDbEntity
  8
0
  6
Continuous
 62
     7
370
    15
100
AcDbCircle
 10
183.65740304
 20
178.7175916407
 30
0.0
 40
0.4999604192236424
100
AcDbArc
 50
300.9130783081
 51
60.9163298127
  0
ARC
  5
1D3
330
1F
100
AcDbEntity
  8
0
  6
Continuous
 62
     7
370
    15
100
AcDbCircle
 10
184.1711198061
 20
177.8596779363
 30
0.0
 40
0.5000000000000393
100
AcDbArc
 50
120.9130783081
 51
180.9145126343
  0
ARC
  5
1D4
330
1F
100
AcDbEntity
  8
0
  6
Continuous
 62
     7
370
    15
100
AcDbCircle
 10
184.1710883709
 20
177.859659112
 30
0.0
 40
0.4999682687512774
100
AcDbArc
 50
180.9124131683
 51
240.9163298127
  0
ARC
  5
1D5
330
1F
100
AcDbEntity
  8
0
  6
Continuous
 62
     7
370
    15
100
AcDbCircle
 10
183.685036707
 20
176.9858106349
 30
0.0
 40
0.4999604192236173
100
AcDbArc
 50
300.9130783081
 51
60.9163298127
  0
ARC
  5
1D6
330
1F
100
AcDbEntity
  8
0
  6
Continuous
 62
     7
370
    15
100
AcDbCircle
 10
184.1987534731
 20
176.1278969304
 30
0.0
 40
0.5000000000000114
100
AcDbArc
 50
120.9130783081
 51
180.9145126343
  0
ARC
  5
1D7
330
1F
100
AcDbEntity
  8
0
  6
Continuous
 62
     7
370
    15
100
AcDbCircle
 10
184.1987453914
 20
176.1278920909
 30
0.0
 40
0.4999918421836319
100
AcDbArc
 50
180.9139729103
 51
240.9147700707
  0
ARC
  5
1D8
330
1F
100
AcDbEntity
  8
0
  6
Continuous
 62
     7
370
    15
100
AcDbCircle
 10
183.7126439538
 20
175.2540101308
 30
0.0
 40
0.4999903015539567
100
AcDbArc
 50
300.9150238037
 51
60.9147700707
  0
ARC
  5
1D9
330
1F
100
AcDbEntity
  8
0
  6
Continuous
 62
     7
370
    15
100
AcDbCircle
 10
184.2264233103
 20
174.396057996
 30
0.0
 40
0.5000352444671838
100
AcDbArc
 50
120.9150238037
 51
180.9078096787
  0
ARC
  5
1DA
330
1F
100
AcDbEntity
  8
0
  6
Continuous
 62
     7
370
    15
100
AcDbCircle
 10
184.2262867912
 20
174.3960558328
 30
0.0
 40
0.4998987082311809
100
AcDbArc
 50
180.9078096787
 51
240.9209333023
  0
ARC
  5
1DB
330
1F
100
AcDbEntity
  8
0
  6
Continuous
 62
     7
370
    15
100
AcDbCircle
 10
183.7402828896
 20
173.5222482854
 30
0.0
 40
0.4999709960585151
100
AcDbArc
 50
300.9151777741
 51
60.9142303467
  0
ARC
  5
1DC
330
1F
100
AcDbEntity
  8
0
  6
Continuous
 62
     7
370
    15
100
AcDbCircle
 10
184.25405283
 20
172.6643171051
 30
0.0
 40
0.5000317348502122
100
AcDbArc
 50
120.9151777741
 51
180.9124131683
  0
ARC
  5
1DD
330
1F
100
AcDbEntity
  8
0
  6
Continuous
 62
     7
370
    15
100
AcDbCircle
 10
184.2539893719
 20
172.6643160944
 30
0.0
 40
0.4999682687512912
100
AcDbArc
 50
180.9124131683
 51
240.9163298127
  0
ARC
  5
1DE
330
1F
100
AcDbEntity
  8
0
  6
Continuous
 62
     7
370
    15
100
AcDbCircle
 10
183.7679165566
 20
171.7904672796
 30
0.0
 40
0.4999709960585179
100
AcDbArc
 50
300.9151777741
 51
60.9142303467
  0
ARC
  5
1DF
330
1F
100
AcDbEntity
  8
0
  6
Continuous
 62
     7
370
    15
100
AcDbCircle
 10
184.2816864969
 20
170.9325360992
 30
0.0
 40
0.5000317348502407
100
AcDbArc
 50
120.9151777741
 51
180.9124131683
  0
ARC
  5
1E0
330
1F
100
AcDbEntity
  8
0
  6
Continuous
 62
     7
370
    15
100
AcDbCircle
 10
184.2816230389
 20
170.9325350886
 30
0.0
 40
0.4999682687512525
100
AcDbArc
 50
180.9124131683
 51
240.9163298127
  0
ARC
  5
1E1
330
1F
100
AcDbEntity
  8
0
  6
Continuous
 62
     7
370
    15
100
AcDbCircle
 10
183.7955502236
 20
170.0586862737
 30
0.0
 40
0.4999709960585235
100
AcDbArc
 50
300.9151777741
 51
60.9142303467
  0
ARC
  5
1E2
330
1F
100
AcDbEntity
  8
0
  6
Continuous
 62
     7
370
    15
100
AcDbCircle
 10
184.3093201639
 20
169.2007550934
 30
0.0
 40
0.5000317348504271
100
AcDbArc
 50
120.9151777741
 51
180.9124131682
  0
ARC
  5
1E3
330
1F
100
AcDbEntity
  8
0
  6
Continuous
 62
     7
370
    15
100
AcDbCircle
 10
184.3092567059
 20
169.2007540827
 30
0.0
 40
0.4999682687510792
100
AcDbArc
 50
180.9124131682
 51
240.9163298127
  0
ARC
  5
1E4
330
1F
100
AcDbEntity
  8
0
  6
Continuous
 62
     7
370
    15
100
AcDbCircle
 10
183.8231838906
 20
168.3269052679
 30
0.0
 40
0.4999709960585566
100
AcDbArc
 50
300.9151777741
 51
60.9142303467
  0
ARC
  5
1E5
330
1F
100
AcDbEntity
  8
0
  6
Continuous
 62
     7
370
    15
100
AcDbCircle
 10
184.3369538309
 20
167.4689740875
 30
0.0
 40
0.5000317348504093
100
AcDbArc
 50
120.9151777741
 51
180.9124131682
  0
ARC
  5
1E6
330
1F
100
AcDbEntity
  8
0
  6
Continuous
 62
     7
370
    15
100
AcDbCircle
 10
184.3368903729
 20
167.4689730769
 30
0.0
 40
0.4999682687510813
100
AcDbArc
 50
180.9124131682
 51
240.9163298127
  0
ARC
  5
1E7
330
1F
100
AcDbEntity
  8
0
  6
Continuous
 62
     7
370
    15
100
AcDbCircle
 10
183.8508175576
 20
166.595124262
 30
0.0
 40
0.4999709960584903
100
AcDbArc
 50
300.9151777741
 51
60.9142303467
  0
ARC
  5
1E8
330
1F
100
AcDbEntity
  8
0
  6
Continuous
 62
     7
370
    15
100
AcDbCircle
 10
184.3645874979
 20
165.7371930816
 30
0.0
 40
0.5000317348502686
100
AcDbArc
 50
120.9151777741
 51
180.9124131683
  0
ARC
  5
1E9
330
1F
100
AcDbEntity
  8
0
  6
Continuous
 62
     7
370
    15
100
AcDbCircle
 10
184.3645240399
 20
165.737192071
 30
0.0
 40
0.4999682687511862
100
AcDbArc
 50
180.9124131683
 51
240.9163298127
  0
ARC
  5
1EA
330
1F
100
AcDbEntity
  8
0
  6
Continuous
 62
     7
370
    15
100
AcDbCircle
 10
183.8784512246
 20
164.8633432561
 30
0.0
 40
0.4999709960584943
100
AcDbArc
 50
300.9151777741
 51
60.9142303467
  0
ARC
  5
1EB
330
1F
100
AcDbEntity
  8
0
  6
Continuous
 62
     7
370
    15
100
AcDbCircle
 10
184.3922211649
 20
164.0054120758
 30
0.0
 40
0.5000317348503198
100
AcDbArc
 50
120.9151777741
 51
180.9124131683
  0
ARC
  5
1EC
330
1F
100
AcDbEntity
  8
0
  6
Continuous
 62
     7
370
    15
100
AcDbCircle
 10
184.3921577069
 20
164.0054110651
 30
0.0
 40
0.4999682687511653
100
AcDbArc
 50
180.9124131683
 51
240.9163298127
  0
ARC
  5
1ED
330
1F
100
AcDbEntity
  8
0
  6
Continuous
 62
     7
370
    15
100
AcDbCircle
 10
183.9060848916
 20
163.1315622503
 30
0.0
 40
0.4999709960585151
100
AcDbArc
 50
300.9151777741
 51
60.9142303467
  0
ARC
  5
1EE
330
1F
100
AcDbEntity
  8
0
  6
Continuous
 62
     7
370
    15
100
AcDbCircle
 10
184.4198548319
 20
162.2736310699
 30
0.0
 40
0.5000317348502122
100
AcDbArc
 50
120.9151777741
 51
180.9124131683
  0
ARC
  5
1EF
330
1F
100
AcDbEntity
  8
0
  6
Continuous
 62
     7
370
    15
100
AcDbCircle
 10
184.4197913739
 20
162.2736300593
 30
0.0
 40
0.4999682687512774
100
AcDbArc
 50
180.9124131683
 51
240.9163298127
  0
ARC
  5
1F0
330
1F
100
AcDbEntity
  8
0
  6
Continuous
 62
     7
370
    15
100
AcDbCircle
 10
183.9337185586
 20
161.3997812444
 30
0.0
 40
0.4999709960585179
100
AcDbArc
 50
300.9151777741
 51
60.9142303467
  0
ARC
  5
1F1
330
1F
100
AcDbEntity
  8
0
  6
Continuous
 62
     7
370
    15
100
AcDbCircle
 10
184.4474884989
 20
160.5418500641
 30
0.0
 40
0.5000317348502407
100
AcDbArc
 50
120.9151777741
 51
180.9124131683
  0
ARC
  5
1F2
330
1F
100
AcDbEntity
  8
0
  6
Continuous
 62
     7
370
    15
100
AcDbCircle
 10
184.4474250408
 20
160.5418490534
 30
0.0
 40
0.4999682687512799
100
AcDbArc
 50
180.9124131683
 51
240.9163298127
  0
ARC
  5
1F3
330
1F
100
AcDbEntity
  8
0
  6
Continuous
 62
     7
370
    15
100
AcDbCircle
 10
183.9613415189
 20
159.6679809912
 30
0.0
 40
0.4999930208605491
100
AcDbArc
 50
300.9155635277
 51
60.9142303467
  0
ARC
  5
1F4
330
1F
100
AcDbEntity
  8
0
  6
Continuous
 62
     7
370
    15
100
AcDbCircle
 10
184.4750240828
 20
158.8100858173
 30
0.0
 40
0.4999339314079082
100
AcDbArc
 50
120.9083208481
 51
180.9145126343
  0
ARC
  5
1F5
330
1F
100
AcDbEntity
  8
0
  6
Continuous
 62
     7
370
    15
100
AcDbCircle
 10
184.475090143
 20
158.8100868718
 30
0.0
 40
0.5000000000000394
100
AcDbArc
 50
180.9145126343
 51
240.9142303467
  0
ARC
  5
1F6
330
1F
100
AcDbEntity
  8
0
  6
Continuous
 62
     7
370
    15
100
AcDbCircle
 10
183.9889858926
 20
157.9362192327
 30
0.0
 40
0.4999709960585566
100
AcDbArc
 50
300.9151777741
 51
60.9142303467
  0
ARC
  5
1F7
330
1F
100
AcDbEntity
  8
0
  6
Continuous
 62
     7
370
    15
100
AcDbCircle
 10
184.50272381
 20
157.078305866
 30
0.0
 40
0.5000000000000158
100
AcDbArc
 50
120.9130783081
 51
240.9142303467
  0
ARC
  5
1F8
330
1F
100
AcDbEntity
  8
0
  6
Continuous
 62
     7
370
    15
100
AcDbCircle
 10
184.0166195596
 20
156.2044382268
 30
0.0
 40
0.4999709960584903
100
AcDbArc
 50
300.9151777741
 51
60.9142303467
  0
ARC
  5
1F9
330
1F
100
AcDbEntity
  8
0
  6
Continuous
 62
     7
370
    15
100
AcDbCircle
 10
184.530357477
 20
155.3465248601
 30
0.0
 40
0.5000000000000544
100
AcDbArc
 50
120.9130783081
 51
240.9142303467
  0
ARC
  5
1FA
330
1F
100
AcDbEntity
  8
0
  6
Continuous
 62
     7
370
    15
100
AcDbCircle
 10
184.0442532265
 20
154.472657221
 30
0.0
 40
0.4999709960585187
100
AcDbArc
 50
300.9151777741
 51
60.9142303467
  0
ARC
  5
1FB
330
1F
100
AcDbEntity
  8
0
  6
Continuous
 62
     7
370
    15
100
AcDbCircle
 10
184.557991144
 20
153.6147438542
 30
0.0
 40
0.5000000000000246
100
AcDbArc
 50
120.9130783081
 51
240.9142303467
  0
ARC
  5
1FC
330
1F
100
AcDbEntity
  8
0
  6
Continuous
 62
     7
370
    15
100
AcDbCircle
 10
184.0718868935
 20
152.7408762151
 30
0.0
 40
0.4999709960585151
100
AcDbArc
 50
300.9151777741
 51
60.9142303467
  0
ARC
  5
1FD
330
1F
100
AcDbEntity
  8
0
  6
Continuous
 62
     7
370
    15
100
AcDbCircle
 10
184.5856248109
 20
151.8829628484
 30
0.0
 40
0.5000000000000158
100
AcDbArc
 50
120.9130783081
 51
240.9142303467
  0
ARC
  5
1FE
330
1F
100
AcDbEntity
  8
0
  6
Continuous
 62
     7
370
    15
100
AcDbCircle
 10
184.0995205605
 20
151.0090952093
 30
0.0
 40
0.4999709960585317
100
AcDbArc
 50
300.9151777741
 51
60.9142303467
  0
ARC
  5
1FF
330
1F
100
AcDbEntity
  8
0
  6
Continuous
 62
     7
370
    15
100
AcDbCircle
 10
184.6132584779
 20
150.1511818425
 30
0.0
 40
0.5000000000000544
100
AcDbArc
 50
120.9130783081
 51
240.9142303467
  0
ARC
  5
200
330
1F
100
AcDbEntity
  8
0
  6
Continuous
 62
     7
370
    15
100
AcDbCircle
 10
184.1271542275
 20
149.2773142034
 30
0.0
 40
0.4999709960585235
100
AcDbArc
 50
300.9151777741
 51
60.9142303467
  0
ARC
  5
201
330
1F
100
AcDbEntity
  8
0
  6
Continuous
 62
     7
370
    15
100
AcDbCircle
 10
184.6408921449
 20
148.4194008367
 30
0.0
 40
0.5000000000000491
100
AcDbArc
 50
120.9130783081
 51
240.9142303467
  0
ARC
  5
202
330
1F
100
AcDbEntity
  8
0
  6
Continuous
 62
     7
370
    15
100
AcDbCircle
 10
184.1547878945
 20
147.5455331976
 30
0.0
 40
0.4999709960585566
100
AcDbArc
 50
300.9151777741
 51
60.9142303467
  0
ARC
  5
203
330
1F
100
AcDbEntity
  8
0
  6
Continuous
 62
     7
370
    15
100
AcDbCircle
 10
184.6685258119
 20
146.6876198308
 30
0.0
 40
0.5000000000000158
100
AcDbArc
 50
120.9130783081
 51
240.9142303467
  0
ARC
  5
204
330
1F
100
AcDbEntity
  8
0
  6
Continuous
 62
     7
370
    15
100
AcDbCircle
 10
184.1824215615
 20
145.8137521917
 30
0.0
 40
0.4999709960584903
100
AcDbArc
 50
300.9151777741
 51
60.9142303467
  0
ARC
  5
205
330
1F
100
AcDbEntity
  8
0
  6
Continuous
 62
     7
370
    15
100
AcDbCircle
 10
184.6961594789
 20
144.9558388249
 30
0.0
 40
0.5000000000000544
100
AcDbArc
 50
120.9130783081
 51
240.9142303467
  0
ARC
  5
206
330
1F
100
AcDbEntity
  8
0
  6
Continuous
 62
     7
370
    15
100
AcDbCircle
 10
184.2100552285
 20
144.0819711858
 30
0.0
 40
0.4999709960585187
100
AcDbArc
 50
300.9151777741
 51
60.9142303467
  0
ARC
  5
207
330
1F
100
AcDbEntity
  8
0
  6
Continuous
 62
     7
370
    15
100
AcDbCircle
 10
184.7236781315
 20
143.2241217959
 30
0.0
 40
0.4998860283907134
100
AcDbArc
 50
120.9055354238
 51
180.9244206309
  0
LINE
  5
208
330
1F
100
AcDbEntity
  8
0
  6
Continuous
 62
     7
370
    15
100
AcDbLine
 10
184.2615737884
 20
140.87856939
 30
0.0
 11
184.2238589494
 21
143.2160549418
 31
0.0
  0
ARC
  5
209
330
1F
100
AcDbEntity
  8
0
  6
Continuous
 62
     7
370
    15
100
AcDbCircle
 10
185.2614537475
 20
140.8945596064
 30
0.0
 40
1.000007707758141
100
AcDbArc
 50
180.9162653774
 51
269.9998905536
  0
LINE
  5
20A
330
1F
100
AcDbEntity
  8
0
  6
Continuous
 62
     7
370
    15
100
AcDbLine
 10
195.1925142973
 20
139.8945488588
 30
0.0
 11
185.2614566057
 21
139.8945488588
 31
0.0
  0
ARC
  5
20B
330
1F
100
AcDbEntity
  8
0
  6
Continuous
 62
     7
370
    15
100
AcDbCircle
 10
195.1925126283
 20
140.8945579135
 30
0.0
 40
1.000006014814116
100
AcDbArc
 50
270.0
 51
359.0829557107
  0
LINE
  5
20C
330
1F
100
AcDbEntity
  8
0
  6
Continuous
 62
     7
370
    15
100
AcDbLine
 10
196.2162538736
 20
142.3501782672
 30
0.0
 11
196.1923971145
 21
140.8785544889
 31
0.0
  0
ARC
  5
20D
330
1F
100
AcDbEntity
  8
0
  6
Continuous
 62
     7
370
    15
100
AcDbCircle
 10
195.716579505
 20
142.3582835438
 30
0.0
 40
0.4997386167635071
100
AcDbArc
 50
359.071052657
 51
59.1046106712
  0
ARC
  5
20E
330
1F
100
AcDbEntity
  8
0
  6
Continuous
 62
     7
370
    15
100
AcDbCircle
 10
196.2300397145
 20
143.2160778682
 30
0.0
 40
0.4999876018675509
100
AcDbArc
 50
119.0833068712
 51
239.0874370711
  0
ARC
  5
20F
330
1F
100
AcDbEntity
  8
0
  6
Continuous
 62
     7
370
    15
100
AcDbCircle
 10
195.7439790971
 20
144.089955487
 30
0.0
 40
0.4999709054919422
100
AcDbArc
 50
299.0833068712
 51
359.0854492188
  0
ARC
  5
210
330
1F
100
AcDbEntity
  8
0
  6
Continuous
 62
     7
370
    15
100
AcDbCircle
 10
195.7439957675
 20
144.0899814071
 30
0.0
 40
0.4999546515945339
100
AcDbArc
 50
359.0824486121
 51
59.089487423
  0
ARC
  5
211
330
1F
100
AcDbEntity
  8
0
  6
Continuous
 62
     7
370
    15
100
AcDbCircle
 10
196.2576502878
 20
144.9478783189
 30
0.0
 40
0.4999593834767898
100
AcDbArc
 50
119.0820771886
 51
239.089487423
  0
ARC
  5
212
330
1F
100
AcDbEntity
  8
0
  6
Continuous
 62
     7
370
    15
100
AcDbCircle
 10
195.7716311745
 20
145.8217254676
 30
0.0
 40
0.4999523215367909
100
AcDbArc
 50
299.0820771886
 51
359.0866789013
  0
ARC
  5
213
330
1F
100
AcDbEntity
  8
0
  6
Continuous
 62
     7
370
    15
100
AcDbCircle
 10
195.7715649174
 20
145.8217265239
 30
0.0
 40
0.5000185870624485
100
AcDbArc
 50
359.0866789013
 51
59.0852571339
  0
ARC
  5
214
330
1F
100
AcDbEntity
  8
0
  6
Continuous
 62
     7
370
    15
100
AcDbCircle
 10
196.2853215906
 20
146.6796503241
 30
0.0
 40
0.499970995985018
100
AcDbArc
 50
119.0857696533
 51
239.0852571339
  0
ARC
  5
215
330
1F
100
AcDbEntity
  8
0
  6
Continuous
 62
     7
370
    15
100
AcDbCircle
 10
195.7992357527
 20
147.5535069372
 30
0.0
 40
0.4999814140412017
100
AcDbArc
 50
299.0845399708
 51
359.0866789013
  0
ARC
  5
216
330
1F
100
AcDbEntity
  8
0
  6
Continuous
 62
     7
370
    15
100
AcDbCircle
 10
195.7991985844
 20
147.5535075298
 30
0.0
 40
0.50001858706228
100
AcDbArc
 50
359.0866789013
 51
59.0852571339
  0
ARC
  5
217
330
1F
100
AcDbEntity
  8
0
  6
Continuous
 62
     7
370
    15
100
AcDbCircle
 10
196.3129552576
 20
148.4114313299
 30
0.0
 40
0.4999709959850042
100
AcDbArc
 50
119.0857696533
 51
239.0852571339
  0
ARC
  5
218
330
1F
100
AcDbEntity
  8
0
  6
Continuous
 62
     7
370
    15
100
AcDbCircle
 10
195.8268694197
 20
149.2852879431
 30
0.0
 40
0.4999814140412155
100
AcDbArc
 50
299.0845399708
 51
359.0866789013
  0
ARC
  5
219
330
1F
100
AcDbEntity
  8
0
  6
Continuous
 62
     7
370
    15
100
AcDbCircle
 10
195.8268322514
 20
149.2852885356
 30
0.0
 40
0.5000185870622804
100
AcDbArc
 50
359.0866789013
 51
59.0852571339
  0
ARC
  5
21A
330
1F
100
AcDbEntity
  8
0
  6
Continuous
 62
     7
370
    15
100
AcDbCircle
 10
196.3405889246
 20
150.1432123358
 30
0.0
 40
0.4999709959850153
100
AcDbArc
 50
119.0857696533
 51
239.0852571339
  0
ARC
  5
21B
330
1F
100
AcDbEntity
  8
0
  6
Continuous
 62
     7
370
    15
100
AcDbCircle
 10
195.8545030867
 20
151.017068949
 30
0.0
 40
0.4999814140410599
100
AcDbArc
 50
299.0845399708
 51
359.0866789013
  0
ARC
  5
21C
330
1F
100
AcDbEntity
  8
0
  6
Continuous
 62
     7
370
    15
100
AcDbCircle
 10
195.8544659184
 20
151.0170695415
 30
0.0
 40
0.5000185870624212
100
AcDbArc
 50
359.0866789013
 51
59.0852571339
  0
ARC
  5
21D
330
1F
100
AcDbEntity
  8
0
  6
Continuous
 62
     7
370
    15
100
AcDbCircle
 10
196.3682225916
 20
151.8749933417
 30
0.0
 40
0.4999709959850319
100
AcDbArc
 50
119.0857696533
 51
239.0852571339
  0
ARC
  5
21E
330
1F
100
AcDbEntity
  8
0
  6
Continuous
 62
     7
370
    15
100
AcDbCircle
 10
195.8821367537
 20
152.7488499548
 30
0.0
 40
0.4999814140411245
100
AcDbArc
 50
299.0845399708
 51
359.0866789013
  0
ARC
  5
21F
330
1F
100
AcDbEntity
  8
0
  6
Continuous
 62
     7
370
    15
100
AcDbCircle
 10
195.8820995854
 20
152.7488505473
 30
0.0
 40
0.5000185870623644
100
AcDbArc
 50
359.0866789013
 51
59.0852571339
  0
ARC
  5
220
330
1F
100
AcDbEntity
  8
0
  6
Continuous
 62
     7
370
    15
100
AcDbCircle
 10
196.3958562586
 20
153.6067743475
 30
0.0
 40
0.499970995985018
100
AcDbArc
 50
119.0857696533
 51
239.0852571339
  0
ARC
  5
221
330
1F
100
AcDbEntity
  8
0
  6
Continuous
 62
     7
370
    15
100
AcDbCircle
 10
195.9097704206
 20
154.4806309607
 30
0.0
 40
0.4999814140411245
100
AcDbArc
 50
299.0845399708
 51
359.0866789013
  0
ARC
  5
222
330
1F
100
AcDbEntity
  8
0
  6
Continuous
 62
     7
370
    15
100
AcDbCircle
 10
195.9097332523
 20
154.4806315532
 30
0.0
 40
0.5000185870623648
100
AcDbArc
 50
359.0866789013
 51
59.0852571339
  0
ARC
  5
223
330
1F
100
AcDbEntity
  8
0
  6
Continuous
 62
     7
370
    15
100
AcDbCircle
 10
196.4234899256
 20
155.3385553534
 30
0.0
 40
0.4999709959850429
100
AcDbArc
 50
119.0857696533
 51
239.0852571339
  0
ARC
  5
224
330
1F
100
AcDbEntity
  8
0
  6
Continuous
 62
     7
370
    15
100
AcDbCircle
 10
195.9374040876
 20
156.2124119665
 30
0.0
 40
0.4999814140409808
100
AcDbArc
 50
299.0845399708
 51
359.0866789013
  0
ARC
  5
225
330
1F
100
AcDbEntity
  8
0
  6
Continuous
 62
     7
370
    15
100
AcDbCircle
 10
195.9373669193
 20
156.2124125591
 30
0.0
 40
0.5000185870624632
100
AcDbArc
 50
359.0866789013
 51
59.0852571339
  0
ARC
  5
226
330
1F
100
AcDbEntity
  8
0
  6
Continuous
 62
     7
370
    15
100
AcDbCircle
 10
196.4511235926
 20
157.0703363592
 30
0.0
 40
0.4999709959850319
100
AcDbArc
 50
119.0857696533
 51
239.0852571339
  0
ARC
  5
227
330
1F
100
AcDbEntity
  8
0
  6
Continuous
 62
     7
370
    15
100
AcDbCircle
 10
195.9650377546
 20
157.9441929724
 30
0.0
 40
0.4999814140412017
100
AcDbArc
 50
299.0845399708
 51
359.0866789013
  0
ARC
  5
228
330
1F
100
AcDbEntity
  8
0
  6
Continuous
 62
     7
370
    15
100
AcDbCircle
 10
195.9650005863
 20
157.9441935649
 30
0.0
 40
0.5000185870622804
100
AcDbArc
 50
359.0866789013
 51
59.0852571339
  0
ARC
  5
229
330
1F
100
AcDbEntity
  8
0
  6
Continuous
 62
     7
370
    15
100
AcDbCircle
 10
196.4787572596
 20
158.8021173651
 30
0.0
 40
0.499970995985029
100
AcDbArc
 50
119.0857696533
 51
239.0852571339
  0
ARC
  5
22A
330
1F
100
AcDbEntity
  8
0
  6
Continuous
 62
     7
370
    15
100
AcDbCircle
 10
195.9926714216
 20
159.6759739782
 30
0.0
 40
0.4999814140411769
100
AcDbArc
 50
299.0845399708
 51
359.0866789013
  0
ARC
  5
22B
330
1F
100
AcDbEntity
  8
0
  6
Continuous
 62
     7
370
    15
100
AcDbCircle
 10
195.9926342533
 20
159.6759745708
 30
0.0
 40
0.5000185870622804
100
AcDbArc
 50
359.0866789013
 51
59.0852571339
  0
ARC
  5
22C
330
1F
100
AcDbEntity
  8
0
  6
Continuous
 62
     7
370
    15
100
AcDbCircle
 10
196.5063909266
 20
160.533898371
 30
0.0
 40
0.4999709959849905
100
AcDbArc
 50
119.0857696533
 51
239.0852571339
  0
ARC
  5
22D
330
1F
100
AcDbEntity
  8
0
  6
Continuous
 62
     7
370
    15
100
AcDbCircle
 10
196.0203050886
 20
161.4077549841
 30
0.0
 40
0.4999814140410879
100
AcDbArc
 50
299.0845399708
 51
359.0866789013
  0
ARC
  5
22E
330
1F
100
AcDbEntity
  8
0
  6
Continuous
 62
     7
370
    15
100
AcDbCircle
 10
196.0202679203
 20
161.4077555766
 30
0.0
 40
0.5000185870624212
100
AcDbArc
 50
359.0866789013
 51
59.0852571339
  0
ARC
  5
22F
330
1F
100
AcDbEntity
  8
0
  6
Continuous
 62
     7
370
    15
100
AcDbCircle
 10
196.5340245936
 20
162.2656793768
 30
0.0
 40
0.4999709959850319
100
AcDbArc
 50
119.0857696533
 51
239.0852571339
  0
ARC
  5
230
330
1F
100
AcDbEntity
  8
0
  6
Continuous
 62
     7
370
    15
100
AcDbCircle
 10
196.0479387556
 20
163.13953599
 30
0.0
 40
0.4999814140411245
100
AcDbArc
 50
299.0845399708
 51
359.0866789013
  0
ARC
  5
231
330
1F
100
AcDbEntity
  8
0
  6
Continuous
 62
     7
370
    15
100
AcDbCircle
 10
196.0479015873
 20
163.1395365825
 30
0.0
 40
0.5000185870623648
100
AcDbArc
 50
359.0866789013
 51
59.0852571339
  0
ARC
  5
232
330
1F
100
AcDbEntity
  8
0
  6
Continuous
 62
     7
370
    15
100
AcDbCircle
 10
196.5616582605
 20
163.9974603827
 30
0.0
 40
0.4999709959850429
100
AcDbArc
 50
119.0857696533
 51
239.0852571339
  0
ARC
  5
233
330
1F
100
AcDbEntity
  8
0
  6
Continuous
 62
     7
370
    15
100
AcDbCircle
 10
196.0755540102
 20
164.8713280217
 30
0.0
 40
0.4999999999999909
100
AcDbArc
 50
299.0857696533
 51
59.0864868164
  0
ARC
  5
234
330
1F
100
AcDbEntity
  8
0
  6
Continuous
 62
     7
370
    15
100
AcDbCircle
 10
196.5892795389
 20
165.7292415863
 30
0.0
 40
0.4999648009240241
100
AcDbArc
 50
119.0845399708
 51
239.0864868164
  0
ARC
  5
235
330
1F
100
AcDbEntity
  8
0
  6
Continuous
 62
     7
370
    15
100
AcDbCircle
 10
196.1032060896
 20
166.6030980017
 30
0.0
 40
0.4999814140410306
100
AcDbArc
 50
299.0845399708
 51
359.0866789013
  0
ARC
  5
236
330
1F
100
AcDbEntity
  8
0
  6
Continuous
 62
     7
370
    15
100
AcDbCircle
 10
196.1031876772
 20
166.6031090276
 30
0.0
 40
0.5000000000000344
100
AcDbArc
 50
359.0854492188
 51
59.0864868164
  0
ARC
  5
237
330
1F
100
AcDbEntity
  8
0
  6
Continuous
 62
     7
370
    15
100
AcDbCircle
 10
196.6169132058
 20
167.4610225921
 30
0.0
 40
0.4999648009239996
100
AcDbArc
 50
119.0845399708
 51
239.0864868164
  0
ARC
  5
238
330
1F
100
AcDbEntity
  8
0
  6
Continuous
 62
     7
370
    15
100
AcDbCircle
 10
196.1308397566
 20
168.3348790075
 30
0.0
 40
0.4999814140410719
100
AcDbArc
 50
299.0845399708
 51
359.0866789013
  0
ARC
  5
239
330
1F
100
AcDbEntity
  8
0
  6
Continuous
 62
     7
370
    15
100
AcDbCircle
 10
196.1308213442
 20
168.3348900334
 30
0.0
 40
0.4999999999999963
100
AcDbArc
 50
359.0854492187
 51
59.0864868164
  0
ARC
  5
23A
330
1F
100
AcDbEntity
  8
0
  6
Continuous
 62
     7
370
    15
100
AcDbCircle
 10
196.6445468728
 20
169.192803598
 30
0.0
 40
0.4999648009240288
100
AcDbArc
 50
119.0845399708
 51
239.0864868164
  0
ARC
  5
23B
330
1F
100
AcDbEntity
  8
0
  6
Continuous
 62
     7
370
    15
100
AcDbCircle
 10
196.1584734236
 20
170.0666600134
 30
0.0
 40
0.4999814140411769
100
AcDbArc
 50
299.0845399708
 51
359.0866789013
  0
ARC
  5
23C
330
1F
100
AcDbEntity
  8
0
  6
Continuous
 62
     7
370
    15
100
AcDbCircle
 10
196.1584550111
 20
170.0666710393
 30
0.0
 40
0.4999999999999683
100
AcDbArc
 50
359.0854492187
 51
59.0864868164
  0
ARC
  5
23D
330
1F
100
AcDbEntity
  8
0
  6
Continuous
 62
     7
370
    15
100
AcDbCircle
 10
196.6721805398
 20
170.9245846039
 30
0.0
 40
0.499964800924059
100
AcDbArc
 50
119.0845399708
 51
239.0864868164
  0
ARC
  5
23E
330
1F
100
AcDbEntity
  8
0
  6
Continuous
 62
     7
370
    15
100
AcDbCircle
 10
196.1861070906
 20
171.7984410193
 30
0.0
 40
0.4999814140411452
100
AcDbArc
 50
299.0845399708
 51
359.0866789013
  0
ARC
  5
23F
330
1F
100
AcDbEntity
  8
0
  6
Continuous
 62
     7
370
    15
100
AcDbCircle
 10
196.1860886781
 20
171.7984520452
 30
0.0
 40
0.4999999999999679
100
AcDbArc
 50
359.0854492187
 51
59.0864868164
  0
ARC
  5
240
330
1F
100
AcDbEntity
  8
0
  6
Continuous
 62
     7
370
    15
100
AcDbCircle
 10
196.6998142068
 20
172.6563656097
 30
0.0
 40
0.4999648009240142
100
AcDbArc
 50
119.0845399708
 51
239.0864868164
  0
ARC
  5
241
330
1F
100
AcDbEntity
  8
0
  6
Continuous
 62
     7
370
    15
100
AcDbCircle
 10
196.2137407576
 20
173.5302220251
 30
0.0
 40
0.4999814140410022
100
AcDbArc
 50
299.0845399708
 51
359.0866789013
  0
ARC
  5
242
330
1F
100
AcDbEntity
  8
0
  6
Continuous
 62
     7
370
    15
100
AcDbCircle
 10
196.2137223451
 20
173.530233051
 30
0.0
 40
0.4999999999999683
100
AcDbArc
 50
359.0854492187
 51
59.0864868164
  0
ARC
  5
243
330
1F
100
AcDbEntity
  8
0
  6
Continuous
 62
     7
370
    15
100
AcDbCircle
 10
196.7274478738
 20
174.3881466156
 30
0.0
 40
0.4999648009240387
100
AcDbArc
 50
119.0845399708
 51
239.0864868164
  0
ARC
  5
244
330
1F
100
AcDbEntity
  8
0
  6
Continuous
 62
     7
370
    15
100
AcDbCircle
 10
196.2413744246
 20
175.262003031
 30
0.0
 40
0.4999814140410719
100
AcDbArc
 50
299.0845399708
 51
359.0866789013
  0
ARC
  5
245
330
1F
100
AcDbEntity
  8
0
  6
Continuous
 62
     7
370
    15
100
AcDbCircle
 10
196.2413560121
 20
175.2620140569
 30
0.0
 40
0.5000000000000344
100
AcDbArc
 50
359.0854492188
 51
59.0864868164
  0
ARC
  5
246
330
1F
100
AcDbEntity
  8
0
  6
Continuous
 62
     7
370
    15
100
AcDbCircle
 10
196.7550815408
 20
176.1199276214
 30
0.0
 40
0.4999648009240452
100
AcDbArc
 50
119.0845399708
 51
239.0864868164
  0
ARC
  5
247
330
1F
100
AcDbEntity
  8
0
  6
Continuous
 62
     7
370
    15
100
AcDbCircle
 10
196.2690080915
 20
176.9937840368
 30
0.0
 40
0.4999814140410595
100
AcDbArc
 50
299.0845399708
 51
359.0866789013
  0
ARC
  5
248
330
1F
100
AcDbEntity
  8
0
  6
Continuous
 62
     7
370
    15
100
AcDbCircle
 10
196.2689896791
 20
176.9937950627
 30
0.0
 40
0.5000000000000198
100
AcDbArc
 50
359.0854492188
 51
59.0864868164
  0
ARC
  5
249
330
1F
100
AcDbEntity
  8
0
  6
Continuous
 62
     7
370
    15
100
AcDbCircle
 10
196.7827152078
 20
177.8517086273
 30
0.0
 40
0.4999648009239996
100
AcDbArc
 50
119.0845399708
 51
239.0864868164
  0
ARC
  5
24A
330
1F
100
AcDbEntity
  8
0
  6
Continuous
 62
     7
370
    15
100
AcDbCircle
 10
196.2966417585
 20
178.7255650427
 30
0.0
 40
0.4999814140410719
100
AcDbArc
 50
299.0845399708
 51
359.0866789013
  0
ARC
  5
24B
330
1F
100
AcDbEntity
  8
0
  6
Continuous
 62
     7
370
    15
100
AcDbCircle
 10
196.2966233461
 20
178.7255760686
 30
0.0
 40
0.4999999999999963
100
AcDbArc
 50
359.0854492187
 51
59.0864868164
  0
ARC
  5
24C
330
1F
100
AcDbEntity
  8
0
  6
Continuous
 62
     7
370
    15
100
AcDbCircle
 10
196.8103488748
 20
179.5834896332
 30
0.0
 40
0.4999648009240288
100
AcDbArc
 50
119.0845399708
 51
239.0864868164
  0
ARC
  5
24D
330
1F
100
AcDbEntity
  8
0
  6
Continuous
 62
     7
370
    15
100
AcDbCircle
 10
196.3242754255
 20
180.4573460486
 30
0.0
 40
0.4999814140412155
100
AcDbArc
 50
299.0845399708
 51
359.0866789013
  0
ARC
  5
24E
330
1F
100
AcDbEntity
  8
0
  6
Continuous
 62
     7
370
    15
100
AcDbCircle
 10
196.3242570131
 20
180.4573570745
 30
0.0
 40
0.4999999999999683
100
AcDbArc
 50
359.0854492187
 51
59.0864868164
  0
ARC
  5
24F
330
1F
100
AcDbEntity
  8
0
  6
Continuous
 62
     7
370
    15
100
AcDbCircle
 10
196.8379825418
 20
181.315270639
 30
0.0
 40
0.499964800924059
100
AcDbArc
 50
119.0845399708
 51
239.0864868164
  0
ARC
  5
250
330
1F
100
AcDbEntity
  8
0
  6
Continuous
 62
     7
370
    15
100
AcDbCircle
 10
196.3519090925
 20
182.1891270544
 30
0.0
 40
0.4999814140411163
100
AcDbArc
 50
299.0845399708
 51
359.0866789013
  0
ARC
  5
251
330
1F
100
AcDbEntity
  8
0
  6
Continuous
 62
     7
370
    15
100
AcDbCircle
 10
196.3518906801
 20
182.1891380803
 30
0.0
 40
0.4999999999999679
100
AcDbArc
 50
359.0854492187
 51
59.0864868164
  0
ARC
  5
252
330
1F
100
AcDbEntity
  8
0
  6
Continuous
 62
     7
370
    15
100
AcDbCircle
 10
196.8656162088
 20
183.0470516449
 30
0.0
 40
0.4999648009240142
100
AcDbArc
 50
119.0845399708
 51
239.0864868164
  0
ARC
  5
253
330
1F
100
AcDbEntity
  8
0
  6
Continuous
 62
     7
370
    15
100
AcDbCircle
 10
196.3795427595
 20
183.9209080603
 30
0.0
 40
0.4999814140410022
100
AcDbArc
 50
299.0845399708
 51
359.0866789013
  0
ARC
  5
254
330
1F
100
AcDbEntity
  8
0
  6
Continuous
 62
     7
370
    15
100
AcDbCircle
 10
196.3795243471
 20
183.9209190862
 30
0.0
 40
0.4999999999999683
100
AcDbArc
 50
359.0854492187
 51
59.0864868164
  0
ARC
  5
255
330
1F
100
AcDbEntity
  8
0
  6
Continuous
 62
     7
370
    15
100
AcDbCircle
 10
196.8932498758
 20
184.7788326507
 30
0.0
 40
0.4999648009240387
100
AcDbArc
 50
119.0845399708
 51
239.0864868164
  0
ARC
  5
256
330
1F
100
AcDbEntity
  8
0
  6
Continuous
 62
     7
370
    15
100
AcDbCircle
 10
196.4072036468
 20
185.6526727677
 30
0.0
 40
0.4999539392760716
100
AcDbArc
 50
299.0827217788
 51
359.0919760972
  0
LINE
  5
257
330
1F
100
AcDbEntity
  8
0
  6
Continuous
 62
     7
370
    15
100
AcDbLine
 10
196.9150140255
 20
186.1446612136
 30
0.0
 11
196.9071015089
 21
185.6447496073
 31
0.0
  0
ARC
  5
258
330
1F
100
AcDbEntity
  8
0
  6
Continuous
 62
     7
370
    15
100
AcDbCircle
 10
197.6769800489
 20
186.1324944215
 30
0.0
 40
0.7620591145824512
100
AcDbArc
 50
0.9146167173
 51
179.0853824051
  0
LINE
  5
259
330
1F
100
AcDbEntity
  8
0
  6
Continuous
 62
     7
370
    15
100
AcDbLine
 10
198.4607412784
 20
184.7788207786
 30
0.0
 11
198.4389408796
 21
186.1446612136
 31
0.0
  0
ARC
  5
25A
330
1F
100
AcDbEntity
  8
0
  6
Continuous
 62
     7
370
    15
100
AcDbCircle
 10
198.9607859693
 20
184.7868044516
 30
0.0
 40
0.5001028046694528
100
AcDbArc
 50
180.9146167173
 51
240.8936507939
  0
ARC
  5
25B
330
1F
100
AcDbEntity
  8
0
  6
Continuous
 62
     7
370
    15
100
AcDbCircle
 10
198.4744747842
 20
183.9129343206
 30
0.0
 40
0.4999709960585566
100
AcDbArc
 50
300.9151777741
 51
60.9142303467
  0
ARC
  5
25C
330
1F
100
AcDbEntity
  8
0
  6
Continuous
 62
     7
370
    15
100
AcDbCircle
 10
198.9882447245
 20
183.0550031402
 30
0.0
 40
0.5000317348504089
100
AcDbArc
 50
120.9151777741
 51
180.9124131682
  0
ARC
  5
25D
330
1F
100
AcDbEntity
  8
0
  6
Continuous
 62
     7
370
    15
100
AcDbCircle
 10
198.9881812664
 20
183.0550021296
 30
0.0
 40
0.4999682687510288
100
AcDbArc
 50
180.9124131682
 51
240.9163298127
  0
ARC
  5
25E
330
1F
100
AcDbEntity
  8
0
  6
Continuous
 62
     7
370
    15
100
AcDbCircle
 10
198.5021084512
 20
182.1811533147
 30
0.0
 40
0.4999709960584903
100
AcDbArc
 50
300.9151777741
 51
60.9142303467
  0
ARC
  5
25F
330
1F
100
AcDbEntity
  8
0
  6
Continuous
 62
     7
370
    15
100
AcDbCircle
 10
199.0158783915
 20
181.3232221344
 30
0.0
 40
0.5000317348502419
100
AcDbArc
 50
120.9151777741
 51
180.9124131683
  0
ARC
  5
260
330
1F
100
AcDbEntity
  8
0
  6
Continuous
 62
     7
370
    15
100
AcDbCircle
 10
199.0158149334
 20
181.3232211237
 30
0.0
 40
0.4999682687512226
100
AcDbArc
 50
180.9124131683
 51
240.9163298127
  0
ARC
  5
261
330
1F
100
AcDbEntity
  8
0
  6
Continuous
 62
     7
370
    15
100
AcDbCircle
 10
198.5297421182
 20
180.4493723089
 30
0.0
 40
0.4999709960584943
100
AcDbArc
 50
300.9151777741
 51
60.9142303467
  0
ARC
  5
262
330
1F
100
AcDbEntity
  8
0
  6
Continuous
 62
     7
370
    15
100
AcDbCircle
 10
199.0435120585
 20
179.5914411285
 30
0.0
 40
0.5000317348503442
100
AcDbArc
 50
120.9151777741
 51
180.9124131682
  0
ARC
  5
263
330
1F
100
AcDbEntity
  8
0
  6
Continuous
 62
     7
370
    15
100
AcDbCircle
 10
199.0434486004
 20
179.5914401179
 30
0.0
 40
0.4999682687510951
100
AcDbArc
 50
180.9124131683
 51
240.9163298127
  0
ARC
  5
264
330
1F
100
AcDbEntity
  8
0
  6
Continuous
 62
     7
370
    15
100
AcDbCircle
 10
198.5573757851
 20
178.717591303
 30
0.0
 40
0.499970996058529
100
AcDbArc
 50
300.9151777741
 51
60.9142303467
  0
ARC
  5
265
330
1F
100
AcDbEntity
  8
0
  6
Continuous
 62
     7
370
    15
100
AcDbCircle
 10
199.0711457255
 20
177.8596601226
 30
0.0
 40
0.5000317348502402
100
AcDbArc
 50
120.9151777741
 51
180.9124131683
  0
ARC
  5
266
330
1F
100
AcDbEntity
  8
0
  6
Continuous
 62
     7
370
    15
100
AcDbCircle
 10
199.0710822674
 20
177.859659112
 30
0.0
 40
0.4999682687512525
100
AcDbArc
 50
180.9124131683
 51
240.9163298127
  0
ARC
  5
267
330
1F
100
AcDbEntity
  8
0
  6
Continuous
 62
     7
370
    15
100
AcDbCircle
 10
198.5850094521
 20
176.9858102972
 30
0.0
 40
0.4999709960585317
100
AcDbArc
 50
300.9151777741
 51
60.9142303467
  0
ARC
  5
268
330
1F
100
AcDbEntity
  8
0
  6
Continuous
 62
     7
370
    15
100
AcDbCircle
 10
199.0987793925
 20
176.1278791168
 30
0.0
 40
0.5000317348503813
100
AcDbArc
 50
120.9151777741
 51
180.9124131682
  0
ARC
  5
269
330
1F
100
AcDbEntity
  8
0
  6
Continuous
 62
     7
370
    15
100
AcDbCircle
 10
199.0987159344
 20
176.1278781062
 30
0.0
 40
0.4999682687510951
100
AcDbArc
 50
180.9124131682
 51
240.9163298127
  0
ARC
  5
26A
330
1F
100
AcDbEntity
  8
0
  6
Continuous
 62
     7
370
    15
100
AcDbCircle
 10
198.6126431191
 20
175.2540292913
 30
0.0
 40
0.4999709960585235
100
AcDbArc
 50
300.9151777741
 51
60.9142303467
  0
ARC
  5
26B
330
1F
100
AcDbEntity
  8
0
  6
Continuous
 62
     7
370
    15
100
AcDbCircle
 10
199.1264130594
 20
174.3960981109
 30
0.0
 40
0.5000317348504271
100
AcDbArc
 50
120.9151777741
 51
180.9124131682
  0
ARC
  5
26C
330
1F
100
AcDbEntity
  8
0
  6
Continuous
 62
     7
370
    15
100
AcDbCircle
 10
199.1263496014
 20
174.3960971003
 30
0.0
 40
0.4999682687510792
100
AcDbArc
 50
180.9124131682
 51
240.9163298127
  0
ARC
  5
26D
330
1F
100
AcDbEntity
  8
0
  6
Continuous
 62
     7
370
    15
100
AcDbCircle
 10
198.6402767861
 20
173.5222482854
 30
0.0
 40
0.4999709960585566
100
AcDbArc
 50
300.9151777741
 51
60.9142303467
  0
ARC
  5
26E
330
1F
100
AcDbEntity
  8
0
  6
Continuous
 62
     7
370
    15
100
AcDbCircle
 10
199.1540467264
 20
172.6643171051
 30
0.0
 40
0.5000317348504093
100
AcDbArc
 50
120.9151777741
 51
180.9124131682
  0
ARC
  5
26F
330
1F
100
AcDbEntity
  8
0
  6
Continuous
 62
     7
370
    15
100
AcDbCircle
 10
199.1539832684
 20
172.6643160944
 30
0.0
 40
0.4999682687510813
100
AcDbArc
 50
180.9124131682
 51
240.9163298127
  0
ARC
  5
270
330
1F
100
AcDbEntity
  8
0
  6
Continuous
 62
     7
370
    15
100
AcDbCircle
 10
198.6679104531
 20
171.7904672796
 30
0.0
 40
0.4999709960584903
100
AcDbArc
 50
300.9151777741
 51
60.9142303467
  0
ARC
  5
271
330
1F
100
AcDbEntity
  8
0
  6
Continuous
 62
     7
370
    15
100
AcDbCircle
 10
199.1816803934
 20
170.9325360992
 30
0.0
 40
0.5000317348502686
100
AcDbArc
 50
120.9151777741
 51
180.9124131683
  0
ARC
  5
272
330
1F
100
AcDbEntity
  8
0
  6
Continuous
 62
     7
370
    15
100
AcDbCircle
 10
199.1816169354
 20
170.9325350886
 30
0.0
 40
0.4999682687511862
100
AcDbArc
 50
180.9124131683
 51
240.9163298127
  0
ARC
  5
273
330
1F
100
AcDbEntity
  8
0
  6
Continuous
 62
     7
370
    15
100
AcDbCircle
 10
198.6955441201
 20
170.0586862737
 30
0.0
 40
0.4999709960584943
100
AcDbArc
 50
300.9151777741
 51
60.9142303467
  0
ARC
  5
274
330
1F
100
AcDbEntity
  8
0
  6
Continuous
 62
     7
370
    15
100
AcDbCircle
 10
199.2093140604
 20
169.2007550934
 30
0.0
 40
0.5000317348503442
100
AcDbArc
 50
120.9151777741
 51
180.9124131682
  0
ARC
  5
275
330
1F
100
AcDbEntity
  8
0
  6
Continuous
 62
     7
370
    15
100
AcDbCircle
 10
199.2092506024
 20
169.2007540827
 30
0.0
 40
0.4999682687511653
100
AcDbArc
 50
180.9124131683
 51
240.9163298127
  0
ARC
  5
276
330
1F
100
AcDbEntity
  8
0
  6
Continuous
 62
     7
370
    15
100
AcDbCircle
 10
198.7231777871
 20
168.3269052679
 30
0.0
 40
0.4999709960585151
100
AcDbArc
 50
300.9151777741
 51
60.9142303467
  0
ARC
  5
277
330
1F
100
AcDbEntity
  8
0
  6
Continuous
 62
     7
370
    15
100
AcDbCircle
 10
199.2369477274
 20
167.4689740875
 30
0.0
 40
0.5000317348502122
100
AcDbArc
 50
120.9151777741
 51
180.9124131683
  0
ARC
  5
278
330
1F
100
AcDbEntity
  8
0
  6
Continuous
 62
     7
370
    15
100
AcDbCircle
 10
199.2368842694
 20
167.4689730769
 30
0.0
 40
0.4999682687512774
100
AcDbArc
 50
180.9124131683
 51
240.9163298127
  0
ARC
  5
279
330
1F
100
AcDbEntity
  8
0
  6
Continuous
 62
     7
370
    15
100
AcDbCircle
 10
198.7508326054
 20
166.5951245997
 30
0.0
 40
0.4999604192236173
100
AcDbArc
 50
300.9130783081
 51
60.9163298127
  0
ARC
  5
27A
330
1F
100
AcDbEntity
  8
0
  6
Continuous
 62
     7
370
    15
100
AcDbCircle
 10
199.2645493715
 20
165.7372108953
 30
0.0
 40
0.5000000000000393
100
AcDbArc
 50
120.9130783081
 51
180.9145126343
  0
ARC
  5
27B
330
1F
100
AcDbEntity
  8
0
  6
Continuous
 62
     7
370
    15
100
AcDbCircle
 10
199.2645202807
 20
165.7372104309
 30
0.0
 40
0.4999709055155399
100
AcDbArc
 50
180.9145126343
 51
240.9166797754
  0
ARC
  5
27C
330
1F
100
AcDbEntity
  8
0
  6
Continuous
 62
     7
370
    15
100
AcDbCircle
 10
198.7784612901
 20
164.8633519144
 30
0.0
 40
0.499970117396524
100
AcDbArc
 50
300.9130783081
 51
60.9158053319
  0
ARC
  5
27D
330
1F
100
AcDbEntity
  8
0
  6
Continuous
 62
     7
370
    15
100
AcDbCircle
 10
199.2922150614
 20
164.0054120758
 30
0.0
 40
0.5000317348503535
100
AcDbArc
 50
120.9151777741
 51
180.9124131683
  0
ARC
  5
27E
330
1F
100
AcDbEntity
  8
0
  6
Continuous
 62
     7
370
    15
100
AcDbCircle
 10
199.2921516033
 20
164.0054110651
 30
0.0
 40
0.4999682687511369
100
AcDbArc
 50
180.9124131683
 51
240.9163298127
  0
ARC
  5
27F
330
1F
100
AcDbEntity
  8
0
  6
Continuous
 62
     7
370
    15
100
AcDbCircle
 10
198.8060999394
 20
163.131562588
 30
0.0
 40
0.4999604192236424
100
AcDbArc
 50
300.9130783081
 51
60.9163298127
  0
ARC
  5
280
330
1F
100
AcDbEntity
  8
0
  6
Continuous
 62
     7
370
    15
100
AcDbCircle
 10
199.3198487284
 20
162.2736310699
 30
0.0
 40
0.5000317348501554
100
AcDbArc
 50
120.9151777741
 51
180.9124131683
  0
ARC
  5
281
330
1F
100
AcDbEntity
  8
0
  6
Continuous
 62
     7
370
    15
100
AcDbCircle
 10
199.3197852703
 20
162.2736300593
 30
0.0
 40
0.4999682687512774
100
AcDbArc
 50
180.9124131683
 51
240.9163298127
  0
ARC
  5
282
330
1F
100
AcDbEntity
  8
0
  6
Continuous
 62
     7
370
    15
100
AcDbCircle
 10
198.8337336064
 20
161.3997815821
 30
0.0
 40
0.4999604192236173
100
AcDbArc
 50
300.9130783081
 51
60.9163298127
  0
ARC
  5
283
330
1F
100
AcDbEntity
  8
0
  6
Continuous
 62
     7
370
    15
100
AcDbCircle
 10
199.3474823954
 20
160.5418500641
 30
0.0
 40
0.5000317348501843
100
AcDbArc
 50
120.9151777741
 51
180.9124131683
  0
ARC
  5
284
330
1F
100
AcDbEntity
  8
0
  6
Continuous
 62
     7
370
    15
100
AcDbCircle
 10
199.3474189373
 20
160.5418490534
 30
0.0
 40
0.4999682687512912
100
AcDbArc
 50
180.9124131683
 51
240.9163298127
  0
ARC
  5
285
330
1F
100
AcDbEntity
  8
0
  6
Continuous
 62
     7
370
    15
100
AcDbCircle
 10
198.8613672734
 20
159.6680005763
 30
0.0
 40
0.4999604192236319
100
AcDbArc
 50
300.9130783081
 51
60.9163298127
  0
ARC
  5
286
330
1F
100
AcDbEntity
  8
0
  6
Continuous
 62
     7
370
    15
100
AcDbCircle
 10
199.3751160624
 20
158.8100690582
 30
0.0
 40
0.500031734850198
100
AcDbArc
 50
120.9151777741
 51
180.9124131683
  0
ARC
  5
287
330
1F
100
AcDbEntity
  8
0
  6
Continuous
 62
     7
370
    15
100
AcDbCircle
 10
199.3750526043
 20
158.8100680476
 30
0.0
 40
0.4999682687512803
100
AcDbArc
 50
180.9124131683
 51
240.9163298127
  0
ARC
  5
288
330
1F
100
AcDbEntity
  8
0
  6
Continuous
 62
     7
370
    15
100
AcDbCircle
 10
198.8890009404
 20
157.9362195704
 30
0.0
 40
0.4999604192236562
100
AcDbArc
 50
300.9130783081
 51
60.9163298127
  0
ARC
  5
289
330
1F
100
AcDbEntity
  8
0
  6
Continuous
 62
     7
370
    15
100
AcDbCircle
 10
199.4027497294
 20
157.0782880523
 30
0.0
 40
0.5000317348503529
100
AcDbArc
 50
120.9151777741
 51
180.9124131682
  0
ARC
  5
28A
330
1F
100
AcDbEntity
  8
0
  6
Continuous
 62
     7
370
    15
100
AcDbCircle
 10
199.4026862713
 20
157.0782870417
 30
0.0
 40
0.4999682687511476
100
AcDbArc
 50
180.9124131683
 51
240.9163298127
  0
ARC
  5
28B
330
1F
100
AcDbEntity
  8
0
  6
Continuous
 62
     7
370
    15
100
AcDbCircle
 10
198.9166346074
 20
156.2044385645
 30
0.0
 40
0.4999604192236173
100
AcDbArc
 50
300.9130783081
 51
60.9163298127
  0
ARC
  5
28C
330
1F
100
AcDbEntity
  8
0
  6
Continuous
 62
     7
370
    15
100
AcDbCircle
 10
199.4303833964
 20
155.3465070465
 30
0.0
 40
0.500031734850325
100
AcDbArc
 50
120.9151777741
 51
180.9124131683
  0
ARC
  5
28D
330
1F
100
AcDbEntity
  8
0
  6
Continuous
 62
     7
370
    15
100
AcDbCircle
 10
199.4303199383
 20
155.3465060358
 30
0.0
 40
0.4999682687511476
100
AcDbArc
 50
180.9124131683
 51
240.9163298127
  0
ARC
  5
28E
330
1F
100
AcDbEntity
  8
0
  6
Continuous
 62
     7
370
    15
100
AcDbCircle
 10
198.9442682744
 20
154.4726575587
 30
0.0
 40
0.4999604192235929
100
AcDbArc
 50
300.9130783081
 51
60.9163298127
  0
ARC
  5
28F
330
1F
100
AcDbEntity
  8
0
  6
Continuous
 62
     7
370
    15
100
AcDbCircle
 10
199.4580170633
 20
153.6147260406
 30
0.0
 40
0.5000317348504124
100
AcDbArc
 50
120.9151777741
 51
180.9124131682
  0
ARC
  5
290
330
1F
100
AcDbEntity
  8
0
  6
Continuous
 62
     7
370
    15
100
AcDbCircle
 10
199.4579536053
 20
153.61472503
 30
0.0
 40
0.4999682687511076
100
AcDbArc
 50
180.9124131682
 51
240.9163298127
  0
ARC
  5
291
330
1F
100
AcDbEntity
  8
0
  6
Continuous
 62
     7
370
    15
100
AcDbCircle
 10
198.9719019414
 20
152.7408765528
 30
0.0
 40
0.4999604192236424
100
AcDbArc
 50
300.9130783081
 51
60.9163298127
  0
ARC
  5
292
330
1F
100
AcDbEntity
  8
0
  6
Continuous
 62
     7
370
    15
100
AcDbCircle
 10
199.4856507303
 20
151.8829450348
 30
0.0
 40
0.5000317348502122
100
AcDbArc
 50
120.9151777741
 51
180.9124131683
  0
ARC
  5
293
330
1F
100
AcDbEntity
  8
0
  6
Continuous
 62
     7
370
    15
100
AcDbCircle
 10
199.4855872723
 20
151.8829440241
 30
0.0
 40
0.4999682687512774
100
AcDbArc
 50
180.9124131683
 51
240.9163298127
  0
ARC
  5
294
330
1F
100
AcDbEntity
  8
0
  6
Continuous
 62
     7
370
    15
100
AcDbCircle
 10
198.9995356084
 20
151.009095547
 30
0.0
 40
0.4999604192236173
100
AcDbArc
 50
300.9130783081
 51
60.9163298127
  0
ARC
  5
295
330
1F
100
AcDbEntity
  8
0
  6
Continuous
 62
     7
370
    15
100
AcDbCircle
 10
199.5132843973
 20
150.1511640289
 30
0.0
 40
0.5000317348501558
100
AcDbArc
 50
120.9151777741
 51
180.9124131683
  0
ARC
  5
296
330
1F
100
AcDbEntity
  8
0
  6
Continuous
 62
     7
370
    15
100
AcDbCircle
 10
199.5132209393
 20
150.1511630183
 30
0.0
 40
0.4999682687512912
100
AcDbArc
 50
180.9124131683
 51
240.9163298127
  0
ARC
  5
297
330
1F
100
AcDbEntity
  8
0
  6
Continuous
 62
     7
370
    15
100
AcDbCircle
 10
199.0271692754
 20
149.2773145411
 30
0.0
 40
0.4999604192236319
100
AcDbArc
 50
300.9130783081
 51
60.9163298127
  0
ARC
  5
298
330
1F
100
AcDbEntity
  8
0
  6
Continuous
 62
     7
370
    15
100
AcDbCircle
 10
199.5409180643
 20
148.419383023
 30
0.0
 40
0.5000317348502127
100
AcDbArc
 50
120.9151777741
 51
180.9124131683
  0
ARC
  5
299
330
1F
100
AcDbEntity
  8
0
  6
Continuous
 62
     7
370
    15
100
AcDbCircle
 10
199.5408546063
 20
148.4193820124
 30
0.0
 40
0.4999682687512803
100
AcDbArc
 50
180.9124131683
 51
240.9163298127
  0
ARC
  5
29A
330
1F
100
AcDbEntity
  8
0
  6
Continuous
 62
     7
370
    15
100
AcDbCircle
 10
199.0548029423
 20
147.5455335353
 30
0.0
 40
0.4999604192236562
100
AcDbArc
 50
300.9130783081
 51
60.9163298127
  0
ARC
  5
29B
330
1F
100
AcDbEntity
  8
0
  6
Continuous
 62
     7
370
    15
100
AcDbCircle
 10
199.5685517313
 20
146.6876020172
 30
0.0
 40
0.500031734850325
100
AcDbArc
 50
120.9151777741
 51
180.9124131683
  0
ARC
  5
29C
330
1F
100
AcDbEntity
  8
0
  6
Continuous
 62
     7
370
    15
100
AcDbCircle
 10
199.5684882733
 20
146.6876010065
 30
0.0
 40
0.4999682687511724
100
AcDbArc
 50
180.9124131683
 51
240.9163298127
  0
ARC
  5
29D
330
1F
100
AcDbEntity
  8
0
  6
Continuous
 62
     7
370
    15
100
AcDbCircle
 10
199.0824366093
 20
145.8137525294
 30
0.0
 40
0.4999604192236173
100
AcDbArc
 50
300.9130783081
 51
60.9163298127
  0
ARC
  5
29E
330
1F
100
AcDbEntity
  8
0
  6
Continuous
 62
     7
370
    15
100
AcDbCircle
 10
199.5961533754
 20
144.9558388249
 30
0.0
 40
0.5000000000000393
100
AcDbArc
 50
120.9130783081
 51
180.9145126343
  0
ARC
  5
29F
330
1F
100
AcDbEntity
  8
0
  6
Continuous
 62
     7
370
    15
100
AcDbCircle
 10
199.5961452938
 20
144.9558339854
 30
0.0
 40
0.4999918421835181
100
AcDbArc
 50
180.9139729103
 51
240.9147700707
  0
ARC
  5
2A0
330
1F
100
AcDbEntity
  8
0
  6
Continuous
 62
     7
370
    15
100
AcDbCircle
 10
199.1100438562
 20
144.0819520254
 30
0.0
 40
0.4999903015539567
100
AcDbArc
 50
300.9150238037
 51
60.9147700707
  0
ARC
  5
2A1
330
1F
100
AcDbEntity
  8
0
  6
Continuous
 62
     7
370
    15
100
AcDbCircle
 10
199.6238232101
 20
143.2239998947
 30
0.0
 40
0.5000352396371688
100
AcDbArc
 50
120.9150238037
 51
180.9101751035
  0
LINE
  5
2A2
330
1F
100
AcDbEntity
  8
0
  6
Continuous
 62
     7
370
    15
100
AcDbLine
 10
199.1615726917
 20
140.87856939
 30
0.0
 11
199.1238578527
 21
143.2160549418
 31
0.0
  0
ARC
  5
2A3
330
1F
100
AcDbEntity
  8
0
  6
Continuous
 62
     7
370
    15
100
AcDbCircle
 10
200.161590002
 20
140.8947042591
 30
0.0
 40
1.000152370840054
100
AcDbArc
 50
180.9244206309
 51
269.9917353001
  0
LINE
  5
2A4
330
1F
100
AcDbEntity
  8
0
  6
Continuous
 62
     7
370
    15
100
AcDbLine
 10
208.5925325124
 20
139.8945488588
 30
0.0
 11
200.1614406078
 21
139.8945488588
 31
0.0
  0
ARC
  5
2A5
330
1F
100
AcDbEntity
  8
0
  6
Continuous
 62
     7
370
    15
100
AcDbCircle
 10
208.5925351322
 20
140.8945596064
 30
0.0
 40
1.000007707758141
100
AcDbArc
 50
270.0001094464
 51
359.0837346226
  0
LINE
  5
2A6
330
1F
100
AcDbEntity
  8
0
  6
Continuous
 62
     7
370
    15
100
AcDbLine
 10
209.6298023431
 20
143.2160623924
 30
0.0
 11
209.5924153297
 21
140.87856939
 31
0.0
  0
ARC
  5
2A7
330
1F
100
AcDbEntity
  8
0
  6
Continuous
 62
     7
370
    15
100
AcDbCircle
 10
209.1295865145
 20
143.2240622175
 30
0.0
 40
0.5002764596067758
100
AcDbArc
 50
359.0837346226
 51
59.0250025991
  0
ARC
  5
2A8
330
1F
100
AcDbEntity
  8
0
  6
Continuous
 62
     7
370
    15
100
AcDbCircle
 10
209.6445435314
 20
144.0819423701
 30
0.0
 40
0.5002929210097279
100
AcDbArc
 50
119.1452035265
 51
239.0250025991
  0
ARC
  5
2A9
330
1F
100
AcDbEntity
  8
0
  6
Continuous
 62
     7
370
    15
100
AcDbCircle
 10
209.1569378433
 20
144.956372715
 30
0.0
 40
0.5009002347050217
100
AcDbArc
 50
299.1452035265
 51
359.0260458631
  0
ARC
  5
2AA
330
1F
100
AcDbEntity
  8
0
  6
Continuous
 62
     7
370
    15
100
AcDbCircle
 10
209.1587342559
 20
144.9563421753
 30
0.0
 40
0.4991035625431022
100
AcDbArc
 50
359.0260458631
 51
59.1463479357
  0
ARC
  5
2AB
330
1F
100
AcDbEntity
  8
0
  6
Continuous
 62
     7
370
    15
100
AcDbCircle
 10
209.6715463206
 20
145.8137525269
 30
0.0
 40
0.4999604960944393
100
AcDbArc
 50
119.0836854467
 51
239.0869140625
  0
ARC
  5
2AC
330
1F
100
AcDbEntity
  8
0
  6
Continuous
 62
     7
370
    15
100
AcDbCircle
 10
209.1854942745
 20
146.6876011434
 30
0.0
 40
0.4999684993592469
100
AcDbArc
 50
299.0836854467
 51
359.087563943
  0
ARC
  5
2AD
330
1F
100
AcDbEntity
  8
0
  6
Continuous
 62
     7
370
    15
100
AcDbCircle
 10
209.1854312776
 20
146.6876021467
 30
0.0
 40
0.5000315041773438
100
AcDbArc
 50
359.087563943
 51
59.0848298559
  0
ARC
  5
2AE
330
1F
100
AcDbEntity
  8
0
  6
Continuous
 62
     7
370
    15
100
AcDbCircle
 10
209.6991799876
 20
147.5455335328
 30
0.0
 40
0.4999604960944215
100
AcDbArc
 50
119.0836854467
 51
239.0869140625
  0
ARC
  5
2AF
330
1F
100
AcDbEntity
  8
0
  6
Continuous
 62
     7
370
    15
100
AcDbCircle
 10
209.2131279415
 20
148.4193821492
 30
0.0
 40
0.4999684993592469
100
AcDbArc
 50
299.0836854467
 51
359.087563943
  0
ARC
  5
2B0
330
1F
100
AcDbEntity
  8
0
  6
Continuous
 62
     7
370
    15
100
AcDbCircle
 10
209.2130649446
 20
148.4193831525
 30
0.0
 40
0.5000315041773583
100
AcDbArc
 50
359.087563943
 51
59.0848298559
  0
ARC
  5
2B1
330
1F
100
AcDbEntity
  8
0
  6
Continuous
 62
     7
370
    15
100
AcDbCircle
 10
209.7268136546
 20
149.2773145387
 30
0.0
 40
0.4999604960944077
100
AcDbArc
 50
119.0836854467
 51
239.0869140625
  0
ARC
  5
2B2
330
1F
100
AcDbEntity
  8
0
  6
Continuous
 62
     7
370
    15
100
AcDbCircle
 10
209.2407616084
 20
150.1511631551
 30
0.0
 40
0.4999684993592709
100
AcDbArc
 50
299.0836854467
 51
359.087563943
  0
ARC
  5
2B3
330
1F
100
AcDbEntity
  8
0
  6
Continuous
 62
     7
370
    15
100
AcDbCircle
 10
209.2406986116
 20
150.1511641584
 30
0.0
 40
0.5000315041772818
100
AcDbArc
 50
359.087563943
 51
59.0848298559
  0
ARC
  5
2B4
330
1F
100
AcDbEntity
  8
0
  6
Continuous
 62
     7
370
    15
100
AcDbCircle
 10
209.7544473216
 20
151.0090955445
 30
0.0
 40
0.4999604960944247
100
AcDbArc
 50
119.0836854467
 51
239.0869140625
  0
ARC
  5
2B5
330
1F
100
AcDbEntity
  8
0
  6
Continuous
 62
     7
370
    15
100
AcDbCircle
 10
209.2683952754
 20
151.8829441609
 30
0.0
 40
0.4999684993592709
100
AcDbArc
 50
299.0836854467
 51
359.087563943
  0
ARC
  5
2B6
330
1F
100
AcDbEntity
  8
0
  6
Continuous
 62
     7
370
    15
100
AcDbCircle
 10
209.2683322786
 20
151.8829451642
 30
0.0
 40
0.5000315041773583
100
AcDbArc
 50
359.087563943
 51
59.0848298559
  0
ARC
  5
2B7
330
1F
100
AcDbEntity
  8
0
  6
Continuous
 62
     7
370
    15
100
AcDbCircle
 10
209.7820809886
 20
152.7408765504
 30
0.0
 40
0.4999604960943939
100
AcDbArc
 50
119.0836854467
 51
239.0869140625
  0
ARC
  5
2B8
330
1F
100
AcDbEntity
  8
0
  6
Continuous
 62
     7
370
    15
100
AcDbCircle
 10
209.2960289424
 20
153.6147251668
 30
0.0
 40
0.4999684993592469
100
AcDbArc
 50
299.0836854467
 51
359.087563943
  0
ARC
  5
2B9
330
1F
100
AcDbEntity
  8
0
  6
Continuous
 62
     7
370
    15
100
AcDbCircle
 10
209.2959659456
 20
153.6147261701
 30
0.0
 40
0.5000315041773662
100
AcDbArc
 50
359.087563943
 51
59.0848298559
  0
ARC
  5
2BA
330
1F
100
AcDbEntity
  8
0
  6
Continuous
 62
     7
370
    15
100
AcDbCircle
 10
209.8097146555
 20
154.4726575562
 30
0.0
 40
0.499960496094415
100
AcDbArc
 50
119.0836854467
 51
239.0869140625
  0
ARC
  5
2BB
330
1F
100
AcDbEntity
  8
0
  6
Continuous
 62
     7
370
    15
100
AcDbCircle
 10
209.3236626094
 20
155.3465061727
 30
0.0
 40
0.4999684993594007
100
AcDbArc
 50
299.0836854467
 51
359.087563943
  0
ARC
  5
2BC
330
1F
100
AcDbEntity
  8
0
  6
Continuous
 62
     7
370
    15
100
AcDbCircle
 10
209.3235996126
 20
155.346507176
 30
0.0
 40
0.5000315041771407
100
AcDbArc
 50
359.087563943
 51
59.0848298559
  0
ARC
  5
2BD
330
1F
100
AcDbEntity
  8
0
  6
Continuous
 62
     7
370
    15
100
AcDbCircle
 10
209.8373483225
 20
156.2044385621
 30
0.0
 40
0.4999604960944393
100
AcDbArc
 50
119.0836854467
 51
239.0869140625
  0
ARC
  5
2BE
330
1F
100
AcDbEntity
  8
0
  6
Continuous
 62
     7
370
    15
100
AcDbCircle
 10
209.3512962764
 20
157.0782871785
 30
0.0
 40
0.4999684993592709
100
AcDbArc
 50
299.0836854467
 51
359.087563943
  0
ARC
  5
2BF
330
1F
100
AcDbEntity
  8
0
  6
Continuous
 62
     7
370
    15
100
AcDbCircle
 10
209.3512332796
 20
157.0782881818
 30
0.0
 40
0.5000315041773583
100
AcDbArc
 50
359.087563943
 51
59.0848298559
  0
ARC
  5
2C0
330
1F
100
AcDbEntity
  8
0
  6
Continuous
 62
     7
370
    15
100
AcDbCircle
 10
209.8649819895
 20
157.936219568
 30
0.0
 40
0.4999604960944215
100
AcDbArc
 50
119.0836854467
 51
239.0869140625
  0
ARC
  5
2C1
330
1F
100
AcDbEntity
  8
0
  6
Continuous
 62
     7
370
    15
100
AcDbCircle
 10
209.3789299434
 20
158.8100681844
 30
0.0
 40
0.4999684993592709
100
AcDbArc
 50
299.0836854467
 51
359.087563943
  0
ARC
  5
2C2
330
1F
100
AcDbEntity
  8
0
  6
Continuous
 62
     7
370
    15
100
AcDbCircle
 10
209.3788669466
 20
158.8100691877
 30
0.0
 40
0.5000315041772814
100
AcDbArc
 50
359.087563943
 51
59.0848298559
  0
ARC
  5
2C3
330
1F
100
AcDbEntity
  8
0
  6
Continuous
 62
     7
370
    15
100
AcDbCircle
 10
209.8926156565
 20
159.6680005738
 30
0.0
 40
0.4999604960944077
100
AcDbArc
 50
119.0836854467
 51
239.0869140625
  0
ARC
  5
2C4
330
1F
100
AcDbEntity
  8
0
  6
Continuous
 62
     7
370
    15
100
AcDbCircle
 10
209.4065636104
 20
160.5418491902
 30
0.0
 40
0.4999684993592709
100
AcDbArc
 50
299.0836854467
 51
359.087563943
  0
ARC
  5
2C5
330
1F
100
AcDbEntity
  8
0
  6
Continuous
 62
     7
370
    15
100
AcDbCircle
 10
209.4065006136
 20
160.5418501935
 30
0.0
 40
0.5000315041773098
100
AcDbArc
 50
359.087563943
 51
59.0848298559
  0
ARC
  5
2C6
330
1F
100
AcDbEntity
  8
0
  6
Continuous
 62
     7
370
    15
100
AcDbCircle
 10
209.9202493235
 20
161.3997815797
 30
0.0
 40
0.4999604960944247
100
AcDbArc
 50
119.0836854467
 51
239.0869140625
  0
ARC
  5
2C7
330
1F
100
AcDbEntity
  8
0
  6
Continuous
 62
     7
370
    15
100
AcDbCircle
 10
209.4341972774
 20
162.2736301961
 30
0.0
 40
0.4999684993592469
100
AcDbArc
 50
299.0836854467
 51
359.087563943
  0
ARC
  5
2C8
330
1F
100
AcDbEntity
  8
0
  6
Continuous
 62
     7
370
    15
100
AcDbCircle
 10
209.4341342806
 20
162.2736311994
 30
0.0
 40
0.5000315041773583
100
AcDbArc
 50
359.087563943
 51
59.0848298559
  0
ARC
  5
2C9
330
1F
100
AcDbEntity
  8
0
  6
Continuous
 62
     7
370
    15
100
AcDbCircle
 10
209.9478829905
 20
163.1315625855
 30
0.0
 40
0.4999604960943939
100
AcDbArc
 50
119.0836854467
 51
239.0869140625
  0
ARC
  5
2CA
330
1F
100
AcDbEntity
  8
0
  6
Continuous
 62
     7
370
    15
100
AcDbCircle
 10
209.4618309444
 20
164.0054112019
 30
0.0
 40
0.4999684993592185
100
AcDbArc
 50
299.0836854467
 51
359.087563943
  0
ARC
  5
2CB
330
1F
100
AcDbEntity
  8
0
  6
Continuous
 62
     7
370
    15
100
AcDbCircle
 10
209.4617679476
 20
164.0054122053
 30
0.0
 40
0.5000315041774226
100
AcDbArc
 50
359.087563943
 51
59.0848298559
  0
ARC
  5
2CC
330
1F
100
AcDbEntity
  8
0
  6
Continuous
 62
     7
370
    15
100
AcDbCircle
 10
209.9755166575
 20
164.8633435914
 30
0.0
 40
0.499960496094415
100
AcDbArc
 50
119.0836854467
 51
239.0869140625
  0
ARC
  5
2CD
330
1F
100
AcDbEntity
  8
0
  6
Continuous
 62
     7
370
    15
100
AcDbCircle
 10
209.4894676819
 20
165.7371921589
 30
0.0
 40
0.499966964073092
100
AcDbArc
 50
299.0833806563
 51
59.0895949443
  0
ARC
  5
2CE
330
1F
100
AcDbEntity
  8
0
  6
Continuous
 62
     7
370
    15
100
AcDbCircle
 10
210.0031300583
 20
166.5951058446
 30
0.0
 40
0.4999670338100753
100
AcDbArc
 50
119.0806111814
 51
239.0895949443
  0
ARC
  5
2CF
330
1F
100
AcDbEntity
  8
0
  6
Continuous
 62
     7
370
    15
100
AcDbCircle
 10
209.517144302
 20
167.4689456534
 30
0.0
 40
0.4999220434509509
100
AcDbArc
 50
299.0806111814
 51
359.0906382083
  0
ARC
  5
2D0
330
1F
100
AcDbEntity
  8
0
  6
Continuous
 62
     7
370
    15
100
AcDbCircle
 10
209.5169883828
 20
167.4689481283
 30
0.0
 40
0.5000779822095427
100
AcDbArc
 50
359.0906382083
 51
59.0817555905
  0
ARC
  5
2D1
330
1F
100
AcDbEntity
  8
0
  6
Continuous
 62
     7
370
    15
100
AcDbCircle
 10
210.0307839915
 20
168.3269056031
 30
0.0
 40
0.4999604960944215
100
AcDbArc
 50
119.0836854467
 51
239.0869140625
  0
ARC
  5
2D2
330
1F
100
AcDbEntity
  8
0
  6
Continuous
 62
     7
370
    15
100
AcDbCircle
 10
209.5447319454
 20
169.2007542195
 30
0.0
 40
0.4999684993592469
100
AcDbArc
 50
299.0836854467
 51
359.087563943
  0
ARC
  5
2D3
330
1F
100
AcDbEntity
  8
0
  6
Continuous
 62
     7
370
    15
100
AcDbCircle
 10
209.5446689485
 20
169.2007552228
 30
0.0
 40
0.5000315041773583
100
AcDbArc
 50
359.087563943
 51
59.0848298559
  0
ARC
  5
2D4
330
1F
100
AcDbEntity
  8
0
  6
Continuous
 62
     7
370
    15
100
AcDbCircle
 10
210.0584176585
 20
170.058686609
 30
0.0
 40
0.4999604960944325
100
AcDbArc
 50
119.0836854467
 51
239.0869140625
  0
ARC
  5
2D5
330
1F
100
AcDbEntity
  8
0
  6
Continuous
 62
     7
370
    15
100
AcDbCircle
 10
209.5723656124
 20
170.9325352254
 30
0.0
 40
0.4999684993592474
100
AcDbArc
 50
299.0836854467
 51
359.087563943
  0
ARC
  5
2D6
330
1F
100
AcDbEntity
  8
0
  6
Continuous
 62
     7
370
    15
100
AcDbCircle
 10
209.5723026155
 20
170.9325362287
 30
0.0
 40
0.5000315041772657
100
AcDbArc
 50
359.087563943
 51
59.0848298559
  0
ARC
  5
2D7
330
1F
100
AcDbEntity
  8
0
  6
Continuous
 62
     7
370
    15
100
AcDbCircle
 10
210.0860513255
 20
171.7904676148
 30
0.0
 40
0.4999604960944004
100
AcDbArc
 50
119.0836854467
 51
239.0869140625
  0
ARC
  5
2D8
330
1F
100
AcDbEntity
  8
0
  6
Continuous
 62
     7
370
    15
100
AcDbCircle
 10
209.5999992793
 20
172.6643162312
 30
0.0
 40
0.4999684993592709
100
AcDbArc
 50
299.0836854467
 51
359.087563943
  0
ARC
  5
2D9
330
1F
100
AcDbEntity
  8
0
  6
Continuous
 62
     7
370
    15
100
AcDbCircle
 10
209.5999362825
 20
172.6643172346
 30
0.0
 40
0.500031504177373
100
AcDbArc
 50
359.087563943
 51
59.0848298559
  0
ARC
  5
2DA
330
1F
100
AcDbEntity
  8
0
  6
Continuous
 62
     7
370
    15
100
AcDbCircle
 10
210.1136849925
 20
173.5222486207
 30
0.0
 40
0.4999604960943939
100
AcDbArc
 50
119.0836854467
 51
239.0869140625
  0
ARC
  5
2DB
330
1F
100
AcDbEntity
  8
0
  6
Continuous
 62
     7
370
    15
100
AcDbCircle
 10
209.6276329463
 20
174.3960972371
 30
0.0
 40
0.4999684993592469
100
AcDbArc
 50
299.0836854467
 51
359.087563943
  0
ARC
  5
2DC
330
1F
100
AcDbEntity
  8
0
  6
Continuous
 62
     7
370
    15
100
AcDbCircle
 10
209.6275699495
 20
174.3960982404
 30
0.0
 40
0.5000315041773662
100
AcDbArc
 50
359.087563943
 51
59.0848298559
  0
ARC
  5
2DD
330
1F
100
AcDbEntity
  8
0
  6
Continuous
 62
     7
370
    15
100
AcDbCircle
 10
210.1413186595
 20
175.2540296265
 30
0.0
 40
0.499960496094415
100
AcDbArc
 50
119.0836854467
 51
239.0869140625
  0
ARC
  5
2DE
330
1F
100
AcDbEntity
  8
0
  6
Continuous
 62
     7
370
    15
100
AcDbCircle
 10
209.6552666133
 20
176.127878243
 30
0.0
 40
0.4999684993594007
100
AcDbArc
 50
299.0836854467
 51
359.087563943
  0
ARC
  5
2DF
330
1F
100
AcDbEntity
  8
0
  6
Continuous
 62
     7
370
    15
100
AcDbCircle
 10
209.6552036165
 20
176.1278792463
 30
0.0
 40
0.5000315041771407
100
AcDbArc
 50
359.087563943
 51
59.0848298559
  0
ARC
  5
2E0
330
1F
100
AcDbEntity
  8
0
  6
Continuous
 62
     7
370
    15
100
AcDbCircle
 10
210.1689523264
 20
176.9858106324
 30
0.0
 40
0.499960496094415
100
AcDbArc
 50
119.0836854467
 51
239.0869140625
  0
ARC
  5
2E1
330
1F
100
AcDbEntity
  8
0
  6
Continuous
 62
     7
370
    15
100
AcDbCircle
 10
209.6829002803
 20
177.8596592488
 30
0.0
 40
0.4999684993592709
100
AcDbArc
 50
299.0836854467
 51
359.087563943
  0
ARC
  5
2E2
330
1F
100
AcDbEntity
  8
0
  6
Continuous
 62
     7
370
    15
100
AcDbCircle
 10
209.6828372835
 20
177.8596602521
 30
0.0
 40
0.5000315041773583
100
AcDbArc
 50
359.087563943
 51
59.0848298559
  0
ARC
  5
2E3
330
1F
100
AcDbEntity
  8
0
  6
Continuous
 62
     7
370
    15
100
AcDbCircle
 10
210.1965859934
 20
178.7175916383
 30
0.0
 40
0.4999604960944215
100
AcDbArc
 50
119.0836854467
 51
239.0869140625
  0
ARC
  5
2E4
330
1F
100
AcDbEntity
  8
0
  6
Continuous
 62
     7
370
    15
100
AcDbCircle
 10
209.7105339473
 20
179.5914402547
 30
0.0
 40
0.4999684993592474
100
AcDbArc
 50
299.0836854467
 51
359.087563943
  0
ARC
  5
2E5
330
1F
100
AcDbEntity
  8
0
  6
Continuous
 62
     7
370
    15
100
AcDbCircle
 10
209.7104709505
 20
179.591441258
 30
0.0
 40
0.5000315041772814
100
AcDbArc
 50
359.087563943
 51
59.0848298559
  0
ARC
  5
2E6
330
1F
100
AcDbEntity
  8
0
  6
Continuous
 62
     7
370
    15
100
AcDbCircle
 10
210.2242196604
 20
180.4493726441
 30
0.0
 40
0.4999604960944077
100
AcDbArc
 50
119.0836854467
 51
239.0869140625
  0
ARC
  5
2E7
330
1F
100
AcDbEntity
  8
0
  6
Continuous
 62
     7
370
    15
100
AcDbCircle
 10
209.7381676143
 20
181.3232212605
 30
0.0
 40
0.4999684993592709
100
AcDbArc
 50
299.0836854467
 51
359.087563943
  0
ARC
  5
2E8
330
1F
100
AcDbEntity
  8
0
  6
Continuous
 62
     7
370
    15
100
AcDbCircle
 10
209.7381046175
 20
181.3232222639
 30
0.0
 40
0.5000315041773098
100
AcDbArc
 50
359.087563943
 51
59.0848298559
  0
ARC
  5
2E9
330
1F
100
AcDbEntity
  8
0
  6
Continuous
 62
     7
370
    15
100
AcDbCircle
 10
210.2518533274
 20
182.18115365
 30
0.0
 40
0.4999604960944004
100
AcDbArc
 50
119.0836854467
 51
239.0869140625
  0
ARC
  5
2EA
330
1F
100
AcDbEntity
  8
0
  6
Continuous
 62
     7
370
    15
100
AcDbCircle
 10
209.7657700746
 20
183.0550209539
 30
0.0
 40
0.500000000000031
100
AcDbArc
 50
299.0857696533
 51
59.0869140625
  0
ARC
  5
2EB
330
1F
100
AcDbEntity
  8
0
  6
Continuous
 62
     7
370
    15
100
AcDbCircle
 10
210.2794869944
 20
183.9129346558
 30
0.0
 40
0.4999604960943939
100
AcDbArc
 50
119.0836854467
 51
239.0869140625
  0
ARC
  5
2EC
330
1F
100
AcDbEntity
  8
0
  6
Continuous
 62
     7
370
    15
100
AcDbCircle
 10
209.7931968069
 20
184.7868044516
 30
0.0
 40
0.5001028046694528
100
AcDbArc
 50
299.1063492061
 51
359.0853832827
  0
LINE
  5
2ED
330
1F
100
AcDbEntity
  8
0
  6
Continuous
 62
     7
370
    15
100
AcDbLine
 10
210.3150471418
 20
186.1446612136
 30
0.0
 11
210.2932318418
 21
184.7788207786
 31
0.0
  0
ARC
  5
2EE
330
1F
100
AcDbEntity
  8
0
  6
Continuous
 62
     7
370
    15
100
AcDbCircle
 10
211.0770027273
 20
186.1324944215
 30
0.0
 40
0.7620591145826506
100
AcDbArc
 50
0.9146252243
 51
179.0853832827
  0
LINE
  5
2EF
330
1F
100
AcDbEntity
  8
0
  6
Continuous
 62
     7
370
    15
100
AcDbLine
 10
211.8468865125
 20
185.6447496073
 30
0.0
 11
211.8389590948
 21
186.1446612136
 31
0.0
  0
ARC
  5
2F0
330
1F
100
AcDbEntity
  8
0
  6
Continuous
 62
     7
370
    15
100
AcDbCircle
 10
212.3468247621
 20
185.652700092
 30
0.0
 40
0.5000000000000158
100
AcDbArc
 50
180.9110183716
 51
240.9142303467
  0
ARC
  5
2F1
330
1F
100
AcDbEntity
  8
0
  6
Continuous
 62
     7
370
    15
100
AcDbCircle
 10
211.8607205117
 20
184.7788324529
 30
0.0
 40
0.4999709960585041
100
AcDbArc
 50
300.9151777741
 51
60.9142303467
  0
ARC
  5
2F2
330
1F
100
AcDbEntity
  8
0
  6
Continuous
 62
     7
370
    15
100
AcDbCircle
 10
212.374490452
 20
183.9209012725
 30
0.0
 40
0.5000317348502407
100
AcDbArc
 50
120.9151777741
 51
180.9124131683
  0
ARC
  5
2F3
330
1F
100
AcDbEntity
  8
0
  6
Continuous
 62
     7
370
    15
100
AcDbCircle
 10
212.374426994
 20
183.9209002619
 30
0.0
 40
0.4999682687512525
100
AcDbArc
 50
180.9124131683
 51
240.9163298127
  0
ARC
  5
2F4
330
1F
100
AcDbEntity
  8
0
  6
Continuous
 62
     7
370
    15
100
AcDbCircle
 10
211.8883541787
 20
183.0470514471
 30
0.0
 40
0.4999709960585235
100
AcDbArc
 50
300.9151777741
 51
60.9142303467
  0
ARC
  5
2F5
330
1F
100
AcDbEntity
  8
0
  6
Continuous
 62
     7
370
    15
100
AcDbCircle
 10
212.402124119
 20
182.1891202667
 30
0.0
 40
0.5000317348504271
100
AcDbArc
 50
120.9151777741
 51
180.9124131682
  0
ARC
  5
2F6
330
1F
100
AcDbEntity
  8
0
  6
Continuous
 62
     7
370
    15
100
AcDbCircle
 10
212.402060661
 20
182.1891192561
 30
0.0
 40
0.4999682687510792
100
AcDbArc
 50
180.9124131682
 51
240.9163298127
  0
ARC
  5
2F7
330
1F
100
AcDbEntity
  8
0
  6
Continuous
 62
     7
370
    15
100
AcDbCircle
 10
211.9159878457
 20
181.3152704412
 30
0.0
 40
0.4999709960585566
100
AcDbArc
 50
300.9151777741
 51
60.9142303467
  0
ARC
  5
2F8
330
1F
100
AcDbEntity
  8
0
  6
Continuous
 62
     7
370
    15
100
AcDbCircle
 10
212.4297257631
 20
180.4573570745
 30
0.0
 40
0.5000000000000019
100
AcDbArc
 50
120.9130783081
 51
240.9142303467
  0
ARC
  5
2F9
330
1F
100
AcDbEntity
  8
0
  6
Continuous
 62
     7
370
    15
100
AcDbCircle
 10
211.9436215127
 20
179.5834894353
 30
0.0
 40
0.4999709960585317
100
AcDbArc
 50
300.9151777741
 51
60.9142303467
  0
ARC
  5
2FA
330
1F
100
AcDbEntity
  8
0
  6
Continuous
 62
     7
370
    15
100
AcDbCircle
 10
212.4573594301
 20
178.7255760686
 30
0.0
 40
0.5000000000000019
100
AcDbArc
 50
120.9130783081
 51
240.9142303467
  0
ARC
  5
2FB
330
1F
100
AcDbEntity
  8
0
  6
Continuous
 62
     7
370
    15
100
AcDbCircle
 10
211.9712551797
 20
177.8517084295
 30
0.0
 40
0.4999709960584943
100
AcDbArc
 50
300.9151777741
 51
60.9142303467
  0
ARC
  5
2FC
330
1F
100
AcDbEntity
  8
0
  6
Continuous
 62
     7
370
    15
100
AcDbCircle
 10
212.4849930971
 20
176.9937950627
 30
0.0
 40
0.5000000000000491
100
AcDbArc
 50
120.9130783081
 51
240.9142303467
  0
ARC
  5
2FD
330
1F
100
AcDbEntity
  8
0
  6
Continuous
 62
     7
370
    15
100
AcDbCircle
 10
211.9988888467
 20
176.1199274236
 30
0.0
 40
0.4999709960585151
100
AcDbArc
 50
300.9151777741
 51
60.9142303467
  0
ARC
  5
2FE
330
1F
100
AcDbEntity
  8
0
  6
Continuous
 62
     7
370
    15
100
AcDbCircle
 10
212.5126267641
 20
175.2620140569
 30
0.0
 40
0.5000000000000019
100
AcDbArc
 50
120.9130783081
 51
240.9142303467
  0
ARC
  5
2FF
330
1F
100
AcDbEntity
  8
0
  6
Continuous
 62
     7
370
    15
100
AcDbCircle
 10
212.0265225137
 20
174.3881464178
 30
0.0
 40
0.4999709960585041
100
AcDbArc
 50
300.9151777741
 51
60.9142303467
  0
ARC
  5
300
330
1F
100
AcDbEntity
  8
0
  6
Continuous
 62
     7
370
    15
100
AcDbCircle
 10
212.5402604311
 20
173.530233051
 30
0.0
 40
0.5000000000000158
100
AcDbArc
 50
120.9130783081
 51
240.9142303467
  0
ARC
  5
301
330
1F
100
AcDbEntity
  8
0
  6
Continuous
 62
     7
370
    15
100
AcDbCircle
 10
212.0541561807
 20
172.6563654119
 30
0.0
 40
0.4999709960585317
100
AcDbArc
 50
300.9151777741
 51
60.9142303467
  0
ARC
  5
302
330
1F
100
AcDbEntity
  8
0
  6
Continuous
 62
     7
370
    15
100
AcDbCircle
 10
212.5678940981
 20
171.7984520452
 30
0.0
 40
0.5000000000000491
100
AcDbArc
 50
120.9130783081
 51
240.9142303467
  0
ARC
  5
303
330
1F
100
AcDbEntity
  8
0
  6
Continuous
 62
     7
370
    15
100
AcDbCircle
 10
212.0817898476
 20
170.924584406
 30
0.0
 40
0.4999709960585566
100
AcDbArc
 50
300.9151777741
 51
60.9142303467
  0
ARC
  5
304
330
1F
100
AcDbEntity
  8
0
  6
Continuous
 62
     7
370
    15
100
AcDbCircle
 10
212.595527765
 20
170.0666710393
 30
0.0
 40
0.5000000000000295
100
AcDbArc
 50
120.9130783081
 51
240.9142303467
  0
ARC
  5
305
330
1F
100
AcDbEntity
  8
0
  6
Continuous
 62
     7
370
    15
100
AcDbCircle
 10
212.1094235146
 20
169.1928034002
 30
0.0
 40
0.4999709960585317
100
AcDbArc
 50
300.9151777741
 51
60.9142303467
  0
ARC
  5
306
330
1F
100
AcDbEntity
  8
0
  6
Continuous
 62
     7
370
    15
100
AcDbCircle
 10
212.623161432
 20
168.3348900334
 30
0.0
 40
0.4999999999999881
100
AcDbArc
 50
120.9130783081
 51
240.9142303467
  0
ARC
  5
307
330
1F
100
AcDbEntity
  8
0
  6
Continuous
 62
     7
370
    15
100
AcDbCircle
 10
212.1370571816
 20
167.4610223943
 30
0.0
 40
0.4999709960585187
100
AcDbArc
 50
300.9151777741
 51
60.9142303467
  0
ARC
  5
308
330
1F
100
AcDbEntity
  8
0
  6
Continuous
 62
     7
370
    15
100
AcDbCircle
 10
212.650795099
 20
166.6031090276
 30
0.0
 40
0.5000000000000246
100
AcDbArc
 50
120.9130783081
 51
240.9142303467
  0
ARC
  5
309
330
1F
100
AcDbEntity
  8
0
  6
Continuous
 62
     7
370
    15
100
AcDbCircle
 10
212.1646908486
 20
165.7292413885
 30
0.0
 40
0.4999709960585151
100
AcDbArc
 50
300.9151777741
 51
60.9142303467
  0
ARC
  5
30A
330
1F
100
AcDbEntity
  8
0
  6
Continuous
 62
     7
370
    15
100
AcDbCircle
 10
212.6784607889
 20
164.8713102081
 30
0.0
 40
0.5000317348502682
100
AcDbArc
 50
120.9151777741
 51
180.9124131683
  0
ARC
  5
30B
330
1F
100
AcDbEntity
  8
0
  6
Continuous
 62
     7
370
    15
100
AcDbCircle
 10
212.678428766
 20
164.8713280217
 30
0.0
 40
0.5000000000000019
100
AcDbArc
 50
180.9145126343
 51
240.9142303467
  0
ARC
  5
30C
330
1F
100
AcDbEntity
  8
0
  6
Continuous
 62
     7
370
    15
100
AcDbCircle
 10
212.1923245156
 20
163.9974603826
 30
0.0
 40
0.4999709960585041
100
AcDbArc
 50
300.9151777741
 51
60.9142303467
  0
ARC
  5
30D
330
1F
100
AcDbEntity
  8
0
  6
Continuous
 62
     7
370
    15
100
AcDbCircle
 10
212.7060944559
 20
163.1395292022
 30
0.0
 40
0.5000317348502407
100
AcDbArc
 50
120.9151777741
 51
180.9124131683
  0
ARC
  5
30E
330
1F
100
AcDbEntity
  8
0
  6
Continuous
 62
     7
370
    15
100
AcDbCircle
 10
212.706062433
 20
163.1395470159
 30
0.0
 40
0.5000000000000019
100
AcDbArc
 50
180.9145126343
 51
240.9142303467
  0
ARC
  5
30F
330
1F
100
AcDbEntity
  8
0
  6
Continuous
 62
     7
370
    15
100
AcDbCircle
 10
212.2199581826
 20
162.2656793767
 30
0.0
 40
0.4999709960585235
100
AcDbArc
 50
300.9151777741
 51
60.9142303467
  0
ARC
  5
310
330
1F
100
AcDbEntity
  8
0
  6
Continuous
 62
     7
370
    15
100
AcDbCircle
 10
212.7337281229
 20
161.4077481964
 30
0.0
 40
0.5000317348504271
100
AcDbArc
 50
120.9151777741
 51
180.9124131682
  0
ARC
  5
311
330
1F
100
AcDbEntity
  8
0
  6
Continuous
 62
     7
370
    15
100
AcDbCircle
 10
212.7336961
 20
161.40776601
 30
0.0
 40
0.500000000000039
100
AcDbArc
 50
180.9145126343
 51
240.9142303467
  0
ARC
  5
312
330
1F
100
AcDbEntity
  8
0
  6
Continuous
 62
     7
370
    15
100
AcDbCircle
 10
212.2475918496
 20
160.5338983709
 30
0.0
 40
0.4999709960585566
100
AcDbArc
 50
300.9151777741
 51
60.9142303467
  0
ARC
  5
313
330
1F
100
AcDbEntity
  8
0
  6
Continuous
 62
     7
370
    15
100
AcDbCircle
 10
212.7613617899
 20
159.6759671905
 30
0.0
 40
0.5000317348504093
100
AcDbArc
 50
120.9151777741
 51
180.9124131682
  0
ARC
  5
314
330
1F
100
AcDbEntity
  8
0
  6
Continuous
 62
     7
370
    15
100
AcDbCircle
 10
212.761329767
 20
159.6759850041
 30
0.0
 40
0.5000000000000158
100
AcDbArc
 50
180.9145126343
 51
240.9142303467
  0
ARC
  5
315
330
1F
100
AcDbEntity
  8
0
  6
Continuous
 62
     7
370
    15
100
AcDbCircle
 10
212.2752255166
 20
158.802117365
 30
0.0
 40
0.4999709960585317
100
AcDbArc
 50
300.9151777741
 51
60.9142303467
  0
ARC
  5
316
330
1F
100
AcDbEntity
  8
0
  6
Continuous
 62
     7
370
    15
100
AcDbCircle
 10
212.7889954569
 20
157.9441861847
 30
0.0
 40
0.5000317348503881
100
AcDbArc
 50
120.9151777741
 51
180.9124131682
  0
ARC
  5
317
330
1F
100
AcDbEntity
  8
0
  6
Continuous
 62
     7
370
    15
100
AcDbCircle
 10
212.788963434
 20
157.9442039983
 30
0.0
 40
0.4999999999999881
100
AcDbArc
 50
180.9145126343
 51
240.9142303467
  0
ARC
  5
318
330
1F
100
AcDbEntity
  8
0
  6
Continuous
 62
     7
370
    15
100
AcDbCircle
 10
212.3028591836
 20
157.0703363592
 30
0.0
 40
0.4999709960585187
100
AcDbArc
 50
300.9151777741
 51
60.9142303467
  0
ARC
  5
319
330
1F
100
AcDbEntity
  8
0
  6
Continuous
 62
     7
370
    15
100
AcDbCircle
 10
212.8166291239
 20
156.2124051788
 30
0.0
 40
0.5000317348502966
100
AcDbArc
 50
120.9151777741
 51
180.9124131683
  0
ARC
  5
31A
330
1F
100
AcDbEntity
  8
0
  6
Continuous
 62
     7
370
    15
100
AcDbCircle
 10
212.816597101
 20
156.2124229924
 30
0.0
 40
0.5000000000000105
100
AcDbArc
 50
180.9145126343
 51
240.9142303467
  0
ARC
  5
31B
330
1F
100
AcDbEntity
  8
0
  6
Continuous
 62
     7
370
    15
100
AcDbCircle
 10
212.3304928506
 20
155.3385553533
 30
0.0
 40
0.4999709960585151
100
AcDbArc
 50
300.9151777741
 51
60.9142303467
  0
ARC
  5
31C
330
1F
100
AcDbEntity
  8
0
  6
Continuous
 62
     7
370
    15
100
AcDbCircle
 10
212.8442627909
 20
154.4806241729
 30
0.0
 40
0.5000317348502419
100
AcDbArc
 50
120.9151777741
 51
180.9124131683
  0
ARC
  5
31D
330
1F
100
AcDbEntity
  8
0
  6
Continuous
 62
     7
370
    15
100
AcDbCircle
 10
212.844230768
 20
154.4806419866
 30
0.0
 40
0.4999999999999881
100
AcDbArc
 50
180.9145126343
 51
240.9142303467
  0
ARC
  5
31E
330
1F
100
AcDbEntity
  8
0
  6
Continuous
 62
     7
370
    15
100
AcDbCircle
 10
212.3581265176
 20
153.6067743475
 30
0.0
 40
0.4999709960585179
100
AcDbArc
 50
300.9151777741
 51
60.9142303467
  0
ARC
  5
31F
330
1F
100
AcDbEntity
  8
0
  6
Continuous
 62
     7
370
    15
100
AcDbCircle
 10
212.8718964579
 20
152.7488431671
 30
0.0
 40
0.5000317348502971
100
AcDbArc
 50
120.9151777741
 51
180.9124131683
  0
ARC
  5
320
330
1F
100
AcDbEntity
  8
0
  6
Continuous
 62
     7
370
    15
100
AcDbCircle
 10
212.871864435
 20
152.7488609807
 30
0.0
 40
0.5000000000000158
100
AcDbArc
 50
180.9145126343
 51
240.9142303467
  0
ARC
  5
321
330
1F
100
AcDbEntity
  8
0
  6
Continuous
 62
     7
370
    15
100
AcDbCircle
 10
212.3857601846
 20
151.8749933416
 30
0.0
 40
0.4999709960585317
100
AcDbArc
 50
300.9151777741
 51
60.9142303467
  0
ARC
  5
322
330
1F
100
AcDbEntity
  8
0
  6
Continuous
 62
     7
370
    15
100
AcDbCircle
 10
212.8995301249
 20
151.0170621612
 30
0.0
 40
0.5000317348503881
100
AcDbArc
 50
120.9151777741
 51
180.9124131682
  0
ARC
  5
323
330
1F
100
AcDbEntity
  8
0
  6
Continuous
 62
     7
370
    15
100
AcDbCircle
 10
212.899498102
 20
151.0170799748
 30
0.0
 40
0.5000000000000105
100
AcDbArc
 50
180.9145126343
 51
240.9142303467
  0
ARC
  5
324
330
1F
100
AcDbEntity
  8
0
  6
Continuous
 62
     7
370
    15
100
AcDbCircle
 10
212.4133938515
 20
150.1432123357
 30
0.0
 40
0.4999709960585566
100
AcDbArc
 50
300.9151777741
 51
60.9142303467
  0
ARC
  5
325
330
1F
100
AcDbEntity
  8
0
  6
Continuous
 62
     7
370
    15
100
AcDbCircle
 10
212.9271637919
 20
149.2852811554
 30
0.0
 40
0.5000317348504089
100
AcDbArc
 50
120.9151777741
 51
180.9124131682
  0
ARC
  5
326
330
1F
100
AcDbEntity
  8
0
  6
Continuous
 62
     7
370
    15
100
AcDbCircle
 10
212.927131769
 20
149.285298969
 30
0.0
 40
0.5000000000000158
100
AcDbArc
 50
180.9145126343
 51
240.9142303467
  0
ARC
  5
327
330
1F
100
AcDbEntity
  8
0
  6
Continuous
 62
     7
370
    15
100
AcDbCircle
 10
212.4410275185
 20
148.4114313299
 30
0.0
 40
0.4999709960585479
100
AcDbArc
 50
300.9151777741
 51
60.9142303467
  0
ARC
  5
328
330
1F
100
AcDbEntity
  8
0
  6
Continuous
 62
     7
370
    15
100
AcDbCircle
 10
212.9547974589
 20
147.5535001495
 30
0.0
 40
0.5000317348503813
100
AcDbArc
 50
120.9151777741
 51
180.9124131682
  0
ARC
  5
329
330
1F
100
AcDbEntity
  8
0
  6
Continuous
 62
     7
370
    15
100
AcDbCircle
 10
212.9547654359
 20
147.5535179631
 30
0.0
 40
0.5000000000000019
100
AcDbArc
 50
180.9145126343
 51
240.9142303467
  0
ARC
  5
32A
330
1F
100
AcDbEntity
  8
0
  6
Continuous
 62
     7
370
    15
100
AcDbCircle
 10
212.4686611855
 20
146.679650324
 30
0.0
 40
0.4999709960584903
100
AcDbArc
 50
300.9151777741
 51
60.9142303467
  0
ARC
  5
32B
330
1F
100
AcDbEntity
  8
0
  6
Continuous
 62
     7
370
    15
100
AcDbCircle
 10
212.9824311258
 20
145.8217191436
 30
0.0
 40
0.5000317348502809
100
AcDbArc
 50
120.9151777741
 51
180.9124131683
  0
ARC
  5
32C
330
1F
100
AcDbEntity
  8
0
  6
Continuous
 62
     7
370
    15
100
AcDbCircle
 10
212.9823991029
 20
145.8217369573
 30
0.0
 40
0.5000000000000105
100
AcDbArc
 50
180.9145126343
 51
240.9142303467
  0
ARC
  5
32D
330
1F
100
AcDbEntity
  8
0
  6
Continuous
 62
     7
370
    15
100
AcDbCircle
 10
212.4962948525
 20
144.9478693182
 30
0.0
 40
0.4999709960585151
100
AcDbArc
 50
300.9151777741
 51
60.9142303467
  0
ARC
  5
32E
330
1F
100
AcDbEntity
  8
0
  6
Continuous
 62
     7
370
    15
100
AcDbCircle
 10
213.0100647928
 20
144.0899381378
 30
0.0
 40
0.5000317348502419
100
AcDbArc
 50
120.9151777741
 51
180.9124131683
  0
ARC
  5
32F
330
1F
100
AcDbEntity
  8
0
  6
Continuous
 62
     7
370
    15
100
AcDbCircle
 10
213.0100327699
 20
144.0899559514
 30
0.0
 40
0.4999999999999881
100
AcDbArc
 50
180.9145126343
 51
240.9142303467
  0
ARC
  5
330
330
1F
100
AcDbEntity
  8
0
  6
Continuous
 62
     7
370
    15
100
AcDbCircle
 10
212.5239178129
 20
143.216069065
 30
0.0
 40
0.4999930208605094
100
AcDbArc
 50
300.9155635277
 51
60.9142303467
  0
ARC
  5
331
330
1F
100
AcDbEntity
  8
0
  6
Continuous
 62
     7
370
    15
100
AcDbCircle
 10
213.0383068411
 20
142.3581796284
 30
0.0
 40
0.500292266193948
100
AcDbArc
 50
120.9780762774
 51
180.9153951345
  0
LINE
  5
332
330
1F
100
AcDbEntity
  8
0
  6
Continuous
 62
     7
370
    15
100
AcDbLine
 10
212.5615909069
 20
140.8785544889
 30
0.0
 11
212.5380768745
 21
142.3501857178
 31
0.0
  0
ARC
  5
333
330
1F
100
AcDbEntity
  8
0
  6
Continuous
 62
     7
370
    15
100
AcDbCircle
 10
213.5614413653
 20
140.8945286666
 30
0.0
 40
0.9999767683127551
100
AcDbArc
 50
180.9153951345
 51
270.0016491548
  0
LINE
  5
334
330
1F
100
AcDbEntity
  8
0
  6
Continuous
 62
     7
370
    15
100
AcDbLine
 10
223.4925314157
 20
139.8945488588
 30
0.0
 11
213.5614737241
 21
139.8945488588
 31
0.0
  0
ARC
  5
335
330
1F
100
AcDbEntity
  8
0
  6
Continuous
 62
     7
370
    15
100
AcDbCircle
 10
223.4925309389
 20
140.8945576654
 30
0.0
 40
1.000005766750917
100
AcDbArc
 50
270.0
 51
359.0838440689
  0
LINE
  5
336
330
1F
100
AcDbEntity
  8
0
  6
Continuous
 62
     7
370
    15
100
AcDbLine
 10
224.530129072
 20
143.2160549418
 30
0.0
 11
224.492414233
 21
140.87856939
 31
0.0
  0
ARC
  5
337
330
1F
100
AcDbEntity
  8
0
  6
Continuous
 62
     7
370
    15
100
AcDbCircle
 10
224.0303005737
 20
143.2241195311
 30
0.0
 40
0.4998900625753575
100
AcDbArc
 50
359.0755793617
 51
59.0941899254
  0
ARC
  5
338
330
1F
100
AcDbEntity
  8
0
  6
Continuous
 62
     7
370
    15
100
AcDbCircle
 10
224.5439275477
 20
144.0819711858
 30
0.0
 40
0.4999709960569115
100
AcDbArc
 50
119.0857696533
 51
239.0848298559
  0
ARC
  5
339
330
1F
100
AcDbEntity
  8
0
  6
Continuous
 62
     7
370
    15
100
AcDbCircle
 10
224.0578232973
 20
144.9558388249
 30
0.0
 40
0.500000000000013
100
AcDbArc
 50
299.0857696533
 51
59.0869140625
  0
ARC
  5
33A
330
1F
100
AcDbEntity
  8
0
  6
Continuous
 62
     7
370
    15
100
AcDbCircle
 10
224.5715612147
 20
145.8137521917
 30
0.0
 40
0.4999709960568823
100
AcDbArc
 50
119.0857696533
 51
239.0848298559
  0
ARC
  5
33B
330
1F
100
AcDbEntity
  8
0
  6
Continuous
 62
     7
370
    15
100
AcDbCircle
 10
224.0854569643
 20
146.6876198308
 30
0.0
 40
0.5000000000001527
100
AcDbArc
 50
299.0857696533
 51
59.0869140625
  0
ARC
  5
33C
330
1F
100
AcDbEntity
  8
0
  6
Continuous
 62
     7
370
    15
100
AcDbCircle
 10
224.5991948817
 20
147.5455331976
 30
0.0
 40
0.4999709960568823
100
AcDbArc
 50
119.0857696533
 51
239.0848298559
  0
ARC
  5
33D
330
1F
100
AcDbEntity
  8
0
  6
Continuous
 62
     7
370
    15
100
AcDbCircle
 10
224.1130906313
 20
148.4194008367
 30
0.0
 40
0.5000000000000455
100
AcDbArc
 50
299.0857696533
 51
59.0869140625
  0
ARC
  5
33E
330
1F
100
AcDbEntity
  8
0
  6
Continuous
 62
     7
370
    15
100
AcDbCircle
 10
224.6268285487
 20
149.2773142034
 30
0.0
 40
0.4999709960568823
100
AcDbArc
 50
119.0857696533
 51
239.0848298559
  0
ARC
  5
33F
330
1F
100
AcDbEntity
  8
0
  6
Continuous
 62
     7
370
    15
100
AcDbCircle
 10
224.1407242983
 20
150.1511818425
 30
0.0
 40
0.5000000000000268
100
AcDbArc
 50
299.0857696533
 51
59.0869140625
  0
ARC
  5
340
330
1F
100
AcDbEntity
  8
0
  6
Continuous
 62
     7
370
    15
100
AcDbCircle
 10
224.6544622157
 20
151.0090952093
 30
0.0
 40
0.4999709960569115
100
AcDbArc
 50
119.0857696533
 51
239.0848298559
  0
ARC
  5
341
330
1F
100
AcDbEntity
  8
0
  6
Continuous
 62
     7
370
    15
100
AcDbCircle
 10
224.1683579652
 20
151.8829628484
 30
0.0
 40
0.5000000000001089
100
AcDbArc
 50
299.0857696533
 51
59.0869140625
  0
ARC
  5
342
330
1F
100
AcDbEntity
  8
0
  6
Continuous
 62
     7
370
    15
100
AcDbCircle
 10
224.6820958826
 20
152.7408762151
 30
0.0
 40
0.4999709960568969
100
AcDbArc
 50
119.0857696533
 51
239.0848298559
  0
ARC
  5
343
330
1F
100
AcDbEntity
  8
0
  6
Continuous
 62
     7
370
    15
100
AcDbCircle
 10
224.1959916322
 20
153.6147438542
 30
0.0
 40
0.5000000000000163
100
AcDbArc
 50
299.0857696533
 51
59.0869140625
  0
ARC
  5
344
330
1F
100
AcDbEntity
  8
0
  6
Continuous
 62
     7
370
    15
100
AcDbCircle
 10
224.7097295496
 20
154.472657221
 30
0.0
 40
0.4999709960569115
100
AcDbArc
 50
119.0857696533
 51
239.0848298559
  0
ARC
  5
345
330
1F
100
AcDbEntity
  8
0
  6
Continuous
 62
     7
370
    15
100
AcDbCircle
 10
224.2236252992
 20
155.3465248601
 30
0.0
 40
0.5000000000000544
100
AcDbArc
 50
299.0857696533
 51
359.0854797363
  0
ARC
  5
346
330
1F
100
AcDbEntity
  8
0
  6
Continuous
 62
     7
370
    15
100
AcDbCircle
 10
224.2236913594
 20
155.3465238056
 30
0.0
 40
0.4999339314231856
100
AcDbArc
 50
359.0854797363
 51
59.0916791509
  0
ARC
  5
347
330
1F
100
AcDbEntity
  8
0
  6
Continuous
 62
     7
370
    15
100
AcDbCircle
 10
224.7373009564
 20
156.2044201448
 30
0.0
 40
0.4999565360306163
100
AcDbArc
 50
119.0785269747
 51
239.0916791509
  0
ARC
  5
348
330
1F
100
AcDbEntity
  8
0
  6
Continuous
 62
     7
370
    15
100
AcDbCircle
 10
224.2512589662
 20
157.078305866
 30
0.0
 40
0.5000000000000516
100
AcDbArc
 50
299.0857696533
 51
59.0869140625
  0
ARC
  5
349
330
1F
100
AcDbEntity
  8
0
  6
Continuous
 62
     7
370
    15
100
AcDbCircle
 10
224.764975886
 20
157.936219568
 30
0.0
 40
0.4999604960944215
100
AcDbArc
 50
119.0836854467
 51
239.0869140625
  0
ARC
  5
34A
330
1F
100
AcDbEntity
  8
0
  6
Continuous
 62
     7
370
    15
100
AcDbCircle
 10
224.2788926332
 20
158.8100868718
 30
0.0
 40
0.5000000000000019
100
AcDbArc
 50
299.0857696533
 51
59.0869140625
  0
ARC
  5
34B
330
1F
100
AcDbEntity
  8
0
  6
Continuous
 62
     7
370
    15
100
AcDbCircle
 10
224.792609553
 20
159.6680005738
 30
0.0
 40
0.4999604960944077
100
AcDbArc
 50
119.0836854467
 51
239.0869140625
  0
ARC
  5
34C
330
1F
100
AcDbEntity
  8
0
  6
Continuous
 62
     7
370
    15
100
AcDbCircle
 10
224.3065263002
 20
160.5418678777
 30
0.0
 40
0.5000000000000544
100
AcDbArc
 50
299.0857696533
 51
59.0869140625
  0
ARC
  5
34D
330
1F
100
AcDbEntity
  8
0
  6
Continuous
 62
     7
370
    15
100
AcDbCircle
 10
224.82024322
 20
161.3997815797
 30
0.0
 40
0.4999604960944393
100
AcDbArc
 50
119.0836854467
 51
239.0869140625
  0
ARC
  5
34E
330
1F
100
AcDbEntity
  8
0
  6
Continuous
 62
     7
370
    15
100
AcDbCircle
 10
224.3341599672
 20
162.2736488835
 30
0.0
 40
0.5000000000000163
100
AcDbArc
 50
299.0857696533
 51
59.0869140625
  0
ARC
  5
34F
330
1F
100
AcDbEntity
  8
0
  6
Continuous
 62
     7
370
    15
100
AcDbCircle
 10
224.847876887
 20
163.1315625855
 30
0.0
 40
0.4999604960944215
100
AcDbArc
 50
119.0836854467
 51
239.0869140625
  0
ARC
  5
350
330
1F
100
AcDbEntity
  8
0
  6
Continuous
 62
     7
370
    15
100
AcDbCircle
 10
224.3617936342
 20
164.0054298894
 30
0.0
 40
0.5000000000000163
100
AcDbArc
 50
299.0857696533
 51
59.0869140625
  0
ARC
  5
351
330
1F
100
AcDbEntity
  8
0
  6
Continuous
 62
     7
370
    15
100
AcDbCircle
 10
224.875510554
 20
164.8633435914
 30
0.0
 40
0.4999604960944077
100
AcDbArc
 50
119.0836854467
 51
239.0869140625
  0
ARC
  5
352
330
1F
100
AcDbEntity
  8
0
  6
Continuous
 62
     7
370
    15
100
AcDbCircle
 10
224.3894273012
 20
165.7372108953
 30
0.0
 40
0.5000000000000405
100
AcDbArc
 50
299.0857696533
 51
59.0869140625
  0
ARC
  5
353
330
1F
100
AcDbEntity
  8
0
  6
Continuous
 62
     7
370
    15
100
AcDbCircle
 10
224.903144221
 20
166.5951245973
 30
0.0
 40
0.4999604960944247
100
AcDbArc
 50
119.0836854467
 51
239.0869140625
  0
ARC
  5
354
330
1F
100
AcDbEntity
  8
0
  6
Continuous
 62
     7
370
    15
100
AcDbCircle
 10
224.4170921749
 20
167.4689732137
 30
0.0
 40
0.4999684993593038
100
AcDbArc
 50
299.0836854467
 51
359.087563943
  0
ARC
  5
355
330
1F
100
AcDbEntity
  8
0
  6
Continuous
 62
     7
370
    15
100
AcDbCircle
 10
224.4170609682
 20
167.4689919011
 30
0.0
 40
0.5000000000000244
100
AcDbArc
 50
359.0854797363
 51
59.0869140625
  0
ARC
  5
356
330
1F
100
AcDbEntity
  8
0
  6
Continuous
 62
     7
370
    15
100
AcDbCircle
 10
224.930777888
 20
168.3269056031
 30
0.0
 40
0.4999604960944215
100
AcDbArc
 50
119.0836854467
 51
239.0869140625
  0
ARC
  5
357
330
1F
100
AcDbEntity
  8
0
  6
Continuous
 62
     7
370
    15
100
AcDbCircle
 10
224.4447258418
 20
169.2007542195
 30
0.0
 40
0.4999684993593326
100
AcDbArc
 50
299.0836854467
 51
359.087563943
  0
ARC
  5
358
330
1F
100
AcDbEntity
  8
0
  6
Continuous
 62
     7
370
    15
100
AcDbCircle
 10
224.4446946352
 20
169.200772907
 30
0.0
 40
0.4999999999999964
100
AcDbArc
 50
359.0854797363
 51
59.0869140625
  0
ARC
  5
359
330
1F
100
AcDbEntity
  8
0
  6
Continuous
 62
     7
370
    15
100
AcDbCircle
 10
224.958411555
 20
170.058686609
 30
0.0
 40
0.4999604960944325
100
AcDbArc
 50
119.0836854467
 51
239.0869140625
  0
ARC
  5
35A
330
1F
100
AcDbEntity
  8
0
  6
Continuous
 62
     7
370
    15
100
AcDbCircle
 10
224.4723595088
 20
170.9325352254
 30
0.0
 40
0.4999684993592599
100
AcDbArc
 50
299.0836854467
 51
359.087563943
  0
ARC
  5
35B
330
1F
100
AcDbEntity
  8
0
  6
Continuous
 62
     7
370
    15
100
AcDbCircle
 10
224.4723283022
 20
170.9325539128
 30
0.0
 40
0.4999999999999964
100
AcDbArc
 50
359.0854797363
 51
59.0869140625
  0
ARC
  5
35C
330
1F
100
AcDbEntity
  8
0
  6
Continuous
 62
     7
370
    15
100
AcDbCircle
 10
224.986045222
 20
171.7904676148
 30
0.0
 40
0.499960496094415
100
AcDbArc
 50
119.0836854467
 51
239.0869140625
  0
ARC
  5
35D
330
1F
100
AcDbEntity
  8
0
  6
Continuous
 62
     7
370
    15
100
AcDbCircle
 10
224.4999931758
 20
172.6643162312
 30
0.0
 40
0.4999684993592709
100
AcDbArc
 50
299.0836854467
 51
359.087563943
  0
ARC
  5
35E
330
1F
100
AcDbEntity
  8
0
  6
Continuous
 62
     7
370
    15
100
AcDbCircle
 10
224.4999619692
 20
172.6643349187
 30
0.0
 40
0.5000000000000163
100
AcDbArc
 50
359.0854797363
 51
59.0869140625
  0
ARC
  5
35F
330
1F
100
AcDbEntity
  8
0
  6
Continuous
 62
     7
370
    15
100
AcDbCircle
 10
225.0136788889
 20
173.5222486207
 30
0.0
 40
0.4999604960944215
100
AcDbArc
 50
119.0836854467
 51
239.0869140625
  0
ARC
  5
360
330
1F
100
AcDbEntity
  8
0
  6
Continuous
 62
     7
370
    15
100
AcDbCircle
 10
224.5276268428
 20
174.3960972371
 30
0.0
 40
0.4999684993592474
100
AcDbArc
 50
299.0836854467
 51
359.087563943
  0
ARC
  5
361
330
1F
100
AcDbEntity
  8
0
  6
Continuous
 62
     7
370
    15
100
AcDbCircle
 10
224.5275956361
 20
174.3961159246
 30
0.0
 40
0.5000000000000163
100
AcDbArc
 50
359.0854797363
 51
59.0869140625
  0
ARC
  5
362
330
1F
100
AcDbEntity
  8
0
  6
Continuous
 62
     7
370
    15
100
AcDbCircle
 10
225.0413125559
 20
175.2540296265
 30
0.0
 40
0.4999604960944077
100
AcDbArc
 50
119.0836854467
 51
239.0869140625
  0
ARC
  5
363
330
1F
100
AcDbEntity
  8
0
  6
Continuous
 62
     7
370
    15
100
AcDbCircle
 10
224.5552605098
 20
176.127878243
 30
0.0
 40
0.4999684993592709
100
AcDbArc
 50
299.0836854467
 51
359.087563943
  0
ARC
  5
364
330
1F
100
AcDbEntity
  8
0
  6
Continuous
 62
     7
370
    15
100
AcDbCircle
 10
224.5552293031
 20
176.1278969304
 30
0.0
 40
0.4999999999999964
100
AcDbArc
 50
359.0854797363
 51
59.0869140625
  0
ARC
  5
365
330
1F
100
AcDbEntity
  8
0
  6
Continuous
 62
     7
370
    15
100
AcDbCircle
 10
225.0689462229
 20
176.9858106324
 30
0.0
 40
0.4999604960944004
100
AcDbArc
 50
119.0836854467
 51
239.0869140625
  0
ARC
  5
366
330
1F
100
AcDbEntity
  8
0
  6
Continuous
 62
     7
370
    15
100
AcDbCircle
 10
224.5828941768
 20
177.8596592488
 30
0.0
 40
0.4999684993592753
100
AcDbArc
 50
299.0836854467
 51
359.087563943
  0
ARC
  5
367
330
1F
100
AcDbEntity
  8
0
  6
Continuous
 62
     7
370
    15
100
AcDbCircle
 10
224.5828629701
 20
177.8596779363
 30
0.0
 40
0.4999999999999685
100
AcDbArc
 50
359.0854797363
 51
59.0869140625
  0
ARC
  5
368
330
1F
100
AcDbEntity
  8
0
  6
Continuous
 62
     7
370
    15
100
AcDbCircle
 10
225.0965798899
 20
178.7175916383
 30
0.0
 40
0.499960496094415
100
AcDbArc
 50
119.0836854467
 51
239.0869140625
  0
ARC
  5
369
330
1F
100
AcDbEntity
  8
0
  6
Continuous
 62
     7
370
    15
100
AcDbCircle
 10
224.6104966371
 20
179.5914589421
 30
0.0
 40
0.5000000000000163
100
AcDbArc
 50
299.0857696533
 51
59.0869140625
  0
ARC
  5
36A
330
1F
100
AcDbEntity
  8
0
  6
Continuous
 62
     7
370
    15
100
AcDbCircle
 10
225.1242135569
 20
180.4493726441
 30
0.0
 40
0.4999604960944215
100
AcDbArc
 50
119.0836854467
 51
239.0869140625
  0
ARC
  5
36B
330
1F
100
AcDbEntity
  8
0
  6
Continuous
 62
     7
370
    15
100
AcDbCircle
 10
224.6381303041
 20
181.323239948
 30
0.0
 40
0.5000000000000405
100
AcDbArc
 50
299.0857696533
 51
59.0869140625
  0
ARC
  5
36C
330
1F
100
AcDbEntity
  8
0
  6
Continuous
 62
     7
370
    15
100
AcDbCircle
 10
225.1518472239
 20
182.18115365
 30
0.0
 40
0.499960496094415
100
AcDbArc
 50
119.0836854467
 51
239.0869140625
  0
ARC
  5
36D
330
1F
100
AcDbEntity
  8
0
  6
Continuous
 62
     7
370
    15
100
AcDbCircle
 10
224.6657639711
 20
183.0550209539
 30
0.0
 40
0.5000000000000163
100
AcDbArc
 50
299.0857696533
 51
59.0869140625
  0
ARC
  5
36E
330
1F
100
AcDbEntity
  8
0
  6
Continuous
 62
     7
370
    15
100
AcDbCircle
 10
225.1794808909
 20
183.9129346558
 30
0.0
 40
0.4999604960944215
100
AcDbArc
 50
119.0836854467
 51
239.0869140625
  0
ARC
  5
36F
330
1F
100
AcDbEntity
  8
0
  6
Continuous
 62
     7
370
    15
100
AcDbCircle
 10
224.6931907034
 20
184.7868044516
 30
0.0
 40
0.5001028046694245
100
AcDbArc
 50
299.1063492061
 51
359.0853832827
  0
LINE
  5
370
330
1F
100
AcDbEntity
  8
0
  6
Continuous
 62
     7
370
    15
100
AcDbLine
 10
225.2150311439
 20
186.1446612136
 30
0.0
 11
225.1932307451
 21
184.7788207786
 31
0.0
  0
ARC
  5
371
330
1F
100
AcDbEntity
  8
0
  6
Continuous
 62
     7
370
    15
100
AcDbCircle
 10
225.9769966238
 20
186.1324944215
 30
0.0
 40
0.7620591145826503
100
AcDbArc
 50
0.9146252243
 51
179.0853832827
  0
LINE
  5
372
330
1F
100
AcDbEntity
  8
0
  6
Continuous
 62
     7
370
    15
100
AcDbLine
 10
226.7468854158
 20
185.6447496073
 30
0.0
 11
226.7389579981
 21
186.1446612136
 31
0.0
  0
ARC
  5
373
330
1F
100
AcDbEntity
  8
0
  6
Continuous
 62
     7
370
    15
100
AcDbCircle
 10
227.2468186586
 20
185.652700092
 30
0.0
 40
0.4999999999999666
100
AcDbArc
 50
180.9110183716
 51
240.9142303467
  0
ARC
  5
374
330
1F
100
AcDbEntity
  8
0
  6
Continuous
 62
     7
370
    15
100
AcDbCircle
 10
226.7607144082
 20
184.7788324529
 30
0.0
 40
0.4999709960584903
100
AcDbArc
 50
300.9151777741
 51
60.9142303467
  0
ARC
  5
375
330
1F
100
AcDbEntity
  8
0
  6
Continuous
 62
     7
370
    15
100
AcDbCircle
 10
227.2744523256
 20
183.9209190862
 30
0.0
 40
0.5000000000000544
100
AcDbArc
 50
120.9130783081
 51
240.9142303467
  0
ARC
  5
376
330
1F
100
AcDbEntity
  8
0
  6
Continuous
 62
     7
370
    15
100
AcDbCircle
 10
226.7883480752
 20
183.0470514471
 30
0.0
 40
0.4999709960584943
100
AcDbArc
 50
300.9151777741
 51
60.9142303467
  0
ARC
  5
377
330
1F
100
AcDbEntity
  8
0
  6
Continuous
 62
     7
370
    15
100
AcDbCircle
 10
227.3020859926
 20
182.1891380803
 30
0.0
 40
0.5000000000000491
100
AcDbArc
 50
120.9130783081
 51
240.9142303467
  0
ARC
  5
378
330
1F
100
AcDbEntity
  8
0
  6
Continuous
 62
     7
370
    15
100
AcDbCircle
 10
226.8159817422
 20
181.3152704412
 30
0.0
 40
0.4999709960585151
100
AcDbArc
 50
300.9151777741
 51
60.9142303467
  0
ARC
  5
379
330
1F
100
AcDbEntity
  8
0
  6
Continuous
 62
     7
370
    15
100
AcDbCircle
 10
227.3297516825
 20
180.4573392608
 30
0.0
 40
0.5000317348502122
100
AcDbArc
 50
120.9151777741
 51
180.9124131683
  0
ARC
  5
37A
330
1F
100
AcDbEntity
  8
0
  6
Continuous
 62
     7
370
    15
100
AcDbCircle
 10
227.3297196596
 20
180.4573570745
 30
0.0
 40
0.5000000000000544
100
AcDbArc
 50
180.9145126343
 51
240.9142303467
  0
ARC
  5
37B
330
1F
100
AcDbEntity
  8
0
  6
Continuous
 62
     7
370
    15
100
AcDbCircle
 10
226.8436154092
 20
179.5834894353
 30
0.0
 40
0.4999709960585381
100
AcDbArc
 50
300.9151777741
 51
60.9142303467
  0
ARC
  5
37C
330
1F
100
AcDbEntity
  8
0
  6
Continuous
 62
     7
370
    15
100
AcDbCircle
 10
227.3573853495
 20
178.725558255
 30
0.0
 40
0.5000317348503809
100
AcDbArc
 50
120.9151777741
 51
180.9124131682
  0
ARC
  5
37D
330
1F
100
AcDbEntity
  8
0
  6
Continuous
 62
     7
370
    15
100
AcDbCircle
 10
227.3573533266
 20
178.7255760686
 30
0.0
 40
0.5000000000000158
100
AcDbArc
 50
180.9145126343
 51
240.9142303467
  0
ARC
  5
37E
330
1F
100
AcDbEntity
  8
0
  6
Continuous
 62
     7
370
    15
100
AcDbCircle
 10
226.8712490762
 20
177.8517084295
 30
0.0
 40
0.4999709960585317
100
AcDbArc
 50
300.9151777741
 51
60.9142303467
  0
ARC
  5
37F
330
1F
100
AcDbEntity
  8
0
  6
Continuous
 62
     7
370
    15
100
AcDbCircle
 10
227.3850190165
 20
176.9937772491
 30
0.0
 40
0.5000317348504271
100
AcDbArc
 50
120.9151777741
 51
180.9124131682
  0
ARC
  5
380
330
1F
100
AcDbEntity
  8
0
  6
Continuous
 62
     7
370
    15
100
AcDbCircle
 10
227.3849869936
 20
176.9937950627
 30
0.0
 40
0.5000000000000394
100
AcDbArc
 50
180.9145126343
 51
240.9142303467
  0
ARC
  5
381
330
1F
100
AcDbEntity
  8
0
  6
Continuous
 62
     7
370
    15
100
AcDbCircle
 10
226.8988827432
 20
176.1199274236
 30
0.0
 40
0.4999709960585566
100
AcDbArc
 50
300.9151777741
 51
60.9142303467
  0
ARC
  5
382
330
1F
100
AcDbEntity
  8
0
  6
Continuous
 62
     7
370
    15
100
AcDbCircle
 10
227.4126526835
 20
175.2619962433
 30
0.0
 40
0.5000317348504089
100
AcDbArc
 50
120.9151777741
 51
180.9124131682
  0
ARC
  5
383
330
1F
100
AcDbEntity
  8
0
  6
Continuous
 62
     7
370
    15
100
AcDbCircle
 10
227.4126206606
 20
175.2620140569
 30
0.0
 40
0.5000000000000158
100
AcDbArc
 50
180.9145126343
 51
240.9142303467
  0
ARC
  5
384
330
1F
100
AcDbEntity
  8
0
  6
Continuous
 62
     7
370
    15
100
AcDbCircle
 10
226.9265164101
 20
174.3881464178
 30
0.0
 40
0.4999709960584903
100
AcDbArc
 50
300.9151777741
 51
60.9142303467
  0
ARC
  5
385
330
1F
100
AcDbEntity
  8
0
  6
Continuous
 62
     7
370
    15
100
AcDbCircle
 10
227.4402863505
 20
173.5302152374
 30
0.0
 40
0.5000317348502419
100
AcDbArc
 50
120.9151777741
 51
180.9124131683
  0
ARC
  5
386
330
1F
100
AcDbEntity
  8
0
  6
Continuous
 62
     7
370
    15
100
AcDbCircle
 10
227.4402543275
 20
173.530233051
 30
0.0
 40
0.5000000000000544
100
AcDbArc
 50
180.9145126343
 51
240.9142303467
  0
ARC
  5
387
330
1F
100
AcDbEntity
  8
0
  6
Continuous
 62
     7
370
    15
100
AcDbCircle
 10
226.9541500771
 20
172.6563654119
 30
0.0
 40
0.4999709960584943
100
AcDbArc
 50
300.9151777741
 51
60.9142303467
  0
ARC
  5
388
330
1F
100
AcDbEntity
  8
0
  6
Continuous
 62
     7
370
    15
100
AcDbCircle
 10
227.4679200175
 20
171.7984342315
 30
0.0
 40
0.5000317348503345
100
AcDbArc
 50
120.9151777741
 51
180.9124131683
  0
ARC
  5
389
330
1F
100
AcDbEntity
  8
0
  6
Continuous
 62
     7
370
    15
100
AcDbCircle
 10
227.4678879945
 20
171.7984520452
 30
0.0
 40
0.5000000000000105
100
AcDbArc
 50
180.9145126343
 51
240.9142303467
  0
ARC
  5
38A
330
1F
100
AcDbEntity
  8
0
  6
Continuous
 62
     7
370
    15
100
AcDbCircle
 10
226.9817837441
 20
170.924584406
 30
0.0
 40
0.4999709960585151
100
AcDbArc
 50
300.9151777741
 51
60.9142303467
  0
ARC
  5
38B
330
1F
100
AcDbEntity
  8
0
  6
Continuous
 62
     7
370
    15
100
AcDbCircle
 10
227.4955536844
 20
170.0666532257
 30
0.0
 40
0.5000317348502122
100
AcDbArc
 50
120.9151777741
 51
180.9124131683
  0
ARC
  5
38C
330
1F
100
AcDbEntity
  8
0
  6
Continuous
 62
     7
370
    15
100
AcDbCircle
 10
227.4955216615
 20
170.0666710393
 30
0.0
 40
0.5000000000000158
100
AcDbArc
 50
180.9145126343
 51
240.9142303467
  0
ARC
  5
38D
330
1F
100
AcDbEntity
  8
0
  6
Continuous
 62
     7
370
    15
100
AcDbCircle
 10
227.0094174111
 20
169.1928034002
 30
0.0
 40
0.4999709960585317
100
AcDbArc
 50
300.9151777741
 51
60.9142303467
  0
ARC
  5
38E
330
1F
100
AcDbEntity
  8
0
  6
Continuous
 62
     7
370
    15
100
AcDbCircle
 10
227.5231873514
 20
168.3348722198
 30
0.0
 40
0.5000317348503813
100
AcDbArc
 50
120.9151777741
 51
180.9124131682
  0
ARC
  5
38F
330
1F
100
AcDbEntity
  8
0
  6
Continuous
 62
     7
370
    15
100
AcDbCircle
 10
227.5231553285
 20
168.3348900334
 30
0.0
 40
0.5000000000000405
100
AcDbArc
 50
180.9145126343
 51
240.9142303467
  0
ARC
  5
390
330
1F
100
AcDbEntity
  8
0
  6
Continuous
 62
     7
370
    15
100
AcDbCircle
 10
227.0370403715
 20
167.461003147
 30
0.0
 40
0.4999930208605491
100
AcDbArc
 50
300.9155635277
 51
60.9142303467
  0
ARC
  5
391
330
1F
100
AcDbEntity
  8
0
  6
Continuous
 62
     7
370
    15
100
AcDbCircle
 10
227.5507229353
 20
166.6031079731
 30
0.0
 40
0.4999339314079925
100
AcDbArc
 50
120.9083208481
 51
180.9145126343
  0
ARC
  5
392
330
1F
100
AcDbEntity
  8
0
  6
Continuous
 62
     7
370
    15
100
AcDbCircle
 10
227.5507889955
 20
166.6031090276
 30
0.0
 40
0.5000000000000105
100
AcDbArc
 50
180.9145126343
 51
240.9142303467
  0
ARC
  5
393
330
1F
100
AcDbEntity
  8
0
  6
Continuous
 62
     7
370
    15
100
AcDbCircle
 10
227.0646847451
 20
165.7292413885
 30
0.0
 40
0.4999709960585566
100
AcDbArc
 50
300.9151777741
 51
60.9142303467
  0
ARC
  5
394
330
1F
100
AcDbEntity
  8
0
  6
Continuous
 62
     7
370
    15
100
AcDbCircle
 10
227.5784226625
 20
164.8713280217
 30
0.0
 40
0.5000000000000158
100
AcDbArc
 50
120.9130783081
 51
240.9142303467
  0
ARC
  5
395
330
1F
100
AcDbEntity
  8
0
  6
Continuous
 62
     7
370
    15
100
AcDbCircle
 10
227.0923184121
 20
163.9974603826
 30
0.0
 40
0.4999709960584903
100
AcDbArc
 50
300.9151777741
 51
60.9142303467
  0
ARC
  5
396
330
1F
100
AcDbEntity
  8
0
  6
Continuous
 62
     7
370
    15
100
AcDbCircle
 10
227.6060563295
 20
163.1395470159
 30
0.0
 40
0.5000000000000544
100
AcDbArc
 50
120.9130783081
 51
240.9142303467
  0
ARC
  5
397
330
1F
100
AcDbEntity
  8
0
  6
Continuous
 62
     7
370
    15
100
AcDbCircle
 10
227.1199520791
 20
162.2656793767
 30
0.0
 40
0.4999709960584943
100
AcDbArc
 50
300.9151777741
 51
60.9142303467
  0
ARC
  5
398
330
1F
100
AcDbEntity
  8
0
  6
Continuous
 62
     7
370
    15
100
AcDbCircle
 10
227.6336899965
 20
161.40776601
 30
0.0
 40
0.5000000000000491
100
AcDbArc
 50
120.9130783081
 51
240.9142303467
  0
ARC
  5
399
330
1F
100
AcDbEntity
  8
0
  6
Continuous
 62
     7
370
    15
100
AcDbCircle
 10
227.1475857461
 20
160.5338983709
 30
0.0
 40
0.4999709960585151
100
AcDbArc
 50
300.9151777741
 51
60.9142303467
  0
ARC
  5
39A
330
1F
100
AcDbEntity
  8
0
  6
Continuous
 62
     7
370
    15
100
AcDbCircle
 10
227.6613236635
 20
159.6759850041
 30
0.0
 40
0.5000000000000295
100
AcDbArc
 50
120.9130783081
 51
240.9142303467
  0
ARC
  5
39B
330
1F
100
AcDbEntity
  8
0
  6
Continuous
 62
     7
370
    15
100
AcDbCircle
 10
227.1752194131
 20
158.802117365
 30
0.0
 40
0.4999709960585317
100
AcDbArc
 50
300.9151777741
 51
60.9142303467
  0
ARC
  5
39C
330
1F
100
AcDbEntity
  8
0
  6
Continuous
 62
     7
370
    15
100
AcDbCircle
 10
227.6889573305
 20
157.9442039983
 30
0.0
 40
0.5000000000000158
100
AcDbArc
 50
120.9130783081
 51
240.9142303467
  0
ARC
  5
39D
330
1F
100
AcDbEntity
  8
0
  6
Continuous
 62
     7
370
    15
100
AcDbCircle
 10
227.2028530801
 20
157.0703363592
 30
0.0
 40
0.4999709960585317
100
AcDbArc
 50
300.9151777741
 51
60.9142303467
  0
ARC
  5
39E
330
1F
100
AcDbEntity
  8
0
  6
Continuous
 62
     7
370
    15
100
AcDbCircle
 10
227.7165909975
 20
156.2124229924
 30
0.0
 40
0.5000000000000246
100
AcDbArc
 50
120.9130783081
 51
240.9142303467
  0
ARC
  5
39F
330
1F
100
AcDbEntity
  8
0
  6
Continuous
 62
     7
370
    15
100
AcDbCircle
 10
227.2305078984
 20
155.338555691
 30
0.0
 40
0.4999604192236424
100
AcDbArc
 50
300.9130783081
 51
60.9163298127
  0
ARC
  5
3A0
330
1F
100
AcDbEntity
  8
0
  6
Continuous
 62
     7
370
    15
100
AcDbCircle
 10
227.7442246645
 20
154.4806419866
 30
0.0
 40
0.4999999999999663
100
AcDbArc
 50
120.9130783081
 51
240.9142303467
  0
ARC
  5
3A1
330
1F
100
AcDbEntity
  8
0
  6
Continuous
 62
     7
370
    15
100
AcDbCircle
 10
227.2581415654
 20
153.6067746852
 30
0.0
 40
0.4999604192236173
100
AcDbArc
 50
300.9130783081
 51
60.9163298127
  0
ARC
  5
3A2
330
1F
100
AcDbEntity
  8
0
  6
Continuous
 62
     7
370
    15
100
AcDbCircle
 10
227.7718583315
 20
152.7488609807
 30
0.0
 40
0.5000000000000019
100
AcDbArc
 50
120.9130783081
 51
240.9142303467
  0
ARC
  5
3A3
330
1F
100
AcDbEntity
  8
0
  6
Continuous
 62
     7
370
    15
100
AcDbCircle
 10
227.2857752324
 20
151.8749936793
 30
0.0
 40
0.4999604192236416
100
AcDbArc
 50
300.9130783081
 51
60.9163298127
  0
ARC
  5
3A4
330
1F
100
AcDbEntity
  8
0
  6
Continuous
 62
     7
370
    15
100
AcDbCircle
 10
227.7994919984
 20
151.0170799748
 30
0.0
 40
0.4999999999999955
100
AcDbArc
 50
120.9130783081
 51
240.9142303467
  0
ARC
  5
3A5
330
1F
100
AcDbEntity
  8
0
  6
Continuous
 62
     7
370
    15
100
AcDbCircle
 10
227.3134088994
 20
150.1432126734
 30
0.0
 40
0.4999604192236562
100
AcDbArc
 50
300.9130783081
 51
60.9163298127
  0
ARC
  5
3A6
330
1F
100
AcDbEntity
  8
0
  6
Continuous
 62
     7
370
    15
100
AcDbCircle
 10
227.8271256654
 20
149.285298969
 30
0.0
 40
0.5000000000000158
100
AcDbArc
 50
120.9130783081
 51
240.9142303467
  0
ARC
  5
3A7
330
1F
100
AcDbEntity
  8
0
  6
Continuous
 62
     7
370
    15
100
AcDbCircle
 10
227.3410425664
 20
148.4114316676
 30
0.0
 40
0.4999604192236027
100
AcDbArc
 50
300.9130783081
 51
60.9163298127
  0
ARC
  5
3A8
330
1F
100
AcDbEntity
  8
0
  6
Continuous
 62
     7
370
    15
100
AcDbCircle
 10
227.8547593324
 20
147.5535179631
 30
0.0
 40
0.5000000000000019
100
AcDbArc
 50
120.9130783081
 51
240.9142303467
  0
ARC
  5
3A9
330
1F
100
AcDbEntity
  8
0
  6
Continuous
 62
     7
370
    15
100
AcDbCircle
 10
227.3686762334
 20
146.6796506617
 30
0.0
 40
0.4999604192236175
100
AcDbArc
 50
300.9130783081
 51
60.9163298127
  0
ARC
  5
3AA
330
1F
100
AcDbEntity
  8
0
  6
Continuous
 62
     7
370
    15
100
AcDbCircle
 10
227.8823929994
 20
145.8217369573
 30
0.0
 40
0.5000000000000101
100
AcDbArc
 50
120.9130783081
 51
240.9142303467
  0
ARC
  5
3AB
330
1F
100
AcDbEntity
  8
0
  6
Continuous
 62
     7
370
    15
100
AcDbCircle
 10
227.3963099004
 20
144.9478696559
 30
0.0
 40
0.4999604192236424
100
AcDbArc
 50
300.9130783081
 51
60.9163298127
  0
ARC
  5
3AC
330
1F
100
AcDbEntity
  8
0
  6
Continuous
 62
     7
370
    15
100
AcDbCircle
 10
227.9100266664
 20
144.0899559514
 30
0.0
 40
0.4999999999999711
100
AcDbArc
 50
120.9130783081
 51
240.9142303467
  0
ARC
  5
3AD
330
1F
100
AcDbEntity
  8
0
  6
Continuous
 62
     7
370
    15
100
AcDbCircle
 10
227.423281477
 20
143.2160590006
 30
0.0
 40
0.5003084813270261
100
AcDbArc
 50
300.9780762774
 51
60.851717597
  0
ARC
  5
3AE
330
1F
100
AcDbEntity
  8
0
  6
Continuous
 62
     7
370
    15
100
AcDbCircle
 10
227.9383007376
 20
142.3581796284
 30
0.0
 40
0.5002922661938912
100
AcDbArc
 50
120.9780762774
 51
180.9153951345
  0
LINE
  5
3AF
330
1F
100
AcDbEntity
  8
0
  6
Continuous
 62
     7
370
    15
100
AcDbLine
 10
227.4615898101
 20
140.8785544889
 30
0.0
 11
227.4380757778
 21
142.3501857178
 31
0.0
  0
ARC
  5
3B0
330
1F
100
AcDbEntity
  8
0
  6
Continuous
 62
     7
370
    15
100
AcDbCircle
 10
228.4614352618
 20
140.8945286666
 30
0.0
 40
0.9999767683127551
100
AcDbArc
 50
180.9153951345
 51
270.0016491548
  0
LINE
  5
3B1
330
1F
100
AcDbEntity
  8
0
  6
Continuous
 62
     7
370
    15
100
AcDbLine
 10
238.392530319
 20
139.8945488588
 30
0.0
 11
228.4614577263
 21
139.8945488588
 31
0.0
  0
ARC
  5
3B2
330
1F
100
AcDbEntity
  8
0
  6
Continuous
 62
     7
370
    15
100
AcDbCircle
 10
238.3925248354
 20
140.8945576654
 30
0.0
 40
1.000005766750884
100
AcDbArc
 50
270.0
 51
359.0838440689
  0
LINE
  5
3B3
330
1F
100
AcDbEntity
  8
0
  6
Continuous
 62
     7
370
    15
100
AcDbLine
 10
239.4297852485
 20
143.2160623924
 30
0.0
 11
239.3923982351
 21
140.87856939
 31
0.0
  0
ARC
  5
3B4
330
1F
100
AcDbEntity
  8
0
  6
Continuous
 62
     7
370
    15
100
AcDbCircle
 10
238.9295081539
 20
143.2240632756
 30
0.0
 40
0.5003426215579301
100
AcDbArc
 50
359.0837346226
 51
59.0202402111
  0
ARC
  5
3B5
330
1F
100
AcDbEntity
  8
0
  6
Continuous
 62
     7
370
    15
100
AcDbCircle
 10
239.4439004466
 20
144.0819715211
 30
0.0
 40
0.4999604960944215
100
AcDbArc
 50
119.0836854467
 51
239.0869140625
  0
ARC
  5
3B6
330
1F
100
AcDbEntity
  8
0
  6
Continuous
 62
     7
370
    15
100
AcDbCircle
 10
238.9578484004
 20
144.9558201375
 30
0.0
 40
0.4999684993592709
100
AcDbArc
 50
299.0836854467
 51
359.087563943
  0
ARC
  5
3B7
330
1F
100
AcDbEntity
  8
0
  6
Continuous
 62
     7
370
    15
100
AcDbCircle
 10
238.9577854036
 20
144.9558211408
 30
0.0
 40
0.5000315041772818
100
AcDbArc
 50
359.087563943
 51
59.0848298559
  0
ARC
  5
3B8
330
1F
100
AcDbEntity
  8
0
  6
Continuous
 62
     7
370
    15
100
AcDbCircle
 10
239.4715341136
 20
145.8137525269
 30
0.0
 40
0.4999604960944393
100
AcDbArc
 50
119.0836854467
 51
239.0869140625
  0
ARC
  5
3B9
330
1F
100
AcDbEntity
  8
0
  6
Continuous
 62
     7
370
    15
100
AcDbCircle
 10
238.9854820674
 20
146.6876011434
 30
0.0
 40
0.4999684993592709
100
AcDbArc
 50
299.0836854467
 51
359.087563943
  0
ARC
  5
3BA
330
1F
100
AcDbEntity
  8
0
  6
Continuous
 62
     7
370
    15
100
AcDbCircle
 10
238.9854190706
 20
146.6876021467
 30
0.0
 40
0.5000315041773583
100
AcDbArc
 50
359.087563943
 51
59.0848298559
  0
ARC
  5
3BB
330
1F
100
AcDbEntity
  8
0
  6
Continuous
 62
     7
370
    15
100
AcDbCircle
 10
239.4991677805
 20
147.5455335328
 30
0.0
 40
0.4999604960944215
100
AcDbArc
 50
119.0836854467
 51
239.0869140625
  0
ARC
  5
3BC
330
1F
100
AcDbEntity
  8
0
  6
Continuous
 62
     7
370
    15
100
AcDbCircle
 10
239.0131157344
 20
148.4193821492
 30
0.0
 40
0.4999684993592709
100
AcDbArc
 50
299.0836854467
 51
359.087563943
  0
ARC
  5
3BD
330
1F
100
AcDbEntity
  8
0
  6
Continuous
 62
     7
370
    15
100
AcDbCircle
 10
239.0130527376
 20
148.4193831525
 30
0.0
 40
0.5000315041772814
100
AcDbArc
 50
359.087563943
 51
59.0848298559
  0
ARC
  5
3BE
330
1F
100
AcDbEntity
  8
0
  6
Continuous
 62
     7
370
    15
100
AcDbCircle
 10
239.5268014475
 20
149.2773145387
 30
0.0
 40
0.4999604960944077
100
AcDbArc
 50
119.0836854467
 51
239.0869140625
  0
ARC
  5
3BF
330
1F
100
AcDbEntity
  8
0
  6
Continuous
 62
     7
370
    15
100
AcDbCircle
 10
239.0407494014
 20
150.1511631551
 30
0.0
 40
0.4999684993592323
100
AcDbArc
 50
299.0836854467
 51
359.087563943
  0
ARC
  5
3C0
330
1F
100
AcDbEntity
  8
0
  6
Continuous
 62
     7
370
    15
100
AcDbCircle
 10
239.0406864046
 20
150.1511641584
 30
0.0
 40
0.5000315041773387
100
AcDbArc
 50
359.087563943
 51
59.0848298559
  0
ARC
  5
3C1
330
1F
100
AcDbEntity
  8
0
  6
Continuous
 62
     7
370
    15
100
AcDbCircle
 10
239.5544351145
 20
151.0090955445
 30
0.0
 40
0.4999604960944101
100
AcDbArc
 50
119.0836854467
 51
239.0869140625
  0
ARC
  5
3C2
330
1F
100
AcDbEntity
  8
0
  6
Continuous
 62
     7
370
    15
100
AcDbCircle
 10
239.0683830684
 20
151.8829441609
 30
0.0
 40
0.4999684993592469
100
AcDbArc
 50
299.0836854467
 51
359.087563943
  0
ARC
  5
3C3
330
1F
100
AcDbEntity
  8
0
  6
Continuous
 62
     7
370
    15
100
AcDbCircle
 10
239.0683200716
 20
151.8829451642
 30
0.0
 40
0.5000315041773946
100
AcDbArc
 50
359.087563943
 51
59.0848298559
  0
ARC
  5
3C4
330
1F
100
AcDbEntity
  8
0
  6
Continuous
 62
     7
370
    15
100
AcDbCircle
 10
239.5820687815
 20
152.7408765504
 30
0.0
 40
0.4999604960944215
100
AcDbArc
 50
119.0836854467
 51
239.0869140625
  0
ARC
  5
3C5
330
1F
100
AcDbEntity
  8
0
  6
Continuous
 62
     7
370
    15
100
AcDbCircle
 10
239.0960167354
 20
153.6147251668
 30
0.0
 40
0.499968499359362
100
AcDbArc
 50
299.0836854467
 51
359.087563943
  0
ARC
  5
3C6
330
1F
100
AcDbEntity
  8
0
  6
Continuous
 62
     7
370
    15
100
AcDbCircle
 10
239.0959537386
 20
153.6147261701
 30
0.0
 40
0.5000315041771732
100
AcDbArc
 50
359.087563943
 51
59.0848298559
  0
ARC
  5
3C7
330
1F
100
AcDbEntity
  8
0
  6
Continuous
 62
     7
370
    15
100
AcDbCircle
 10
239.6097024485
 20
154.4726575562
 30
0.0
 40
0.4999604960944215
100
AcDbArc
 50
119.0836854467
 51
239.0869140625
  0
ARC
  5
3C8
330
1F
100
AcDbEntity
  8
0
  6
Continuous
 62
     7
370
    15
100
AcDbCircle
 10
239.1236504024
 20
155.3465061727
 30
0.0
 40
0.4999684993592709
100
AcDbArc
 50
299.0836854467
 51
359.087563943
  0
ARC
  5
3C9
330
1F
100
AcDbEntity
  8
0
  6
Continuous
 62
     7
370
    15
100
AcDbCircle
 10
239.1235874056
 20
155.346507176
 30
0.0
 40
0.5000315041773098
100
AcDbArc
 50
359.087563943
 51
59.0848298559
  0
ARC
  5
3CA
330
1F
100
AcDbEntity
  8
0
  6
Continuous
 62
     7
370
    15
100
AcDbCircle
 10
239.6373361155
 20
156.2044385621
 30
0.0
 40
0.4999604960944393
100
AcDbArc
 50
119.0836854467
 51
239.0869140625
  0
ARC
  5
3CB
330
1F
100
AcDbEntity
  8
0
  6
Continuous
 62
     7
370
    15
100
AcDbCircle
 10
239.1512840694
 20
157.0782871785
 30
0.0
 40
0.4999684993592469
100
AcDbArc
 50
299.0836854467
 51
359.087563943
  0
ARC
  5
3CC
330
1F
100
AcDbEntity
  8
0
  6
Continuous
 62
     7
370
    15
100
AcDbCircle
 10
239.1512210726
 20
157.0782881818
 30
0.0
 40
0.5000315041773438
100
AcDbArc
 50
359.087563943
 51
59.0848298559
  0
ARC
  5
3CD
330
1F
100
AcDbEntity
  8
0
  6
Continuous
 62
     7
370
    15
100
AcDbCircle
 10
239.6649697825
 20
157.936219568
 30
0.0
 40
0.4999604960944077
100
AcDbArc
 50
119.0836854467
 51
239.0869140625
  0
ARC
  5
3CE
330
1F
100
AcDbEntity
  8
0
  6
Continuous
 62
     7
370
    15
100
AcDbCircle
 10
239.1789177364
 20
158.8100681844
 30
0.0
 40
0.4999684993592469
100
AcDbArc
 50
299.0836854467
 51
359.087563943
  0
ARC
  5
3CF
330
1F
100
AcDbEntity
  8
0
  6
Continuous
 62
     7
370
    15
100
AcDbCircle
 10
239.1788547395
 20
158.8100691877
 30
0.0
 40
0.5000315041773583
100
AcDbArc
 50
359.087563943
 51
59.0848298559
  0
ARC
  5
3D0
330
1F
100
AcDbEntity
  8
0
  6
Continuous
 62
     7
370
    15
100
AcDbCircle
 10
239.6926034495
 20
159.6680005738
 30
0.0
 40
0.4999604960944325
100
AcDbArc
 50
119.0836854467
 51
239.0869140625
  0
ARC
  5
3D1
330
1F
100
AcDbEntity
  8
0
  6
Continuous
 62
     7
370
    15
100
AcDbCircle
 10
239.2065514034
 20
160.5418491902
 30
0.0
 40
0.4999684993592474
100
AcDbArc
 50
299.0836854467
 51
359.087563943
  0
ARC
  5
3D2
330
1F
100
AcDbEntity
  8
0
  6
Continuous
 62
     7
370
    15
100
AcDbCircle
 10
239.2064884065
 20
160.5418501935
 30
0.0
 40
0.5000315041772814
100
AcDbArc
 50
359.087563943
 51
59.0848298559
  0
ARC
  5
3D3
330
1F
100
AcDbEntity
  8
0
  6
Continuous
 62
     7
370
    15
100
AcDbCircle
 10
239.7202371165
 20
161.3997815797
 30
0.0
 40
0.4999604960944101
100
AcDbArc
 50
119.0836854467
 51
239.0869140625
  0
ARC
  5
3D4
330
1F
100
AcDbEntity
  8
0
  6
Continuous
 62
     7
370
    15
100
AcDbCircle
 10
239.2341850704
 20
162.2736301961
 30
0.0
 40
0.4999684993592176
100
AcDbArc
 50
299.0836854467
 51
359.087563943
  0
ARC
  5
3D5
330
1F
100
AcDbEntity
  8
0
  6
Continuous
 62
     7
370
    15
100
AcDbCircle
 10
239.2341220735
 20
162.2736311994
 30
0.0
 40
0.5000315041774794
100
AcDbArc
 50
359.087563943
 51
59.0848298559
  0
ARC
  5
3D6
330
1F
100
AcDbEntity
  8
0
  6
Continuous
 62
     7
370
    15
100
AcDbCircle
 10
239.7478707835
 20
163.1315625855
 30
0.0
 40
0.4999604960944215
100
AcDbArc
 50
119.0836854467
 51
239.0869140625
  0
ARC
  5
3D7
330
1F
100
AcDbEntity
  8
0
  6
Continuous
 62
     7
370
    15
100
AcDbCircle
 10
239.2618187374
 20
164.0054112019
 30
0.0
 40
0.499968499359362
100
AcDbArc
 50
299.0836854467
 51
359.087563943
  0
ARC
  5
3D8
330
1F
100
AcDbEntity
  8
0
  6
Continuous
 62
     7
370
    15
100
AcDbCircle
 10
239.2617557405
 20
164.0054122053
 30
0.0
 40
0.5000315041771732
100
AcDbArc
 50
359.087563943
 51
59.0848298559
  0
ARC
  5
3D9
330
1F
100
AcDbEntity
  8
0
  6
Continuous
 62
     7
370
    15
100
AcDbCircle
 10
239.7755044505
 20
164.8633435914
 30
0.0
 40
0.4999604960944464
100
AcDbArc
 50
119.0836854467
 51
239.0869140625
  0
ARC
  5
3DA
330
1F
100
AcDbEntity
  8
0
  6
Continuous
 62
     7
370
    15
100
AcDbCircle
 10
239.2894524043
 20
165.7371922078
 30
0.0
 40
0.4999684993592474
100
AcDbArc
 50
299.0836854467
 51
359.087563943
  0
ARC
  5
3DB
330
1F
100
AcDbEntity
  8
0
  6
Continuous
 62
     7
370
    15
100
AcDbCircle
 10
239.2893894075
 20
165.7371932111
 30
0.0
 40
0.5000315041772657
100
AcDbArc
 50
359.087563943
 51
59.0848298559
  0
ARC
  5
3DC
330
1F
100
AcDbEntity
  8
0
  6
Continuous
 62
     7
370
    15
100
AcDbCircle
 10
239.8031381175
 20
166.5951245973
 30
0.0
 40
0.4999604960944393
100
AcDbArc
 50
119.0836854467
 51
239.0869140625
  0
ARC
  5
3DD
330
1F
100
AcDbEntity
  8
0
  6
Continuous
 62
     7
370
    15
100
AcDbCircle
 10
239.3170860713
 20
167.4689732137
 30
0.0
 40
0.4999684993592709
100
AcDbArc
 50
299.0836854467
 51
359.087563943
  0
ARC
  5
3DE
330
1F
100
AcDbEntity
  8
0
  6
Continuous
 62
     7
370
    15
100
AcDbCircle
 10
239.3170230745
 20
167.468974217
 30
0.0
 40
0.5000315041773583
100
AcDbArc
 50
359.087563943
 51
59.0848298559
  0
ARC
  5
3DF
330
1F
100
AcDbEntity
  8
0
  6
Continuous
 62
     7
370
    15
100
AcDbCircle
 10
239.8307717845
 20
168.3269056031
 30
0.0
 40
0.4999604960944077
100
AcDbArc
 50
119.0836854467
 51
239.0869140625
  0
ARC
  5
3E0
330
1F
100
AcDbEntity
  8
0
  6
Continuous
 62
     7
370
    15
100
AcDbCircle
 10
239.3447197383
 20
169.2007542195
 30
0.0
 40
0.4999684993592474
100
AcDbArc
 50
299.0836854467
 51
359.087563943
  0
ARC
  5
3E1
330
1F
100
AcDbEntity
  8
0
  6
Continuous
 62
     7
370
    15
100
AcDbCircle
 10
239.3446567415
 20
169.2007552228
 30
0.0
 40
0.5000315041772814
100
AcDbArc
 50
359.087563943
 51
59.0848298559
  0
ARC
  5
3E2
330
1F
100
AcDbEntity
  8
0
  6
Continuous
 62
     7
370
    15
100
AcDbCircle
 10
239.8584054514
 20
170.058686609
 30
0.0
 40
0.4999604960944077
100
AcDbArc
 50
119.0836854467
 51
239.0869140625
  0
ARC
  5
3E3
330
1F
100
AcDbEntity
  8
0
  6
Continuous
 62
     7
370
    15
100
AcDbCircle
 10
239.3723534053
 20
170.9325352254
 30
0.0
 40
0.4999684993592709
100
AcDbArc
 50
299.0836854467
 51
359.087563943
  0
ARC
  5
3E4
330
1F
100
AcDbEntity
  8
0
  6
Continuous
 62
     7
370
    15
100
AcDbCircle
 10
239.3722904085
 20
170.9325362287
 30
0.0
 40
0.5000315041773098
100
AcDbArc
 50
359.087563943
 51
59.0848298559
  0
ARC
  5
3E5
330
1F
100
AcDbEntity
  8
0
  6
Continuous
 62
     7
370
    15
100
AcDbCircle
 10
239.8860391184
 20
171.7904676148
 30
0.0
 40
0.4999604960943858
100
AcDbArc
 50
119.0836854467
 51
239.0869140625
  0
ARC
  5
3E6
330
1F
100
AcDbEntity
  8
0
  6
Continuous
 62
     7
370
    15
100
AcDbCircle
 10
239.3999870723
 20
172.6643162312
 30
0.0
 40
0.4999684993592469
100
AcDbArc
 50
299.0836854467
 51
359.087563943
  0
ARC
  5
3E7
330
1F
100
AcDbEntity
  8
0
  6
Continuous
 62
     7
370
    15
100
AcDbCircle
 10
239.3999240755
 20
172.6643172346
 30
0.0
 40
0.5000315041773946
100
AcDbArc
 50
359.087563943
 51
59.0848298559
  0
ARC
  5
3E8
330
1F
100
AcDbEntity
  8
0
  6
Continuous
 62
     7
370
    15
100
AcDbCircle
 10
239.9136727854
 20
173.5222486207
 30
0.0
 40
0.4999604960944215
100
AcDbArc
 50
119.0836854467
 51
239.0869140625
  0
ARC
  5
3E9
330
1F
100
AcDbEntity
  8
0
  6
Continuous
 62
     7
370
    15
100
AcDbCircle
 10
239.4276207393
 20
174.3960972371
 30
0.0
 40
0.499968499359362
100
AcDbArc
 50
299.0836854467
 51
359.087563943
  0
ARC
  5
3EA
330
1F
100
AcDbEntity
  8
0
  6
Continuous
 62
     7
370
    15
100
AcDbCircle
 10
239.4275577425
 20
174.3960982404
 30
0.0
 40
0.5000315041771732
100
AcDbArc
 50
359.087563943
 51
59.0848298559
  0
ARC
  5
3EB
330
1F
100
AcDbEntity
  8
0
  6
Continuous
 62
     7
370
    15
100
AcDbCircle
 10
239.94132745
 20
175.2540292913
 30
0.0
 40
0.4999709960569261
100
AcDbArc
 50
119.0857696533
 51
239.0848298559
  0
ARC
  5
3EC
330
1F
100
AcDbEntity
  8
0
  6
Continuous
 62
     7
370
    15
100
AcDbCircle
 10
239.4552231996
 20
176.1278969304
 30
0.0
 40
0.5000000000000405
100
AcDbArc
 50
299.0857696533
 51
59.0869140625
  0
ARC
  5
3ED
330
1F
100
AcDbEntity
  8
0
  6
Continuous
 62
     7
370
    15
100
AcDbCircle
 10
239.968961117
 20
176.9858102972
 30
0.0
 40
0.4999709960568969
100
AcDbArc
 50
119.0857696533
 51
239.0848298559
  0
ARC
  5
3EE
330
1F
100
AcDbEntity
  8
0
  6
Continuous
 62
     7
370
    15
100
AcDbCircle
 10
239.4828568666
 20
177.8596779363
 30
0.0
 40
0.500000000000031
100
AcDbArc
 50
299.0857696533
 51
59.0869140625
  0
ARC
  5
3EF
330
1F
100
AcDbEntity
  8
0
  6
Continuous
 62
     7
370
    15
100
AcDbCircle
 10
239.996594784
 20
178.717591303
 30
0.0
 40
0.4999709960569141
100
AcDbArc
 50
119.0857696533
 51
239.0848298559
  0
ARC
  5
3F0
330
1F
100
AcDbEntity
  8
0
  6
Continuous
 62
     7
370
    15
100
AcDbCircle
 10
239.5104905336
 20
179.5914589421
 30
0.0
 40
0.500000000000031
100
AcDbArc
 50
299.0857696533
 51
59.0869140625
  0
ARC
  5
3F1
330
1F
100
AcDbEntity
  8
0
  6
Continuous
 62
     7
370
    15
100
AcDbCircle
 10
240.024228451
 20
180.4493723089
 30
0.0
 40
0.4999709960568969
100
AcDbArc
 50
119.0857696533
 51
239.0848298559
  0
ARC
  5
3F2
330
1F
100
AcDbEntity
  8
0
  6
Continuous
 62
     7
370
    15
100
AcDbCircle
 10
239.5381242006
 20
181.323239948
 30
0.0
 40
0.5000000000000405
100
AcDbArc
 50
299.0857696533
 51
359.0854797363
  0
ARC
  5
3F3
330
1F
100
AcDbEntity
  8
0
  6
Continuous
 62
     7
370
    15
100
AcDbCircle
 10
239.5380924104
 20
181.3232222639
 30
0.0
 40
0.500031504177254
100
AcDbArc
 50
359.087563943
 51
59.0848298559
  0
ARC
  5
3F4
330
1F
100
AcDbEntity
  8
0
  6
Continuous
 62
     7
370
    15
100
AcDbCircle
 10
240.051862118
 20
182.1811533147
 30
0.0
 40
0.4999709960568823
100
AcDbArc
 50
119.0857696533
 51
239.0848298559
  0
ARC
  5
3F5
330
1F
100
AcDbEntity
  8
0
  6
Continuous
 62
     7
370
    15
100
AcDbCircle
 10
239.5657890743
 20
183.0550022664
 30
0.0
 40
0.4999684993595581
100
AcDbArc
 50
299.0836854467
 51
359.0875639429
  0
ARC
  5
3F6
330
1F
100
AcDbEntity
  8
0
  6
Continuous
 62
     7
370
    15
100
AcDbCircle
 10
239.5657260774
 20
183.0550032697
 30
0.0
 40
0.5000315041771417
100
AcDbArc
 50
359.0875639429
 51
59.0848298559
  0
ARC
  5
3F7
330
1F
100
AcDbEntity
  8
0
  6
Continuous
 62
     7
370
    15
100
AcDbCircle
 10
240.079495785
 20
183.9129343206
 30
0.0
 40
0.4999709960569003
100
AcDbArc
 50
119.0857696533
 51
239.0848298559
  0
ARC
  5
3F8
330
1F
100
AcDbEntity
  8
0
  6
Continuous
 62
     7
370
    15
100
AcDbCircle
 10
239.5931845999
 20
184.7868044516
 30
0.0
 40
0.5001028046694528
100
AcDbArc
 50
299.1063492061
 51
359.0853832827
  0
LINE
  5
3F9
330
1F
100
AcDbEntity
  8
0
  6
Continuous
 62
     7
370
    15
100
AcDbLine
 10
240.1150300472
 20
186.1446612136
 30
0.0
 11
240.0932296484
 21
184.7788207786
 31
0.0
  0
ARC
  5
3FA
330
1F
100
AcDbEntity
  8
0
  6
Continuous
 62
     7
370
    15
100
AcDbCircle
 10
240.8769905203
 20
186.1324944215
 30
0.0
 40
0.7620591145826506
100
AcDbArc
 50
0.9146252243
 51
179.0853832827
  0
LINE
  5
3FB
330
1F
100
AcDbEntity
  8
0
  6
Continuous
 62
     7
370
    15
100
AcDbLine
 10
241.6468694179
 20
185.6447496073
 30
0.0
 11
241.6389569013
 21
186.1446612136
 31
0.0
  0
ARC
  5
3FC
330
1F
100
AcDbEntity
  8
0
  6
Continuous
 62
     7
370
    15
100
AcDbCircle
 10
242.1467677219
 20
185.6526732465
 30
0.0
 40
0.4999547463061344
100
AcDbArc
 50
180.9080239013
 51
240.917224817
  0
ARC
  5
3FD
330
1F
100
AcDbEntity
  8
0
  6
Continuous
 62
     7
370
    15
100
AcDbCircle
 10
241.6607083047
 20
184.7788324529
 30
0.0
 40
0.4999709960585317
100
AcDbArc
 50
300.9151777741
 51
60.9142303467
  0
ARC
  5
3FE
330
1F
100
AcDbEntity
  8
0
  6
Continuous
 62
     7
370
    15
100
AcDbCircle
 10
242.1744462221
 20
183.9209190862
 30
0.0
 40
0.5000000000000158
100
AcDbArc
 50
120.9130783081
 51
240.9142303467
  0
ARC
  5
3FF
330
1F
100
AcDbEntity
  8
0
  6
Continuous
 62
     7
370
    15
100
AcDbCircle
 10
241.6883419717
 20
183.0470514471
 30
0.0
 40
0.4999709960585317
100
AcDbArc
 50
300.9151777741
 51
60.9142303467
  0
ARC
  5
400
330
1F
100
AcDbEntity
  8
0
  6
Continuous
 62
     7
370
    15
100
AcDbCircle
 10
242.2020798891
 20
182.1891380803
 30
0.0
 40
0.5000000000000491
100
AcDbArc
 50
120.9130783081
 51
240.9142303467
  0
ARC
  5
401
330
1F
100
AcDbEntity
  8
0
  6
Continuous
 62
     7
370
    15
100
AcDbCircle
 10
241.7159756387
 20
181.3152704412
 30
0.0
 40
0.4999709960585566
100
AcDbArc
 50
300.9151777741
 51
60.9142303467
  0
ARC
  5
402
330
1F
100
AcDbEntity
  8
0
  6
Continuous
 62
     7
370
    15
100
AcDbCircle
 10
242.229745579
 20
180.4573392608
 30
0.0
 40
0.5000317348504089
100
AcDbArc
 50
120.9151777741
 51
180.9124131682
  0
ARC
  5
403
330
1F
100
AcDbEntity
  8
0
  6
Continuous
 62
     7
370
    15
100
AcDbCircle
 10
242.2297135561
 20
180.4573570745
 30
0.0
 40
0.5000000000000019
100
AcDbArc
 50
180.9145126343
 51
240.9142303467
  0
ARC
  5
404
330
1F
100
AcDbEntity
  8
0
  6
Continuous
 62
     7
370
    15
100
AcDbCircle
 10
241.7436093057
 20
179.5834894353
 30
0.0
 40
0.4999709960584903
100
AcDbArc
 50
300.9151777741
 51
60.9142303467
  0
ARC
  5
405
330
1F
100
AcDbEntity
  8
0
  6
Continuous
 62
     7
370
    15
100
AcDbCircle
 10
242.257379246
 20
178.725558255
 30
0.0
 40
0.5000317348502419
100
AcDbArc
 50
120.9151777741
 51
180.9124131683
  0
ARC
  5
406
330
1F
100
AcDbEntity
  8
0
  6
Continuous
 62
     7
370
    15
100
AcDbCircle
 10
242.2573472231
 20
178.7255760686
 30
0.0
 40
0.4999999999999881
100
AcDbArc
 50
180.9145126343
 51
240.9142303467
  0
ARC
  5
407
330
1F
100
AcDbEntity
  8
0
  6
Continuous
 62
     7
370
    15
100
AcDbCircle
 10
241.7712429726
 20
177.8517084295
 30
0.0
 40
0.4999709960584943
100
AcDbArc
 50
300.9151777741
 51
60.9142303467
  0
ARC
  5
408
330
1F
100
AcDbEntity
  8
0
  6
Continuous
 62
     7
370
    15
100
AcDbCircle
 10
242.285012913
 20
176.9937772491
 30
0.0
 40
0.5000317348503198
100
AcDbArc
 50
120.9151777741
 51
180.9124131683
  0
ARC
  5
409
330
1F
100
AcDbEntity
  8
0
  6
Continuous
 62
     7
370
    15
100
AcDbCircle
 10
242.28498089
 20
176.9937950627
 30
0.0
 40
0.5000000000000105
100
AcDbArc
 50
180.9145126343
 51
240.9142303467
  0
ARC
  5
40A
330
1F
100
AcDbEntity
  8
0
  6
Continuous
 62
     7
370
    15
100
AcDbCircle
 10
241.7988766396
 20
176.1199274236
 30
0.0
 40
0.499970996058529
100
AcDbArc
 50
300.9151777741
 51
60.9142303467
  0
ARC
  5
40B
330
1F
100
AcDbEntity
  8
0
  6
Continuous
 62
     7
370
    15
100
AcDbCircle
 10
242.31264658
 20
175.2619962433
 30
0.0
 40
0.5000317348502402
100
AcDbArc
 50
120.9151777741
 51
180.9124131683
  0
ARC
  5
40C
330
1F
100
AcDbEntity
  8
0
  6
Continuous
 62
     7
370
    15
100
AcDbCircle
 10
242.312614557
 20
175.2620140569
 30
0.0
 40
0.5000000000000158
100
AcDbArc
 50
180.9145126343
 51
240.9142303467
  0
ARC
  5
40D
330
1F
100
AcDbEntity
  8
0
  6
Continuous
 62
     7
370
    15
100
AcDbCircle
 10
241.8265103066
 20
174.3881464178
 30
0.0
 40
0.4999709960585317
100
AcDbArc
 50
300.9151777741
 51
60.9142303467
  0
ARC
  5
40E
330
1F
100
AcDbEntity
  8
0
  6
Continuous
 62
     7
370
    15
100
AcDbCircle
 10
242.3402802469
 20
173.5302152374
 30
0.0
 40
0.5000317348503813
100
AcDbArc
 50
120.9151777741
 51
180.9124131682
  0
ARC
  5
40F
330
1F
100
AcDbEntity
  8
0
  6
Continuous
 62
     7
370
    15
100
AcDbCircle
 10
242.340248224
 20
173.530233051
 30
0.0
 40
0.5000000000000019
100
AcDbArc
 50
180.9145126343
 51
240.9142303467
  0
ARC
  5
410
330
1F
100
AcDbEntity
  8
0
  6
Continuous
 62
     7
370
    15
100
AcDbCircle
 10
241.8541439736
 20
172.6563654119
 30
0.0
 40
0.4999709960585235
100
AcDbArc
 50
300.9151777741
 51
60.9142303467
  0
ARC
  5
411
330
1F
100
AcDbEntity
  8
0
  6
Continuous
 62
     7
370
    15
100
AcDbCircle
 10
242.3679139139
 20
171.7984342315
 30
0.0
 40
0.5000317348504271
100
AcDbArc
 50
120.9151777741
 51
180.9124131682
  0
ARC
  5
412
330
1F
100
AcDbEntity
  8
0
  6
Continuous
 62
     7
370
    15
100
AcDbCircle
 10
242.367881891
 20
171.7984520452
 30
0.0
 40
0.500000000000039
100
AcDbArc
 50
180.9145126343
 51
240.9142303467
  0
ARC
  5
413
330
1F
100
AcDbEntity
  8
0
  6
Continuous
 62
     7
370
    15
100
AcDbCircle
 10
241.8817776406
 20
170.924584406
 30
0.0
 40
0.4999709960585566
100
AcDbArc
 50
300.9151777741
 51
60.9142303467
  0
ARC
  5
414
330
1F
100
AcDbEntity
  8
0
  6
Continuous
 62
     7
370
    15
100
AcDbCircle
 10
242.3955475809
 20
170.0666532257
 30
0.0
 40
0.5000317348504093
100
AcDbArc
 50
120.9151777741
 51
180.9124131682
  0
ARC
  5
415
330
1F
100
AcDbEntity
  8
0
  6
Continuous
 62
     7
370
    15
100
AcDbCircle
 10
242.3954841229
 20
170.066652215
 30
0.0
 40
0.4999682687510675
100
AcDbArc
 50
180.9124131682
 51
240.9163298127
  0
ARC
  5
416
330
1F
100
AcDbEntity
  8
0
  6
Continuous
 62
     7
370
    15
100
AcDbCircle
 10
241.9094113076
 20
169.1928034002
 30
0.0
 40
0.4999709960584903
100
AcDbArc
 50
300.9151777741
 51
60.9142303467
  0
ARC
  5
417
330
1F
100
AcDbEntity
  8
0
  6
Continuous
 62
     7
370
    15
100
AcDbCircle
 10
242.4231812479
 20
168.3348722198
 30
0.0
 40
0.5000317348502686
100
AcDbArc
 50
120.9151777741
 51
180.9124131683
  0
ARC
  5
418
330
1F
100
AcDbEntity
  8
0
  6
Continuous
 62
     7
370
    15
100
AcDbCircle
 10
242.4231177899
 20
168.3348712092
 30
0.0
 40
0.4999682687511862
100
AcDbArc
 50
180.9124131683
 51
240.9163298127
  0
ARC
  5
419
330
1F
100
AcDbEntity
  8
0
  6
Continuous
 62
     7
370
    15
100
AcDbCircle
 10
241.9370449746
 20
167.4610223943
 30
0.0
 40
0.4999709960584943
100
AcDbArc
 50
300.9151777741
 51
60.9142303467
  0
ARC
  5
41A
330
1F
100
AcDbEntity
  8
0
  6
Continuous
 62
     7
370
    15
100
AcDbCircle
 10
242.4508149149
 20
166.603091214
 30
0.0
 40
0.5000317348503198
100
AcDbArc
 50
120.9151777741
 51
180.9124131683
  0
ARC
  5
41B
330
1F
100
AcDbEntity
  8
0
  6
Continuous
 62
     7
370
    15
100
AcDbCircle
 10
242.4507514569
 20
166.6030902033
 30
0.0
 40
0.4999682687511653
100
AcDbArc
 50
180.9124131683
 51
240.9163298127
  0
ARC
  5
41C
330
1F
100
AcDbEntity
  8
0
  6
Continuous
 62
     7
370
    15
100
AcDbCircle
 10
241.9646786416
 20
165.7292413885
 30
0.0
 40
0.499970996058529
100
AcDbArc
 50
300.9151777741
 51
60.9142303467
  0
ARC
  5
41D
330
1F
100
AcDbEntity
  8
0
  6
Continuous
 62
     7
370
    15
100
AcDbCircle
 10
242.4784485819
 20
164.8713102081
 30
0.0
 40
0.5000317348502682
100
AcDbArc
 50
120.9151777741
 51
180.9124131683
  0
ARC
  5
41E
330
1F
100
AcDbEntity
  8
0
  6
Continuous
 62
     7
370
    15
100
AcDbCircle
 10
242.4783851239
 20
164.8713091975
 30
0.0
 40
0.4999682687512
100
AcDbArc
 50
180.9124131683
 51
240.9163298127
  0
ARC
  5
41F
330
1F
100
AcDbEntity
  8
0
  6
Continuous
 62
     7
370
    15
100
AcDbCircle
 10
241.9923123086
 20
163.9974603826
 30
0.0
 40
0.4999709960585317
100
AcDbArc
 50
300.9151777741
 51
60.9142303467
  0
ARC
  5
420
330
1F
100
AcDbEntity
  8
0
  6
Continuous
 62
     7
370
    15
100
AcDbCircle
 10
242.5060822489
 20
163.1395292022
 30
0.0
 40
0.5000317348503881
100
AcDbArc
 50
120.9151777741
 51
180.9124131682
  0
ARC
  5
421
330
1F
100
AcDbEntity
  8
0
  6
Continuous
 62
     7
370
    15
100
AcDbCircle
 10
242.5060187908
 20
163.1395281916
 30
0.0
 40
0.4999682687510792
100
AcDbArc
 50
180.9124131682
 51
240.9163298127
  0
ARC
  5
422
330
1F
100
AcDbEntity
  8
0
  6
Continuous
 62
     7
370
    15
100
AcDbCircle
 10
242.0199459756
 20
162.2656793767
 30
0.0
 40
0.4999709960585317
100
AcDbArc
 50
300.9151777741
 51
60.9142303467
  0
ARC
  5
423
330
1F
100
AcDbEntity
  8
0
  6
Continuous
 62
     7
370
    15
100
AcDbCircle
 10
242.5337159159
 20
161.4077481964
 30
0.0
 40
0.5000317348504271
100
AcDbArc
 50
120.9151777741
 51
180.9124131682
  0
ARC
  5
424
330
1F
100
AcDbEntity
  8
0
  6
Continuous
 62
     7
370
    15
100
AcDbCircle
 10
242.5336524578
 20
161.4077471857
 30
0.0
 40
0.4999682687510792
100
AcDbArc
 50
180.9124131682
 51
240.9163298127
  0
ARC
  5
425
330
1F
100
AcDbEntity
  8
0
  6
Continuous
 62
     7
370
    15
100
AcDbCircle
 10
242.0475796426
 20
160.5338983709
 30
0.0
 40
0.4999709960585566
100
AcDbArc
 50
300.9151777741
 51
60.9142303467
  0
ARC
  5
426
330
1F
100
AcDbEntity
  8
0
  6
Continuous
 62
     7
370
    15
100
AcDbCircle
 10
242.5613495829
 20
159.6759671905
 30
0.0
 40
0.5000317348504089
100
AcDbArc
 50
120.9151777741
 51
180.9124131682
  0
ARC
  5
427
330
1F
100
AcDbEntity
  8
0
  6
Continuous
 62
     7
370
    15
100
AcDbCircle
 10
242.5612861248
 20
159.6759661799
 30
0.0
 40
0.4999682687510427
100
AcDbArc
 50
180.9124131682
 51
240.9163298127
  0
ARC
  5
428
330
1F
100
AcDbEntity
  8
0
  6
Continuous
 62
     7
370
    15
100
AcDbCircle
 10
242.0752133096
 20
158.802117365
 30
0.0
 40
0.4999709960584903
100
AcDbArc
 50
300.9151777741
 51
60.9142303467
  0
ARC
  5
429
330
1F
100
AcDbEntity
  8
0
  6
Continuous
 62
     7
370
    15
100
AcDbCircle
 10
242.5889832499
 20
157.9441861847
 30
0.0
 40
0.5000317348502419
100
AcDbArc
 50
120.9151777741
 51
180.9124131683
  0
ARC
  5
42A
330
1F
100
AcDbEntity
  8
0
  6
Continuous
 62
     7
370
    15
100
AcDbCircle
 10
242.5889197918
 20
157.944185174
 30
0.0
 40
0.4999682687512226
100
AcDbArc
 50
180.9124131683
 51
240.9163298127
  0
ARC
  5
42B
330
1F
100
AcDbEntity
  8
0
  6
Continuous
 62
     7
370
    15
100
AcDbCircle
 10
242.1028469765
 20
157.0703363592
 30
0.0
 40
0.4999709960585187
100
AcDbArc
 50
300.9151777741
 51
60.9142303467
  0
ARC
  5
42C
330
1F
100
AcDbEntity
  8
0
  6
Continuous
 62
     7
370
    15
100
AcDbCircle
 10
242.6166169169
 20
156.2124051788
 30
0.0
 40
0.5000317348502809
100
AcDbArc
 50
120.9151777741
 51
180.9124131683
  0
ARC
  5
42D
330
1F
100
AcDbEntity
  8
0
  6
Continuous
 62
     7
370
    15
100
AcDbCircle
 10
242.616584894
 20
156.2124229924
 30
0.0
 40
0.5000000000000105
100
AcDbArc
 50
180.9145126343
 51
240.9142303467
  0
ARC
  5
42E
330
1F
100
AcDbEntity
  8
0
  6
Continuous
 62
     7
370
    15
100
AcDbCircle
 10
242.1304806435
 20
155.3385553533
 30
0.0
 40
0.499970996058529
100
AcDbArc
 50
300.9151777741
 51
60.9142303467
  0
ARC
  5
42F
330
1F
100
AcDbEntity
  8
0
  6
Continuous
 62
     7
370
    15
100
AcDbCircle
 10
242.6442505839
 20
154.4806241729
 30
0.0
 40
0.5000317348502682
100
AcDbArc
 50
120.9151777741
 51
180.9124131683
  0
ARC
  5
430
330
1F
100
AcDbEntity
  8
0
  6
Continuous
 62
     7
370
    15
100
AcDbCircle
 10
242.6442185609
 20
154.4806419866
 30
0.0
 40
0.5000000000000158
100
AcDbArc
 50
180.9145126343
 51
240.9142303467
  0
ARC
  5
431
330
1F
100
AcDbEntity
  8
0
  6
Continuous
 62
     7
370
    15
100
AcDbCircle
 10
242.1581143105
 20
153.6067743475
 30
0.0
 40
0.4999709960585317
100
AcDbArc
 50
300.9151777741
 51
60.9142303467
  0
ARC
  5
432
330
1F
100
AcDbEntity
  8
0
  6
Continuous
 62
     7
370
    15
100
AcDbCircle
 10
242.6718842508
 20
152.7488431671
 30
0.0
 40
0.5000317348503813
100
AcDbArc
 50
120.9151777741
 51
180.9124131682
  0
ARC
  5
433
330
1F
100
AcDbEntity
  8
0
  6
Continuous
 62
     7
370
    15
100
AcDbCircle
 10
242.6718522279
 20
152.7488609807
 30
0.0
 40
0.4999999999999826
100
AcDbArc
 50
180.9145126343
 51
240.9142303467
  0
ARC
  5
434
330
1F
100
AcDbEntity
  8
0
  6
Continuous
 62
     7
370
    15
100
AcDbCircle
 10
242.1857479775
 20
151.8749933416
 30
0.0
 40
0.4999709960585479
100
AcDbArc
 50
300.9151777741
 51
60.9142303467
  0
ARC
  5
435
330
1F
100
AcDbEntity
  8
0
  6
Continuous
 62
     7
370
    15
100
AcDbCircle
 10
242.6995179178
 20
151.0170621612
 30
0.0
 40
0.5000317348503881
100
AcDbArc
 50
120.9151777741
 51
180.9124131682
  0
ARC
  5
436
330
1F
100
AcDbEntity
  8
0
  6
Continuous
 62
     7
370
    15
100
AcDbCircle
 10
242.6994858949
 20
151.0170799748
 30
0.0
 40
0.500000000000039
100
AcDbArc
 50
180.9145126343
 51
240.9142303467
  0
ARC
  5
437
330
1F
100
AcDbEntity
  8
0
  6
Continuous
 62
     7
370
    15
100
AcDbCircle
 10
242.2133816445
 20
150.1432123357
 30
0.0
 40
0.4999709960585566
100
AcDbArc
 50
300.9151777741
 51
60.9142303467
  0
ARC
  5
438
330
1F
100
AcDbEntity
  8
0
  6
Continuous
 62
     7
370
    15
100
AcDbCircle
 10
242.7271515848
 20
149.2852811554
 30
0.0
 40
0.5000317348504093
100
AcDbArc
 50
120.9151777741
 51
180.9124131682
  0
ARC
  5
439
330
1F
100
AcDbEntity
  8
0
  6
Continuous
 62
     7
370
    15
100
AcDbCircle
 10
242.7271195619
 20
149.285298969
 30
0.0
 40
0.4999999999999881
100
AcDbArc
 50
180.9145126343
 51
240.9142303467
  0
ARC
  5
43A
330
1F
100
AcDbEntity
  8
0
  6
Continuous
 62
     7
370
    15
100
AcDbCircle
 10
242.2410153115
 20
148.4114313299
 30
0.0
 40
0.4999709960585187
100
AcDbArc
 50
300.9151777741
 51
60.9142303467
  0
ARC
  5
43B
330
1F
100
AcDbEntity
  8
0
  6
Continuous
 62
     7
370
    15
100
AcDbCircle
 10
242.7547852518
 20
147.5535001495
 30
0.0
 40
0.5000317348503198
100
AcDbArc
 50
120.9151777741
 51
180.9124131682
  0
ARC
  5
43C
330
1F
100
AcDbEntity
  8
0
  6
Continuous
 62
     7
370
    15
100
AcDbCircle
 10
242.7547532289
 20
147.5535179631
 30
0.0
 40
0.5000000000000019
100
AcDbArc
 50
180.9145126343
 51
240.9142303467
  0
ARC
  5
43D
330
1F
100
AcDbEntity
  8
0
  6
Continuous
 62
     7
370
    15
100
AcDbCircle
 10
242.2686489785
 20
146.679650324
 30
0.0
 40
0.4999709960584903
100
AcDbArc
 50
300.9151777741
 51
60.9142303467
  0
ARC
  5
43E
330
1F
100
AcDbEntity
  8
0
  6
Continuous
 62
     7
370
    15
100
AcDbCircle
 10
242.7824189188
 20
145.8217191436
 30
0.0
 40
0.5000317348502686
100
AcDbArc
 50
120.9151777741
 51
180.9124131683
  0
ARC
  5
43F
330
1F
100
AcDbEntity
  8
0
  6
Continuous
 62
     7
370
    15
100
AcDbCircle
 10
242.7823868959
 20
145.8217369573
 30
0.0
 40
0.5000000000000105
100
AcDbArc
 50
180.9145126343
 51
240.9142303467
  0
ARC
  5
440
330
1F
100
AcDbEntity
  8
0
  6
Continuous
 62
     7
370
    15
100
AcDbCircle
 10
242.2962826455
 20
144.9478693182
 30
0.0
 40
0.499970996058529
100
AcDbArc
 50
300.9151777741
 51
60.9142303467
  0
ARC
  5
441
330
1F
100
AcDbEntity
  8
0
  6
Continuous
 62
     7
370
    15
100
AcDbCircle
 10
242.8100525858
 20
144.0899381378
 30
0.0
 40
0.5000317348502682
100
AcDbArc
 50
120.9151777741
 51
180.9124131683
  0
ARC
  5
442
330
1F
100
AcDbEntity
  8
0
  6
Continuous
 62
     7
370
    15
100
AcDbCircle
 10
242.8100205629
 20
144.0899559514
 30
0.0
 40
0.5000000000000019
100
AcDbArc
 50
180.9145126343
 51
240.9142303467
  0
ARC
  5
443
330
1F
100
AcDbEntity
  8
0
  6
Continuous
 62
     7
370
    15
100
AcDbCircle
 10
242.3239163125
 20
143.2160883123
 30
0.0
 40
0.4999709960585479
100
AcDbArc
 50
300.9151777741
 51
60.9142303467
  0
ARC
  5
444
330
1F
100
AcDbEntity
  8
0
  6
Continuous
 62
     7
370
    15
100
AcDbCircle
 10
242.8374607974
 20
142.3582825438
 30
0.0
 40
0.499808325117742
100
AcDbArc
 50
120.9003907122
 51
180.9289473615
  0
LINE
  5
445
330
1F
100
AcDbEntity
  8
0
  6
Continuous
 62
     7
370
    15
100
AcDbLine
 10
242.3615738123
 20
140.8785544889
 30
0.0
 11
242.3377170532
 21
142.3501782672
 31
0.0
  0
ARC
  5
446
330
1F
100
AcDbEntity
  8
0
  6
Continuous
 62
     7
370
    15
100
AcDbCircle
 10
243.3614579408
 20
140.8945579135
 30
0.0
 40
1.000006014814116
100
AcDbArc
 50
180.9170442893
 51
270.0
  0
LINE
  5
447
330
1F
100
AcDbEntity
  8
0
  6
Continuous
 62
     7
370
    15
100
AcDbLine
 10
251.3925268619
 20
139.8945488588
 30
0.0
 11
243.3614566295
 21
139.8945488588
 31
0.0
  0
ARC
  5
448
330
1F
100
AcDbEntity
  8
0
  6
Continuous
 62
     7
370
    15
100
AcDbCircle
 10
251.3925248354
 20
140.8945576654
 30
0.0
 40
1.00000576675086
100
AcDbArc
 50
270.0
 51
359.0838440689
  0
LINE
  5
449
330
1F
100
AcDbEntity
  8
0
  6
Continuous
 62
     7
370
    15
100
AcDbLine
 10
252.4297817915
 20
143.2160623924
 30
0.0
 11
252.3924096792
 21
140.87856939
 31
0.0
  0
ARC
  5
44A
330
1F
100
AcDbEntity
  8
0
  6
Continuous
 62
     7
370
    15
100
AcDbCircle
 10
251.9295743074
 20
143.2240622175
 30
0.0
 40
0.5002764596068042
100
AcDbArc
 50
359.0837346226
 51
59.0250025991
  0
ARC
  5
44B
330
1F
100
AcDbEntity
  8
0
  6
Continuous
 62
     7
370
    15
100
AcDbCircle
 10
252.4445363205
 20
144.0819506933
 30
0.0
 40
0.5003026286049432
100
AcDbArc
 50
119.1457413432
 51
239.0250025991
  0
ARC
  5
44C
330
1F
100
AcDbEntity
  8
0
  6
Continuous
 62
     7
370
    15
100
AcDbCircle
 10
251.9578462845
 20
144.9558383606
 30
0.0
 40
0.4999709055187964
100
AcDbArc
 50
299.0833068729
 51
359.0854797363
  0
ARC
  5
44D
330
1F
100
AcDbEntity
  8
0
  6
Continuous
 62
     7
370
    15
100
AcDbCircle
 10
251.9578832539
 20
144.9558377704
 30
0.0
 40
0.4999339314231877
100
AcDbArc
 50
359.0854797363
 51
59.0916791509
  0
ARC
  5
44E
330
1F
100
AcDbEntity
  8
0
  6
Continuous
 62
     7
370
    15
100
AcDbCircle
 10
252.4714978322
 20
145.8137424299
 30
0.0
 40
0.499966233455729
100
AcDbArc
 50
119.0790647914
 51
239.0916791509
  0
ARC
  5
44F
330
1F
100
AcDbEntity
  8
0
  6
Continuous
 62
     7
370
    15
100
AcDbCircle
 10
251.9854799515
 20
146.6876193664
 30
0.0
 40
0.4999709055188489
100
AcDbArc
 50
299.0833068729
 51
359.0854797363
  0
ARC
  5
450
330
1F
100
AcDbEntity
  8
0
  6
Continuous
 62
     7
370
    15
100
AcDbCircle
 10
251.9855169209
 20
146.6876187763
 30
0.0
 40
0.4999339314232002
100
AcDbArc
 50
359.0854797363
 51
59.0916791509
  0
ARC
  5
451
330
1F
100
AcDbEntity
  8
0
  6
Continuous
 62
     7
370
    15
100
AcDbCircle
 10
252.4991314992
 20
147.5455234358
 30
0.0
 40
0.4999662334557471
100
AcDbArc
 50
119.0790647914
 51
239.0916791509
  0
ARC
  5
452
330
1F
100
AcDbEntity
  8
0
  6
Continuous
 62
     7
370
    15
100
AcDbCircle
 10
252.0131136185
 20
148.4194003723
 30
0.0
 40
0.4999709055187798
100
AcDbArc
 50
299.0833068729
 51
359.0854797363
  0
ARC
  5
453
330
1F
100
AcDbEntity
  8
0
  6
Continuous
 62
     7
370
    15
100
AcDbCircle
 10
252.0131505879
 20
148.4193997822
 30
0.0
 40
0.4999339314231077
100
AcDbArc
 50
359.0854797363
 51
59.0916791509
  0
ARC
  5
454
330
1F
100
AcDbEntity
  8
0
  6
Continuous
 62
     7
370
    15
100
AcDbCircle
 10
252.5267651662
 20
149.2773044416
 30
0.0
 40
0.4999662334557719
100
AcDbArc
 50
119.0790647914
 51
239.0916791509
  0
ARC
  5
455
330
1F
100
AcDbEntity
  8
0
  6
Continuous
 62
     7
370
    15
100
AcDbCircle
 10
252.0407472855
 20
150.1511813782
 30
0.0
 40
0.4999709055187899
100
AcDbArc
 50
299.0833068729
 51
359.0854797363
  0
ARC
  5
456
330
1F
100
AcDbEntity
  8
0
  6
Continuous
 62
     7
370
    15
100
AcDbCircle
 10
252.0407842549
 20
150.151180788
 30
0.0
 40
0.4999339314232148
100
AcDbArc
 50
359.0854797363
 51
59.0916791509
  0
ARC
  5
457
330
1F
100
AcDbEntity
  8
0
  6
Continuous
 62
     7
370
    15
100
AcDbCircle
 10
252.5543988332
 20
151.0090854475
 30
0.0
 40
0.4999662334557436
100
AcDbArc
 50
119.0790647914
 51
239.0916791509
  0
ARC
  5
458
330
1F
100
AcDbEntity
  8
0
  6
Continuous
 62
     7
370
    15
100
AcDbCircle
 10
252.0683809525
 20
151.882962384
 30
0.0
 40
0.4999709055188463
100
AcDbArc
 50
299.0833068729
 51
359.0854797363
  0
ARC
  5
459
330
1F
100
AcDbEntity
  8
0
  6
Continuous
 62
     7
370
    15
100
AcDbCircle
 10
252.0684179219
 20
151.8829617939
 30
0.0
 40
0.4999339314231868
100
AcDbArc
 50
359.0854797363
 51
59.0916791509
  0
ARC
  5
45A
330
1F
100
AcDbEntity
  8
0
  6
Continuous
 62
     7
370
    15
100
AcDbCircle
 10
252.5820325002
 20
152.7408664533
 30
0.0
 40
0.4999662334557436
100
AcDbArc
 50
119.0790647914
 51
239.0916791509
  0
ARC
  5
45B
330
1F
100
AcDbEntity
  8
0
  6
Continuous
 62
     7
370
    15
100
AcDbCircle
 10
252.0960146195
 20
153.6147433899
 30
0.0
 40
0.4999709055188212
100
AcDbArc
 50
299.0833068729
 51
359.0854797363
  0
ARC
  5
45C
330
1F
100
AcDbEntity
  8
0
  6
Continuous
 62
     7
370
    15
100
AcDbCircle
 10
252.0960515889
 20
153.6147427997
 30
0.0
 40
0.4999339314231304
100
AcDbArc
 50
359.0854797363
 51
59.0916791509
  0
ARC
  5
45D
330
1F
100
AcDbEntity
  8
0
  6
Continuous
 62
     7
370
    15
100
AcDbCircle
 10
252.6096661671
 20
154.4726474592
 30
0.0
 40
0.4999662334557691
100
AcDbArc
 50
119.0790647914
 51
239.0916791509
  0
ARC
  5
45E
330
1F
100
AcDbEntity
  8
0
  6
Continuous
 62
     7
370
    15
100
AcDbCircle
 10
252.1236482865
 20
155.3465243957
 30
0.0
 40
0.4999709055188463
100
AcDbArc
 50
299.0833068729
 51
359.0854797363
  0
ARC
  5
45F
330
1F
100
AcDbEntity
  8
0
  6
Continuous
 62
     7
370
    15
100
AcDbCircle
 10
252.1236852559
 20
155.3465238056
 30
0.0
 40
0.4999339314231856
100
AcDbArc
 50
359.0854797363
 51
59.0916791509
  0
ARC
  5
460
330
1F
100
AcDbEntity
  8
0
  6
Continuous
 62
     7
370
    15
100
AcDbCircle
 10
252.6372998341
 20
156.2044284651
 30
0.0
 40
0.499966233455729
100
AcDbArc
 50
119.0790647914
 51
239.0916791509
  0
ARC
  5
461
330
1F
100
AcDbEntity
  8
0
  6
Continuous
 62
     7
370
    15
100
AcDbCircle
 10
252.1512819535
 20
157.0783054016
 30
0.0
 40
0.4999709055188467
100
AcDbArc
 50
299.0833068729
 51
359.0854797363
  0
ARC
  5
462
330
1F
100
AcDbEntity
  8
0
  6
Continuous
 62
     7
370
    15
100
AcDbCircle
 10
252.1513189229
 20
157.0783048115
 30
0.0
 40
0.4999339314232157
100
AcDbArc
 50
359.0854797363
 51
59.0916791509
  0
ARC
  5
463
330
1F
100
AcDbEntity
  8
0
  6
Continuous
 62
     7
370
    15
100
AcDbCircle
 10
252.6650010317
 20
157.9362083928
 30
0.0
 40
0.4999999999999837
100
AcDbArc
 50
119.085767746
 51
239.0849761963
  0
ARC
  5
464
330
1F
100
AcDbEntity
  8
0
  6
Continuous
 62
     7
370
    15
100
AcDbCircle
 10
252.1788787729
 20
158.8101084739
 30
0.0
 40
0.5000081010368523
100
AcDbArc
 50
299.085767746
 51
359.0830188633
  0
ARC
  5
465
330
1F
100
AcDbEntity
  8
0
  6
Continuous
 62
     7
370
    15
100
AcDbCircle
 10
252.1788629725
 20
158.8100737675
 30
0.0
 40
0.5000233452008723
100
AcDbArc
 50
359.0870242029
 51
59.0853695959
  0
ARC
  5
466
330
1F
100
AcDbEntity
  8
0
  6
Continuous
 62
     7
370
    15
100
AcDbCircle
 10
252.692623992
 20
159.668008646
 30
0.0
 40
0.4999779752183568
100
AcDbArc
 50
119.085767746
 51
239.0853695959
  0
ARC
  5
467
330
1F
100
AcDbEntity
  8
0
  6
Continuous
 62
     7
370
    15
100
AcDbCircle
 10
252.2065124399
 20
160.5418894798
 30
0.0
 40
0.5000081010368275
100
AcDbArc
 50
299.085767746
 51
359.0830188633
  0
ARC
  5
468
330
1F
100
AcDbEntity
  8
0
  6
Continuous
 62
     7
370
    15
100
AcDbCircle
 10
252.2064966395
 20
160.5418547734
 30
0.0
 40
0.5000233452008671
100
AcDbArc
 50
359.0870242029
 51
59.0853695959
  0
ARC
  5
469
330
1F
100
AcDbEntity
  8
0
  6
Continuous
 62
     7
370
    15
100
AcDbCircle
 10
252.720257659
 20
161.3997896518
 30
0.0
 40
0.4999779752184104
100
AcDbArc
 50
119.085767746
 51
239.0853695959
  0
ARC
  5
46A
330
1F
100
AcDbEntity
  8
0
  6
Continuous
 62
     7
370
    15
100
AcDbCircle
 10
252.2341461069
 20
162.2736704856
 30
0.0
 40
0.5000081010368275
100
AcDbArc
 50
299.085767746
 51
359.0830188633
  0
ARC
  5
46B
330
1F
100
AcDbEntity
  8
0
  6
Continuous
 62
     7
370
    15
100
AcDbCircle
 10
252.2341303065
 20
162.2736357792
 30
0.0
 40
0.5000233452009258
100
AcDbArc
 50
359.0870242029
 51
59.0853695959
  0
ARC
  5
46C
330
1F
100
AcDbEntity
  8
0
  6
Continuous
 62
     7
370
    15
100
AcDbCircle
 10
252.747891326
 20
163.1315706577
 30
0.0
 40
0.499977975218386
100
AcDbArc
 50
119.085767746
 51
239.0853695959
  0
ARC
  5
46D
330
1F
100
AcDbEntity
  8
0
  6
Continuous
 62
     7
370
    15
100
AcDbCircle
 10
252.2617797739
 20
164.0054514915
 30
0.0
 40
0.5000081010367257
100
AcDbArc
 50
299.085767746
 51
359.0830188633
  0
ARC
  5
46E
330
1F
100
AcDbEntity
  8
0
  6
Continuous
 62
     7
370
    15
100
AcDbCircle
 10
252.2617639735
 20
164.0054167851
 30
0.0
 40
0.5000233452009795
100
AcDbArc
 50
359.0870242029
 51
59.0853695959
  0
ARC
  5
46F
330
1F
100
AcDbEntity
  8
0
  6
Continuous
 62
     7
370
    15
100
AcDbCircle
 10
252.775524993
 20
164.8633516636
 30
0.0
 40
0.4999779752184486
100
AcDbArc
 50
119.085767746
 51
239.0853695959
  0
ARC
  5
470
330
1F
100
AcDbEntity
  8
0
  6
Continuous
 62
     7
370
    15
100
AcDbCircle
 10
252.2894134409
 20
165.7372324973
 30
0.0
 40
0.5000081010368407
100
AcDbArc
 50
299.085767746
 51
359.0830188633
  0
ARC
  5
471
330
1F
100
AcDbEntity
  8
0
  6
Continuous
 62
     7
370
    15
100
AcDbCircle
 10
252.2893976405
 20
165.7371977909
 30
0.0
 40
0.5000233452007553
100
AcDbArc
 50
359.0870242029
 51
59.0853695959
  0
ARC
  5
472
330
1F
100
AcDbEntity
  8
0
  6
Continuous
 62
     7
370
    15
100
AcDbCircle
 10
252.80315866
 20
166.5951326694
 30
0.0
 40
0.4999779752183812
100
AcDbArc
 50
119.085767746
 51
239.0853695959
  0
ARC
  5
473
330
1F
100
AcDbEntity
  8
0
  6
Continuous
 62
     7
370
    15
100
AcDbCircle
 10
252.3170471079
 20
167.4690135032
 30
0.0
 40
0.5000081010368407
100
AcDbArc
 50
299.085767746
 51
359.0830188633
  0
ARC
  5
474
330
1F
100
AcDbEntity
  8
0
  6
Continuous
 62
     7
370
    15
100
AcDbCircle
 10
252.3170313075
 20
167.4689787968
 30
0.0
 40
0.5000233452009356
100
AcDbArc
 50
359.0870242029
 51
59.0853695959
  0
ARC
  5
475
330
1F
100
AcDbEntity
  8
0
  6
Continuous
 62
     7
370
    15
100
AcDbCircle
 10
252.830792327
 20
168.3269136753
 30
0.0
 40
0.4999779752183616
100
AcDbArc
 50
119.085767746
 51
239.0853695959
  0
ARC
  5
476
330
1F
100
AcDbEntity
  8
0
  6
Continuous
 62
     7
370
    15
100
AcDbCircle
 10
252.3446807749
 20
169.200794509
 30
0.0
 40
0.50000810103688
100
AcDbArc
 50
299.085767746
 51
359.0830188633
  0
ARC
  5
477
330
1F
100
AcDbEntity
  8
0
  6
Continuous
 62
     7
370
    15
100
AcDbCircle
 10
252.3446649745
 20
169.2007598027
 30
0.0
 40
0.5000233452008671
100
AcDbArc
 50
359.0870242029
 51
59.0853695959
  0
ARC
  5
478
330
1F
100
AcDbEntity
  8
0
  6
Continuous
 62
     7
370
    15
100
AcDbCircle
 10
252.8584259939
 20
170.0586946811
 30
0.0
 40
0.499977975218386
100
AcDbArc
 50
119.085767746
 51
239.0853695959
  0
ARC
  5
479
330
1F
100
AcDbEntity
  8
0
  6
Continuous
 62
     7
370
    15
100
AcDbCircle
 10
252.3723144419
 20
170.9325755149
 30
0.0
 40
0.5000081010368275
100
AcDbArc
 50
299.085767746
 51
359.0830188633
  0
ARC
  5
47A
330
1F
100
AcDbEntity
  8
0
  6
Continuous
 62
     7
370
    15
100
AcDbCircle
 10
252.3722986415
 20
170.9325408085
 30
0.0
 40
0.5000233452008723
100
AcDbArc
 50
359.0870242029
 51
59.0853695959
  0
ARC
  5
47B
330
1F
100
AcDbEntity
  8
0
  6
Continuous
 62
     7
370
    15
100
AcDbCircle
 10
252.8860596609
 20
171.790475687
 30
0.0
 40
0.4999779752184104
100
AcDbArc
 50
119.085767746
 51
239.0853695959
  0
ARC
  5
47C
330
1F
100
AcDbEntity
  8
0
  6
Continuous
 62
     7
370
    15
100
AcDbCircle
 10
252.3999481089
 20
172.6643565208
 30
0.0
 40
0.5000081010368275
100
AcDbArc
 50
299.085767746
 51
359.0830188633
  0
ARC
  5
47D
330
1F
100
AcDbEntity
  8
0
  6
Continuous
 62
     7
370
    15
100
AcDbCircle
 10
252.3999323085
 20
172.6643218144
 30
0.0
 40
0.5000233452009258
100
AcDbArc
 50
359.0870242029
 51
59.0853695959
  0
ARC
  5
47E
330
1F
100
AcDbEntity
  8
0
  6
Continuous
 62
     7
370
    15
100
AcDbCircle
 10
252.9136933279
 20
173.5222566929
 30
0.0
 40
0.4999779752183989
100
AcDbArc
 50
119.085767746
 51
239.0853695959
  0
ARC
  5
47F
330
1F
100
AcDbEntity
  8
0
  6
Continuous
 62
     7
370
    15
100
AcDbCircle
 10
252.4275817758
 20
174.3961375266
 30
0.0
 40
0.500008101036783
100
AcDbArc
 50
299.085767746
 51
359.0830188633
  0
ARC
  5
480
330
1F
100
AcDbEntity
  8
0
  6
Continuous
 62
     7
370
    15
100
AcDbCircle
 10
252.4275533624
 20
174.396057996
 30
0.0
 40
0.5000352444515741
100
AcDbArc
 50
359.0921826909
 51
59.0849761963
  0
ARC
  5
481
330
1F
100
AcDbEntity
  8
0
  6
Continuous
 62
     7
370
    15
100
AcDbCircle
 10
252.9413381567
 20
175.254010044
 30
0.0
 40
0.4999930208605053
100
AcDbArc
 50
119.0857696533
 51
239.0844364723
  0
ARC
  5
482
330
1F
100
AcDbEntity
  8
0
  6
Continuous
 62
     7
370
    15
100
AcDbCircle
 10
252.4552231996
 20
176.1278969304
 30
0.0
 40
0.5000000000000528
100
AcDbArc
 50
299.0857696533
 51
359.0854797363
  0
ARC
  5
483
330
1F
100
AcDbEntity
  8
0
  6
Continuous
 62
     7
370
    15
100
AcDbCircle
 10
252.4551914095
 20
176.1278792463
 30
0.0
 40
0.5000315041771696
100
AcDbArc
 50
359.0875639429
 51
59.0848298559
  0
ARC
  5
484
330
1F
100
AcDbEntity
  8
0
  6
Continuous
 62
     7
370
    15
100
AcDbCircle
 10
252.968961117
 20
176.9858102972
 30
0.0
 40
0.4999709960569066
100
AcDbArc
 50
119.0857696533
 51
239.0848298559
  0
ARC
  5
485
330
1F
100
AcDbEntity
  8
0
  6
Continuous
 62
     7
370
    15
100
AcDbCircle
 10
252.4828568666
 20
177.8596779363
 30
0.0
 40
0.5000000000000244
100
AcDbArc
 50
299.0857696533
 51
359.0854797363
  0
ARC
  5
486
330
1F
100
AcDbEntity
  8
0
  6
Continuous
 62
     7
370
    15
100
AcDbCircle
 10
252.4828250765
 20
177.8596602521
 30
0.0
 40
0.5000315041773102
100
AcDbArc
 50
359.087563943
 51
59.0848298559
  0
ARC
  5
487
330
1F
100
AcDbEntity
  8
0
  6
Continuous
 62
     7
370
    15
100
AcDbCircle
 10
252.996594784
 20
178.717591303
 30
0.0
 40
0.4999709960569141
100
AcDbArc
 50
119.0857696533
 51
239.0848298559
  0
ARC
  5
488
330
1F
100
AcDbEntity
  8
0
  6
Continuous
 62
     7
370
    15
100
AcDbCircle
 10
252.5104905336
 20
179.5914589421
 30
0.0
 40
0.4999999999999671
100
AcDbArc
 50
299.0857696533
 51
359.0854797363
  0
ARC
  5
489
330
1F
100
AcDbEntity
  8
0
  6
Continuous
 62
     7
370
    15
100
AcDbCircle
 10
252.5104587435
 20
179.591441258
 30
0.0
 40
0.5000315041773438
100
AcDbArc
 50
359.087563943
 51
59.0848298559
  0
ARC
  5
48A
330
1F
100
AcDbEntity
  8
0
  6
Continuous
 62
     7
370
    15
100
AcDbCircle
 10
253.024228451
 20
180.4493723089
 30
0.0
 40
0.4999709960569115
100
AcDbArc
 50
119.0857696533
 51
239.0848298559
  0
ARC
  5
48B
330
1F
100
AcDbEntity
  8
0
  6
Continuous
 62
     7
370
    15
100
AcDbCircle
 10
252.5381242006
 20
181.323239948
 30
0.0
 40
0.4999999999999881
100
AcDbArc
 50
299.0857696533
 51
359.0854797363
  0
ARC
  5
48C
330
1F
100
AcDbEntity
  8
0
  6
Continuous
 62
     7
370
    15
100
AcDbCircle
 10
252.5380924104
 20
181.3232222639
 30
0.0
 40
0.5000315041772949
100
AcDbArc
 50
359.087563943
 51
59.0848298559
  0
ARC
  5
48D
330
1F
100
AcDbEntity
  8
0
  6
Continuous
 62
     7
370
    15
100
AcDbCircle
 10
253.051862118
 20
182.1811533147
 30
0.0
 40
0.4999709960568969
100
AcDbArc
 50
119.0857696533
 51
239.0848298559
  0
ARC
  5
48E
330
1F
100
AcDbEntity
  8
0
  6
Continuous
 62
     7
370
    15
100
AcDbCircle
 10
252.5657578676
 20
183.0550209539
 30
0.0
 40
0.5000000000000682
100
AcDbArc
 50
299.0857696533
 51
359.0854797363
  0
ARC
  5
48F
330
1F
100
AcDbEntity
  8
0
  6
Continuous
 62
     7
370
    15
100
AcDbCircle
 10
252.5657260774
 20
183.0550032697
 30
0.0
 40
0.5000315041772657
100
AcDbArc
 50
359.087563943
 51
59.0848298559
  0
ARC
  5
490
330
1F
100
AcDbEntity
  8
0
  6
Continuous
 62
     7
370
    15
100
AcDbCircle
 10
253.079495785
 20
183.9129343206
 30
0.0
 40
0.4999709960569141
100
AcDbArc
 50
119.0857696533
 51
239.0848298559
  0
ARC
  5
491
330
1F
100
AcDbEntity
  8
0
  6
Continuous
 62
     7
370
    15
100
AcDbCircle
 10
252.5931845999
 20
184.7868044516
 30
0.0
 40
0.5001028046694528
100
AcDbArc
 50
299.1063492061
 51
359.0853832827
  0
LINE
  5
492
330
1F
100
AcDbEntity
  8
0
  6
Continuous
 62
     7
370
    15
100
AcDbLine
 10
253.1150265901
 20
186.1446612136
 30
0.0
 11
253.0932261913
 21
184.7788207786
 31
0.0
  0
ARC
  5
493
330
1F
100
AcDbEntity
  8
0
  6
Continuous
 62
     7
370
    15
100
AcDbCircle
 10
253.8769905203
 20
186.1324944215
 30
0.0
 40
0.7620591145826223
100
AcDbArc
 50
0.9146252243
 51
179.0853832827
  0
LINE
  5
494
330
1F
100
AcDbEntity
  8
0
  6
Continuous
 62
     7
370
    15
100
AcDbLine
 10
254.646880862
 20
185.6447496073
 30
0.0
 11
254.6389534443
 21
186.1446612136
 31
0.0
  0
ARC
  5
495
330
1F
100
AcDbEntity
  8
0
  6
Continuous
 62
     7
370
    15
100
AcDbCircle
 10
255.1468199107
 20
185.6527214524
 30
0.0
 40
0.5000076948009288
100
AcDbArc
 50
180.9134523382
 51
240.9142456055
  0
ARC
  5
496
330
1F
100
AcDbEntity
  8
0
  6
Continuous
 62
     7
370
    15
100
AcDbCircle
 10
254.6607655837
 20
184.7788226911
 30
0.0
 40
0.4999662334597224
100
AcDbArc
 50
300.9083208481
 51
60.9209485611
  0
ARC
  5
497
330
1F
100
AcDbEntity
  8
0
  6
Continuous
 62
     7
370
    15
100
AcDbCircle
 10
255.1743801619
 20
183.9209180317
 30
0.0
 40
0.4999339314079181
100
AcDbArc
 50
120.9083208481
 51
180.9145126343
  0
ARC
  5
498
330
1F
100
AcDbEntity
  8
0
  6
Continuous
 62
     7
370
    15
100
AcDbCircle
 10
255.1743377949
 20
183.9208541569
 30
0.0
 40
0.4998905542706662
100
AcDbArc
 50
180.9072699547
 51
240.9214730263
  0
ARC
  5
499
330
1F
100
AcDbEntity
  8
0
  6
Continuous
 62
     7
370
    15
100
AcDbCircle
 10
254.6884042319
 20
183.047033365
 30
0.0
 40
0.499956536025547
100
AcDbArc
 50
300.9083208481
 51
60.9214730263
  0
ARC
  5
49A
330
1F
100
AcDbEntity
  8
0
  6
Continuous
 62
     7
370
    15
100
AcDbCircle
 10
255.2020138289
 20
182.1891370258
 30
0.0
 40
0.4999339314079082
100
AcDbArc
 50
120.9083208481
 51
180.9145126343
  0
ARC
  5
49B
330
1F
100
AcDbEntity
  8
0
  6
Continuous
 62
     7
370
    15
100
AcDbCircle
 10
255.2019714618
 20
182.189073151
 30
0.0
 40
0.4998905542706636
100
AcDbArc
 50
180.9072699547
 51
240.9214730263
  0
ARC
  5
49C
330
1F
100
AcDbEntity
  8
0
  6
Continuous
 62
     7
370
    15
100
AcDbCircle
 10
254.7160378989
 20
181.3152523591
 30
0.0
 40
0.4999565360255592
100
AcDbArc
 50
300.9083208481
 51
60.9214730263
  0
ARC
  5
49D
330
1F
100
AcDbEntity
  8
0
  6
Continuous
 62
     7
370
    15
100
AcDbCircle
 10
255.2296474959
 20
180.45735602
 30
0.0
 40
0.4999339314079646
100
AcDbArc
 50
120.9083208481
 51
180.9145126343
  0
ARC
  5
49E
330
1F
100
AcDbEntity
  8
0
  6
Continuous
 62
     7
370
    15
100
AcDbCircle
 10
255.2296051288
 20
180.4572921452
 30
0.0
 40
0.4998905542706059
100
AcDbArc
 50
180.9072699547
 51
240.9214730263
  0
ARC
  5
49F
330
1F
100
AcDbEntity
  8
0
  6
Continuous
 62
     7
370
    15
100
AcDbCircle
 10
254.7436715659
 20
179.5834713533
 30
0.0
 40
0.4999565360255349
100
AcDbArc
 50
300.9083208481
 51
60.9214730263
  0
ARC
  5
4A0
330
1F
100
AcDbEntity
  8
0
  6
Continuous
 62
     7
370
    15
100
AcDbCircle
 10
255.2572811629
 20
178.7255750141
 30
0.0
 40
0.4999339314079646
100
AcDbArc
 50
120.9083208481
 51
180.9145126343
  0
ARC
  5
4A1
330
1F
100
AcDbEntity
  8
0
  6
Continuous
 62
     7
370
    15
100
AcDbCircle
 10
255.2572387958
 20
178.7255111393
 30
0.0
 40
0.4998905542706352
100
AcDbArc
 50
180.9072699547
 51
240.9214730263
  0
ARC
  5
4A2
330
1F
100
AcDbEntity
  8
0
  6
Continuous
 62
     7
370
    15
100
AcDbCircle
 10
254.7713052329
 20
177.8516903474
 30
0.0
 40
0.4999565360255884
100
AcDbArc
 50
300.9083208481
 51
60.9214730263
  0
ARC
  5
4A3
330
1F
100
AcDbEntity
  8
0
  6
Continuous
 62
     7
370
    15
100
AcDbCircle
 10
255.2849148299
 20
176.9937940082
 30
0.0
 40
0.4999339314079082
100
AcDbArc
 50
120.9083208481
 51
180.9145126343
  0
ARC
  5
4A4
330
1F
100
AcDbEntity
  8
0
  6
Continuous
 62
     7
370
    15
100
AcDbCircle
 10
255.2848360325
 20
176.9937083179
 30
0.0
 40
0.4998537835414447
100
AcDbArc
 50
180.9048357848
 51
240.9239071962
  0
ARC
  5
4A5
330
1F
100
AcDbEntity
  8
0
  6
Continuous
 62
     7
370
    15
100
AcDbCircle
 10
254.7989634207
 20
176.1199097331
 30
0.0
 40
0.4999442769384704
100
AcDbArc
 50
300.9058866782
 51
60.9239071962
  0
ARC
  5
4A6
330
1F
100
AcDbEntity
  8
0
  6
Continuous
 62
     7
370
    15
100
AcDbCircle
 10
255.3125113823
 20
175.2620336504
 30
0.0
 40
0.4998971515513373
100
AcDbArc
 50
120.9058866782
 51
180.9169468042
  0
ARC
  5
4A7
330
1F
100
AcDbEntity
  8
0
  6
Continuous
 62
     7
370
    15
100
AcDbCircle
 10
255.312621914
 20
175.2620354195
 30
0.0
 40
0.5000076973919083
100
AcDbArc
 50
180.9169468042
 51
240.9142456055
  0
ARC
  5
4A8
330
1F
100
AcDbEntity
  8
0
  6
Continuous
 62
     7
370
    15
100
AcDbCircle
 10
254.8265675856
 20
174.388136656
 30
0.0
 40
0.4999662334597224
100
AcDbArc
 50
300.9083208481
 51
60.9209485611
  0
ARC
  5
4A9
330
1F
100
AcDbEntity
  8
0
  6
Continuous
 62
     7
370
    15
100
AcDbCircle
 10
255.3401821639
 20
173.5302319965
 30
0.0
 40
0.4999339314079473
100
AcDbArc
 50
120.9083208481
 51
180.9145126343
  0
ARC
  5
4AA
330
1F
100
AcDbEntity
  8
0
  6
Continuous
 62
     7
370
    15
100
AcDbCircle
 10
255.3402191333
 20
173.5302325867
 30
0.0
 40
0.4999709055155352
100
AcDbArc
 50
180.9145126343
 51
240.9166797754
  0
ARC
  5
4AB
330
1F
100
AcDbEntity
  8
0
  6
Continuous
 62
     7
370
    15
100
AcDbCircle
 10
254.8542012526
 20
172.6563556501
 30
0.0
 40
0.4999662334597881
100
AcDbArc
 50
300.9083208481
 51
60.9209485611
  0
ARC
  5
4AC
330
1F
100
AcDbEntity
  8
0
  6
Continuous
 62
     7
370
    15
100
AcDbCircle
 10
255.3678158308
 20
171.7984509907
 30
0.0
 40
0.4999339314079366
100
AcDbArc
 50
120.9083208481
 51
180.9145126343
  0
ARC
  5
4AD
330
1F
100
AcDbEntity
  8
0
  6
Continuous
 62
     7
370
    15
100
AcDbCircle
 10
255.3678528002
 20
171.7984515808
 30
0.0
 40
0.499970905515626
100
AcDbArc
 50
180.9145126343
 51
240.9166797754
  0
ARC
  5
4AE
330
1F
100
AcDbEntity
  8
0
  6
Continuous
 62
     7
370
    15
100
AcDbCircle
 10
254.8818349196
 20
170.9245746443
 30
0.0
 40
0.4999662334597472
100
AcDbArc
 50
300.9083208481
 51
60.9209485611
  0
ARC
  5
4AF
330
1F
100
AcDbEntity
  8
0
  6
Continuous
 62
     7
370
    15
100
AcDbCircle
 10
255.3954494978
 20
170.0666699848
 30
0.0
 40
0.4999339314079078
100
AcDbArc
 50
120.9083208481
 51
180.9145126343
  0
ARC
  5
4B0
330
1F
100
AcDbEntity
  8
0
  6
Continuous
 62
     7
370
    15
100
AcDbCircle
 10
255.3954864672
 20
170.0666705749
 30
0.0
 40
0.4999709055155971
100
AcDbArc
 50
180.9145126343
 51
240.9166797754
  0
ARC
  5
4B1
330
1F
100
AcDbEntity
  8
0
  6
Continuous
 62
     7
370
    15
100
AcDbCircle
 10
254.9094685866
 20
169.1927936384
 30
0.0
 40
0.49996623345975
100
AcDbArc
 50
300.9083208481
 51
60.9209485611
  0
ARC
  5
4B2
330
1F
100
AcDbEntity
  8
0
  6
Continuous
 62
     7
370
    15
100
AcDbCircle
 10
255.4230831648
 20
168.3348889789
 30
0.0
 40
0.4999339314079765
100
AcDbArc
 50
120.9083208481
 51
180.9145126343
  0
ARC
  5
4B3
330
1F
100
AcDbEntity
  8
0
  6
Continuous
 62
     7
370
    15
100
AcDbCircle
 10
255.4231201342
 20
168.3348895691
 30
0.0
 40
0.4999709055155629
100
AcDbArc
 50
180.9145126343
 51
240.9166797754
  0
ARC
  5
4B4
330
1F
100
AcDbEntity
  8
0
  6
Continuous
 62
     7
370
    15
100
AcDbCircle
 10
254.9371022536
 20
167.4610126325
 30
0.0
 40
0.4999662334597735
100
AcDbArc
 50
300.9083208481
 51
60.9209485611
  0
ARC
  5
4B5
330
1F
100
AcDbEntity
  8
0
  6
Continuous
 62
     7
370
    15
100
AcDbCircle
 10
255.4507168318
 20
166.6031079731
 30
0.0
 40
0.4999339314079082
100
AcDbArc
 50
120.9083208481
 51
180.9145126343
  0
ARC
  5
4B6
330
1F
100
AcDbEntity
  8
0
  6
Continuous
 62
     7
370
    15
100
AcDbCircle
 10
255.4507538012
 20
166.6031085632
 30
0.0
 40
0.4999709055155739
100
AcDbArc
 50
180.9145126343
 51
240.9166797754
  0
ARC
  5
4B7
330
1F
100
AcDbEntity
  8
0
  6
Continuous
 62
     7
370
    15
100
AcDbCircle
 10
254.9647359206
 20
165.7292316267
 30
0.0
 40
0.4999662334597334
100
AcDbArc
 50
300.9083208481
 51
60.9209485611
  0
ARC
  5
4B8
330
1F
100
AcDbEntity
  8
0
  6
Continuous
 62
     7
370
    15
100
AcDbCircle
 10
255.4783504988
 20
164.8713269672
 30
0.0
 40
0.4999339314079084
100
AcDbArc
 50
120.9083208481
 51
180.9145126343
  0
ARC
  5
4B9
330
1F
100
AcDbEntity
  8
0
  6
Continuous
 62
     7
370
    15
100
AcDbCircle
 10
255.4783874682
 20
164.8713275574
 30
0.0
 40
0.4999709055155687
100
AcDbArc
 50
180.9145126343
 51
240.9166797754
  0
ARC
  5
4BA
330
1F
100
AcDbEntity
  8
0
  6
Continuous
 62
     7
370
    15
100
AcDbCircle
 10
254.9923695876
 20
163.9974506208
 30
0.0
 40
0.4999662334596948
100
AcDbArc
 50
300.9083208481
 51
60.9209485611
  0
ARC
  5
4BB
330
1F
100
AcDbEntity
  8
0
  6
Continuous
 62
     7
370
    15
100
AcDbCircle
 10
255.5059841658
 20
163.1395459614
 30
0.0
 40
0.4999339314079181
100
AcDbArc
 50
120.9083208481
 51
180.9145126343
  0
ARC
  5
4BC
330
1F
100
AcDbEntity
  8
0
  6
Continuous
 62
     7
370
    15
100
AcDbCircle
 10
255.5060211352
 20
163.1395465515
 30
0.0
 40
0.4999709055155352
100
AcDbArc
 50
180.9145126343
 51
240.9166797754
  0
ARC
  5
4BD
330
1F
100
AcDbEntity
  8
0
  6
Continuous
 62
     7
370
    15
100
AcDbCircle
 10
255.0200032546
 20
162.265669615
 30
0.0
 40
0.4999662334597881
100
AcDbArc
 50
300.9083208481
 51
60.9209485611
  0
ARC
  5
4BE
330
1F
100
AcDbEntity
  8
0
  6
Continuous
 62
     7
370
    15
100
AcDbCircle
 10
255.5336178328
 20
161.4077649555
 30
0.0
 40
0.4999339314079082
100
AcDbArc
 50
120.9083208481
 51
180.9145126343
  0
ARC
  5
4BF
330
1F
100
AcDbEntity
  8
0
  6
Continuous
 62
     7
370
    15
100
AcDbCircle
 10
255.5336548022
 20
161.4077655456
 30
0.0
 40
0.4999709055155601
100
AcDbArc
 50
180.9145126343
 51
240.9166797754
  0
ARC
  5
4C0
330
1F
100
AcDbEntity
  8
0
  6
Continuous
 62
     7
370
    15
100
AcDbCircle
 10
255.0476369215
 20
160.5338886091
 30
0.0
 40
0.4999662334597749
100
AcDbArc
 50
300.9083208481
 51
60.9209485611
  0
ARC
  5
4C1
330
1F
100
AcDbEntity
  8
0
  6
Continuous
 62
     7
370
    15
100
AcDbCircle
 10
255.5612514998
 20
159.6759839497
 30
0.0
 40
0.499933931407923
100
AcDbArc
 50
120.9083208481
 51
180.9145126343
  0
ARC
  5
4C2
330
1F
100
AcDbEntity
  8
0
  6
Continuous
 62
     7
370
    15
100
AcDbCircle
 10
255.5612884692
 20
159.6759845398
 30
0.0
 40
0.4999709055155971
100
AcDbArc
 50
180.9145126343
 51
240.9166797754
  0
ARC
  5
4C3
330
1F
100
AcDbEntity
  8
0
  6
Continuous
 62
     7
370
    15
100
AcDbCircle
 10
255.0752705885
 20
158.8021076032
 30
0.0
 40
0.4999662334597224
100
AcDbArc
 50
300.9083208481
 51
60.9209485611
  0
ARC
  5
4C4
330
1F
100
AcDbEntity
  8
0
  6
Continuous
 62
     7
370
    15
100
AcDbCircle
 10
255.5888851668
 20
157.9442029438
 30
0.0
 40
0.499933931407923
100
AcDbArc
 50
120.9083208481
 51
180.9145126343
  0
ARC
  5
4C5
330
1F
100
AcDbEntity
  8
0
  6
Continuous
 62
     7
370
    15
100
AcDbCircle
 10
255.5889221362
 20
157.9442035339
 30
0.0
 40
0.4999709055155976
100
AcDbArc
 50
180.9145126343
 51
240.9166797754
  0
ARC
  5
4C6
330
1F
100
AcDbEntity
  8
0
  6
Continuous
 62
     7
370
    15
100
AcDbCircle
 10
255.1029287769
 20
157.0703269889
 30
0.0
 40
0.4999539740053099
100
AcDbArc
 50
300.9058866782
 51
60.923382731
  0
ARC
  5
4C7
330
1F
100
AcDbEntity
  8
0
  6
Continuous
 62
     7
370
    15
100
AcDbCircle
 10
255.6164817192
 20
156.212442586
 30
0.0
 40
0.4998971515513579
100
AcDbArc
 50
120.9058866782
 51
180.9169468042
  0
ARC
  5
4C8
330
1F
100
AcDbEntity
  8
0
  6
Continuous
 62
     7
370
    15
100
AcDbCircle
 10
255.6165922509
 20
156.212444355
 30
0.0
 40
0.5000076973918968
100
AcDbArc
 50
180.9169468042
 51
240.9142456055
  0
ARC
  5
4C9
330
1F
100
AcDbEntity
  8
0
  6
Continuous
 62
     7
370
    15
100
AcDbCircle
 10
255.1305624439
 20
155.338545983
 30
0.0
 40
0.4999539740052542
100
AcDbArc
 50
300.9058866782
 51
60.923382731
  0
ARC
  5
4CA
330
1F
100
AcDbEntity
  8
0
  6
Continuous
 62
     7
370
    15
100
AcDbCircle
 10
255.6441153862
 20
154.4806615801
 30
0.0
 40
0.4998971515513579
100
AcDbArc
 50
120.9058866782
 51
180.9169468042
  0
ARC
  5
4CB
330
1F
100
AcDbEntity
  8
0
  6
Continuous
 62
     7
370
    15
100
AcDbCircle
 10
255.6442259179
 20
154.4806633492
 30
0.0
 40
0.5000076973919332
100
AcDbArc
 50
180.9169468042
 51
240.9142456055
  0
ARC
  5
4CC
330
1F
100
AcDbEntity
  8
0
  6
Continuous
 62
     7
370
    15
100
AcDbCircle
 10
255.1581961109
 20
153.6067649771
 30
0.0
 40
0.4999539740052953
100
AcDbArc
 50
300.9058866782
 51
60.923382731
  0
ARC
  5
4CD
330
1F
100
AcDbEntity
  8
0
  6
Continuous
 62
     7
370
    15
100
AcDbCircle
 10
255.6717490532
 20
152.7488805742
 30
0.0
 40
0.4998971515513227
100
AcDbArc
 50
120.9058866782
 51
180.9169468042
  0
ARC
  5
4CE
330
1F
100
AcDbEntity
  8
0
  6
Continuous
 62
     7
370
    15
100
AcDbCircle
 10
255.6718595849
 20
152.7488823433
 30
0.0
 40
0.5000076973918395
100
AcDbArc
 50
180.9169468042
 51
240.9142456055
  0
ARC
  5
4CF
330
1F
100
AcDbEntity
  8
0
  6
Continuous
 62
     7
370
    15
100
AcDbCircle
 10
255.1858297779
 20
151.8749839713
 30
0.0
 40
0.4999539740053757
100
AcDbArc
 50
300.9058866782
 51
60.923382731
  0
ARC
  5
4D0
330
1F
100
AcDbEntity
  8
0
  6
Continuous
 62
     7
370
    15
100
AcDbCircle
 10
255.6993827202
 20
151.0170995684
 30
0.0
 40
0.4998971515514702
100
AcDbArc
 50
120.9058866782
 51
180.9169468042
  0
ARC
  5
4D1
330
1F
100
AcDbEntity
  8
0
  6
Continuous
 62
     7
370
    15
100
AcDbCircle
 10
255.6994932518
 20
151.0171013375
 30
0.0
 40
0.5000076973918173
100
AcDbArc
 50
180.9169468042
 51
240.9142456055
  0
ARC
  5
4D2
330
1F
100
AcDbEntity
  8
0
  6
Continuous
 62
     7
370
    15
100
AcDbCircle
 10
255.2134634449
 20
150.1432029654
 30
0.0
 40
0.4999539740052956
100
AcDbArc
 50
300.9058866782
 51
60.923382731
  0
ARC
  5
4D3
330
1F
100
AcDbEntity
  8
0
  6
Continuous
 62
     7
370
    15
100
AcDbCircle
 10
255.7270163872
 20
149.2853185625
 30
0.0
 40
0.4998971515514347
100
AcDbArc
 50
120.9058866782
 51
180.9169468042
  0
ARC
  5
4D4
330
1F
100
AcDbEntity
  8
0
  6
Continuous
 62
     7
370
    15
100
AcDbCircle
 10
255.7271269188
 20
149.2853203316
 30
0.0
 40
0.5000076973918697
100
AcDbArc
 50
180.9169468042
 51
240.9142456055
  0
ARC
  5
4D5
330
1F
100
AcDbEntity
  8
0
  6
Continuous
 62
     7
370
    15
100
AcDbCircle
 10
255.2410971119
 20
148.4114219596
 30
0.0
 40
0.4999539740053537
100
AcDbArc
 50
300.9058866782
 51
60.923382731
  0
ARC
  5
4D6
330
1F
100
AcDbEntity
  8
0
  6
Continuous
 62
     7
370
    15
100
AcDbCircle
 10
255.7546500541
 20
147.5535375567
 30
0.0
 40
0.4998971515515271
100
AcDbArc
 50
120.9058866782
 51
180.9169468042
  0
ARC
  5
4D7
330
1F
100
AcDbEntity
  8
0
  6
Continuous
 62
     7
370
    15
100
AcDbCircle
 10
255.7547605858
 20
147.5535393257
 30
0.0
 40
0.5000076973918385
100
AcDbArc
 50
180.9169468042
 51
240.9142456055
  0
ARC
  5
4D8
330
1F
100
AcDbEntity
  8
0
  6
Continuous
 62
     7
370
    15
100
AcDbCircle
 10
255.2687307789
 20
146.6796409537
 30
0.0
 40
0.4999539740053099
100
AcDbArc
 50
300.9058866782
 51
60.923382731
  0
ARC
  5
4D9
330
1F
100
AcDbEntity
  8
0
  6
Continuous
 62
     7
370
    15
100
AcDbCircle
 10
255.7822837211
 20
145.8217565508
 30
0.0
 40
0.4998971515513579
100
AcDbArc
 50
120.9058866782
 51
180.9169468042
  0
ARC
  5
4DA
330
1F
100
AcDbEntity
  8
0
  6
Continuous
 62
     7
370
    15
100
AcDbCircle
 10
255.7823942528
 20
145.8217583199
 30
0.0
 40
0.5000076973919083
100
AcDbArc
 50
180.9169468042
 51
240.9142456055
  0
ARC
  5
4DB
330
1F
100
AcDbEntity
  8
0
  6
Continuous
 62
     7
370
    15
100
AcDbCircle
 10
255.2963644458
 20
144.9478599478
 30
0.0
 40
0.4999539740052709
100
AcDbArc
 50
300.9058866782
 51
60.923382731
  0
ARC
  5
4DC
330
1F
100
AcDbEntity
  8
0
  6
Continuous
 62
     7
370
    15
100
AcDbCircle
 10
255.8099173881
 20
144.0899755449
 30
0.0
 40
0.4998971515513129
100
AcDbArc
 50
120.9058866782
 51
180.9169468042
  0
ARC
  5
4DD
330
1F
100
AcDbEntity
  8
0
  6
Continuous
 62
     7
370
    15
100
AcDbCircle
 10
255.8100279198
 20
144.089977314
 30
0.0
 40
0.5000076973919332
100
AcDbArc
 50
180.9169468042
 51
240.9142456055
  0
ARC
  5
4DE
330
1F
100
AcDbEntity
  8
0
  6
Continuous
 62
     7
370
    15
100
AcDbCircle
 10
255.3232703767
 20
143.2160673239
 30
0.0
 40
0.5003181893069708
100
AcDbArc
 50
300.9780762774
 51
60.8511931318
  0
ARC
  5
4DF
330
1F
100
AcDbEntity
  8
0
  6
Continuous
 62
     7
370
    15
100
AcDbCircle
 10
255.838294634
 20
142.3581796284
 30
0.0
 40
0.5002922661938588
100
AcDbArc
 50
120.9780762774
 51
180.9153951345
  0
LINE
  5
4E0
330
1F
100
AcDbEntity
  8
0
  6
Continuous
 62
     7
370
    15
100
AcDbLine
 10
255.3615852564
 20
140.8785544889
 30
0.0
 11
255.338071224
 21
142.3501857178
 31
0.0
  0
ARC
  5
4E1
330
1F
100
AcDbEntity
  8
0
  6
Continuous
 62
     7
370
    15
100
AcDbCircle
 10
256.3614291583
 20
140.8945286666
 30
0.0
 40
0.9999767683127551
100
AcDbArc
 50
180.9153951345
 51
270.0016491548
  0
LINE
  5
4E2
330
1F
100
AcDbEntity
  8
0
  6
Continuous
 62
     7
370
    15
100
AcDbLine
 10
264.3769963949
 20
139.8945488588
 30
0.0
 11
256.3614531725
 21
139.8945488588
 31
0.0
  0
ARC
  5
4E3
330
1F
100
AcDbEntity
  8
0
  6
Continuous
 62
     7
370
    15
100
AcDbCircle
 10
264.3769913881
 20
140.8945518987
 30
0.0
 40
1.0
100
AcDbArc
 50
270.0
 51
0.0
  0
LINE
  5
4E4
330
1F
100
AcDbEntity
  8
0
  6
Continuous
 62
     7
370
    15
100
AcDbLine
 10
265.3770282238
 20
142.5944977061
 30
0.0
 11
265.3769984214
 21
140.8945508854
 31
0.0
  0
ARC
  5
4E5
330
1F
100
AcDbEntity
  8
0
  6
Continuous
 62
     7
370
    15
100
AcDbCircle
 10
264.8770993091
 20
142.5945044158
 30
0.0
 40
0.4999225966881332
100
AcDbArc
 50
359.9989714197
 51
60.0069986226
  0
ARC
  5
4E6
330
1F
100
AcDbEntity
  8
0
  6
Continuous
 62
     7
370
    15
100
AcDbCircle
 10
265.3770219057
 20
143.4604851262
 30
0.0
 40
0.5000000000000152
100
AcDbArc
 50
119.9999313354
 51
239.9981231689
  0
ARC
  5
4E7
330
1F
100
AcDbEntity
  8
0
  6
Continuous
 62
     7
370
    15
100
AcDbCircle
 10
264.877039241
 20
144.3264829011
 30
0.0
 40
0.4999674049838257
100
AcDbArc
 50
299.9999313354
 51
0.0008090932
  0
ARC
  5
4E8
330
1F
100
AcDbEntity
  8
0
  6
Continuous
 62
     7
370
    15
100
AcDbCircle
 10
264.8770032349
 20
144.3264829006
 30
0.0
 40
0.500003411113143
100
AcDbArc
 50
0.0008090932
 51
60.0016509934
  0
ARC
  5
4E9
330
1F
100
AcDbEntity
  8
0
  6
Continuous
 62
     7
370
    15
100
AcDbCircle
 10
265.3770066469
 20
145.1925102727
 30
0.0
 40
0.5000000000000014
100
AcDbArc
 50
119.9999313354
 51
239.9981231689
  0
ARC
  5
4EA
330
1F
100
AcDbEntity
  8
0
  6
Continuous
 62
     7
370
    15
100
AcDbCircle
 10
264.8770276229
 20
146.0585080492
 30
0.0
 40
0.4999655861175846
100
AcDbArc
 50
299.999569917
 51
60.0042743093
  0
ARC
  5
4EB
330
1F
100
AcDbEntity
  8
0
  6
Continuous
 62
     7
370
    15
100
AcDbCircle
 10
265.3769913881
 20
146.924512531
 30
0.0
 40
0.5000000000000152
100
AcDbArc
 50
119.9984169006
 51
239.9981231689
  0
ARC
  5
4EC
330
1F
100
AcDbEntity
  8
0
  6
Continuous
 62
     7
370
    15
100
AcDbCircle
 10
264.8770239856
 20
147.7905367338
 30
0.0
 40
0.4999826615788849
100
AcDbArc
 50
299.9984169006
 51
359.9977822585
  0
ARC
  5
4ED
330
1F
100
AcDbEntity
  8
0
  6
Continuous
 62
     7
370
    15
100
AcDbCircle
 10
264.8770754325
 20
147.7905367319
 30
0.0
 40
0.4999312147443286
100
AcDbArc
 50
359.9977822585
 51
60.006428327
  0
ARC
  5
4EE
330
1F
100
AcDbEntity
  8
0
  6
Continuous
 62
     7
370
    15
100
AcDbCircle
 10
265.3770066469
 20
148.6565224187
 30
0.0
 40
0.4999999999999906
100
AcDbArc
 50
119.9999313354
 51
239.9981231689
  0
ARC
  5
4EF
330
1F
100
AcDbEntity
  8
0
  6
Continuous
 62
     7
370
    15
100
AcDbCircle
 10
264.8770087219
 20
149.5225466252
 30
0.0
 40
0.499997925612049
100
AcDbArc
 50
299.9999313354
 51
359.9969076376
  0
ARC
  5
4F0
330
1F
100
AcDbEntity
  8
0
  6
Continuous
 62
     7
370
    15
100
AcDbCircle
 10
264.8770400084
 20
149.5225466235
 30
0.0
 40
0.4999666391101589
100
AcDbArc
 50
359.9969076376
 51
60.0022683878
  0
ARC
  5
4F1
330
1F
100
AcDbEntity
  8
0
  6
Continuous
 62
     7
370
    15
100
AcDbCircle
 10
265.3769963358
 20
150.388534907
 30
0.0
 40
0.4999793777986429
100
AcDbArc
 50
119.9999313354
 51
239.9999389595
  0
ARC
  5
4F2
330
1F
100
AcDbEntity
  8
0
  6
Continuous
 62
     7
370
    15
100
AcDbCircle
 10
264.8770087223
 20
151.2545412535
 30
0.0
 40
0.4999979249048321
100
AcDbArc
 50
299.9999313354
 51
359.9977819756
  0
ARC
  5
4F3
330
1F
100
AcDbEntity
  8
0
  6
Continuous
 62
     7
370
    15
100
AcDbCircle
 10
264.8770685094
 20
151.2545296199
 30
0.0
 40
0.499938137465299
100
AcDbArc
 50
359.9991149902
 51
60.0040169141
  0
ARC
  5
4F4
330
1F
100
AcDbEntity
  8
0
  6
Continuous
 62
     7
370
    15
100
AcDbCircle
 10
265.3770066469
 20
152.1205193059
 30
0.0
 40
0.5000000000000244
100
AcDbArc
 50
120.0011247069
 51
240.0000762939
  0
ARC
  5
4F5
330
1F
100
AcDbEntity
  8
0
  6
Continuous
 62
     7
370
    15
100
AcDbCircle
 10
264.8769879058
 20
152.9865379103
 30
0.0
 40
0.5000034822979225
100
AcDbArc
 50
300.0011247069
 51
359.9993088824
  0
ARC
  5
4F6
330
1F
100
AcDbEntity
  8
0
  6
Continuous
 62
     7
370
    15
100
AcDbCircle
 10
264.8770769046
 20
152.9865379093
 30
0.0
 40
0.4999144835489801
100
AcDbArc
 50
359.9993088824
 51
60.0075355438
  0
ARC
  5
4F7
330
1F
100
AcDbEntity
  8
0
  6
Continuous
 62
     7
370
    15
100
AcDbCircle
 10
265.3769913881
 20
153.8525139348
 30
0.0
 40
0.5000000000000152
100
AcDbArc
 50
119.9999313354
 51
239.9981231689
  0
ARC
  5
4F8
330
1F
100
AcDbEntity
  8
0
  6
Continuous
 62
     7
370
    15
100
AcDbCircle
 10
264.8769782037
 20
154.7185645716
 30
0.0
 40
0.5000284445821478
100
AcDbArc
 50
299.9999313355
 51
359.9956277473
  0
ARC
  5
4F9
330
1F
100
AcDbEntity
  8
0
  6
Continuous
 62
     7
370
    15
100
AcDbCircle
 10
264.8770969749
 20
154.718534136
 30
0.0
 40
0.4999096720334328
100
AcDbArc
 50
359.9991149902
 51
60.0079198977
  0
ARC
  5
4FA
330
1F
100
AcDbEntity
  8
0
  6
Continuous
 62
     7
370
    15
100
AcDbCircle
 10
265.3769928896
 20
155.5845135925
 30
0.0
 40
0.4999984985752498
100
AcDbArc
 50
120.0003743011
 51
239.9997782877
  0
ARC
  5
4FB
330
1F
100
AcDbEntity
  8
0
  6
Continuous
 62
     7
370
    15
100
AcDbCircle
 10
264.8769845772
 20
156.4505403281
 30
0.0
 40
0.5000068109613881
100
AcDbArc
 50
300.0003743011
 51
359.9986643952
  0
ARC
  5
4FC
330
1F
100
AcDbEntity
  8
0
  6
Continuous
 62
     7
370
    15
100
AcDbCircle
 10
264.8770664636
 20
156.4505363946
 30
0.0
 40
0.4999249245059428
100
AcDbArc
 50
359.9991149902
 51
60.0048912746
  0
ARC
  5
4FD
330
1F
100
AcDbEntity
  8
0
  6
Continuous
 62
     7
370
    15
100
AcDbCircle
 10
265.3769913881
 20
157.3165184514
 30
0.0
 40
0.4999999999999998
100
AcDbArc
 50
119.9999313354
 51
240.0000762939
  0
ARC
  5
4FE
330
1F
100
AcDbEntity
  8
0
  6
Continuous
 62
     7
370
    15
100
AcDbCircle
 10
264.876978203
 20
158.1825690893
 30
0.0
 40
0.5000284459653425
100
AcDbArc
 50
299.9999313355
 51
359.9947641405
  0
ARC
  5
4FF
330
1F
100
AcDbEntity
  8
0
  6
Continuous
 62
     7
370
    15
100
AcDbCircle
 10
264.877070552
 20
158.1825233953
 30
0.0
 40
0.4999360948627327
100
AcDbArc
 50
0.0
 51
60.0061712595
  0
ARC
  5
500
330
1F
100
AcDbEntity
  8
0
  6
Continuous
 62
     7
370
    15
100
AcDbCircle
 10
265.3769913881
 20
159.0485207097
 30
0.0
 40
0.4999999999999998
100
AcDbArc
 50
120.0003681183
 51
240.0000762939
  0
ARC
  5
501
330
1F
100
AcDbEntity
  8
0
  6
Continuous
 62
     7
370
    15
100
AcDbCircle
 10
264.8769802591
 20
159.9145525396
 30
0.0
 40
0.5000111296515237
100
AcDbArc
 50
300.0003681183
 51
359.9969084139
  0
ARC
  5
502
330
1F
100
AcDbEntity
  8
0
  6
Continuous
 62
     7
370
    15
100
AcDbCircle
 10
264.877026824
 20
159.9145332824
 30
0.0
 40
0.4999645640825322
100
AcDbArc
 50
359.9991149902
 51
60.0022682623
  0
ARC
  5
503
330
1F
100
AcDbEntity
  8
0
  6
Continuous
 62
     7
370
    15
100
AcDbCircle
 10
265.3769913881
 20
160.7805382268
 30
0.0
 40
0.4999999999999998
100
AcDbArc
 50
119.9999313354
 51
240.0000762939
  0
ARC
  5
504
330
1F
100
AcDbEntity
  8
0
  6
Continuous
 62
     7
370
    15
100
AcDbCircle
 10
264.8769934627
 20
161.6465624341
 30
0.0
 40
0.4999979265521285
100
AcDbArc
 50
299.9999313354
 51
359.9960332765
  0
ARC
  5
505
330
1F
100
AcDbEntity
  8
0
  6
Continuous
 62
     7
370
    15
100
AcDbCircle
 10
264.8770379615
 20
161.6465624311
 30
0.0
 40
0.4999534276962217
100
AcDbArc
 50
359.9960332765
 51
60.0050958739
  0
ARC
  5
506
330
1F
100
AcDbEntity
  8
0
  6
Continuous
 62
     7
370
    15
100
AcDbCircle
 10
265.3770025559
 20
162.5125322644
 30
0.0
 40
0.4999807478091274
100
AcDbArc
 50
120.0003662109
 51
239.9952340883
  0
ARC
  5
507
330
1F
100
AcDbEntity
  8
0
  6
Continuous
 62
     7
370
    15
100
AcDbCircle
 10
264.8770066469
 20
163.3785377996
 30
0.0
 40
0.5000000000000043
100
AcDbArc
 50
300.0003662109
 51
359.9991149902
  0
ARC
  5
508
330
1F
100
AcDbEntity
  8
0
  6
Continuous
 62
     7
370
    15
100
AcDbCircle
 10
264.8770685059
 20
163.3785377986
 30
0.0
 40
0.4999381409711751
100
AcDbArc
 50
359.9991149902
 51
60.0059699328
  0
ARC
  5
509
330
1F
100
AcDbEntity
  8
0
  6
Continuous
 62
     7
370
    15
100
AcDbCircle
 10
265.376927583
 20
164.2445274857
 30
0.0
 40
0.4999604714277549
100
AcDbArc
 50
119.9925213545
 51
240.0059699328
  0
ARC
  5
50A
330
1F
100
AcDbEntity
  8
0
  6
Continuous
 62
     7
370
    15
100
AcDbCircle
 10
264.8769955179
 20
165.1105593145
 30
0.0
 40
0.5000111296515244
100
AcDbArc
 50
300.0003681183
 51
359.9969084139
  0
ARC
  5
50B
330
1F
100
AcDbEntity
  8
0
  6
Continuous
 62
     7
370
    15
100
AcDbCircle
 10
264.8770837574
 20
165.1105400567
 30
0.0
 40
0.4999228894932195
100
AcDbArc
 50
359.9991149902
 51
60.00899841
  0
ARC
  5
50C
330
1F
100
AcDbEntity
  8
0
  6
Continuous
 62
     7
370
    15
100
AcDbCircle
 10
265.376881813
 20
165.9765297448
 30
0.0
 40
0.4999452199426698
100
AcDbArc
 50
119.9890560944
 51
240.00899841
  0
ARC
  5
50D
330
1F
100
AcDbEntity
  8
0
  6
Continuous
 62
     7
370
    15
100
AcDbCircle
 10
264.8769782031
 20
166.8425803808
 30
0.0
 40
0.5000284458631589
100
AcDbArc
 50
299.9999313355
 51
359.9947534057
  0
ARC
  5
50E
330
1F
100
AcDbEntity
  8
0
  6
Continuous
 62
     7
370
    15
100
AcDbCircle
 10
264.8770837574
 20
166.842542315
 30
0.0
 40
0.4999228894932195
100
AcDbArc
 50
359.9991149902
 51
60.00899841
  0
ARC
  5
50F
330
1F
100
AcDbEntity
  8
0
  6
Continuous
 62
     7
370
    15
100
AcDbCircle
 10
265.3768818123
 20
167.7085320019
 30
0.0
 40
0.4999452186251412
100
AcDbArc
 50
119.9902494659
 51
240.00899841
  0
ARC
  5
510
330
1F
100
AcDbEntity
  8
0
  6
Continuous
 62
     7
370
    15
100
AcDbCircle
 10
264.876972647
 20
168.5745506058
 30
0.0
 40
0.5000034824841956
100
AcDbArc
 50
300.0011247069
 51
359.9984238604
  0
ARC
  5
511
330
1F
100
AcDbEntity
  8
0
  6
Continuous
 62
     7
370
    15
100
AcDbCircle
 10
264.876986575
 20
168.5745506054
 30
0.0
 40
0.4999895544404221
100
AcDbArc
 50
359.9984238604
 51
60.00270529
  0
ARC
  5
512
330
1F
100
AcDbEntity
  8
0
  6
Continuous
 62
     7
370
    15
100
AcDbCircle
 10
265.3769167806
 20
169.4405374866
 30
0.0
 40
0.4999421877036386
100
AcDbArc
 50
119.9920754317
 51
240.0020141602
  0
ARC
  5
513
330
1F
100
AcDbEntity
  8
0
  6
Continuous
 62
     7
370
    15
100
AcDbCircle
 10
264.8771394979
 20
170.3064536954
 30
0.0
 40
0.4998518974958577
100
AcDbArc
 50
299.9920754317
 51
0.0098013993
  0
ARC
  5
514
330
1F
100
AcDbEntity
  8
0
  6
Continuous
 62
     7
370
    15
100
AcDbCircle
 10
264.8769913881
 20
170.3065392034
 30
0.0
 40
0.5000000000000067
100
AcDbArc
 50
0.0
 51
60.0020141602
  0
ARC
  5
515
330
1F
100
AcDbEntity
  8
0
  6
Continuous
 62
     7
370
    15
100
AcDbCircle
 10
265.3769404868
 20
171.1725467481
 30
0.0
 40
0.4999590835698973
100
AcDbArc
 50
119.9961205645
 51
240.0020141602
  0
ARC
  5
516
330
1F
100
AcDbEntity
  8
0
  6
Continuous
 62
     7
370
    15
100
AcDbCircle
 10
264.8769868836
 20
172.0385568931
 30
0.0
 40
0.5000045047260784
100
AcDbArc
 50
300.0001490026
 51
359.9982209568
  0
ARC
  5
517
330
1F
100
AcDbEntity
  8
0
  6
Continuous
 62
     7
370
    15
100
AcDbCircle
 10
264.8770049009
 20
172.0385568926
 30
0.0
 40
0.4999864873731836
100
AcDbArc
 50
359.9982209568
 51
60.0009550686
  0
ARC
  5
518
330
1F
100
AcDbEntity
  8
0
  6
Continuous
 62
     7
370
    15
100
AcDbCircle
 10
265.3769776445
 20
172.9045528208
 30
0.0
 40
0.4999743579352116
100
AcDbArc
 50
120.0000269366
 51
240.0000610352
  0
ARC
  5
519
330
1F
100
AcDbEntity
  8
0
  6
Continuous
 62
     7
370
    15
100
AcDbCircle
 10
264.8769868836
 20
173.7705591514
 30
0.0
 40
0.5000045047260784
100
AcDbArc
 50
300.0001490026
 51
359.9982209568
  0
ARC
  5
51A
330
1F
100
AcDbEntity
  8
0
  6
Continuous
 62
     7
370
    15
100
AcDbCircle
 10
264.8770049009
 20
173.7705591509
 30
0.0
 40
0.4999864873731836
100
AcDbArc
 50
359.9982209568
 51
60.0009550686
  0
ARC
  5
51B
330
1F
100
AcDbEntity
  8
0
  6
Continuous
 62
     7
370
    15
100
AcDbCircle
 10
265.3769776445
 20
174.6365550791
 30
0.0
 40
0.4999743579231164
100
AcDbArc
 50
120.0010026898
 51
240.0000610352
  0
ARC
  5
51C
330
1F
100
AcDbEntity
  8
0
  6
Continuous
 62
     7
370
    15
100
AcDbCircle
 10
264.876972647
 20
175.5025520096
 30
0.0
 40
0.500003482484118
100
AcDbArc
 50
300.0011247069
 51
359.9984238604
  0
ARC
  5
51D
330
1F
100
AcDbEntity
  8
0
  6
Continuous
 62
     7
370
    15
100
AcDbCircle
 10
264.8769865754
 20
175.5025520092
 30
0.0
 40
0.4999895540294064
100
AcDbArc
 50
359.9984238604
 51
60.000752165
  0
ARC
  5
51E
330
1F
100
AcDbEntity
  8
0
  6
Continuous
 62
     7
370
    15
100
AcDbCircle
 10
265.3769583413
 20
176.3685427028
 30
0.0
 40
0.4999662690109918
100
AcDbArc
 50
119.9979350832
 51
240.0000610352
  0
ARC
  5
51F
330
1F
100
AcDbEntity
  8
0
  6
Continuous
 62
     7
370
    15
100
AcDbCircle
 10
264.8770214445
 20
177.2345308831
 30
0.0
 40
0.4999699435942734
100
AcDbArc
 50
299.9979350832
 51
0.0011036131
  0
ARC
  5
520
330
1F
100
AcDbEntity
  8
0
  6
Continuous
 62
     7
370
    15
100
AcDbCircle
 10
264.8769913881
 20
177.2345482366
 30
0.0
 40
0.5000000000000185
100
AcDbArc
 50
359.9991149902
 51
60.0000610352
  0
ARC
  5
521
330
1F
100
AcDbEntity
  8
0
  6
Continuous
 62
     7
370
    15
100
AcDbCircle
 10
265.3769786863
 20
178.1005537707
 30
0.0
 40
0.499976441512003
100
AcDbArc
 50
120.0019733658
 51
240.0000610352
  0
ARC
  5
522
330
1F
100
AcDbEntity
  8
0
  6
Continuous
 62
     7
370
    15
100
AcDbCircle
 10
264.8769451466
 20
178.9665683831
 30
0.0
 40
0.5000309833411242
100
AcDbArc
 50
300.0019733658
 51
359.9970653305
  0
ARC
  5
523
330
1F
100
AcDbEntity
  8
0
  6
Continuous
 62
     7
370
    15
100
AcDbCircle
 10
264.8769761293
 20
178.9665504949
 30
0.0
 40
0.5000000000000197
100
AcDbArc
 50
359.9991149902
 51
60.0000610352
  0
ARC
  5
524
330
1F
100
AcDbEntity
  8
0
  6
Continuous
 62
     7
370
    15
100
AcDbCircle
 10
265.3769583413
 20
179.8325472194
 30
0.0
 40
0.4999662690009479
100
AcDbArc
 50
119.9998730792
 51
240.0000610352
  0
ARC
  5
525
330
1F
100
AcDbEntity
  8
0
  6
Continuous
 62
     7
370
    15
100
AcDbCircle
 10
264.876962862
 20
180.6985692234
 30
0.0
 40
0.5000285263530442
100
AcDbArc
 50
299.9998730792
 51
359.9981127607
  0
ARC
  5
526
330
1F
100
AcDbEntity
  8
0
  6
Continuous
 62
     7
370
    15
100
AcDbCircle
 10
264.8769913881
 20
180.6985527532
 30
0.0
 40
0.5000000000000568
100
AcDbArc
 50
0.0
 51
60.0020141601
  0
ARC
  5
527
330
1F
100
AcDbEntity
  8
0
  6
Continuous
 62
     7
370
    15
100
AcDbCircle
 10
265.3769371236
 20
181.5645544723
 30
0.0
 40
0.499952356846583
100
AcDbArc
 50
119.9980669861
 51
240.0020141602
  0
ARC
  5
528
330
1F
100
AcDbEntity
  8
0
  6
Continuous
 62
     7
370
    15
100
AcDbCircle
 10
264.877004192
 20
182.43053118
 30
0.0
 40
0.499971937567995
100
AcDbArc
 50
299.9980669861
 51
0.00185672
  0
ARC
  5
529
330
1F
100
AcDbEntity
  8
0
  6
Continuous
 62
     7
370
    15
100
AcDbCircle
 10
264.8769761293
 20
182.4305473821
 30
0.0
 40
0.5000000000000568
100
AcDbArc
 50
0.0
 51
60.0020141602
  0
ARC
  5
52A
330
1F
100
AcDbEntity
  8
0
  6
Continuous
 62
     7
370
    15
100
AcDbCircle
 10
265.3769237267
 20
183.2965523263
 30
0.0
 40
0.4999560807771406
100
AcDbArc
 50
119.9960478412
 51
240.0020141602
  0
ARC
  5
52B
330
1F
100
AcDbEntity
  8
0
  6
Continuous
 62
     7
370
    15
100
AcDbCircle
 10
264.8770347066
 20
184.1625234495
 30
0.0
 40
0.4999414233763072
100
AcDbArc
 50
299.9960478412
 51
0.0029908551
  0
ARC
  5
52C
330
1F
100
AcDbEntity
  8
0
  6
Continuous
 62
     7
370
    15
100
AcDbCircle
 10
264.8769761293
 20
184.1625572698
 30
0.0
 40
0.5000000000000351
100
AcDbArc
 50
359.9991149902
 51
60.0020141601
  0
ARC
  5
52D
330
1F
100
AcDbEntity
  8
0
  6
Continuous
 62
     7
370
    15
100
AcDbCircle
 10
265.3769167798
 20
185.0285501806
 30
0.0
 40
0.4999421861473325
100
AcDbArc
 50
119.9940286281
 51
240.0020141602
  0
ARC
  5
52E
330
1F
100
AcDbEntity
  8
0
  6
Continuous
 62
     7
370
    15
100
AcDbCircle
 10
264.8770804762
 20
185.8945004636
 30
0.0
 40
0.4999109145872827
100
AcDbArc
 50
299.9940286281
 51
0.0058950779
  0
ARC
  5
52F
330
1F
100
AcDbEntity
  8
0
  6
Continuous
 62
     7
370
    15
100
AcDbCircle
 10
266.3768885102
 20
185.8946547766
 30
0.0
 40
0.999897127357558
100
AcDbArc
 50
89.9941049221
 51
180.0058950779
  0
LINE
  5
530
330
1F
100
AcDbEntity
  8
0
  6
Continuous
 62
     7
370
    15
100
AcDbLine
 10
268.8769980638
 20
186.8945547001
 30
0.0
 11
266.3769855468
 21
186.8945547001
 31
0.0
  0
ARC
  5
531
330
1F
100
AcDbEntity
  8
0
  6
Continuous
 62
     7
370
    15
100
AcDbCircle
 10
268.8769913881
 20
186.3945518987
 30
0.0
 40
0.5
100
AcDbArc
 50
0.0
 51
90.0
  0
LINE
  5
532
330
1F
100
AcDbEntity
  8
0
  6
Continuous
 62
     7
370
    15
100
AcDbLine
 10
269.3769916265
 20
132.3945485608
 30
0.0
 11
269.3769916265
 21
186.3945536868
 31
0.0
  0
ARC
  5
533
330
1F
100
AcDbEntity
  8
0
  6
Continuous
 62
     7
370
    15
100
AcDbCircle
 10
268.8769913881
 20
132.394548084
 30
0.0
 40
0.5
100
AcDbArc
 50
270.0
 51
0.0
  0
LINE
  5
534
330
1F
100
AcDbEntity
  8
0
  6
Continuous
 62
     7
370
    15
100
AcDbLine
 10
139.8769899576
 20
131.8945475475
 30
0.0
 11
268.8769980638
 21
131.8945475475
 31
0.0
  0
ARC
  5
535
330
1F
100
AcDbEntity
  8
0
  6
Continuous
 62
     7
370
    15
100
AcDbCircle
 10
139.8769761293
 20
132.394548084
 30
0.0
 40
0.4999999999999716
100
AcDbArc
 50
180.0
 51
270.0
  0
LINE
  5
536
330
1F
100
AcDbEntity
  8
0
  6
Continuous
 62
     7
370
    15
100
AcDbLine
 10
139.3769665926
 20
186.3945536868
 30
0.0
 11
139.3769665926
 21
132.3945485608
 31
0.0
  0
ARC
  5
537
330
1F
100
AcDbEntity
  8
0
  6
Continuous
 62
     7
370
    15
100
AcDbCircle
 10
139.8769761293
 20
186.3945518987
 30
0.0
 40
0.5
100
AcDbArc
 50
90.0
 51
180.0
  0
DIMENSION
  5
538
330
1F
100
AcDbEntity
  8
0
  6
Continuous
 62
     7
370
     0
100
AcDbDimension
  2
_D
 10
269.3769913881
 20
115.894548084
 30
0.0
 11
204.6845621272
 21
115.894548084
 31
0.0
 70
   160
  1
<>
 71
     2
 42
-1.0
  3
SLDDIMSTYLE0
100
AcDbAlignedDimension
 13
139.3769761293
 23
132.394548084
 33
0.0
 14
269.3769913881
 24
132.394548084
 34
0.0
 50
0.0
100
AcDbRotatedDimension
  0
DIMENSION
  5
544
330
1F
100
AcDbEntity
  8
0
  6
Continuous
 62
     7
370
     0
100
AcDbDimension
  2
_D_1
 10
287.9320250067
 20
186.8945518987
 30
0.0
 11
287.9320250067
 21
158.4521251017
 31
0.0
 70
   160
  1
<>
 71
     2
 42
-1.0
  3
SLDDIMSTYLE0
100
AcDbAlignedDimension
 13
268.8769913881
 23
131.894548084
 33
0.0
 14
268.8769913881
 24
186.8945518987
 34
0.0
 50
90.0
100
AcDbRotatedDimension
  0
DIMENSION
  5
54E
330
1F
100
AcDbEntity
  8
0
  6
Continuous
 62
     7
370
     0
100
AcDbDimension
  2
_D_2
 10
279.3769913881
 20
139.8945518987
 30
0.0
 11
279.3769913881
 21
136.6340046864
 31
0.0
 70
   160
  1
<>
 71
     2
 42
-1.0
  3
SLDDIMSTYLE1
100
AcDbAlignedDimension
 13
268.8769913881
 23
131.894548084
 33
0.0
 14
264.3769913881
 24
139.8945518987
 34
0.0
 50
90.0
100
AcDbRotatedDimension
  0
ENDSEC
  0
SECTION
  2
OBJECTS
  0
DICTIONARY
  5
C
330
0
100
AcDbDictionary
281
     1
  3
ACAD_GROUP
350
D
  3
ACAD_LAYOUT
350
1A
  3
ACAD_MLINESTYLE
350
17
  3
ACAD_PLOTSETTINGS
350
19
  3
ACAD_PLOTSTYLENAME
350
E
  0
DICTIONARY
  5
D
102
{ACAD_REACTORS
330
C
102
}
330
C
100
AcDbDictionary
281
     1
  0
DICTIONARY
  5
1A
102
{ACAD_REACTORS
330
C
102
}
330
C
100
AcDbDictionary
281
     1
  3
Layout1
350
1E
  3
Layout2
350
26
  3
Model
350
22
  0
DICTIONARY
  5
17
102
{ACAD_REACTORS
330
C
102
}
330
C
100
AcDbDictionary
281
     1
  3
Standard
350
18
  0
DICTIONARY
  5
19
102
{ACAD_REACTORS
330
C
102
}
330
C
100
AcDbDictionary
281
     1
  0
ACDBDICTIONARYWDFLT
  5
E
102
{ACAD_REACTORS
330
C
102
}
330
C
100
AcDbDictionary
281
     1
  3
Normal
350
F
100
AcDbDictionaryWithDefault
340
F
  0
LAYOUT
  5
1E
102
{ACAD_REACTORS
330
1A
102
}
330
1A
100
AcDbPlotSettings
  1

  2
none_device
  4

  6

 40
0.0
 41
0.0
 42
0.0
 43
0.0
 44
0.0
 45
0.0
 46
0.0
 47
0.0
 48
0.0
 49
0.0
140
0.0
141
0.0
142
1.0
143
1.0
 70
   688
 72
     0
 73
     0
 74
     5
  7

 75
    16
147
1.0
148
0.0
149
0.0
100
AcDbLayout
  1
Layout1
 70
     1
 71
     1
 10
0.0
 20
0.0
 11
420.0
 21
297.0
 12
0.0
 22
0.0
 32
0.0
 14
1.0000000000E+20
 24
1.0000000000E+20
 34
1.0000000000E+20
 15
-1.0000000000E+20
 25
-1.0000000000E+20
 35
-1.0000000000E+20
146
0.0
 13
0.0
 23
0.0
 33
0.0
 16
1.0
 26
0.0
 36
0.0
 17
0.0
 27
1.0
 37
0.0
 76
     0
330
1B
  0
LAYOUT
  5
26
102
{ACAD_REACTORS
330
1A
102
}
330
1A
100
AcDbPlotSettings
  1

  2
none_device
  4

  6

 40
0.0
 41
0.0
 42
0.0
 43
0.0
 44
0.0
 45
0.0
 46
0.0
 47
0.0
 48
0.0
 49
0.0
140
0.0
141
0.0
142
1.0
143
1.0
 70
   688
 72
     0
 73
     0
 74
     5
  7

 75
    16
147
1.0
148
0.0
149
0.0
100
AcDbLayout
  1
Layout2
 70
     1
 71
     2
 10
0.0
 20
0.0
 11
0.0
 21
0.0
 12
0.0
 22
0.0
 32
0.0
 14
0.0
 24
0.0
 34
0.0
 15
0.0
 25
0.0
 35
0.0
146
0.0
 13
0.0
 23
0.0
 33
0.0
 16
1.0
 26
0.0
 36
0.0
 17
0.0
 27
1.0
 37
0.0
 76
     0
330
23
  0
LAYOUT
  5
22
102
{ACAD_REACTORS
330
1A
102
}
330
1A
100
AcDbPlotSettings
  1

  2
none_device
  4

  6

 40
0.0
 41
0.0
 42
0.0
 43
0.0
 44
0.0
 45
0.0
 46
0.0
 47
0.0
 48
0.0
 49
0.0
140
0.0
141
0.0
142
1.0
143
1.0
 70
  1712
 72
     0
 73
     0
 74
     0
  7

 75
     0
147
1.0
148
0.0
149
0.0
100
AcDbLayout
  1
Model
 70
     1
 71
     0
 10
0.0
 20
0.0
 11
420.0
 21
297.0
 12
0.0
 22
0.0
 32
0.0
 14
0.0
 24
0.0
 34
0.0
 15
420.0
 25
297.0
 35
0.0
146
0.0
 13
0.0
 23
0.0
 33
0.0
 16
1.0
 26
0.0
 36
0.0
 17
0.0
 27
1.0
 37
0.0
 76
     0
330
1F
331
29
  0
MLINESTYLE
  5
18
102
{ACAD_REACTORS
330
17
102
}
330
17
100
AcDbMlineStyle
  2
Standard
 70
     0
  3

 62
   256
 51
90.0
 52
90.0
 71
     2
 49
0.5
 62
   256
  6
BYLAYER
 49
-0.5
 62
   256
  6
BYLAYER
  0
ACDBPLACEHOLDER
  5
F
102
{ACAD_REACTORS
330
E
102
}
330
E
  0
ENDSEC
  0
EOF
