  0
SECTION
  2
HEADER
  9
$ACADVER
  1
AC1009
  9
$DWGCODEPAGE
  3
ansi_1252
  9
$INSBASE
 10
0.0
 20
0.0
 30
0.0
  9
$EXTMIN
 10
0.0
 20
0.0
 30
0.0
  9
$EXTMAX
 10
210.0
 20
297.0
 30
0.0
  9
$LIMMIN
 10
0.0
 20
0.0
  9
$LIMMAX
 10
210.0
 20
297.0
  9
$ORTHOMODE
 70
     0
  9
$REGENMODE
 70
     1
  9
$FILLMODE
 70
     1
  9
$QTEXTMODE
 70
     0
  9
$MIRRTEXT
 70
     1
  9
$DRAGMODE
 70
     2
  9
$LTSCALE
 40
1.0
  9
$OSMODE
 70
    37
  9
$ATTMODE
 70
     1
  9
$TEXTSIZE
 40
3.5
  9
$TRACEWID
 40
1.0
  9
$TEXTSTYLE
  7
STANDARD
  9
$CLAYER
  8
0
  9
$CELTYPE
  6
BYLAYER
  9
$CECOLOR
 62
   256
  9
$DIMSCALE
 40
1.0
  9
$DIMASZ
 40
3.302
  9
$DIMEXO
 40
1.0
  9
$DIMDLI
 40
3.75
  9
$DIMRND
 40
0.0
  9
$DIMDLE
 40
0.0
  9
$DIMEXE
 40
1.0
  9
$DIMTP
 40
0.0
  9
$DIMTM
 40
0.0
  9
$DIMTXT
 40
3.5
  9
$DIMCEN
 40
2.5
  9
$DIMTSZ
 40
0.0
  9
$DIMTOL
 70
     0
  9
$DIMLIM
 70
     0
  9
$DIMTIH
 70
     1
  9
$DIMTOH
 70
     1
  9
$DIMSE1
 70
     0
  9
$DIMSE2
 70
     0
  9
$DIMTAD
 70
     1
  9
$DIMZIN
 70
     0
  9
$DIMBLK
  1

  9
$DIMASO
 70
     1
  9
$DIMSHO
 70
     1
  9
$DIMPOST
  1

  9
$DIMAPOST
  1

  9
$DIMALT
 70
     0
  9
$DIMALTD
 70
     3
  9
$DIMALTF
 40
0.0393700787
  9
$DIMLFAC
 40
1.0
  9
$DIMTOFL
 70
     1
  9
$DIMTVP
 40
0.0
  9
$DIMTIX
 70
     0
  9
$DIMSOXD
 70
     0
  9
$DIMSAH
 70
     0
  9
$DIMBLK1
  1

  9
$DIMBLK2
  1

  9
$DIMSTYLE
  2
ISO-25
  9
$DIMCLRD
 70
     0
  9
$DIMCLRE
 70
     0
  9
$DIMCLRT
 70
     0
  9
$DIMTFAC
 40
1.0
  9
$DIMGAP
 40
1.524
  9
$LUNITS
 70
     2
  9
$LUPREC
 70
     2
  9
$SKETCHINC
 40
1.0
  9
$FILLETRAD
 40
10.0
  9
$AUNITS
 70
     0
  9
$AUPREC
 70
     2
  9
$MENU
  1
.
  9
$ELEVATION
 40
0.0
  9
$PELEVATION
 40
0.0
  9
$THICKNESS
 40
0.0
  9
$LIMCHECK
 70
     0
  9
$CHAMFERA
 40
0.0
  9
$CHAMFERB
 40
0.0
  9
$SKPOLY
 70
     0
  9
$TDCREATE
 40
2458570.407436516
  9
$TDUPDATE
 40
2458570.407454572
  9
$TDINDWG
 40
0.0000000116
  9
$TDUSRTIMER
 40
0.0000000116
  9
$USRTIMER
 70
     1
  9
$ANGBASE
 50
0.0
  9
$ANGDIR
 70
     0
  9
$PDMODE
 70
     0
  9
$PDSIZE
 40
-1.0
  9
$PLINEWID
 40
0.0
  9
$COORDS
 70
     1
  9
$SPLFRAME
 70
     0
  9
$SPLINETYPE
 70
     6
  9
$SPLINESEGS
 70
     8
  9
$ATTDIA
 70
     0
  9
$ATTREQ
 70
     1
  9
$HANDLING
 70
     1
  9
$HANDSEED
  5
342
  9
$SURFTAB1
 70
     6
  9
$SURFTAB2
 70
     6
  9
$SURFTYPE
 70
     6
  9
$SURFU
 70
     6
  9
$SURFV
 70
     6
  9
$UCSNAME
  2

  9
$UCSORG
 10
0.0
 20
0.0
 30
0.0
  9
$UCSXDIR
 10
1.0
 20
0.0
 30
0.0
  9
$UCSYDIR
 10
0.0
 20
1.0
 30
0.0
  9
$PUCSNAME
  2

  9
$PUCSORG
 10
0.0
 20
0.0
 30
0.0
  9
$PUCSXDIR
 10
1.0
 20
0.0
 30
0.0
  9
$PUCSYDIR
 10
0.0
 20
1.0
 30
0.0
  9
$USERI1
 70
     0
  9
$USERI2
 70
     0
  9
$USERI3
 70
     0
  9
$USERI4
 70
     0
  9
$USERI5
 70
     0
  9
$USERR1
 40
0.0
  9
$USERR2
 40
0.0
  9
$USERR3
 40
0.0
  9
$USERR4
 40
0.0
  9
$USERR5
 40
0.0
  9
$WORLDVIEW
 70
     1
  9
$SHADEDGE
 70
     3
  9
$SHADEDIF
 70
    70
  9
$TILEMODE
 70
     1
  9
$MAXACTVP
 70
    64
  9
$PLIMCHECK
 70
     0
  9
$PEXTMIN
 10
1.0000000000E+20
 20
1.0000000000E+20
 30
1.0000000000E+20
  9
$PEXTMAX
 10
-1.0000000000E+20
 20
-1.0000000000E+20
 30
-1.0000000000E+20
  9
$PLIMMIN
 10
0.0
 20
0.0
  9
$PLIMMAX
 10
420.0
 20
297.0
  9
$UNITMODE
 70
     0
  9
$VISRETAIN
 70
     1
  9
$PLINEGEN
 70
     0
  9
$PSLTSCALE
 70
     1
  0
ENDSEC
  0
SECTION
  2
TABLES
  0
TABLE
  2
VPORT
 70
     1
  0
VPORT
  2
*ACTIVE
 70
     0
 10
0.0
 20
0.0
 11
1.0
 21
1.0
 12
105.0
 22
148.5
 13
0.0
 23
0.0
 14
10.0
 24
10.0
 15
10.0
 25
10.0
 16
0.0
 26
0.0
 36
1.0
 17
0.0
 27
0.0
 37
0.0
 40
297.0
 41
0.7070707071
 42
50.0
 43
0.0
 44
0.0
 50
0.0
 51
0.0
 71
     0
 72
  2000
 73
     1
 74
     3
 75
     0
 76
     0
 77
     0
 78
     0
  0
ENDTAB
  0
TABLE
  2
LTYPE
 70
     6
  0
LTYPE
  2
CONTINUOUS
 70
     0
  3
Solid line
 72
    65
 73
     0
 40
0.0
  0
LTYPE
  2
HIDDEN
 70
     0
  3
Hidden __ __ __ __ __ __ __ __ __ __ __ __ __ __
 72
    65
 73
     2
 40
1.905
 49
1.27
 49
-0.635
  0
LTYPE
  2
PHANTOM
 70
     0
  3
Phantom ______  __  __  ______  __  __  ______
 72
    65
 73
     6
 40
12.7
 49
6.35
 49
-1.27
 49
1.27
 49
-1.27
 49
1.27
 49
-1.27
  0
LTYPE
  2
CENTER
 70
     0
  3
Center ____ _ ____ _ ____ _ ____ _ ____ _ ____
 72
    65
 73
     4
 40
10.16
 49
6.35
 49
-1.27
 49
1.27
 49
-1.27
  0
LTYPE
  2
CENTERX2
 70
     0
  3
Center (2x) ________  __  ________  __  _____
 72
    65
 73
     4
 40
20.32
 49
12.7
 49
-2.54
 49
2.54
 49
-2.54
  0
LTYPE
  2
DOT2
 70
     0
  3
Dot (.5x) ........................................
 72
    65
 73
     2
 40
0.635
 49
0.0
 49
-0.635
  0
ENDTAB
  0
TABLE
  2
LAYER
 70
     1
  0
LAYER
  2
0
 70
     0
 62
     7
  6
CONTINUOUS
  0
ENDTAB
  0
TABLE
  2
STYLE
 70
     1
  0
STYLE
  2
STANDARD
 70
     0
 40
0.0
 41
1.0
 50
0.0
 71
     0
 42
3.5
  3
txt
  4

  0
ENDTAB
  0
TABLE
  2
VIEW
 70
     0
  0
ENDTAB
  0
TABLE
  2
UCS
 70
     0
  0
ENDTAB
  0
TABLE
  2
APPID
 70
     1
  0
APPID
  2
ACAD
 70
     0
  0
ENDTAB
  0
TABLE
  2
DIMSTYLE
 70
    12
  0
DIMSTYLE
  2
ISO-25
 70
     0
  3

  4

  5

  6

  7

 40
1.0
 41
2.5
 42
0.625
 43
3.75
 44
1.25
 45
0.0
 46
0.0
 47
0.0
 48
0.0
140
2.5
141
2.5
142
0.0
143
0.0393700787
144
1.0
145
0.0
146
1.0
147
0.625
 71
     0
 72
     0
 73
     0
 74
     0
 75
     0
 76
     0
 77
     1
 78
     8
170
     0
171
     3
172
     1
173
     0
174
     0
175
     0
176
     0
177
     0
178
     0
  0
DIMSTYLE
  2
SLDDIMSTYLE0
 70
     0
  3

  4

  5

  6
ORIGIN
  7
ORIGIN
 40
1.0
 41
0.3386666667
 42
0.0625
 43
0.38
 44
0.0
 45
0.000000001
 46
0.0
 47
0.0
 48
0.0
140
3.5
141
0.09
142
0.0
143
25.4
144
1.0
145
0.0
146
1.0
147
0.875
 71
     0
 72
     0
 73
     1
 74
     1
 75
     0
 76
     0
 77
     0
 78
     8
170
     0
171
     2
172
     0
173
     1
174
     0
175
     0
176
     0
177
     0
178
     0
  0
DIMSTYLE
  2
SLDDIMSTYLE1
 70
     0
  3

  4

  5

  6

  7

 40
1.0
 41
3.302
 42
0.0625
 43
0.38
 44
0.0
 45
0.000000001
 46
0.0
 47
0.0
 48
0.0
140
3.5
141
0.09
142
0.0
143
25.4
144
1.0
145
0.0
146
1.0
147
0.875
 71
     0
 72
     0
 73
     1
 74
     1
 75
     0
 76
     0
 77
     0
 78
    12
170
     0
171
     2
172
     0
173
     1
174
     0
175
     0
176
     0
177
     0
178
     0
  0
DIMSTYLE
  2
SLDDIMSTYLE2
 70
     0
  3

  4

  5

  6

  7

 40
1.0
 41
3.302
 42
0.0625
 43
0.38
 44
0.0
 45
0.000000001
 46
0.0
 47
0.0
 48
0.0
140
3.5
141
0.09
142
0.0
143
25.4
144
1.0
145
0.0
146
1.0
147
0.875
 71
     0
 72
     0
 73
     1
 74
     1
 75
     0
 76
     0
 77
     0
 78
    12
170
     0
171
     2
172
     0
173
     1
174
     0
175
     0
176
     0
177
     0
178
     0
  0
DIMSTYLE
  2
SLDDIMSTYLE3
 70
     0
  3

  4

  5

  6

  7

 40
1.0
 41
3.302
 42
0.0625
 43
0.38
 44
0.0
 45
0.000000001
 46
0.0
 47
0.0
 48
0.0
140
3.5
141
0.09
142
0.0
143
25.4
144
1.0
145
0.0
146
1.0
147
0.875
 71
     0
 72
     0
 73
     1
 74
     1
 75
     0
 76
     0
 77
     0
 78
    12
170
     0
171
     2
172
     0
173
     1
174
     0
175
     0
176
     0
177
     0
178
     0
  0
DIMSTYLE
  2
SLDDIMSTYLE4
 70
     0
  3

  4

  5

  6

  7

 40
1.0
 41
3.302
 42
0.0625
 43
0.38
 44
0.0
 45
0.000000001
 46
0.0
 47
0.0
 48
0.0
140
3.5
141
0.09
142
0.0
143
25.4
144
1.0
145
0.0
146
1.0
147
0.875
 71
     0
 72
     0
 73
     0
 74
     0
 75
     0
 76
     0
 77
     1
 78
    12
170
     0
171
     2
172
     1
173
     1
174
     0
175
     0
176
     0
177
     0
178
     0
  0
DIMSTYLE
  2
SLDDIMSTYLE5
 70
     0
  3

  4

  5

  6

  7

 40
1.0
 41
3.302
 42
0.0625
 43
0.38
 44
0.0
 45
0.000000001
 46
0.0
 47
0.0
 48
0.0
140
3.5
141
0.09
142
0.0
143
25.4
144
1.0
145
0.0
146
1.0
147
0.875
 71
     0
 72
     0
 73
     0
 74
     0
 75
     0
 76
     0
 77
     1
 78
    12
170
     0
171
     2
172
     1
173
     1
174
     0
175
     0
176
     0
177
     0
178
     0
  0
DIMSTYLE
  2
SLDDIMSTYLE6
 70
     0
  3

  4

  5

  6
NONE
  7
NONE
 40
1.0
 41
3.302
 42
0.0625
 43
0.38
 44
0.0
 45
0.000000001
 46
0.0
 47
0.0
 48
0.0
140
3.5
141
0.0
142
0.0
143
25.4
144
1.0
145
0.0
146
1.0
147
0.875
 71
     0
 72
     0
 73
     1
 74
     1
 75
     0
 76
     0
 77
     0
 78
     8
170
     0
171
     2
172
     0
173
     1
174
     0
175
     0
176
     0
177
     0
178
     0
  0
DIMSTYLE
  2
SLDDIMSTYLE7
 70
     0
  3

  4

  5

  6

  7

 40
1.0
 41
3.302
 42
0.0625
 43
0.38
 44
0.0
 45
0.000000001
 46
0.0
 47
0.0
 48
0.0
140
3.5
141
0.0
142
0.0
143
25.4
144
1.0
145
0.0
146
1.0
147
0.875
 71
     0
 72
     0
 73
     1
 74
     1
 75
     0
 76
     0
 77
     0
 78
    12
170
     0
171
     2
172
     0
173
     1
174
     0
175
     0
176
     0
177
     0
178
     0
  0
DIMSTYLE
  2
SLDDIMSTYLE8
 70
     0
  3

  4

  5

  6

  7

 40
1.0
 41
3.302
 42
0.0625
 43
0.38
 44
0.0
 45
0.000000001
 46
0.0
 47
0.0
 48
0.0
140
3.5
141
0.0
142
0.0
143
25.4
144
1.0
145
0.0
146
1.0
147
0.875
 71
     0
 72
     0
 73
     0
 74
     0
 75
     0
 76
     0
 77
     1
 78
    12
170
     0
171
     2
172
     0
173
     1
174
     0
175
     0
176
     0
177
     0
178
     0
  0
DIMSTYLE
  2
SLDDIMSTYLE9
 70
     0
  3

  4

  5

  6

  7

 40
1.0
 41
3.302
 42
0.0625
 43
0.38
 44
0.0
 45
0.000000001
 46
0.0
 47
0.0
 48
0.0
140
3.5
141
0.0
142
0.0
143
25.4
144
1.0
145
0.0
146
1.0
147
0.875
 71
     0
 72
     0
 73
     1
 74
     1
 75
     0
 76
     0
 77
     0
 78
    12
170
     0
171
     2
172
     0
173
     1
174
     0
175
     0
176
     0
177
     0
178
     0
  0
DIMSTYLE
  2
SLDDIMSTYLE10
 70
     0
  3

  4

  5

  6

  7

 40
1.0
 41
3.302
 42
0.0625
 43
0.38
 44
0.0
 45
0.000000001
 46
0.0
 47
0.0
 48
0.0
140
3.5
141
0.09
142
0.0
143
25.4
144
1.0
145
0.0
146
1.0
147
0.875
 71
     0
 72
     0
 73
     0
 74
     0
 75
     0
 76
     0
 77
     1
 78
    12
170
     0
171
     2
172
     0
173
     1
174
     0
175
     0
176
     0
177
     0
178
     0
  0
ENDTAB
  0
ENDSEC
  0
SECTION
  2
BLOCKS
  0
BLOCK
  8
0
  2
$MODEL_SPACE
 70
     0
 10
0.0
 20
0.0
 30
0.0
  3
$MODEL_SPACE
  1

  0
ENDBLK
  5
21
  8
0
  0
BLOCK
 67
     1
  8
0
  2
$PAPER_SPACE
 70
     0
 10
0.0
 20
0.0
 30
0.0
  3
$PAPER_SPACE
  1

  0
ENDBLK
  5
1D
 67
     1
  8
0
  0
BLOCK
  8
0
  2
BLOCK2
 70
     0
 10
0.0
 20
0.0
 30
0.0
  3
BLOCK2
  1

  0
INSERT
  5
84
  8
0
  6
CONTINUOUS
 62
     7
  2
BLOCK1
 10
-129.4131316458
 20
-143.3276418948
 30
0.0
  0
ENDBLK
  5
75
  8
0
  0
BLOCK
  8
0
  2
BLOCK1
 70
     0
 10
0.0
 20
0.0
 30
0.0
  3
BLOCK1
  1

  0
CIRCLE
  5
79
  8
0
  6
CONTINUOUS
 62
     7
 10
144.0765920165
 20
150.6017119002
 30
0.0
 40
2.999999999999993
  0
CIRCLE
  5
7A
  8
0
  6
CONTINUOUS
 62
     7
 10
144.0765920165
 20
150.6017119002
 30
0.0
 40
1.499999999999987
  0
LINE
  5
7B
  8
0
  6
CENTERX2
 62
     7
 10
125.6915591078
 20
150.6017119002
 30
0.0
 11
150.4616249253
 21
150.6017119002
 31
0.0
  0
LINE
  5
7C
  8
0
  6
CONTINUOUS
 62
     7
 10
138.0765920165
 20
153.6885737154
 30
0.0
 11
138.0765920165
 21
147.514850085
 31
0.0
  0
LINE
  5
7D
  8
0
  6
CONTINUOUS
 62
     7
 10
131.2570464222
 20
152.1885737154
 30
0.0
 11
131.2570464222
 21
149.014850085
 31
0.0
  0
LINE
  5
7E
  8
0
  6
CONTINUOUS
 62
     7
 10
131.2570464222
 20
152.1885737154
 30
0.0
 11
138.0765920165
 21
153.6885737154
 31
0.0
  0
LINE
  5
7F
  8
0
  6
CONTINUOUS
 62
     7
 10
131.2570464222
 20
149.014850085
 30
0.0
 11
138.0765920165
 21
147.514850085
 31
0.0
  0
LINE
  5
80
  8
0
  6
CENTERX2
 62
     7
 10
144.0765920165
 20
145.3276418948
 30
0.0
 11
144.0765920165
 21
155.7091648362
 31
0.0
  0
ENDBLK
  5
78
  8
0
  0
BLOCK
  8
0
  2
PROJEKTIONSMETHODE_1
 70
     0
 10
0.0
 20
0.0
 30
0.0
  3
PROJEKTIONSMETHODE_1
  1

  0
INSERT
  5
85
  8
0
  6
CONTINUOUS
 62
     7
  2
BLOCK2
 10
3.721572538
 20
-2.0
 30
0.0
  0
ENDBLK
  5
83
  8
0
  0
BLOCK
  8
0
  2
SW_NOTE_0
 70
     0
 10
0.0
 20
0.0
 30
0.0
  3
SW_NOTE_0
  1

  0
TEXT
  5
C6
  8
0
  6
CONTINUOUS
 62
     0
 10
0.0
 20
0.7477337977
 30
0.0
 40
2.1166666667
  1
IF NOT OTHERWISE DEFINED:
 41
0.658
 11
0.0
 21
0.0
 31
0.0
 73
     1
  0
TEXT
  5
C7
  8
0
  6
CONTINUOUS
 62
     0
 10
0.0
 20
-2.0744883904
 30
0.0
 40
2.1166666667
  1
DIMENSIONS ARE IN MILLIMETERS
 41
0.6637931034
 11
0.0
 21
-2.8222221881
 31
0.0
 73
     1
  0
TEXT
  5
C8
  8
0
  6
CONTINUOUS
 62
     0
 10
0.0
 20
-4.8967105785
 30
0.0
 40
2.1166666667
  1
SURFACE CONDITIONS:
 41
0.7
 11
0.0
 21
-5.6444443762
 31
0.0
 73
     1
  0
TEXT
  5
C9
  8
0
  6
CONTINUOUS
 62
     0
 10
0.0
 20
-10.5411549547
 30
0.0
 40
2.1166666667
  1
TOLERANCES: 
 41
0.7
 11
0.0
 21
-11.2888887525
 31
0.0
 73
     1
  0
TEXT
  5
CA
  8
0
  6
CONTINUOUS
 62
     0
 10
20.2979519963
 20
-10.5411549547
 30
0.0
 40
2.1166666667
  1
DIN ISO 2768-m
 41
0.65
 11
20.2979519963
 21
-11.2888887525
 31
0.0
 73
     1
  0
ENDBLK
  5
C5
  8
0
  0
BLOCK
  8
0
  2
SW_NOTE_0_1
 70
     0
 10
0.0
 20
0.0
 30
0.0
  3
SW_NOTE_0_1
  1

  0
TEXT
  5
D2
  8
0
  6
CONTINUOUS
 62
     0
 10
0.0
 20
0.8831501548
 30
0.0
 40
2.5
  1
MATERIAL: 
 41
0.7
 11
0.0
 21
0.0
 31
0.0
 73
     1
  0
TEXT
  5
D3
  8
0
  6
CONTINUOUS
 62
     0
 10
18.7070313841
 20
0.926600667
 30
0.0
 40
3.175
  1
EN AW-6060 (AlMgSi0,5)
 41
0.6681818182
 11
18.7070313841
 21
-0.1950000296
 31
0.0
 73
     1
  0
ENDBLK
  5
D1
  8
0
  0
BLOCK
  8
0
  2
_ORIGIN
 70
     0
 10
0.0
 20
0.0
 30
0.0
  3
_ORIGIN
  1

  0
CIRCLE
  5
123
  8
0
  6
BYBLOCK
 62
     0
 10
0.0
 20
0.0
 30
0.0
 40
0.5
  0
LINE
  5
124
  8
0
  6
BYBLOCK
 62
     0
 10
0.0
 20
0.0
 30
0.0
 11
-1.0
 21
0.0
 31
0.0
  0
ENDBLK
  5
122
  8
0
  0
BLOCK
  8
0
  2
_D
 70
     0
 10
0.0
 20
0.0
 30
0.0
  3
_D
  1

  0
INSERT
  5
128
  8
0
  6
CONTINUOUS
 62
     7
  2
_ORIGIN
 10
106.3065363348
 20
203.9903156868
 30
0.0
 41
1.016
 42
1.016
 50
0.0
  0
LINE
  5
129
  8
0
  6
CONTINUOUS
 62
     7
 10
102.3225363348
 20
203.9903156868
 30
0.0
 11
107.3225363348
 21
203.9903156868
 31
0.0
  0
LINE
  5
12A
  8
0
  6
CONTINUOUS
 62
     7
 10
102.3225363348
 20
203.9903156868
 30
0.0
 11
97.3225363348
 21
203.9903156868
 31
0.0
  0
LINE
  5
12B
  8
0
  6
CONTINUOUS
 62
     7
 10
97.3225363348
 20
203.9903156868
 30
0.0
 11
87.0537048218
 21
203.9903156868
 31
0.0
  0
TEXT
  5
12C
  8
0
  6
CONTINUOUS
 62
     7
 10
107.3225363348
 20
202.4486007333
 30
0.0
 40
3.5
  1
0
 41
0.7
 11
107.3225363348
 21
201.2121905166
 31
0.0
 73
     1
  0
ENDBLK
  5
127
  8
0
  0
BLOCK
  8
0
  2
_D_1
 70
     0
 10
0.0
 20
0.0
 30
0.0
  3
_D_1
  1

  0
SOLID
  5
132
  8
0
  6
CONTINUOUS
 62
   154
 10
106.3065363348
 20
210.6840743992
 30
0.0
 11
105.7985363348
 21
207.3820743992
 31
0.0
 12
106.8145363348
 22
207.3820743992
 32
0.0
 13
106.8145363348
 23
207.3820743992
 33
0.0
  0
LINE
  5
133
  8
0
  6
CONTINUOUS
 62
   154
 10
102.3225363348
 20
210.6840743992
 30
0.0
 11
107.3225363348
 21
210.6840743992
 31
0.0
  0
LINE
  5
134
  8
0
  6
CONTINUOUS
 62
   154
 10
106.3065363348
 20
203.9903156868
 30
0.0
 11
106.3065363348
 21
210.6840743992
 31
0.0
  0
LINE
  5
135
  8
0
  6
CONTINUOUS
 62
   154
 10
102.3225363348
 20
210.6840743992
 30
0.0
 11
97.3225363348
 21
208.5201819562
 31
0.0
  0
LINE
  5
136
  8
0
  6
CONTINUOUS
 62
   154
 10
97.3225363348
 20
208.5201819562
 30
0.0
 11
86.206124789
 21
208.5201819562
 31
0.0
  0
TEXT
  5
137
  8
0
  6
CONTINUOUS
 62
   154
 10
107.3225363348
 20
209.1423594458
 30
0.0
 40
3.5
  1
4,5
 41
0.7
 11
107.3225363348
 21
207.9059492291
 31
0.0
 73
     1
  0
ENDBLK
  5
131
  8
0
  0
BLOCK
  8
0
  2
_D_2
 70
     0
 10
0.0
 20
0.0
 30
0.0
  3
_D_2
  1

  0
SOLID
  5
13C
  8
0
  6
CONTINUOUS
 62
   154
 10
106.3065363348
 20
220.4903156867
 30
0.0
 11
105.7985363348
 21
217.1883156867
 31
0.0
 12
106.8145363348
 22
217.1883156867
 32
0.0
 13
106.8145363348
 23
217.1883156867
 33
0.0
  0
LINE
  5
13D
  8
0
  6
CONTINUOUS
 62
   154
 10
86.7287048218
 20
220.4903156867
 30
0.0
 11
107.3225363348
 21
220.4903156867
 31
0.0
  0
LINE
  5
13E
  8
0
  6
CONTINUOUS
 62
   154
 10
106.3065363348
 20
210.6840743992
 30
0.0
 11
106.3065363348
 21
220.4903156867
 31
0.0
  0
TEXT
  5
13F
  8
0
  6
CONTINUOUS
 62
   154
 10
107.3225363348
 20
218.9486007333
 30
0.0
 40
3.5
  1
16,5
 41
0.7
 11
107.3225363348
 21
217.7121905166
 31
0.0
 73
     1
  0
ENDBLK
  5
13B
  8
0
  0
BLOCK
  8
0
  2
_D_3
 70
     0
 10
0.0
 20
0.0
 30
0.0
  3
_D_3
  1

  0
SOLID
  5
144
  8
0
  6
CONTINUOUS
 62
   154
 10
106.3065363348
 20
231.4903156867
 30
0.0
 11
105.7985363348
 21
228.1883156867
 31
0.0
 12
106.8145363348
 22
228.1883156867
 32
0.0
 13
106.8145363348
 23
228.1883156867
 33
0.0
  0
LINE
  5
145
  8
0
  6
CONTINUOUS
 62
   154
 10
86.7287048218
 20
231.4903156867
 30
0.0
 11
107.3225363348
 21
231.4903156867
 31
0.0
  0
LINE
  5
146
  8
0
  6
CONTINUOUS
 62
   154
 10
106.3065363348
 20
220.4903156867
 30
0.0
 11
106.3065363348
 21
231.4903156867
 31
0.0
  0
TEXT
  5
147
  8
0
  6
CONTINUOUS
 62
   154
 10
107.3225363348
 20
229.9486007333
 30
0.0
 40
3.5
  1
27,5
 41
0.7
 11
107.3225363348
 21
228.7121905166
 31
0.0
 73
     1
  0
ENDBLK
  5
143
  8
0
  0
BLOCK
  8
0
  2
_D_4
 70
     0
 10
0.0
 20
0.0
 30
0.0
  3
_D_4
  1

  0
SOLID
  5
14C
  8
0
  6
CONTINUOUS
 62
   154
 10
106.3065363348
 20
242.4903156867
 30
0.0
 11
105.7985363348
 21
239.1883156867
 31
0.0
 12
106.8145363348
 22
239.1883156867
 32
0.0
 13
106.8145363348
 23
239.1883156867
 33
0.0
  0
LINE
  5
14D
  8
0
  6
CONTINUOUS
 62
   154
 10
86.7287048218
 20
242.4903156867
 30
0.0
 11
107.3225363348
 21
242.4903156867
 31
0.0
  0
LINE
  5
14E
  8
0
  6
CONTINUOUS
 62
   154
 10
106.3065363348
 20
231.4903156867
 30
0.0
 11
106.3065363348
 21
242.4903156867
 31
0.0
  0
TEXT
  5
14F
  8
0
  6
CONTINUOUS
 62
   154
 10
107.3225363348
 20
240.9486007333
 30
0.0
 40
3.5
  1
38,5
 41
0.7
 11
107.3225363348
 21
239.7121905166
 31
0.0
 73
     1
  0
ENDBLK
  5
14B
  8
0
  0
BLOCK
  8
0
  2
_D_5
 70
     0
 10
0.0
 20
0.0
 30
0.0
  3
_D_5
  1

  0
INSERT
  5
154
  8
0
  6
CONTINUOUS
 62
     7
  2
_ORIGIN
 10
50.9537048218
 20
197.5764918325
 30
0.0
 41
1.016
 42
1.016
 50
0.0
  0
LINE
  5
155
  8
0
  6
CONTINUOUS
 62
     7
 10
50.9537048218
 20
204.5145797555
 30
0.0
 11
50.9537048218
 21
196.5604918325
 31
0.0
  0
TEXT
  5
156
  8
0
  6
CONTINUOUS
 62
     7
 10
52.4954197752
 20
193.9743806389
 30
0.0
 40
3.5
  1
0
 50
90.0
 41
0.7
 11
53.731829992
 21
193.9743806389
 31
0.0
 73
     1
  0
ENDBLK
  5
153
  8
0
  0
BLOCK
  8
0
  2
_D_6
 70
     0
 10
0.0
 20
0.0
 30
0.0
  3
_D_6
  1

  0
SOLID
  5
15C
  8
0
  6
CONTINUOUS
 62
   154
 10
60.4537048218
 20
197.5764918325
 30
0.0
 11
57.1517048218
 21
198.0844918325
 31
0.0
 12
57.1517048218
 22
197.0684918325
 32
0.0
 13
57.1517048218
 23
197.0684918325
 33
0.0
  0
LINE
  5
15D
  8
0
  6
CONTINUOUS
 62
   154
 10
60.4537048218
 20
210.9658162286
 30
0.0
 11
60.4537048218
 21
196.5604918325
 31
0.0
  0
LINE
  5
15E
  8
0
  6
CONTINUOUS
 62
   154
 10
50.9537048218
 20
197.5764918325
 30
0.0
 11
60.4537048218
 21
197.5764918325
 31
0.0
  0
TEXT
  5
15F
  8
0
  6
CONTINUOUS
 62
   154
 10
61.9954197752
 20
187.5091027715
 30
0.0
 40
3.5
  1
9,50
 50
90.0
 41
0.7
 11
63.231829992
 21
187.5091027715
 31
0.0
 73
     1
  0
ENDBLK
  5
15B
  8
0
  0
BLOCK
  8
0
  2
_D_7
 70
     0
 10
0.0
 20
0.0
 30
0.0
  3
_D_7
  1

  0
SOLID
  5
164
  8
0
  6
CONTINUOUS
 62
   154
 10
67.2373771216
 20
197.5764918325
 30
0.0
 11
63.9353771216
 21
198.0844918325
 31
0.0
 12
63.9353771216
 22
197.0684918325
 32
0.0
 13
63.9353771216
 23
197.0684918325
 33
0.0
  0
LINE
  5
165
  8
0
  6
CONTINUOUS
 62
   154
 10
67.2373771216
 20
222.3437033377
 30
0.0
 11
67.2373771216
 21
196.5604918325
 31
0.0
  0
LINE
  5
166
  8
0
  6
CONTINUOUS
 62
   154
 10
60.4537048218
 20
197.5764918325
 30
0.0
 11
67.2373771216
 21
197.5764918325
 31
0.0
  0
TEXT
  5
167
  8
0
  6
CONTINUOUS
 62
   154
 10
68.7790920751
 20
187.5091027715
 30
0.0
 40
3.5
  1
16,3
 50
90.0
 41
0.7
 11
70.0155022918
 21
187.5091027715
 31
0.0
 73
     1
  0
ENDBLK
  5
163
  8
0
  0
BLOCK
  8
0
  2
_D_8
 70
     0
 10
0.0
 20
0.0
 30
0.0
  3
_D_8
  1

  0
SOLID
  5
16C
  8
0
  6
CONTINUOUS
 62
   154
 10
86.3537048218
 20
197.5764918325
 30
0.0
 11
83.0517048218
 21
198.0844918325
 31
0.0
 12
83.0517048218
 22
197.0684918325
 32
0.0
 13
83.0517048218
 23
197.0684918325
 33
0.0
  0
LINE
  5
16D
  8
0
  6
CONTINUOUS
 62
   154
 10
86.3537048218
 20
203.2903156867
 30
0.0
 11
86.3537048218
 21
196.5604918325
 31
0.0
  0
LINE
  5
16E
  8
0
  6
CONTINUOUS
 62
   154
 10
67.2373771216
 20
197.5764918325
 30
0.0
 11
86.3537048218
 21
197.5764918325
 31
0.0
  0
TEXT
  5
16F
  8
0
  6
CONTINUOUS
 62
   154
 10
87.8954197753
 20
187.5091027715
 30
0.0
 40
3.5
  1
35,4
 50
90.0
 41
0.7
 11
89.131829992
 21
187.5091027715
 31
0.0
 73
     1
  0
ENDBLK
  5
16B
  8
0
  0
BLOCK
  8
0
  2
_D_9
 70
     0
 10
0.0
 20
0.0
 30
0.0
  3
_D_9
  1

  0
INSERT
  5
174
  8
0
  6
CONTINUOUS
 62
     7
  2
_ORIGIN
 10
50.9537048218
 20
268.7743156868
 30
0.0
 41
1.016
 42
1.016
 50
0.0
  0
LINE
  5
175
  8
0
  6
CONTINUOUS
 62
     7
 10
50.9537048218
 20
264.7903156868
 30
0.0
 11
50.9537048218
 21
269.7903156868
 31
0.0
  0
LINE
  5
176
  8
0
  6
CONTINUOUS
 62
     7
 10
50.9537048218
 20
264.7903156868
 30
0.0
 11
50.9537048218
 21
259.7903156868
 31
0.0
  0
LINE
  5
177
  8
0
  6
CONTINUOUS
 62
     7
 10
50.9537048218
 20
259.7903156868
 30
0.0
 11
50.9537048218
 21
248.4903156868
 31
0.0
  0
TEXT
  5
178
  8
0
  6
CONTINUOUS
 62
     7
 10
52.4954197752
 20
269.7903156868
 30
0.0
 40
3.5
  1
0
 50
90.0
 41
0.7
 11
53.731829992
 21
269.7903156868
 31
0.0
 73
     1
  0
ENDBLK
  5
173
  8
0
  0
BLOCK
  8
0
  2
_D_10
 70
     0
 10
0.0
 20
0.0
 30
0.0
  3
_D_10
  1

  0
SOLID
  5
17D
  8
0
  6
CONTINUOUS
 62
   154
 10
56.6992698706
 20
268.7743156868
 30
0.0
 11
53.3972698706
 21
269.2823156868
 31
0.0
 12
53.3972698706
 22
268.2663156868
 32
0.0
 13
53.3972698706
 23
268.2663156868
 33
0.0
  0
LINE
  5
17E
  8
0
  6
CONTINUOUS
 62
   154
 10
56.6992698706
 20
264.7903156868
 30
0.0
 11
56.6992698706
 21
269.7903156868
 31
0.0
  0
LINE
  5
17F
  8
0
  6
CONTINUOUS
 62
   154
 10
50.9537048218
 20
268.7743156868
 30
0.0
 11
56.6992698706
 21
268.7743156868
 31
0.0
  0
LINE
  5
180
  8
0
  6
CONTINUOUS
 62
   154
 10
56.6992698706
 20
264.7903156868
 30
0.0
 11
54.5537048218
 21
259.7903156868
 31
0.0
  0
LINE
  5
181
  8
0
  6
CONTINUOUS
 62
   154
 10
54.5537048218
 20
259.7903156868
 30
0.0
 11
54.5537048218
 21
248.4903156868
 31
0.0
  0
TEXT
  5
182
  8
0
  6
CONTINUOUS
 62
   154
 10
58.2409848241
 20
269.7903156868
 30
0.0
 40
3.5
  1
3,6
 50
90.0
 41
0.7
 11
59.4773950408
 21
269.7903156868
 31
0.0
 73
     1
  0
ENDBLK
  5
17C
  8
0
  0
BLOCK
  8
0
  2
_D_11
 70
     0
 10
0.0
 20
0.0
 30
0.0
  3
_D_11
  1

  0
SOLID
  5
187
  8
0
  6
CONTINUOUS
 62
   154
 10
61.0882782411
 20
268.7743156868
 30
0.0
 11
57.7862782411
 21
269.2823156868
 31
0.0
 12
57.7862782411
 22
268.2663156868
 32
0.0
 13
57.7862782411
 23
268.2663156868
 33
0.0
  0
LINE
  5
188
  8
0
  6
CONTINUOUS
 62
   154
 10
61.0882782411
 20
264.7903156868
 30
0.0
 11
61.0882782411
 21
269.7903156868
 31
0.0
  0
LINE
  5
189
  8
0
  6
CONTINUOUS
 62
   154
 10
56.6992698706
 20
268.7743156868
 30
0.0
 11
61.0882782411
 21
268.7743156868
 31
0.0
  0
LINE
  5
18A
  8
0
  6
CONTINUOUS
 62
   154
 10
61.0882782411
 20
264.7903156868
 30
0.0
 11
61.8252033785
 21
259.7903156868
 31
0.0
  0
LINE
  5
18B
  8
0
  6
CONTINUOUS
 62
   154
 10
61.8252033785
 20
259.7903156868
 30
0.0
 11
61.8252033785
 21
245.7011433113
 31
0.0
  0
TEXT
  5
18C
  8
0
  6
CONTINUOUS
 62
   154
 10
62.6299931945
 20
269.7903156868
 30
0.0
 40
3.5
  1
10,88
 50
90.0
 41
0.7
 11
63.8664034113
 21
269.7903156868
 31
0.0
 73
     1
  0
ENDBLK
  5
186
  8
0
  0
BLOCK
  8
0
  2
_D_12
 70
     0
 10
0.0
 20
0.0
 30
0.0
  3
_D_12
  1

  0
SOLID
  5
191
  8
0
  6
CONTINUOUS
 62
   154
 10
73.5712915803
 20
268.7743156868
 30
0.0
 11
70.2692915803
 21
269.2823156868
 31
0.0
 12
70.2692915803
 22
268.2663156868
 32
0.0
 13
70.2692915803
 23
268.2663156868
 33
0.0
  0
LINE
  5
192
  8
0
  6
CONTINUOUS
 62
   154
 10
73.5712915803
 20
264.7903156868
 30
0.0
 11
73.5712915803
 21
269.7903156868
 31
0.0
  0
LINE
  5
193
  8
0
  6
CONTINUOUS
 62
   154
 10
61.0882782411
 20
268.7743156868
 30
0.0
 11
73.5712915803
 21
268.7743156868
 31
0.0
  0
LINE
  5
194
  8
0
  6
CONTINUOUS
 62
   154
 10
73.5712915803
 20
264.7903156868
 30
0.0
 11
69.9848457275
 21
259.7903156868
 31
0.0
  0
LINE
  5
195
  8
0
  6
CONTINUOUS
 62
   154
 10
69.9848457275
 20
259.7903156868
 30
0.0
 11
69.9848457275
 21
245.6974494607
 31
0.0
  0
TEXT
  5
196
  8
0
  6
CONTINUOUS
 62
   154
 10
75.1130065338
 20
269.7903156868
 30
0.0
 40
3.5
  1
19,04
 50
90.0
 41
0.7
 11
76.3494167505
 21
269.7903156868
 31
0.0
 73
     1
  0
ENDBLK
  5
190
  8
0
  0
BLOCK
  8
0
  2
_D_13
 70
     0
 10
0.0
 20
0.0
 30
0.0
  3
_D_13
  1

  0
SOLID
  5
19C
  8
0
  6
CONTINUOUS
 62
   154
 10
90.2363922586
 20
268.7743156868
 30
0.0
 11
86.9343922586
 21
269.2823156868
 31
0.0
 12
86.9343922586
 22
268.2663156868
 32
0.0
 13
86.9343922586
 23
268.2663156868
 33
0.0
  0
LINE
  5
19D
  8
0
  6
CONTINUOUS
 62
   154
 10
90.2363922586
 20
264.7903156868
 30
0.0
 11
90.2363922586
 21
269.7903156868
 31
0.0
  0
LINE
  5
19E
  8
0
  6
CONTINUOUS
 62
   154
 10
73.5712915803
 20
268.7743156868
 30
0.0
 11
90.2363922586
 21
268.7743156868
 31
0.0
  0
LINE
  5
19F
  8
0
  6
CONTINUOUS
 62
   154
 10
90.2363922586
 20
264.7903156868
 30
0.0
 11
80.3537048218
 21
259.7903156868
 31
0.0
  0
LINE
  5
1A0
  8
0
  6
CONTINUOUS
 62
   154
 10
80.3537048218
 20
259.7903156868
 30
0.0
 11
80.3537048218
 21
245.6903156867
 31
0.0
  0
TEXT
  5
1A1
  8
0
  6
CONTINUOUS
 62
   154
 10
91.778107212
 20
269.7903156868
 30
0.0
 40
3.5
  1
29,4
 50
90.0
 41
0.7
 11
93.0145174287
 21
269.7903156868
 31
0.0
 73
     1
  0
ENDBLK
  5
19B
  8
0
  0
BLOCK
  8
0
  2
_D_14
 70
     0
 10
0.0
 20
0.0
 30
0.0
  3
_D_14
  1

  0
INSERT
  5
1A6
  8
0
  6
CONTINUOUS
 62
     7
  2
_ORIGIN
 10
35.9697048218
 20
203.9903156868
 30
0.0
 41
1.016
 42
1.016
 50
0.0
  0
LINE
  5
1A7
  8
0
  6
CONTINUOUS
 62
     7
 10
51.4779688905
 20
203.9903156868
 30
0.0
 11
34.9537048218
 21
203.9903156868
 31
0.0
  0
TEXT
  5
1A8
  8
0
  6
CONTINUOUS
 62
     7
 10
32.3675936283
 20
202.4486007333
 30
0.0
 40
3.5
  1
0
 41
0.7
 11
32.3675936283
 21
201.2121905166
 31
0.0
 73
     1
  0
ENDBLK
  5
1A5
  8
0
  0
BLOCK
  8
0
  2
_D_15
 70
     0
 10
0.0
 20
0.0
 30
0.0
  3
_D_15
  1

  0
SOLID
  5
1AD
  8
0
  6
CONTINUOUS
 62
   154
 10
35.9697048218
 20
219.2903156868
 30
0.0
 11
35.4617048218
 21
215.9883156868
 31
0.0
 12
36.4777048218
 22
215.9883156868
 32
0.0
 13
36.4777048218
 23
215.9883156868
 33
0.0
  0
LINE
  5
1AE
  8
0
  6
CONTINUOUS
 62
   154
 10
56.1733023313
 20
219.2903156868
 30
0.0
 11
34.9537048218
 21
219.2903156868
 31
0.0
  0
LINE
  5
1AF
  8
0
  6
CONTINUOUS
 62
   154
 10
35.9697048218
 20
203.9903156868
 30
0.0
 11
35.9697048218
 21
219.2903156868
 31
0.0
  0
TEXT
  5
1B0
  8
0
  6
CONTINUOUS
 62
   154
 10
25.9023157609
 20
217.7486007334
 30
0.0
 40
3.5
  1
15,3
 41
0.7
 11
25.9023157609
 21
216.5121905167
 31
0.0
 73
     1
  0
ENDBLK
  5
1AC
  8
0
  0
BLOCK
  8
0
  2
_D_16
 70
     0
 10
0.0
 20
0.0
 30
0.0
  3
_D_16
  1

  0
SOLID
  5
1B5
  8
0
  6
CONTINUOUS
 62
   154
 10
35.9697048218
 20
227.4972206373
 30
0.0
 11
35.4617048218
 21
224.1952206373
 31
0.0
 12
36.4777048218
 22
224.1952206373
 32
0.0
 13
36.4777048218
 23
224.1952206373
 33
0.0
  0
LINE
  5
1B6
  8
0
  6
CONTINUOUS
 62
   154
 10
39.9537048218
 20
227.4972206373
 30
0.0
 11
34.9537048218
 21
227.4972206373
 31
0.0
  0
LINE
  5
1B7
  8
0
  6
CONTINUOUS
 62
   154
 10
35.9697048218
 20
219.2903156868
 30
0.0
 11
35.9697048218
 21
227.4972206373
 31
0.0
  0
LINE
  5
1B8
  8
0
  6
CONTINUOUS
 62
   154
 10
39.9537048218
 20
227.4972206373
 30
0.0
 11
44.9537048218
 21
229.7308031011
 31
0.0
  0
LINE
  5
1B9
  8
0
  6
CONTINUOUS
 62
   154
 10
44.9537048218
 20
229.7308031011
 30
0.0
 11
64.9587278785
 21
229.7308031011
 31
0.0
  0
TEXT
  5
1BA
  8
0
  6
CONTINUOUS
 62
   154
 10
23.3162043345
 20
225.9555056838
 30
0.0
 40
3.5
  1
25,74
 41
0.7
 11
23.3162043345
 21
224.7190954671
 31
0.0
 73
     1
  0
ENDBLK
  5
1B4
  8
0
  0
BLOCK
  8
0
  2
_D_17
 70
     0
 10
0.0
 20
0.0
 30
0.0
  3
_D_17
  1

  0
SOLID
  5
1BF
  8
0
  6
CONTINUOUS
 62
   154
 10
35.9697048218
 20
234.7666907048
 30
0.0
 11
35.4617048218
 21
231.4646907048
 31
0.0
 12
36.4777048218
 22
231.4646907048
 32
0.0
 13
36.4777048218
 23
231.4646907048
 33
0.0
  0
LINE
  5
1C0
  8
0
  6
CONTINUOUS
 62
   154
 10
39.9537048218
 20
234.7666907048
 30
0.0
 11
34.9537048218
 21
234.7666907048
 31
0.0
  0
LINE
  5
1C1
  8
0
  6
CONTINUOUS
 62
   154
 10
35.9697048218
 20
227.4972206373
 30
0.0
 11
35.9697048218
 21
234.7666907048
 31
0.0
  0
LINE
  5
1C2
  8
0
  6
CONTINUOUS
 62
   154
 10
39.9537048218
 20
234.7666907048
 30
0.0
 11
44.9537048218
 21
240.2015513451
 31
0.0
  0
LINE
  5
1C3
  8
0
  6
CONTINUOUS
 62
   154
 10
44.9537048218
 20
240.2015513451
 30
0.0
 11
72.6357473868
 21
240.2015513451
 31
0.0
  0
TEXT
  5
1C4
  8
0
  6
CONTINUOUS
 62
   154
 10
25.9023157609
 20
233.2249757513
 30
0.0
 40
3.5
  1
36,2
 41
0.7
 11
25.9023157609
 21
231.9885655346
 31
0.0
 73
     1
  0
ENDBLK
  5
1BE
  8
0
  0
BLOCK
  8
0
  2
_D_18
 70
     0
 10
0.0
 20
0.0
 30
0.0
  3
_D_18
  1

  0
SOLID
  5
1C9
  8
0
  6
CONTINUOUS
 62
   154
 10
35.9697048218
 20
242.1785031958
 30
0.0
 11
35.4617048218
 21
238.8765031958
 31
0.0
 12
36.4777048218
 22
238.8765031958
 32
0.0
 13
36.4777048218
 23
238.8765031958
 33
0.0
  0
LINE
  5
1CA
  8
0
  6
CONTINUOUS
 62
   154
 10
39.9537048218
 20
242.1785031958
 30
0.0
 11
34.9537048218
 21
242.1785031958
 31
0.0
  0
LINE
  5
1CB
  8
0
  6
CONTINUOUS
 62
   154
 10
35.9697048218
 20
234.7666907048
 30
0.0
 11
35.9697048218
 21
242.1785031958
 31
0.0
  0
LINE
  5
1CC
  8
0
  6
CONTINUOUS
 62
   154
 10
39.9537048218
 20
242.1785031958
 30
0.0
 11
44.9537048218
 21
244.9903156867
 31
0.0
  0
LINE
  5
1CD
  8
0
  6
CONTINUOUS
 62
   154
 10
44.9537048218
 20
244.9903156867
 30
0.0
 11
77.3929276123
 21
244.9903156867
 31
0.0
  0
TEXT
  5
1CE
  8
0
  6
CONTINUOUS
 62
   154
 10
29.7814824348
 20
240.6367882424
 30
0.0
 40
3.5
  1
41
 41
0.7
 11
29.7814824348
 21
239.4003780256
 31
0.0
 73
     1
  0
ENDBLK
  5
1C8
  8
0
  0
BLOCK
  8
0
  2
_D_19
 70
     0
 10
0.0
 20
0.0
 30
0.0
  3
_D_19
  1

  0
SOLID
  5
1D3
  8
0
  6
CONTINUOUS
 62
   154
 10
35.9697048218
 20
247.7903156868
 30
0.0
 11
35.4617048218
 21
244.4883156868
 31
0.0
 12
36.4777048218
 22
244.4883156868
 32
0.0
 13
36.4777048218
 23
244.4883156868
 33
0.0
  0
LINE
  5
1D4
  8
0
  6
CONTINUOUS
 62
   154
 10
50.2537048218
 20
247.7903156868
 30
0.0
 11
34.9537048218
 21
247.7903156868
 31
0.0
  0
LINE
  5
1D5
  8
0
  6
CONTINUOUS
 62
   154
 10
35.9697048218
 20
242.1785031958
 30
0.0
 11
35.9697048218
 21
247.7903156868
 31
0.0
  0
TEXT
  5
1D6
  8
0
  6
CONTINUOUS
 62
   154
 10
25.9023157609
 20
246.2486007333
 30
0.0
 40
3.5
  1
43,8
 41
0.7
 11
25.9023157609
 21
245.0121905166
 31
0.0
 73
     1
  0
ENDBLK
  5
1D2
  8
0
  0
BLOCK
  8
0
  2
_D_20
 70
     0
 10
0.0
 20
0.0
 30
0.0
  3
_D_20
  1

  0
SOLID
  5
1DC
  8
0
  6
CONTINUOUS
 62
   154
 10
46.4968554192
 20
203.9903156868
 30
0.0
 11
45.9888554192
 21
200.6883156868
 31
0.0
 12
47.0048554192
 22
200.6883156868
 32
0.0
 13
47.0048554192
 23
200.6883156868
 33
0.0
  0
SOLID
  5
1DD
  8
0
  6
CONTINUOUS
 62
   154
 10
46.4968554192
 20
205.5145797555
 30
0.0
 11
47.0048554192
 21
208.8165797555
 31
0.0
 12
45.9888554192
 22
208.8165797555
 32
0.0
 13
45.9888554192
 23
208.8165797555
 33
0.0
  0
LINE
  5
1DE
  8
0
  6
CONTINUOUS
 62
   154
 10
51.4779688905
 20
203.9903156868
 30
0.0
 11
45.4968554192
 21
203.9903156868
 31
0.0
  0
LINE
  5
1DF
  8
0
  6
CONTINUOUS
 62
   154
 10
50.2537048218
 20
205.5145797555
 30
0.0
 11
45.4968554192
 21
205.5145797555
 31
0.0
  0
LINE
  5
1E0
  8
0
  6
CONTINUOUS
 62
   154
 10
46.4968554192
 20
203.9903156868
 30
0.0
 11
46.4968554192
 21
185.1540222419
 31
0.0
  0
LINE
  5
1E1
  8
0
  6
CONTINUOUS
 62
   154
 10
46.4968554192
 20
203.9903156868
 30
0.0
 11
46.4968554192
 21
205.5145797555
 31
0.0
  0
LINE
  5
1E2
  8
0
  6
CONTINUOUS
 62
   154
 10
46.4968554192
 20
205.5145797555
 30
0.0
 11
46.4968554192
 21
211.8645797555
 31
0.0
  0
TEXT
  5
1E3
  8
0
  6
CONTINUOUS
 62
   154
 10
45.2604453771
 20
185.1540222419
 30
-25.0
 40
3.5
  1
1,5
 50
90.0
 41
0.7
 11
46.4968555939
 21
185.1540222419
 31
-25.0
 73
     1
  0
TEXT
  5
1E4
  8
0
  6
CONTINUOUS
 62
   154
 10
45.2604453771
 20
191.6193003421
 30
-25.0
 40
3.5
  1
x45°
 50
90.0
 41
0.7
 11
46.4968555939
 21
191.6193003421
 31
-25.0
 73
     1
  0
ENDBLK
  5
1DB
  8
0
  0
BLOCK
  8
0
  2
_D_21
 70
     0
 10
0.0
 20
0.0
 30
0.0
  3
_D_21
  1

  0
SOLID
  5
1EA
  8
0
  6
CONTINUOUS
 62
   154
 10
61.8264259589
 20
261.1867832178
 30
0.0
 11
58.5244636415
 21
261.6950280938
 31
0.0
 12
58.5243882946
 22
260.6790280966
 32
0.0
 13
58.5243882946
 23
260.6790280966
 33
0.0
  0
SOLID
  5
1EB
  8
0
  6
CONTINUOUS
 62
   154
 10
63.8828739541
 20
261.1866307109
 30
0.0
 11
67.1848362716
 21
260.6783858349
 31
0.0
 12
67.1849116185
 22
261.6943858321
 32
0.0
 13
67.1849116185
 23
261.6943858321
 33
0.0
  0
LINE
  5
1EC
  8
0
  6
CONTINUOUS
 62
   154
 10
61.8252775388
 20
245.7011433085
 30
0.0
 11
61.8265001193
 21
262.186783215
 31
0.0
  0
LINE
  5
1ED
  8
0
  6
CONTINUOUS
 62
   154
 10
63.881725534
 20
245.7009908017
 30
0.0
 11
63.8829481145
 21
262.1866307081
 31
0.0
  0
LINE
  5
1EE
  8
0
  6
CONTINUOUS
 62
   154
 10
61.8264259589
 20
261.1867832178
 30
0.0
 11
55.4764259764
 21
261.1872541358
 31
0.0
  0
LINE
  5
1EF
  8
0
  6
CONTINUOUS
 62
   154
 10
61.8264259589
 20
261.1867832178
 30
0.0
 11
63.8828739541
 21
261.1866307109
 31
0.0
  0
LINE
  5
1F0
  8
0
  6
CONTINUOUS
 62
   154
 10
63.8828739541
 20
261.1866307109
 30
0.0
 11
71.7736380566
 21
261.1860455293
 31
0.0
  0
TEXT
  5
1F1
  8
0
  6
CONTINUOUS
 62
   154
 10
62.7223407131
 20
262.4231268219
 30
-25.0
 40
3.5
  1
2,04
 50
359.9957509263
 41
0.7
 11
62.7222490205
 21
261.1867166086
 31
-25.0
 73
     1
  0
ENDBLK
  5
1E9
  8
0
  0
BLOCK
  8
0
  2
_D_22
 70
     0
 10
0.0
 20
0.0
 30
0.0
  3
_D_22
  1

  0
SOLID
  5
1F6
  8
0
  6
CONTINUOUS
 62
   154
 10
69.9720384739
 20
250.1537112738
 30
0.0
 11
66.6688551665
 21
250.6539592501
 31
0.0
 12
66.671239974
 22
249.637962049
 32
0.0
 13
66.671239974
 23
249.637962049
 33
0.0
  0
SOLID
  5
1F7
  8
0
  6
CONTINUOUS
 62
   154
 10
71.7204647779
 20
250.1578152812
 30
0.0
 11
75.0236480853
 21
249.6575673049
 31
0.0
 12
75.0212632778
 22
250.673564506
 32
0.0
 13
75.0212632778
 23
250.673564506
 33
0.0
  0
LINE
  5
1F8
  8
0
  6
CONTINUOUS
 62
   154
 10
69.9824984761
 20
245.6974467059
 30
0.0
 11
69.9696912225
 21
251.153708519
 31
0.0
  0
LINE
  5
1F9
  8
0
  6
CONTINUOUS
 62
   154
 10
71.7309247801
 20
245.7015507134
 30
0.0
 11
71.7181175265
 21
251.1578125264
 31
0.0
  0
LINE
  5
1FA
  8
0
  6
CONTINUOUS
 62
   154
 10
69.9720384739
 20
250.1537112738
 30
0.0
 11
63.6220559669
 21
250.1388062272
 31
0.0
  0
LINE
  5
1FB
  8
0
  6
CONTINUOUS
 62
   154
 10
69.9720384739
 20
250.1537112738
 30
0.0
 11
71.7204647779
 21
250.1578152812
 31
0.0
  0
LINE
  5
1FC
  8
0
  6
CONTINUOUS
 62
   154
 10
71.7204647779
 20
250.1578152812
 30
0.0
 11
89.9199820086
 21
250.2005342418
 31
0.0
  0
TEXT
  5
1FD
  8
0
  6
CONTINUOUS
 62
   154
 10
80.8657157172
 20
251.4156949919
 30
-25.0
 40
3.5
  1
1,73
 50
0.1344877241
 41
0.7
 11
80.8686178828
 21
250.1792881813
 31
-25.0
 73
     1
  0
ENDBLK
  5
1F5
  8
0
  0
BLOCK
  8
0
  2
_D_23
 70
     0
 10
0.0
 20
0.0
 30
0.0
  3
_D_23
  1

  0
SOLID
  5
202
  8
0
  6
CONTINUOUS
 62
   154
 10
78.1562808467
 20
261.8621990984
 30
0.0
 11
74.8542808467
 21
262.3701990984
 31
0.0
 12
74.8542808467
 22
261.3541990984
 32
0.0
 13
74.8542808467
 23
261.3541990984
 33
0.0
  0
SOLID
  5
203
  8
0
  6
CONTINUOUS
 62
   154
 10
80.3537048218
 20
261.8621990984
 30
0.0
 11
83.6557048218
 21
261.3541990984
 31
0.0
 12
83.6557048218
 22
262.3701990984
 32
0.0
 13
83.6557048218
 23
262.3701990984
 33
0.0
  0
LINE
  5
204
  8
0
  6
CONTINUOUS
 62
   154
 10
78.1562808467
 20
245.8747019887
 30
0.0
 11
78.1562808467
 21
262.8621990984
 31
0.0
  0
LINE
  5
205
  8
0
  6
CONTINUOUS
 62
   154
 10
80.3537048218
 20
245.6903156867
 30
0.0
 11
80.3537048218
 21
262.8621990984
 31
0.0
  0
LINE
  5
206
  8
0
  6
CONTINUOUS
 62
   154
 10
78.1562808467
 20
261.8621990984
 30
0.0
 11
71.8062808467
 21
261.8621990984
 31
0.0
  0
LINE
  5
207
  8
0
  6
CONTINUOUS
 62
   154
 10
78.1562808467
 20
261.8621990984
 30
0.0
 11
80.3537048218
 21
261.8621990984
 31
0.0
  0
LINE
  5
208
  8
0
  6
CONTINUOUS
 62
   154
 10
80.3537048218
 20
261.8621990984
 30
0.0
 11
83.8132890461
 21
261.8621990984
 31
0.0
  0
TEXT
  5
209
  8
0
  6
CONTINUOUS
 62
   154
 10
77.3480114116
 20
263.0986091405
 30
-25.0
 40
3.5
  1
2,1
 41
0.7
 11
77.3480114116
 21
261.8621989238
 31
-25.0
 73
     1
  0
ENDBLK
  5
201
  8
0
  0
BLOCK
  8
0
  2
_NONE
 70
     0
 10
0.0
 20
0.0
 30
0.0
  3
_NONE
  1

  0
ENDBLK
  5
20E
  8
0
  0
BLOCK
  8
0
  2
_D_24
 70
     0
 10
0.0
 20
0.0
 30
0.0
  3
_D_24
  1

  0
LINE
  5
212
  8
0
  6
CONTINUOUS
 62
   154
 10
98.1117898213
 20
250.1899112988
 30
0.0
 11
108.9985960202
 21
250.1899112988
 31
0.0
  0
TEXT
  5
213
  8
0
  6
CONTINUOUS
 62
   154
 10
99.6992898213
 20
251.4263213409
 30
-25.0
 40
3.5
  1
R0,6
 41
0.7
 11
99.6992898213
 21
250.1899111242
 31
-25.0
 73
     1
  0
ENDBLK
  5
211
  8
0
  0
BLOCK
  8
0
  2
_D_25
 70
     0
 10
0.0
 20
0.0
 30
0.0
  3
_D_25
  1

  0
SOLID
  5
219
  8
0
  6
CONTINUOUS
 62
   154
 10
60.6681855427
 20
210.9376555355
 30
0.0
 11
57.438478999
 21
210.0831008905
 31
0.0
 12
57.8446899463
 22
209.1518390228
 32
0.0
 13
57.8446899463
 23
209.1518390228
 33
0.0
  0
LINE
  5
21A
  8
0
  6
CONTINUOUS
 62
   154
 10
60.6681855427
 20
210.9376555355
 30
0.0
 11
68.3140985971
 21
214.2727578227
 31
0.0
  0
LINE
  5
21B
  8
0
  6
CONTINUOUS
 62
   154
 10
60.6681855427
 20
210.9376555355
 30
0.0
 11
54.8477988695
 21
208.3988371147
 31
0.0
  0
LINE
  5
21C
  8
0
  6
CONTINUOUS
 62
   154
 10
68.3140985971
 20
214.2727578227
 30
0.0
 11
79.2009047961
 21
214.2727578227
 31
0.0
  0
TEXT
  5
21D
  8
0
  6
CONTINUOUS
 62
   154
 10
69.9015985971
 20
215.5091678648
 30
-25.0
 40
3.5
  1
R2,6
 41
0.7
 11
69.9015985971
 21
214.2727576481
 31
-25.0
 73
     1
  0
ENDBLK
  5
218
  8
0
  0
BLOCK
  8
0
  2
_D_26
 70
     0
 10
0.0
 20
0.0
 30
0.0
  3
_D_26
  1

  0
SOLID
  5
223
  8
0
  6
CONTINUOUS
 62
   154
 10
61.0295857522
 20
223.0358529461
 30
0.0
 11
64.2177427355
 21
222.0373926063
 31
0.0
 12
64.3704287575
 22
223.041854143
 32
0.0
 13
64.3704287575
 23
223.041854143
 33
0.0
  0
LINE
  5
224
  8
0
  6
CONTINUOUS
 62
   154
 10
61.0295857522
 20
223.0358529461
 30
0.0
 11
67.0415360528
 21
222.1219894061
 31
0.0
  0
TEXT
  5
225
  8
0
  6
CONTINUOUS
 62
   154
 10
61.8293400826
 20
223.899564767
 30
-25.0
 40
3.5
  1
R2
 50
351.3567587324
 41
0.7
 11
61.6435304787
 21
222.6771961585
 31
-25.0
 73
     1
  0
ENDBLK
  5
222
  8
0
  0
BLOCK
  8
0
  2
_D_27
 70
     0
 10
0.0
 20
0.0
 30
0.0
  3
_D_27
  1

  0
SOLID
  5
22B
  8
0
  6
CONTINUOUS
 62
   154
 10
55.1824499324
 20
220.2073275633
 30
0.0
 11
52.3428121272
 21
218.447292014
 31
0.0
 12
53.0031528844
 22
217.6751481905
 32
0.0
 13
53.0031528844
 23
217.6751481905
 33
0.0
  0
LINE
  5
22C
  8
0
  6
CONTINUOUS
 62
   154
 10
55.1824499324
 20
220.2073275633
 30
0.0
 11
48.2430912445
 21
214.2727578227
 31
0.0
  0
LINE
  5
22D
  8
0
  6
CONTINUOUS
 62
   154
 10
48.2430912445
 20
214.2727578227
 30
0.0
 11
37.3562850456
 21
214.2727578227
 31
0.0
  0
TEXT
  5
22E
  8
0
  6
CONTINUOUS
 62
   154
 10
37.3562850456
 20
215.5091678648
 30
-25.0
 40
3.5
  1
R2,6
 41
0.7
 11
37.3562850456
 21
214.2727576481
 31
-25.0
 73
     1
  0
ENDBLK
  5
22A
  8
0
  0
BLOCK
  8
0
  2
_D_28
 70
     0
 10
0.0
 20
0.0
 30
0.0
  3
_D_28
  1

  0
SOLID
  5
233
  8
0
  6
CONTINUOUS
 62
   154
 10
74.7277666664
 20
240.5706446769
 30
0.0
 11
76.3271817073
 21
237.6375337811
 31
0.0
 12
77.1348490267
 22
238.2539179966
 32
0.0
 13
77.1348490267
 23
238.2539179966
 33
0.0
  0
LINE
  5
234
  8
0
  6
CONTINUOUS
 62
   154
 10
74.7277666664
 20
240.5706446769
 30
0.0
 11
79.157146846
 21
234.7666907048
 31
0.0
  0
LINE
  5
235
  8
0
  6
CONTINUOUS
 62
   154
 10
79.157146846
 20
234.7666907048
 30
0.0
 11
90.043953045
 21
234.7666907048
 31
0.0
  0
TEXT
  5
236
  8
0
  6
CONTINUOUS
 62
   154
 10
80.744646846
 20
236.0031007469
 30
-25.0
 40
3.5
  1
R1,8
 41
0.7
 11
80.744646846
 21
234.7666905301
 31
-25.0
 73
     1
  0
ENDBLK
  5
232
  8
0
  0
BLOCK
  8
0
  2
_D_29
 70
     0
 10
0.0
 20
0.0
 30
0.0
  3
_D_29
  1

  0
SOLID
  5
24E
  8
0
  6
CONTINUOUS
 62
   154
 10
181.7709961591
 20
195.0001659317
 30
0.0
 11
178.4689961591
 21
195.5081659317
 31
0.0
 12
178.4689961591
 22
194.4921659317
 32
0.0
 13
178.4689961591
 23
194.4921659317
 33
0.0
  0
SOLID
  5
24F
  8
0
  6
CONTINUOUS
 62
   154
 10
131.7709961591
 20
195.0001659317
 30
0.0
 11
135.0729961591
 21
194.4921659317
 31
0.0
 12
135.0729961591
 22
195.5081659317
 32
0.0
 13
135.0729961591
 23
195.5081659317
 33
0.0
  0
LINE
  5
250
  8
0
  6
CONTINUOUS
 62
   154
 10
181.7709961591
 20
202.9903156868
 30
0.0
 11
181.7709961591
 21
194.0001659317
 31
0.0
  0
LINE
  5
251
  8
0
  6
CONTINUOUS
 62
   154
 10
131.7709961591
 20
202.9903156868
 30
0.0
 11
131.7709961591
 21
194.0001659317
 31
0.0
  0
LINE
  5
252
  8
0
  6
CONTINUOUS
 62
   154
 10
181.7709961591
 20
195.0001659317
 30
0.0
 11
131.7709961591
 21
195.0001659317
 31
0.0
  0
TEXT
  5
253
  8
0
  6
CONTINUOUS
 62
   154
 10
154.9417880459
 20
196.2365759738
 30
-20.2654198705
 40
3.5
  1
L
 50
0.0
 41
0.7
 11
154.9417880459
 21
195.0001657571
 31
-20.2654198705
 73
     1
  0
ENDBLK
  5
24D
  8
0
  0
ENDSEC
  0
SECTION
  2
ENTITIES
  0
LINE
  5
87
  8
0
  6
CONTINUOUS
 62
     7
 10
17.8
 20
60.25
 30
0.0
 11
17.8
 21
5.0
 31
0.0
  0
LINE
  5
88
  8
0
  6
CONTINUOUS
 62
     7
 10
25.42
 20
43.25
 30
0.0
 11
25.42
 21
5.0
 31
0.0
  0
LINE
  5
89
  8
0
  6
CONTINUOUS
 62
     7
 10
50.82
 20
5.0
 30
0.0
 11
50.82
 21
43.25
 31
0.0
  0
LINE
  5
8A
  8
0
  6
CONTINUOUS
 62
     7
 10
71.14
 20
22.0
 30
0.0
 11
205.0
 21
22.0
 31
0.0
  0
LINE
  5
8B
  8
0
  6
CONTINUOUS
 62
     7
 10
205.0
 20
43.25
 30
0.0
 11
17.8
 21
43.25
 31
0.0
  0
LINE
  5
8C
  8
0
  6
CONTINUOUS
 62
     7
 10
17.8
 20
60.25
 30
0.0
 11
205.0
 21
60.25
 31
0.0
  0
LINE
  5
8D
  8
0
  6
CONTINUOUS
 62
     7
 10
71.14
 20
38.9447711707
 30
0.0
 11
17.8
 21
38.9447711707
 31
0.0
  0
LINE
  5
8E
  8
0
  6
CONTINUOUS
 62
     7
 10
71.14
 20
5.0
 30
0.0
 11
71.14
 21
60.25
 31
0.0
  0
LINE
  5
8F
  8
0
  6
CONTINUOUS
 62
     7
 10
114.32
 20
60.25
 30
0.0
 11
114.32
 21
5.0
 31
0.0
  0
LINE
  5
90
  8
0
  6
CONTINUOUS
 62
     7
 10
63.52
 20
43.25
 30
0.0
 11
63.52
 21
5.0
 31
0.0
  0
LINE
  5
91
  8
0
  6
CONTINUOUS
 62
     7
 10
82.5524019
 20
22.0
 30
0.0
 11
82.5524019
 21
43.25
 31
0.0
  0
LINE
  5
92
  8
0
  6
CONTINUOUS
 62
     7
 10
71.14
 20
13.5
 30
0.0
 11
17.8
 21
13.5
 31
0.0
  0
LINE
  5
93
  8
0
  6
CONTINUOUS
 62
     7
 10
96.6969257405
 20
60.25
 30
0.0
 11
96.6969257405
 21
22.0
 31
0.0
  0
LINE
  5
94
  8
0
  6
CONTINUOUS
 62
     7
 10
158.48
 20
5.0
 30
0.0
 11
158.48
 21
9.25
 31
0.0
  0
LINE
  5
95
  8
0
  6
CONTINUOUS
 62
     7
 10
166.28
 20
53.875
 30
0.0
 11
166.28
 21
60.25
 31
0.0
  0
LINE
  5
96
  8
0
  6
CONTINUOUS
 62
     7
 10
17.8
 20
9.23
 30
0.0
 11
71.14
 21
9.23
 31
0.0
  0
LINE
  5
97
  8
0
  6
CONTINUOUS
 62
     7
 10
189.68
 20
9.25
 30
0.0
 11
189.68
 21
22.0
 31
0.0
  0
LINE
  5
98
  8
0
  6
CONTINUOUS
 62
     7
 10
205.0
 20
53.875
 30
0.0
 11
114.32
 21
53.875
 31
0.0
  0
LINE
  5
99
  8
0
  6
CONTINUOUS
 62
     7
 10
205.0
 20
5.0
 30
0.0
 11
205.0
 21
60.25
 31
0.0
  0
LINE
  5
9A
  8
0
  6
CONTINUOUS
 62
     7
 10
17.8
 20
5.0
 30
0.0
 11
205.0
 21
5.0
 31
0.0
  0
LINE
  5
9B
  8
0
  6
CONTINUOUS
 62
     7
 10
71.14
 20
17.75
 30
0.0
 11
17.8
 21
17.75
 31
0.0
  0
LINE
  5
9C
  8
0
  6
CONTINUOUS
 62
     7
 10
71.14
 20
22.0
 30
0.0
 11
17.8
 21
22.0
 31
0.0
  0
LINE
  5
9D
  8
0
  6
CONTINUOUS
 62
     7
 10
114.32
 20
26.25
 30
0.0
 11
17.8
 21
26.25
 31
0.0
  0
LINE
  5
9E
  8
0
  6
CONTINUOUS
 62
     7
 10
114.32
 20
30.5
 30
0.0
 11
17.8
 21
30.5
 31
0.0
  0
LINE
  5
9F
  8
0
  6
CONTINUOUS
 62
     7
 10
114.32
 20
34.75
 30
0.0
 11
17.8
 21
34.75
 31
0.0
  0
LINE
  5
A0
  8
0
  6
CONTINUOUS
 62
     7
 10
114.32
 20
38.9447711707
 30
0.0
 11
71.14
 21
38.9447711707
 31
0.0
  0
LINE
  5
A1
  8
0
  6
CONTINUOUS
 62
     7
 10
17.8
 20
291.3419137656
 30
0.0
 11
205.0
 21
291.3419137656
 31
0.0
  0
LINE
  5
A2
  8
0
  6
CONTINUOUS
 62
     7
 10
205.0
 20
13.5
 30
0.0
 11
189.68
 21
13.5
 31
0.0
  0
LINE
  5
A3
  8
0
  6
CONTINUOUS
 62
     7
 10
114.32
 20
9.23
 30
0.0
 11
205.0
 21
9.23
 31
0.0
  0
LINE
  5
A4
  8
0
  6
CONTINUOUS
 62
     7
 10
12.8
 20
285.7710619541
 30
0.0
 11
12.8
 21
5.0
 31
0.0
  0
LINE
  5
A5
  8
0
  6
CONTINUOUS
 62
     7
 10
17.8
 20
48.5
 30
0.0
 11
12.8
 21
48.5
 31
0.0
  0
LINE
  5
A6
  8
0
  6
CONTINUOUS
 62
     7
 10
12.8
 20
5.0
 30
0.0
 11
17.8
 21
5.0
 31
0.0
  0
LINE
  5
A7
  8
0
  6
CONTINUOUS
 62
     7
 10
17.8
 20
285.7710619541
 30
0.0
 11
17.8
 21
60.25
 31
0.0
  0
LINE
  5
A8
  8
0
  6
CONTINUOUS
 62
     7
 10
205.0
 20
60.25
 30
0.0
 11
205.0
 21
285.7710619541
 31
0.0
  0
LINE
  5
A9
  8
0
  6
CONTINUOUS
 62
     7
 10
205.0
 20
285.7710619541
 30
0.0
 11
17.8
 21
285.7710619541
 31
0.0
  0
LINE
  5
AA
  8
0
  6
CONTINUOUS
 62
     7
 10
12.8
 20
98.5
 30
0.0
 11
17.8
 21
98.5
 31
0.0
  0
LINE
  5
AB
  8
0
  6
CONTINUOUS
 62
     7
 10
12.8
 20
198.5
 30
0.0
 11
17.8
 21
198.5
 31
0.0
  0
LINE
  5
AC
  8
0
  6
CONTINUOUS
 62
     7
 10
17.8
 20
248.5
 30
0.0
 11
12.8
 21
248.5
 31
0.0
  0
LINE
  5
AD
  8
0
  6
CONTINUOUS
 62
     7
 10
58.9
 20
285.7710619541
 30
0.0
 11
58.9
 21
291.3419137656
 31
0.0
  0
LINE
  5
AE
  8
0
  6
CONTINUOUS
 62
     7
 10
158.9
 20
285.7710619541
 30
0.0
 11
158.9
 21
291.3419137656
 31
0.0
  0
LINE
  5
AF
  8
0
  6
CONTINUOUS
 62
     7
 10
17.8
 20
285.7710619541
 30
0.0
 11
12.8
 21
285.7710619541
 31
0.0
  0
LINE
  5
B0
  8
0
  6
CONTINUOUS
 62
     7
 10
17.8
 20
285.7710619541
 30
0.0
 11
17.8
 21
291.3419137656
 31
0.0
  0
LINE
  5
B1
  8
0
  6
CONTINUOUS
 62
     7
 10
205.0
 20
285.7710619541
 30
0.0
 11
205.0
 21
291.3419137656
 31
0.0
  0
LINE
  5
B2
  8
0
  6
CONTINUOUS
 62
     7
 10
108.9
 20
291.3419137656
 30
0.0
 11
108.9
 21
285.7710619541
 31
0.0
  0
LINE
  5
B3
  8
0
  6
CONTINUOUS
 62
     7
 10
12.8
 20
148.5
 30
0.0
 11
17.8
 21
148.5
 31
0.0
  0
INSERT
  5
B4
  8
0
  6
CONTINUOUS
 62
     7
  2
PROJEKTIONSMETHODE_1
 10
71.14
 20
45.560969046
 30
0.0
  0
TEXT
  5
B5
  8
0
  6
CONTINUOUS
 62
     7
 10
14.4666666667
 20
171.4864142358
 30
0.0
 40
3.5
  1
C
 41
0.7
 11
14.4666666667
 21
170.2500040191
 31
0.0
 73
     1
  0
TEXT
  5
B6
  8
0
  6
CONTINUOUS
 62
     7
 10
83.0666696667
 20
287.0096632562
 30
0.0
 40
3.5
  1
2
 41
0.7
 11
83.0666696667
 21
285.7732530394
 31
0.0
 73
     1
  0
TEXT
  5
B7
  8
0
  6
CONTINUOUS
 62
     7
 10
133.0666696667
 20
287.0096632562
 30
0.0
 40
3.5
  1
3
 41
0.7
 11
133.0666696667
 21
285.7732530394
 31
0.0
 73
     1
  0
TEXT
  5
B8
  8
0
  6
CONTINUOUS
 62
     7
 10
33.4833363333
 20
287.0096632562
 30
0.0
 40
3.5
  1
1
 41
0.7
 11
33.4833363333
 21
285.7732530394
 31
0.0
 73
     1
  0
TEXT
  5
B9
  8
0
  6
CONTINUOUS
 62
     7
 10
183.0666606667
 20
287.0096632562
 30
0.0
 40
3.5
  1
4
 41
0.7
 11
183.0666606667
 21
285.7732530394
 31
0.0
 73
     1
  0
TEXT
  5
BA
  8
0
  6
CONTINUOUS
 62
     7
 10
14.4666666667
 20
221.4864142358
 30
0.0
 40
3.5
  1
B
 41
0.7
 11
14.4666666667
 21
220.2500040191
 31
0.0
 73
     1
  0
TEXT
  5
BB
  8
0
  6
CONTINUOUS
 62
     7
 10
14.4666666667
 20
271.4864142358
 30
0.0
 40
3.5
  1
A
 41
0.7
 11
14.4666666667
 21
270.2500040191
 31
0.0
 73
     1
  0
TEXT
  5
BC
  8
0
  6
CONTINUOUS
 62
     7
 10
14.4666666667
 20
121.4864142358
 30
0.0
 40
3.5
  1
D
 41
0.7
 11
14.4666666667
 21
120.2500040191
 31
0.0
 73
     1
  0
TEXT
  5
BD
  8
0
  6
CONTINUOUS
 62
     7
 10
14.4666666667
 20
71.4864142358
 30
0.0
 40
3.5
  1
E
 41
0.7
 11
14.4666666667
 21
70.2500040191
 31
0.0
 73
     1
  0
TEXT
  5
BE
  8
0
  6
CONTINUOUS
 62
     7
 10
14.4666666667
 20
21.4864142358
 30
0.0
 40
3.5
  1
F
 41
0.7
 11
14.4666666667
 21
20.2500040191
 31
0.0
 73
     1
  0
TEXT
  5
BF
  8
0
  6
CONTINUOUS
 62
     7
 10
143.349677826
 20
15.0303025809
 30
0.0
 40
3.5
  1
PR394
 41
0.7
 11
143.349677826
 21
13.7938923642
 31
0.0
 73
     1
  0
TEXT
  5
C0
  8
0
  6
CONTINUOUS
 62
     7
 10
167.2711097958
 20
55.8075709505
 30
0.0
 40
2.5
  1
Weight: 
 41
0.7
 11
167.2711097958
 21
54.9244207958
 31
0.0
 73
     1
  0
TEXT
  5
C1
  8
0
  6
CONTINUOUS
 62
     7
 10
71.9346052427
 20
57.0429618329
 30
0.0
 40
2.0
  1
Projectionsmethods
 41
0.7
 11
71.9346052427
 21
56.3364417091
 31
0.0
 73
     1
  0
TEXT
  5
C2
  8
0
  6
CONTINUOUS
 62
     7
 10
97.8232489644
 20
36.2793040536
 30
0.0
 40
1.8520833333
  1
Sommerburg
 41
0.7
 11
97.8232489644
 21
35.6250369806
 31
0.0
 73
     1
  0
INSERT
  5
CB
  8
0
  6
CONTINUOUS
 62
     7
  2
SW_NOTE_0
 10
19.6256020674
 20
56.5739582943
 30
0.0
  0
TEXT
  5
CC
  8
0
  6
CONTINUOUS
 62
     7
 10
99.908846596
 20
57.0485173467
 30
0.0
 40
2.0
  1
Surface
 41
0.7
 11
99.908846596
 21
56.3419972228
 31
0.0
 73
     1
  0
TEXT
  5
CD
  8
0
  6
CONTINUOUS
 62
     7
 10
115.8260642912
 20
18.6731952579
 30
0.0
 40
2.5
  1
Drawing No.:
 41
0.7
 11
115.8260642912
 21
17.7900451031
 31
0.0
 73
     1
  0
TEXT
  5
CE
  8
0
  6
CONTINUOUS
 62
     7
 10
115.8260642912
 20
38.8860690348
 30
0.0
 40
2.5
  1
Title:
 41
0.7
 11
115.8260642912
 21
38.00291888
 31
0.0
 73
     1
  0
INSERT
  5
D4
  8
0
  6
CONTINUOUS
 62
     7
  2
SW_NOTE_0_1
 10
115.9359874232
 20
47.6571545989
 30
0.0
  0
TEXT
  5
D5
  8
0
  6
CONTINUOUS
 62
     7
 10
159.7478047655
 20
6.0126746831
 30
0.0
 40
2.0
  1
replaced by:
 41
0.7
 11
159.7478047655
 21
5.3061545592
 31
0.0
 73
     1
  0
TEXT
  5
D6
  8
0
  6
CONTINUOUS
 62
     7
 10
115.769379396
 20
6.0126746831
 30
0.0
 40
2.0
  1
replaces:
 41
0.7
 11
115.769379396
 21
5.3061545592
 31
0.0
 73
     1
  0
TEXT
  5
D7
  8
0
  6
CONTINUOUS
 62
     7
 10
191.6114022462
 20
10.7163935227
 30
0.0
 40
2.0
  1
1 von 1
 41
0.6
 11
191.6114022462
 21
10.0098733989
 31
0.0
 73
     1
  0
TEXT
  5
D8
  8
0
  6
CONTINUOUS
 62
     7
 10
191.6114022462
 20
14.9434680153
 30
0.0
 40
2.0
  1
1 (A4)
 41
0.7
 11
191.6114022462
 21
14.2369478915
 31
0.0
 73
     1
  0
TEXT
  5
D9
  8
0
  6
CONTINUOUS
 62
     7
 10
190.679992
 20
18.8834825574
 30
0.0
 40
2.5
  1
Page
 41
0.7
 11
190.679992
 21
18.0003324026
 31
0.0
 73
     1
  0
TEXT
  5
DA
  8
0
  6
CONTINUOUS
 62
     7
 10
100.9758605414
 20
40.2399684874
 30
0.0
 40
2.0
  1
Name
 41
0.7
 11
100.9758605414
 21
39.5334483635
 31
0.0
 73
     1
  0
TEXT
  5
DB
  8
0
  6
CONTINUOUS
 62
     7
 10
85.971671085
 20
40.2399684874
 30
0.0
 40
2.0
  1
Date
 41
0.7
 11
85.971671085
 21
39.5334483635
 31
0.0
 73
     1
  0
TEXT
  5
DC
  8
0
  6
CONTINUOUS
 62
     7
 10
115.7973605375
 20
55.5835732836
 30
0.0
 40
2.5
  1
Scale: 1:1
 41
0.7
 11
115.7973605375
 21
54.7004231288
 31
0.0
 73
     1
  0
TEXT
  5
DD
  8
0
  6
CONTINUOUS
 62
     7
 10
71.2070226286
 20
27.6922060911
 30
0.0
 40
2.0
  1
approved
 41
0.7
 11
71.2070226286
 21
26.9856859672
 31
0.0
 73
     1
  0
TEXT
  5
DE
  8
0
  6
CONTINUOUS
 62
     7
 10
71.1752265575
 20
31.7885543208
 30
0.0
 40
2.0
  1
checked
 41
0.7
 11
71.1752265575
 21
31.082034197
 31
0.0
 73
     1
  0
TEXT
  5
DF
  8
0
  6
CONTINUOUS
 62
     7
 10
71.1752265575
 20
36.2991149482
 30
0.0
 40
2.0
  1
drawn
 41
0.7
 11
71.1752265575
 21
35.5925948244
 31
0.0
 73
     1
  0
TEXT
  5
E0
  8
0
  6
CONTINUOUS
 62
     7
 10
63.7487245318
 20
5.8293213552
 30
0.0
 40
2.0
  1
Name
 41
0.7
 11
63.7487245318
 21
5.1228012314
 31
0.0
 73
     1
  0
TEXT
  5
E1
  8
0
  6
CONTINUOUS
 62
     7
 10
54.3471622189
 20
5.8293213552
 30
0.0
 40
2.0
  1
Date
 41
0.7
 11
54.3471622189
 21
5.1228012314
 31
0.0
 73
     1
  0
TEXT
  5
E2
  8
0
  6
CONTINUOUS
 62
     7
 10
32.3236265502
 20
5.8405442472
 30
0.0
 40
2.0
  1
Revision
 41
0.7
 11
32.3236265502
 21
5.1340241233
 31
0.0
 73
     1
  0
TEXT
  5
E3
  8
0
  6
CONTINUOUS
 62
     7
 10
18.0176159004
 20
5.8405442472
 30
0.0
 40
2.0
  1
Agree
 41
0.7
 11
18.0176159004
 21
5.1340241233
 31
0.0
 73
     1
  0
TEXT
  5
E4
  8
0
  6
CONTINUOUS
 62
     7
 10
145.6656401503
 20
31.8991350896
 30
0.0
 40
3.5
  1
Alu-Profil
 41
0.7
 11
145.6656401503
 21
30.6627248729
 31
0.0
 73
     1
  0
TEXT
  5
E5
  8
0
  6
CONTINUOUS
 62
     7
 10
83.301830162
 20
36.2793040536
 30
0.0
 40
1.8520833333
  1
27.03.2019
 41
0.7
 11
83.301830162
 21
35.6250369806
 31
0.0
 73
     1
  0
SOLID
  5
E6
  8
0
  6
CONTINUOUS
 62
   154
 10
64.7528755234
 20
218.9669306719
 30
0.0
 11
65.7159833476
 21
215.7679165552
 31
0.0
 12
66.6329999457
 22
216.2053369008
 32
0.0
 13
66.6329999457
 23
216.2053369008
 33
0.0
  0
LINE
  5
E7
  8
0
  6
CONTINUOUS
 62
   154
 10
64.7528755234
 20
218.9669306719
 30
0.0
 11
67.0097263665
 21
214.2356242675
 31
0.0
  0
ARC
  5
E8
  8
0
  6
CONTINUOUS
 62
     7
 10
57.1733023313
 20
221.9099131964
 30
0.0
 40
2.619597509525802
 50
180.0
 51
322.4317494016
  0
LINE
  5
E9
  8
0
  6
CONTINUOUS
 62
     7
 10
59.249667677
 20
220.3127287789
 30
0.0
 11
60.6375545075
 21
222.1170039065
 31
0.0
  0
ARC
  5
EA
  8
0
  6
CONTINUOUS
 62
     7
 10
59.0522992627
 20
223.3364159815
 30
0.0
 40
1.999999999955415
 50
322.4317494024
 51
357.9316268288
  0
LINE
  5
EB
  8
0
  6
CONTINUOUS
 62
     7
 10
61.0509961998
 20
223.2642318183
 30
0.0
 11
61.8252033785
 21
244.7011433113
 31
0.0
  0
ARC
  5
EC
  8
0
  6
CONTINUOUS
 62
     7
 10
62.125007919
 20
244.6903156868
 30
0.0
 40
0.2999999999833954
 50
90.0
 51
177.9316268236
  0
LINE
  5
ED
  8
0
  6
CONTINUOUS
 62
     7
 10
62.125007919
 20
244.9903156867
 30
0.0
 11
63.5818413641
 21
244.9903156867
 31
0.0
  0
ARC
  5
EE
  8
0
  6
CONTINUOUS
 62
     7
 10
63.5818413641
 20
244.6903156867
 30
0.0
 40
0.3000000000000114
 50
2.0392277926
 51
90.0
  0
LINE
  5
EF
  8
0
  6
CONTINUOUS
 62
     7
 10
63.8816513737
 20
244.7009908044
 30
0.0
 11
64.3597411606
 21
231.2738691402
 31
0.0
  0
ARC
  5
F0
  8
0
  6
CONTINUOUS
 62
     7
 10
65.9587278785
 20
231.330803101
 30
0.0
 40
1.599999999972828
 50
182.0392277906
 51
322.4317494015
  0
LINE
  5
F1
  8
0
  6
CONTINUOUS
 62
     7
 10
67.2269320744
 20
230.355273441
 30
0.0
 11
69.661024656
 21
233.5196328158
 31
0.0
  0
ARC
  5
F2
  8
0
  6
CONTINUOUS
 62
     7
 10
69.4232363692
 20
233.702544627
 30
0.0
 40
0.3000000000128154
 50
322.4317494059
 51
358.6374210932
  0
LINE
  5
F3
  8
0
  6
CONTINUOUS
 62
     7
 10
69.7231515394
 20
233.695410853
 30
0.0
 11
69.9848457275
 21
244.6974494607
 31
0.0
  0
ARC
  5
F4
  8
0
  6
CONTINUOUS
 62
     7
 10
70.2847608976
 20
244.6903156867
 30
0.0
 40
0.2999999999845215
 50
90.0
 51
178.637421093
  0
LINE
  5
F5
  8
0
  6
CONTINUOUS
 62
     7
 10
70.2847608976
 20
244.9903156867
 30
0.0
 11
71.433482585
 21
244.9903156867
 31
0.0
  0
ARC
  5
F6
  8
0
  6
CONTINUOUS
 62
     7
 10
71.433482585
 20
244.6903156867
 30
0.0
 40
0.3000000000000182
 50
2.1467604188
 51
90.0
  0
LINE
  5
F7
  8
0
  6
CONTINUOUS
 62
     7
 10
71.7332720316
 20
244.7015534682
 30
0.0
 11
71.8370107074
 21
241.9341246562
 31
0.0
  0
ARC
  5
F8
  8
0
  6
CONTINUOUS
 62
     7
 10
73.6357473868
 20
242.0015513451
 30
0.0
 40
1.80000000005419
 50
182.1467604213
 51
322.0756128996
  0
LINE
  5
F9
  8
0
  6
CONTINUOUS
 62
     7
 10
75.0556279804
 20
240.8952335336
 30
0.0
 11
78.1562808467
 21
244.8747019887
 31
0.0
  0
ARC
  5
FA
  8
0
  6
CONTINUOUS
 62
     7
 10
78.3929276123
 20
244.6903156867
 30
0.0
 40
0.3000000000196792
 50
90.0
 51
142.0756128966
  0
LINE
  5
FB
  8
0
  6
CONTINUOUS
 62
     7
 10
78.3929276123
 20
244.9903156867
 30
0.0
 11
80.0537048218
 21
244.9903156867
 31
0.0
  0
ARC
  5
FC
  8
0
  6
CONTINUOUS
 62
     7
 10
80.0537048218
 20
244.6903156867
 30
0.0
 40
0.3000000000000114
 50
0.0
 51
90.0
  0
LINE
  5
FD
  8
0
  6
CONTINUOUS
 62
     7
 10
80.3537048218
 20
244.6903156867
 30
0.0
 11
80.3537048218
 21
243.8515227408
 31
0.0
  0
ARC
  5
FE
  8
0
  6
CONTINUOUS
 62
     7
 10
80.9537048218
 20
243.8515227408
 30
0.0
 40
0.6000000000000123
 50
180.0
 51
268.372009534
  0
LINE
  5
FF
  8
0
  6
CONTINUOUS
 62
     7
 10
80.9366588394
 20
243.2517649277
 30
0.0
 11
85.7464610535
 21
243.1150634088
 31
0.0
  0
ARC
  5
100
  8
0
  6
CONTINUOUS
 62
     7
 10
85.7287048218
 20
242.4903156867
 30
0.0
 40
0.6250000000266693
 50
271.0499852603
 51
88.3720095326
  0
LINE
  5
101
  8
0
  6
CONTINUOUS
 62
     7
 10
85.7401577432
 20
241.8654206311
 30
0.0
 11
78.7864147572
 21
241.7379741569
 31
0.0
  0
ARC
  5
102
  8
0
  6
CONTINUOUS
 62
     7
 10
78.8047394313
 20
240.7381420678
 30
0.0
 40
1.000000000037453
 50
91.0499852555
 51
148.5134939613
  0
LINE
  5
103
  8
0
  6
CONTINUOUS
 62
     7
 10
77.9519762348
 20
241.2604398094
 30
0.0
 11
74.3339892837
 21
235.3532993562
 31
0.0
  0
ARC
  5
104
  8
0
  6
CONTINUOUS
 62
     7
 10
75.8689630373
 20
234.4131634216
 30
0.0
 40
1.799999999935286
 50
148.5134939628
 51
267.1271086711
  0
LINE
  5
105
  8
0
  6
CONTINUOUS
 62
     7
 10
75.7787463087
 20
232.6154256928
 30
0.0
 11
85.7600300748
 21
232.1145301759
 31
0.0
  0
ARC
  5
106
  8
0
  6
CONTINUOUS
 62
     7
 10
85.7287048218
 20
231.4903156867
 30
0.0
 40
0.6250000000021849
 50
272.1412193931
 51
87.1271086701
  0
LINE
  5
107
  8
0
  6
CONTINUOUS
 62
     7
 10
85.7520564657
 20
230.8657520785
 30
0.0
 11
72.2173735875
 21
230.3597073943
 31
0.0
  0
ARC
  5
108
  8
0
  6
CONTINUOUS
 62
     7
 10
72.2846263217
 20
228.5609642026
 30
0.0
 40
1.799999999984575
 50
92.1412193924
 51
148.5134939612
  0
LINE
  5
109
  8
0
  6
CONTINUOUS
 62
     7
 10
70.7496525681
 20
229.5011001373
 30
0.0
 11
67.4582323269
 21
224.1271499499
 31
0.0
  0
ARC
  5
10A
  8
0
  6
CONTINUOUS
 62
     7
 10
68.7373771216
 20
223.3437033377
 30
0.0
 40
1.499999999991942
 50
148.5134939624
 51
267.5518699641
  0
LINE
  5
10B
  8
0
  6
CONTINUOUS
 62
     7
 10
68.6733047272
 20
221.8450723864
 30
0.0
 11
85.7554016528
 21
221.1147452498
 31
0.0
  0
ARC
  5
10C
  8
0
  6
CONTINUOUS
 62
     7
 10
85.7287048218
 20
220.4903156867
 30
0.0
 40
0.6250000000469691
 50
272.1190388821
 51
87.5518699645
  0
LINE
  5
10D
  8
0
  6
CONTINUOUS
 62
     7
 10
85.751814681
 20
219.8657430853
 30
0.0
 11
65.4350436337
 21
219.1140006668
 31
0.0
  0
ARC
  5
10E
  8
0
  6
CONTINUOUS
 62
     7
 10
65.5089951831
 20
217.1153683424
 30
0.0
 40
1.999999999948808
 50
92.1190388829
 51
148.5134939612
  0
LINE
  5
10F
  8
0
  6
CONTINUOUS
 62
     7
 10
63.8034687903
 20
218.1599638254
 30
0.0
 11
60.8323386929
 21
213.3089560618
 31
0.0
  0
ARC
  5
110
  8
0
  6
CONTINUOUS
 62
     7
 10
63.0253028329
 20
211.9658162286
 30
0.0
 40
2.57159801113129
 50
148.5134939619
 51
267.7485487378
  0
LINE
  5
111
  8
0
  6
CONTINUOUS
 62
     7
 10
62.9242772823
 20
209.3962033845
 30
0.0
 11
85.206124789
 21
208.5201819562
 31
0.0
  0
ARC
  5
112
  8
0
  6
CONTINUOUS
 62
     7
 10
85.1537048218
 20
207.3213274416
 30
0.0
 40
1.200000000059163
 50
0.0
 51
87.4963342356
  0
LINE
  5
113
  8
0
  6
CONTINUOUS
 62
     7
 10
86.3537048218
 20
207.3213274416
 30
0.0
 11
86.3537048218
 21
204.2903156867
 31
0.0
  0
ARC
  5
114
  8
0
  6
CONTINUOUS
 62
     7
 10
86.0537048218
 20
204.2903156868
 30
0.0
 40
0.3000000000037915
 50
269.9999999977
 51
359.9999999957
  0
LINE
  5
115
  8
0
  6
CONTINUOUS
 62
     7
 10
86.0537048218
 20
203.9903156868
 30
0.0
 11
52.4779688905
 21
203.9903156868
 31
0.0
  0
ARC
  5
116
  8
0
  6
CONTINUOUS
 62
     7
 10
52.4779688905
 20
204.2903156868
 30
0.0
 40
0.3000000000000398
 50
225.0
 51
270.0
  0
LINE
  5
117
  8
0
  6
CONTINUOUS
 62
     7
 10
52.2658368562
 20
204.0781836524
 30
0.0
 11
51.0415727874
 21
205.3024477212
 31
0.0
  0
ARC
  5
118
  8
0
  6
CONTINUOUS
 62
     7
 10
51.2537048218
 20
205.5145797555
 30
0.0
 40
0.3000000000244125
 50
180.0
 51
224.9999999932
  0
LINE
  5
119
  8
0
  6
CONTINUOUS
 62
     7
 10
50.9537048218
 20
205.5145797555
 30
0.0
 11
50.9537048218
 21
247.4903156868
 31
0.0
  0
ARC
  5
11A
  8
0
  6
CONTINUOUS
 62
     7
 10
51.2537048218
 20
247.4903156868
 30
0.0
 40
0.3000000000000114
 50
90.0
 51
180.0
  0
LINE
  5
11B
  8
0
  6
CONTINUOUS
 62
     7
 10
51.2537048218
 20
247.7903156868
 30
0.0
 11
54.2537048218
 21
247.7903156868
 31
0.0
  0
ARC
  5
11C
  8
0
  6
CONTINUOUS
 62
     7
 10
54.2537048218
 20
247.4903156868
 30
0.0
 40
0.3000000000000114
 50
0.0
 51
90.0
  0
LINE
  5
11D
  8
0
  6
CONTINUOUS
 62
     7
 10
54.5537048218
 20
247.4903156868
 30
0.0
 11
54.5537048218
 21
221.9099131964
 31
0.0
  0
DIMENSION
  5
11E
  8
0
  6
CONTINUOUS
 62
     7
  2
_D
 10
86.0537048218
 20
203.9903156868
 30
0.0
 11
108.6155919316
 21
203.9903156868
 31
0.0
 70
    38
  1
<>
  3
SLDDIMSTYLE0
 13
86.0537048218
 23
203.9903156868
 33
0.0
 14
107.3225363348
 24
203.9903156868
 34
0.0
  0
DIMENSION
  5
12D
  8
0
  6
CONTINUOUS
 62
   154
  2
_D_1
 10
86.0537048218
 20
203.9903156868
 30
0.0
 11
110.5551751521
 21
210.6840743992
 31
0.0
 70
    38
  1
<>
  3
SLDDIMSTYLE1
 13
85.206124789
 23
208.5201819562
 33
0.0
 14
107.3225363348
 24
210.6840743992
 34
0.0
  0
DIMENSION
  5
138
  8
0
  6
CONTINUOUS
 62
   154
  2
_D_2
 10
86.0537048218
 20
203.9903156868
 30
0.0
 11
111.8482308653
 21
220.4903156867
 31
0.0
 70
    38
  1
<>
  3
SLDDIMSTYLE1
 13
85.7287048218
 23
220.4903156867
 33
0.0
 14
107.3225363348
 24
220.4903156867
 34
0.0
  0
DIMENSION
  5
140
  8
0
  6
CONTINUOUS
 62
   154
  2
_D_3
 10
86.0537048218
 20
203.9903156868
 30
0.0
 11
111.8482308653
 21
231.4903156867
 31
0.0
 70
    38
  1
<>
  3
SLDDIMSTYLE1
 13
85.7287048218
 23
231.4903156867
 33
0.0
 14
107.3225363348
 24
231.4903156867
 34
0.0
  0
DIMENSION
  5
148
  8
0
  6
CONTINUOUS
 62
   154
  2
_D_4
 10
86.0537048218
 20
203.9903156868
 30
0.0
 11
111.8482308653
 21
242.4903156867
 31
0.0
 70
    38
  1
<>
  3
SLDDIMSTYLE1
 13
85.7287048218
 23
242.4903156867
 33
0.0
 14
107.3225363348
 24
242.4903156867
 34
0.0
  0
DIMENSION
  5
150
  8
0
  6
CONTINUOUS
 62
     7
  2
_D_5
 10
50.9537048218
 20
205.5145797555
 30
0.0
 11
50.9537048218
 21
195.2674362357
 31
0.0
 70
   102
  1
<>
  3
SLDDIMSTYLE0
 13
50.9537048218
 23
205.5145797555
 33
0.0
 14
50.9537048218
 24
196.5604918325
 34
0.0
  0
DIMENSION
  5
157
  8
0
  6
CONTINUOUS
 62
   154
  2
_D_6
 10
50.9537048218
 20
205.5145797555
 30
0.0
 11
60.4537048218
 21
192.034797302
 31
0.0
 70
   102
  1
<>
  3
SLDDIMSTYLE2
 13
60.4537048218
 23
211.9658162286
 33
0.0
 14
60.4537048218
 24
196.5604918325
 34
0.0
  0
DIMENSION
  5
160
  8
0
  6
CONTINUOUS
 62
   154
  2
_D_7
 10
50.9537048218
 20
205.5145797555
 30
0.0
 11
67.2373771216
 21
192.034797302
 31
0.0
 70
   102
  1
<>
  3
SLDDIMSTYLE1
 13
67.2373771216
 23
223.3437033377
 33
0.0
 14
67.2373771216
 24
196.5604918325
 34
0.0
  0
DIMENSION
  5
168
  8
0
  6
CONTINUOUS
 62
   154
  2
_D_8
 10
50.9537048218
 20
205.5145797555
 30
0.0
 11
86.3537048218
 21
192.034797302
 31
0.0
 70
   102
  1
<>
  3
SLDDIMSTYLE1
 13
86.3537048218
 23
204.2903156867
 33
0.0
 14
86.3537048218
 24
196.5604918325
 34
0.0
  0
DIMENSION
  5
170
  8
0
  6
CONTINUOUS
 62
     7
  2
_D_9
 10
50.9537048218
 20
247.4903156868
 30
0.0
 11
50.9537048218
 21
271.0833712835
 31
0.0
 70
   102
  1
<>
  3
SLDDIMSTYLE0
 13
50.9537048218
 23
247.4903156868
 33
0.0
 14
50.9537048218
 24
269.7903156868
 34
0.0
  0
DIMENSION
  5
179
  8
0
  6
CONTINUOUS
 62
   154
  2
_D_10
 10
50.9537048218
 20
247.4903156868
 30
0.0
 11
56.6992698706
 21
273.022954504
 31
0.0
 70
   102
  1
<>
  3
SLDDIMSTYLE1
 13
54.5537048218
 23
247.4903156868
 33
0.0
 14
56.6992698706
 24
269.7903156868
 34
0.0
  0
DIMENSION
  5
183
  8
0
  6
CONTINUOUS
 62
   154
  2
_D_11
 10
50.9537048218
 20
247.4903156868
 30
0.0
 11
61.0882782411
 21
275.6090659304
 31
0.0
 70
   102
  1
<>
  3
SLDDIMSTYLE2
 13
61.8252033785
 23
244.7011433113
 33
0.0
 14
61.0882782411
 24
269.7903156868
 34
0.0
  0
DIMENSION
  5
18D
  8
0
  6
CONTINUOUS
 62
   154
  2
_D_12
 10
50.9537048218
 20
247.4903156868
 30
0.0
 11
73.5712915803
 21
275.6090659304
 31
0.0
 70
   102
  1
<>
  3
SLDDIMSTYLE2
 13
69.9848457275
 23
244.6974494607
 33
0.0
 14
73.5712915803
 24
269.7903156868
 34
0.0
  0
DIMENSION
  5
197
  8
0
  6
CONTINUOUS
 62
   154
  2
_D_13
 10
50.9537048218
 20
247.4903156868
 30
0.0
 11
90.2363922586
 21
274.3160102172
 31
0.0
 70
   102
  1
<>
  3
SLDDIMSTYLE3
 13
80.3537048218
 23
244.6903156867
 33
0.0
 14
90.2363922586
 24
269.7903156868
 34
0.0
  0
DIMENSION
  5
1A2
  8
0
  6
CONTINUOUS
 62
     7
  2
_D_14
 10
52.4779688905
 20
203.9903156868
 30
0.0
 11
33.660649225
 21
203.9903156868
 31
0.0
 70
    38
  1
<>
  3
SLDDIMSTYLE0
 13
52.4779688905
 23
203.9903156868
 33
0.0
 14
34.9537048218
 24
203.9903156868
 34
0.0
  0
DIMENSION
  5
1A9
  8
0
  6
CONTINUOUS
 62
   154
  2
_D_15
 10
52.4779688905
 20
203.9903156868
 30
0.0
 11
30.4280102913
 21
219.2903156868
 31
0.0
 70
    38
  1
<>
  3
SLDDIMSTYLE3
 13
57.1733023313
 23
219.2903156868
 33
0.0
 14
34.9537048218
 24
219.2903156868
 34
0.0
  0
DIMENSION
  5
1B1
  8
0
  6
CONTINUOUS
 62
   154
  2
_D_16
 10
52.4779688905
 20
203.9903156868
 30
0.0
 11
29.1349545782
 21
227.4972206373
 31
0.0
 70
    38
  1
<>
  3
SLDDIMSTYLE2
 13
65.9587278785
 23
229.7308031011
 33
0.0
 14
34.9537048218
 24
227.4972206373
 34
0.0
  0
DIMENSION
  5
1BB
  8
0
  6
CONTINUOUS
 62
   154
  2
_D_17
 10
52.4779688905
 20
203.9903156868
 30
0.0
 11
30.4280102913
 21
234.7666907048
 31
0.0
 70
    38
  1
<>
  3
SLDDIMSTYLE1
 13
73.6357473868
 23
240.2015513451
 33
0.0
 14
34.9537048218
 24
234.7666907048
 34
0.0
  0
DIMENSION
  5
1C5
  8
0
  6
CONTINUOUS
 62
   154
  2
_D_18
 10
52.4779688905
 20
203.9903156868
 30
0.0
 11
32.3675936283
 21
242.1785031958
 31
0.0
 70
    38
  1
<>
  3
SLDDIMSTYLE2
 13
78.3929276123
 23
244.9903156867
 33
0.0
 14
34.9537048218
 24
242.1785031958
 34
0.0
  0
DIMENSION
  5
1CF
  8
0
  6
CONTINUOUS
 62
   154
  2
_D_19
 10
52.4779688905
 20
203.9903156868
 30
0.0
 11
30.4280102913
 21
247.7903156868
 31
0.0
 70
    38
  1
<>
  3
SLDDIMSTYLE1
 13
51.2537048218
 23
247.7903156868
 33
0.0
 14
34.9537048218
 24
247.7903156868
 34
0.0
  0
DIMENSION
  5
1D7
  8
0
  6
CONTINUOUS
 62
   154
  2
_D_20
 10
46.4968554192
 20
205.5145797555
 30
0.0
 11
46.4968554192
 21
193.0265916166
 31
0.0
 70
   160
  1
<>x45°
  3
SLDDIMSTYLE4
 13
52.4779688905
 23
203.9903156868
 33
0.0
 14
51.2537048218
 24
205.5145797555
 34
0.0
 50
90.0
  0
DIMENSION
  5
1E5
  8
0
  6
CONTINUOUS
 62
   154
  2
_D_21
 10
63.8828739541
 20
261.1866307109
 30
0.0
 11
67.2479435386
 21
261.1863811562
 31
0.0
 70
   160
  1
<>
  3
SLDDIMSTYLE5
 13
61.8252033785
 23
244.7011433113
 33
0.0
 14
63.8816513737
 24
244.7009908044
 34
0.0
 50
-0.0042490737
  0
DIMENSION
  5
1F2
  8
0
  6
CONTINUOUS
 62
   154
  2
_D_22
 10
71.7204647779
 20
250.1578152812
 30
0.0
 11
85.3942999455
 21
250.1899112988
 31
0.0
 70
   160
  1
<>
  3
SLDDIMSTYLE5
 13
69.9848457275
 23
244.6974494607
 33
0.0
 14
71.7332720316
 24
244.7015534682
 34
0.0
 50
0.1344877241
  0
DIMENSION
  5
1FE
  8
0
  6
CONTINUOUS
 62
   154
  2
_D_23
 10
80.3537048218
 20
261.8621990984
 30
0.0
 11
80.5806502289
 21
261.8621990984
 31
0.0
 70
   160
  1
<>
  3
SLDDIMSTYLE4
 13
78.1562808467
 23
244.8747019887
 33
0.0
 14
80.3537048218
 24
244.6903156867
 34
0.0
  0
DIMENSION
  5
20A
  8
0
  6
CONTINUOUS
 62
   154
  2
_D_24
 10
80.9537048218
 20
243.8515227408
 30
0.0
 11
104.3489429208
 21
252.9680362944
 31
0.0
 70
   164
  1
<>
  3
SLDDIMSTYLE6
 15
0.0
 25
0.0
 35
0.0
 40
0.0
  0
DIMENSION
  5
214
  8
0
  6
CONTINUOUS
 62
   154
  2
_D_25
 10
63.0253028329
 20
211.9658162286
 30
0.0
 11
74.5512516966
 21
217.0508828183
 31
0.0
 70
   164
  1
<>
  3
SLDDIMSTYLE7
 15
60.6681855427
 25
210.9376555355
 35
0.0
 40
0.0
  0
DIMENSION
  5
21E
  8
0
  6
CONTINUOUS
 62
   154
  2
_D_26
 10
59.0522992627
 20
223.3364159815
 30
0.0
 11
64.9159131791
 21
222.4451122539
 31
0.0
 70
   164
  1
<>
  3
SLDDIMSTYLE8
 15
61.0295857522
 25
223.0358529461
 35
0.0
 40
0.0
  0
DIMENSION
  5
226
  8
0
  6
CONTINUOUS
 62
   154
  2
_D_27
 10
57.1733023313
 20
221.9099131964
 30
0.0
 11
42.005938145
 21
217.0508828183
 31
0.0
 70
   164
  1
<>
  3
SLDDIMSTYLE9
 15
55.1824499324
 25
220.2073275633
 35
0.0
 40
0.0
  0
DIMENSION
  5
22F
  8
0
  6
CONTINUOUS
 62
   154
  2
_D_28
 10
73.6357473868
 20
242.0015513451
 30
0.0
 11
85.3942999455
 21
237.5448157003
 31
0.0
 70
   164
  1
<>
  3
SLDDIMSTYLE9
 15
74.7277666664
 25
240.5706446769
 35
0.0
 40
0.0
  0
SOLID
  5
237
  8
0
  6
CONTINUOUS
 62
   154
 10
81.5165297043
 20
244.0594365491
 30
0.0
 11
84.7899763318
 21
244.7271304736
 31
0.0
 12
84.4379089498
 22
245.6801806079
 32
0.0
 13
84.4379089498
 23
245.6801806079
 33
0.0
  0
LINE
  5
238
  8
0
  6
CONTINUOUS
 62
   154
 10
81.5165297043
 20
244.0594365491
 30
0.0
 11
98.1117898213
 21
250.1899112988
 31
0.0
  0
LINE
  5
239
  8
0
  6
CONTINUOUS
 62
     7
 10
181.7709961591
 20
247.7903156868
 30
0.0
 11
131.7709961591
 21
247.7903156868
 31
0.0
  0
LINE
  5
23A
  8
0
  6
CONTINUOUS
 62
     7
 10
181.7709961591
 20
247.7903156868
 30
0.0
 11
181.7709961591
 21
247.4903156868
 31
0.0
  0
LINE
  5
23B
  8
0
  6
CONTINUOUS
 62
     7
 10
181.7709961591
 20
247.4903156868
 30
0.0
 11
131.7709961591
 21
247.4903156868
 31
0.0
  0
LINE
  5
23C
  8
0
  6
CONTINUOUS
 62
     7
 10
131.7709961591
 20
247.7903156868
 30
0.0
 11
131.7709961591
 21
247.4903156868
 31
0.0
  0
LINE
  5
23D
  8
0
  6
CONTINUOUS
 62
     7
 10
181.7709961591
 20
205.5145797555
 30
0.0
 11
181.7709961591
 21
247.4903156868
 31
0.0
  0
LINE
  5
23E
  8
0
  6
CONTINUOUS
 62
     7
 10
181.7709961591
 20
205.5145797555
 30
0.0
 11
131.7709961591
 21
205.5145797555
 31
0.0
  0
LINE
  5
23F
  8
0
  6
CONTINUOUS
 62
     7
 10
131.7709961591
 20
205.5145797555
 30
0.0
 11
131.7709961591
 21
247.4903156868
 31
0.0
  0
LINE
  5
240
  8
0
  6
CONTINUOUS
 62
     7
 10
181.7709961591
 20
205.5145797555
 30
0.0
 11
181.7709961591
 21
205.3024477212
 31
0.0
  0
LINE
  5
241
  8
0
  6
CONTINUOUS
 62
     7
 10
181.7709961591
 20
205.3024477212
 30
0.0
 11
131.7709961591
 21
205.3024477212
 31
0.0
  0
LINE
  5
242
  8
0
  6
CONTINUOUS
 62
     7
 10
131.7709961591
 20
205.5145797555
 30
0.0
 11
131.7709961591
 21
205.3024477212
 31
0.0
  0
LINE
  5
243
  8
0
  6
CONTINUOUS
 62
     7
 10
181.7709961591
 20
204.0781836524
 30
0.0
 11
131.7709961591
 21
204.0781836524
 31
0.0
  0
LINE
  5
244
  8
0
  6
CONTINUOUS
 62
     7
 10
181.7709961591
 20
204.0781836524
 30
0.0
 11
181.7709961591
 21
205.3024477212
 31
0.0
  0
LINE
  5
245
  8
0
  6
CONTINUOUS
 62
     7
 10
131.7709961591
 20
204.0781836524
 30
0.0
 11
131.7709961591
 21
205.3024477212
 31
0.0
  0
LINE
  5
246
  8
0
  6
CONTINUOUS
 62
     7
 10
181.7709961591
 20
203.9903156868
 30
0.0
 11
131.7709961591
 21
203.9903156868
 31
0.0
  0
LINE
  5
247
  8
0
  6
CONTINUOUS
 62
     7
 10
181.7709961591
 20
204.0781836524
 30
0.0
 11
181.7709961591
 21
203.9903156868
 31
0.0
  0
LINE
  5
248
  8
0
  6
CONTINUOUS
 62
     7
 10
131.7709961591
 20
204.0781836524
 30
0.0
 11
131.7709961591
 21
203.9903156868
 31
0.0
  0
DIMENSION
  5
249
  8
0
  6
CONTINUOUS
 62
   154
  2
_D_29
 10
131.7709961591
 20
195.0001659317
 30
0.0
 11
156.0185241841
 21
195.0001659317
 31
0.0
 70
   160
  1
<>
  3
SLDDIMSTYLE10
 13
181.7709961591
 23
203.9903156868
 33
0.0
 14
131.7709961591
 24
203.9903156868
 34
0.0
  0
LINE
  5
254
  8
0
  6
CONTINUOUS
 62
     7
 10
163.5672942368
 20
95.9609938229
 30
0.0
 11
198.9226332961
 21
116.3711966184
 31
0.0
  0
LINE
  5
255
  8
0
  6
CONTINUOUS
 62
     7
 10
193.2729930721
 20
121.9631756125
 30
0.0
 11
157.9176540128
 21
101.552972817
 31
0.0
  0
LINE
  5
256
  8
0
  6
CONTINUOUS
 62
     7
 10
163.5672942368
 20
86.9790448922
 30
0.0
 11
198.9226332961
 21
107.3892476877
 31
0.0
  0
LINE
  5
257
  8
0
  6
CONTINUOUS
 62
     7
 10
187.5396534052
 20
125.2729621514
 30
0.0
 11
152.1843143459
 21
104.8627593559
 31
0.0
  0
LINE
  5
258
  8
0
  6
CONTINUOUS
 62
     7
 10
163.5672942368
 20
77.9970959614
 30
0.0
 11
198.9226332961
 21
98.4072987569
 31
0.0
  0
LINE
  5
259
  8
0
  6
CONTINUOUS
 62
     7
 10
181.7698367412
 20
128.6038064125
 30
0.0
 11
146.4144976819
 21
108.193603617
 31
0.0
  0
LINE
  5
25A
  8
0
  6
CONTINUOUS
 62
     7
 10
174.0826646008
 20
135.3278307032
 30
0.0
 11
138.7273255415
 21
114.9176279076
 31
0.0
  0
LINE
  5
25B
  8
0
  6
CONTINUOUS
 62
     7
 10
163.6346171466
 20
64.917934371
 30
0.0
 11
198.9899562059
 21
85.3281371665
 31
0.0
  0
POLYLINE
  5
25C
  8
0
  6
CONTINUOUS
 62
     7
 66
     1
 10
0.0
 20
0.0
 30
0.0
 70
   128
  0
VERTEX
  5
2CE
  8
0
  6
CONTINUOUS
 62
     7
 10
141.2107657293
 20
92.4232972465
 30
0.0
  0
VERTEX
  5
2CF
  8
0
  6
CONTINUOUS
 62
     7
 10
141.2305347915
 20
92.1002120438
 30
0.0
  0
VERTEX
  5
2D0
  8
0
  6
CONTINUOUS
 62
     7
 10
141.289420007
 20
91.7611982266
 30
0.0
  0
VERTEX
  5
2D1
  8
0
  6
CONTINUOUS
 62
     7
 10
141.38616447
 20
91.4134920506
 30
0.0
  0
VERTEX
  5
2D2
  8
0
  6
CONTINUOUS
 62
     7
 10
141.5187031683
 20
91.0645153096
 30
0.0
  0
VERTEX
  5
2D3
  8
0
  6
CONTINUOUS
 62
     7
 10
141.6842070613
 20
90.7217169179
 30
0.0
  0
VERTEX
  5
2D4
  8
0
  6
CONTINUOUS
 62
     7
 10
141.8791434656
 20
90.3924139129
 30
0.0
  0
VERTEX
  5
2D5
  8
0
  6
CONTINUOUS
 62
     7
 10
142.0993514605
 20
90.0836352724
 30
0.0
  0
VERTEX
  5
2D6
  8
0
  6
CONTINUOUS
 62
     7
 10
142.3401307029
 20
89.8019718817
 30
0.0
  0
VERTEX
  5
2D7
  8
0
  6
CONTINUOUS
 62
     7
 10
142.5963417557
 20
89.5534358503
 30
0.0
  0
VERTEX
  5
2D8
  8
0
  6
CONTINUOUS
 62
     7
 10
142.8625157899
 20
89.3433321841
 30
0.0
  0
VERTEX
  5
2D9
  8
0
  6
CONTINUOUS
 62
     7
 10
143.1329713164
 20
89.1761455491
 30
0.0
  0
VERTEX
  5
2DA
  8
0
  6
CONTINUOUS
 62
     7
 10
143.4019354575
 20
89.0554445468
 30
0.0
  0
VERTEX
  5
2DB
  8
0
  6
CONTINUOUS
 62
     7
 10
143.6636671693
 20
88.983805542
 30
0.0
  0
VERTEX
  5
2DC
  8
0
  6
CONTINUOUS
 62
     7
 10
143.9125797842
 20
88.9627576706
 30
0.0
  0
VERTEX
  5
2DD
  8
0
  6
CONTINUOUS
 62
     7
 10
144.1433602582
 20
88.9927501996
 30
0.0
  0
VERTEX
  5
2DE
  8
0
  6
CONTINUOUS
 62
     7
 10
144.3510825783
 20
89.0731429381
 30
0.0
  0
VERTEX
  5
2DF
  8
0
  6
CONTINUOUS
 62
     7
 10
144.5313129084
 20
89.2022199017
 30
0.0
  0
SEQEND
  5
339
  8
0
  6
CONTINUOUS
 62
     7
  0
LINE
  5
25D
  8
0
  6
CONTINUOUS
 62
     7
 10
144.5313129084
 20
89.2022199017
 30
0.0
 11
145.5126970978
 21
90.1089431458
 31
0.0
  0
ARC
  5
25E
  8
0
  6
CONTINUOUS
 62
     7
 10
144.733780879
 20
90.8450881129
 30
0.0
 40
1.071736855978519
 50
316.6170709897
 51
1.7026988472
  0
LINE
  5
25F
  8
0
  6
CONTINUOUS
 62
     7
 10
145.8050445221
 20
90.8769329807
 30
0.0
 11
146.3524916681
 21
108.065011585
 31
0.0
  0
ARC
  5
260
  8
0
  6
CONTINUOUS
 62
     7
 10
146.4815997483
 20
108.0788055937
 30
0.0
 40
0.1298428706078662
 50
50.3307935136
 51
186.0983920235
  0
LINE
  5
261
  8
0
  6
CONTINUOUS
 62
     7
 10
146.5644854918
 20
108.1787512018
 30
0.0
 11
147.5946222998
 21
107.5840658808
 31
0.0
  0
ARC
  5
262
  8
0
  6
CONTINUOUS
 62
     7
 10
147.3443191985
 20
107.1941293101
 30
0.0
 40
0.4633596569604743
 50
3.8741951896
 51
57.3033014506
  0
LINE
  5
263
  8
0
  6
CONTINUOUS
 62
     7
 10
147.8066199907
 20
107.2254366445
 30
0.0
 11
148.1446805211
 21
96.0664856295
 31
0.0
  0
POLYLINE
  5
264
  8
0
  6
CONTINUOUS
 62
     7
 66
     1
 10
0.0
 20
0.0
 30
0.0
 70
   128
  0
VERTEX
  5
2E0
  8
0
  6
CONTINUOUS
 62
     7
 10
148.1446805211
 20
96.0664856295
 30
0.0
  0
VERTEX
  5
2E1
  8
0
  6
CONTINUOUS
 62
     7
 10
148.172248664
 20
95.8067549663
 30
0.0
  0
VERTEX
  5
2E2
  8
0
  6
CONTINUOUS
 62
     7
 10
148.2388900353
 20
95.5347509091
 30
0.0
  0
VERTEX
  5
2E3
  8
0
  6
CONTINUOUS
 62
     7
 10
148.3422440819
 20
95.2601083137
 30
0.0
  0
VERTEX
  5
2E4
  8
0
  6
CONTINUOUS
 62
     7
 10
148.4786498242
 20
94.9925554975
 30
0.0
  0
VERTEX
  5
2E5
  8
0
  6
CONTINUOUS
 62
     7
 10
148.6432755338
 20
94.7415696458
 30
0.0
  0
VERTEX
  5
2E6
  8
0
  6
CONTINUOUS
 62
     7
 10
148.8302898825
 20
94.5160411132
 30
0.0
  0
VERTEX
  5
2E7
  8
0
  6
CONTINUOUS
 62
     7
 10
149.0330684972
 20
94.3239585118
 30
0.0
  0
VERTEX
  5
2E8
  8
0
  6
CONTINUOUS
 62
     7
 10
149.2444286076
 20
94.1721257407
 30
0.0
  0
VERTEX
  5
2E9
  8
0
  6
CONTINUOUS
 62
     7
 10
149.4568834715
 20
94.0659209804
 30
0.0
  0
VERTEX
  5
2EA
  8
0
  6
CONTINUOUS
 62
     7
 10
149.6629075688
 20
94.0091061877
 30
0.0
  0
VERTEX
  5
2EB
  8
0
  6
CONTINUOUS
 62
     7
 10
149.8552031684
 20
94.0036938413
 30
0.0
  0
VERTEX
  5
2EC
  8
0
  6
CONTINUOUS
 62
     7
 10
150.0269588264
 20
94.0498756559
 30
0.0
  0
VERTEX
  5
2ED
  8
0
  6
CONTINUOUS
 62
     7
 10
150.1720906591
 20
94.1460157914
 30
0.0
  0
SEQEND
  5
33A
  8
0
  6
CONTINUOUS
 62
     7
  0
LINE
  5
265
  8
0
  6
CONTINUOUS
 62
     7
 10
150.1720906591
 20
94.1460157914
 30
0.0
 11
151.8932540296
 21
95.7362379001
 31
0.0
  0
ARC
  5
266
  8
0
  6
CONTINUOUS
 62
     7
 10
151.7749172442
 20
95.847480886
 30
0.0
 40
0.1624148906573396
 50
316.7698227195
 51
2.4442350042
  0
LINE
  5
267
  8
0
  6
CONTINUOUS
 62
     7
 10
151.9371843702
 20
95.8544073955
 30
0.0
 11
152.1222301052
 21
104.7311963036
 31
0.0
  0
ARC
  5
268
  8
0
  6
CONTINUOUS
 62
     7
 10
152.251437619
 20
104.7474472758
 30
0.0
 40
0.1302254803234188
 50
50.4823532034
 51
187.1686883353
  0
LINE
  5
269
  8
0
  6
CONTINUOUS
 62
     7
 10
152.3343021558
 20
104.8479069407
 30
0.0
 11
153.1465710506
 21
104.3789940888
 31
0.0
  0
ARC
  5
26A
  8
0
  6
CONTINUOUS
 62
     7
 10
152.8961771574
 20
103.9889813501
 30
0.0
 40
0.4634728018787276
 50
3.940655383
 51
57.2989425465
  0
LINE
  5
26B
  8
0
  6
CONTINUOUS
 62
     7
 10
153.3585542012
 20
104.0208326845
 30
0.0
 11
153.4319085224
 21
101.7187675672
 31
0.0
  0
POLYLINE
  5
26C
  8
0
  6
CONTINUOUS
 62
     7
 66
     1
 10
0.0
 20
0.0
 30
0.0
 70
   128
  0
VERTEX
  5
2EE
  8
0
  6
CONTINUOUS
 62
     7
 10
153.4319085224
 20
101.7187675672
 30
0.0
  0
VERTEX
  5
2EF
  8
0
  6
CONTINUOUS
 62
     7
 10
153.4594869501
 20
101.4487664052
 30
0.0
  0
VERTEX
  5
2F0
  8
0
  6
CONTINUOUS
 62
     7
 10
153.5248351052
 20
101.1663446982
 30
0.0
  0
VERTEX
  5
2F1
  8
0
  6
CONTINUOUS
 62
     7
 10
153.6259694296
 20
100.8800749893
 30
0.0
  0
VERTEX
  5
2F2
  8
0
  6
CONTINUOUS
 62
     7
 10
153.7598201225
 20
100.5986466228
 30
0.0
  0
VERTEX
  5
2F3
  8
0
  6
CONTINUOUS
 62
     7
 10
153.9223243206
 20
100.3306019901
 30
0.0
  0
VERTEX
  5
2F4
  8
0
  6
CONTINUOUS
 62
     7
 10
154.1085494205
 20
100.084077237
 30
0.0
  0
VERTEX
  5
2F5
  8
0
  6
CONTINUOUS
 62
     7
 10
154.3128428018
 20
99.8665553012
 30
0.0
  0
VERTEX
  5
2F6
  8
0
  6
CONTINUOUS
 62
     7
 10
154.5290034051
 20
99.6846387778
 30
0.0
  0
VERTEX
  5
2F7
  8
0
  6
CONTINUOUS
 62
     7
 10
154.7504699568
 20
99.5438495059
 30
0.0
  0
VERTEX
  5
2F8
  8
0
  6
CONTINUOUS
 62
     7
 10
154.9705201282
 20
99.4484609606
 30
0.0
  0
VERTEX
  5
2F9
  8
0
  6
CONTINUOUS
 62
     7
 10
155.1824745828
 20
99.4013685368
 30
0.0
  0
VERTEX
  5
2FA
  8
0
  6
CONTINUOUS
 62
     7
 10
155.3798997194
 20
99.4040016638
 30
0.0
  0
VERTEX
  5
2FB
  8
0
  6
CONTINUOUS
 62
     7
 10
155.5568029549
 20
99.4562804164
 30
0.0
  0
VERTEX
  5
2FC
  8
0
  6
CONTINUOUS
 62
     7
 10
155.7078146221
 20
99.5566179412
 30
0.0
  0
SEQEND
  5
33B
  8
0
  6
CONTINUOUS
 62
     7
  0
LINE
  5
26D
  8
0
  6
CONTINUOUS
 62
     7
 10
155.7078146221
 20
99.5566179412
 30
0.0
 11
157.90030729
 21
101.5403172684
 31
0.0
  0
ARC
  5
26E
  8
0
  6
CONTINUOUS
 62
     7
 10
157.9824985697
 20
101.4267934674
 30
0.0
 40
0.140153700849613
 50
52.5911065046
 51
125.9045542075
  0
LINE
  5
26F
  8
0
  6
CONTINUOUS
 62
     7
 10
158.0676418227
 20
101.5381204018
 30
0.0
 11
159.2419886496
 21
100.8601844089
 31
0.0
  0
ARC
  5
270
  8
0
  6
CONTINUOUS
 62
     7
 10
158.9935558535
 20
100.4718026929
 30
0.0
 40
0.4610414422715884
 50
2.6054784857
 51
57.39452166
  0
LINE
  5
271
  8
0
  6
CONTINUOUS
 62
     7
 10
159.454120684
 20
100.4927609486
 30
0.0
 11
159.454120684
 21
99.8078522755
 31
0.0
  0
ARC
  5
272
  8
0
  6
CONTINUOUS
 62
     7
 10
160.378949418
 20
99.8511377503
 30
0.0
 40
0.9258411416547
 50
182.679703127
 51
236.3802839277
  0
LINE
  5
273
  8
0
  6
CONTINUOUS
 62
     7
 10
159.8663314229
 20
99.0801613494
 30
0.0
 11
163.2673751847
 21
97.0051582083
 31
0.0
  0
POLYLINE
  5
274
  8
0
  6
CONTINUOUS
 62
     7
 66
     1
 10
0.0
 20
0.0
 30
0.0
 70
   128
  0
VERTEX
  5
2FD
  8
0
  6
CONTINUOUS
 62
     7
 10
163.2629180712
 20
95.9873469168
 30
0.0
  0
VERTEX
  5
2FE
  8
0
  6
CONTINUOUS
 62
     7
 10
163.3971122251
 20
95.9369683938
 30
0.0
  0
VERTEX
  5
2FF
  8
0
  6
CONTINUOUS
 62
     7
 10
163.5177858656
 20
95.9403047322
 30
0.0
  0
VERTEX
  5
300
  8
0
  6
CONTINUOUS
 62
     7
 10
163.6134726927
 20
95.9970389161
 30
0.0
  0
VERTEX
  5
301
  8
0
  6
CONTINUOUS
 62
     7
 10
163.6750806307
 20
96.1017801149
 30
0.0
  0
VERTEX
  5
302
  8
0
  6
CONTINUOUS
 62
     7
 10
163.6967557491
 20
96.2445759145
 30
0.0
  0
VERTEX
  5
303
  8
0
  6
CONTINUOUS
 62
     7
 10
163.6764384976
 20
96.4118579873
 30
0.0
  0
VERTEX
  5
304
  8
0
  6
CONTINUOUS
 62
     7
 10
163.6160594033
 20
96.5877313422
 30
0.0
  0
VERTEX
  5
305
  8
0
  6
CONTINUOUS
 62
     7
 10
163.5213556329
 20
96.7554846522
 30
0.0
  0
VERTEX
  5
306
  8
0
  6
CONTINUOUS
 62
     7
 10
163.401325853
 20
96.8991781496
 30
0.0
  0
VERTEX
  5
307
  8
0
  6
CONTINUOUS
 62
     7
 10
163.2673751847
 20
97.0051582083
 30
0.0
  0
SEQEND
  5
33C
  8
0
  6
CONTINUOUS
 62
     7
  0
LINE
  5
275
  8
0
  6
CONTINUOUS
 62
     7
 10
163.2629180712
 20
95.9873469168
 30
0.0
 11
158.3458792512
 21
98.72182776
 31
0.0
  0
ARC
  5
276
  8
0
  6
CONTINUOUS
 62
     7
 10
158.0777898966
 20
98.3749116284
 30
0.0
 40
0.4384320977883845
 50
52.3039190487
 51
137.2494657304
  0
LINE
  5
277
  8
0
  6
CONTINUOUS
 62
     7
 10
157.7558421135
 20
98.6725226654
 30
0.0
 11
155.1975390061
 21
95.3259783515
 31
0.0
  0
ARC
  5
278
  8
0
  6
CONTINUOUS
 62
     7
 10
157.3912105161
 20
94.5218071668
 30
0.0
 40
2.336425900422498
 50
159.8677265748
 51
239.8906075407
  0
LINE
  5
279
  8
0
  6
CONTINUOUS
 62
     7
 10
156.2191364957
 20
92.5006370902
 30
0.0
 11
163.2769699316
 21
88.0172349416
 31
0.0
  0
POLYLINE
  5
27A
  8
0
  6
CONTINUOUS
 62
     7
 66
     1
 10
0.0
 20
0.0
 30
0.0
 70
   128
  0
VERTEX
  5
308
  8
0
  6
CONTINUOUS
 62
     7
 10
163.2713317385
 20
87.0008115197
 30
0.0
  0
VERTEX
  5
309
  8
0
  6
CONTINUOUS
 62
     7
 10
163.4033589104
 20
86.9539268672
 30
0.0
  0
VERTEX
  5
30A
  8
0
  6
CONTINUOUS
 62
     7
 10
163.5216385808
 20
86.9594631311
 30
0.0
  0
VERTEX
  5
30B
  8
0
  6
CONTINUOUS
 62
     7
 10
163.615223814
 20
87.016907923
 30
0.0
  0
VERTEX
  5
30C
  8
0
  6
CONTINUOUS
 62
     7
 10
163.6754531762
 20
87.1209446535
 30
0.0
  0
VERTEX
  5
30D
  8
0
  6
CONTINUOUS
 62
     7
 10
163.6967523624
 20
87.2619445892
 30
0.0
  0
VERTEX
  5
30E
  8
0
  6
CONTINUOUS
 62
     7
 10
163.6771501054
 20
87.4268580046
 30
0.0
  0
VERTEX
  5
30F
  8
0
  6
CONTINUOUS
 62
     7
 10
163.6184606194
 20
87.6004219506
 30
0.0
  0
VERTEX
  5
310
  8
0
  6
CONTINUOUS
 62
     7
 10
163.5261156918
 20
87.7665728606
 30
0.0
  0
VERTEX
  5
311
  8
0
  6
CONTINUOUS
 62
     7
 10
163.4086619647
 20
87.9099332539
 30
0.0
  0
VERTEX
  5
312
  8
0
  6
CONTINUOUS
 62
     7
 10
163.2769699316
 20
88.0172349416
 30
0.0
  0
SEQEND
  5
33D
  8
0
  6
CONTINUOUS
 62
     7
  0
LINE
  5
27B
  8
0
  6
CONTINUOUS
 62
     7
 10
163.2713317385
 20
87.0008115197
 30
0.0
 11
153.7008656942
 21
92.1125178287
 31
0.0
  0
ARC
  5
27C
  8
0
  6
CONTINUOUS
 62
     7
 10
153.2385662807
 20
91.4852190733
 30
0.0
 40
0.779246094809347
 50
53.6109554481
 51
137.6106470446
  0
LINE
  5
27D
  8
0
  6
CONTINUOUS
 62
     7
 10
152.6630302085
 20
92.0105596351
 30
0.0
 11
150.3356446362
 21
88.9660810782
 31
0.0
  0
ARC
  5
27E
  8
0
  6
CONTINUOUS
 62
     7
 10
152.189036881
 20
88.3048588744
 30
0.0
 40
1.967810360753624
 50
160.3654687675
 51
239.6530586064
  0
LINE
  5
27F
  8
0
  6
CONTINUOUS
 62
     7
 10
151.1948305701
 20
86.6066741297
 30
0.0
 11
163.2736971431
 21
79.0373509681
 31
0.0
  0
POLYLINE
  5
280
  8
0
  6
CONTINUOUS
 62
     7
 66
     1
 10
0.0
 20
0.0
 30
0.0
 70
   128
  0
VERTEX
  5
313
  8
0
  6
CONTINUOUS
 62
     7
 10
163.271160771
 20
78.0189539431
 30
0.0
  0
VERTEX
  5
314
  8
0
  6
CONTINUOUS
 62
     7
 10
163.4035224519
 20
77.9719509627
 30
0.0
  0
VERTEX
  5
315
  8
0
  6
CONTINUOUS
 62
     7
 10
163.5220516525
 20
77.9776374345
 30
0.0
  0
VERTEX
  5
316
  8
0
  6
CONTINUOUS
 62
     7
 10
163.6157226718
 20
78.0354843974
 30
0.0
  0
VERTEX
  5
317
  8
0
  6
CONTINUOUS
 62
     7
 10
163.6758221408
 20
78.140110871
 30
0.0
  0
VERTEX
  5
318
  8
0
  6
CONTINUOUS
 62
     7
 10
163.6967595486
 20
78.2817843992
 30
0.0
  0
VERTEX
  5
319
  8
0
  6
CONTINUOUS
 62
     7
 10
163.6765872774
 20
78.4473263732
 30
0.0
  0
VERTEX
  5
31A
  8
0
  6
CONTINUOUS
 62
     7
 10
163.6171817712
 20
78.6213379183
 30
0.0
  0
VERTEX
  5
31B
  8
0
  6
CONTINUOUS
 62
     7
 10
163.524068988
 20
78.7876323119
 30
0.0
  0
VERTEX
  5
31C
  8
0
  6
CONTINUOUS
 62
     7
 10
163.4059103688
 20
78.9307406884
 30
0.0
  0
VERTEX
  5
31D
  8
0
  6
CONTINUOUS
 62
     7
 10
163.2736971431
 20
79.0373509681
 30
0.0
  0
SEQEND
  5
33E
  8
0
  6
CONTINUOUS
 62
     7
  0
LINE
  5
281
  8
0
  6
CONTINUOUS
 62
     7
 10
163.271160771
 20
78.0189539431
 30
0.0
 11
148.9050341916
 21
85.6985139229
 31
0.0
  0
ARC
  5
282
  8
0
  6
CONTINUOUS
 62
     7
 10
148.3909107921
 20
85.0015771945
 30
0.0
 40
0.8660506182077904
 50
53.5841673137
 51
137.60338814
  0
LINE
  5
283
  8
0
  6
CONTINUOUS
 62
     7
 10
147.7513365558
 20
85.5855193745
 30
0.0
 11
145.6504303162
 21
82.8373009131
 31
0.0
  0
ARC
  5
284
  8
0
  6
CONTINUOUS
 62
     7
 10
148.7582976659
 20
81.6780971504
 30
0.0
 40
3.317015650724033
 50
159.5449824137
 51
240.5938941131
  0
LINE
  5
285
  8
0
  6
CONTINUOUS
 62
     7
 10
147.1296542785
 20
78.7884408483
 30
0.0
 11
162.8852997479
 21
68.9775930746
 31
0.0
  0
ARC
  5
286
  8
0
  6
CONTINUOUS
 62
     7
 10
161.8434647855
 20
67.4423361125
 30
0.0
 40
1.855379753198611
 50
2.715338514
 51
55.8389395759
  0
LINE
  5
287
  8
0
  6
CONTINUOUS
 62
     7
 10
163.6967613711
 20
67.5302326121
 30
0.0
 11
163.6967613711
 21
65.0552878129
 31
0.0
  0
ARC
  5
288
  8
0
  6
CONTINUOUS
 62
     7
 10
163.5674390608
 20
65.0343096539
 30
0.0
 40
0.1310127592290245
 50
230.7967147598
 51
9.2140369835
  0
LINE
  5
289
  8
0
  6
CONTINUOUS
 62
     7
 10
163.4846293367
 20
64.9327867861
 30
0.0
 11
139.7429987764
 21
78.6385383735
 31
0.0
  0
ARC
  5
28A
  8
0
  6
CONTINUOUS
 62
     7
 10
139.9720507099
 20
79.00574421
 30
0.0
 40
0.4327873780644602
 50
208.8556088792
 51
238.0453283505
  0
LINE
  5
28B
  8
0
  6
CONTINUOUS
 62
     7
 10
139.5929987764
 20
78.7968793103
 30
0.0
 11
138.7273133514
 21
80.2962904453
 31
0.0
  0
ARC
  5
28C
  8
0
  6
CONTINUOUS
 62
     7
 10
139.0977708621
 20
80.5201504967
 30
0.0
 40
0.4328418762182099
 50
181.9564986427
 51
211.1437277954
  0
LINE
  5
28D
  8
0
  6
CONTINUOUS
 62
     7
 10
138.665181317
 20
80.5053729689
 30
0.0
 11
138.665181317
 21
114.7802744657
 31
0.0
  0
ARC
  5
28E
  8
0
  6
CONTINUOUS
 62
     7
 10
138.7945036273
 20
114.8012526247
 30
0.0
 40
0.1310127592285592
 50
50.7967147643
 51
189.2140369905
  0
LINE
  5
28F
  8
0
  6
CONTINUOUS
 62
     7
 10
138.8773133514
 20
114.9027754925
 30
0.0
 11
140.998633695
 21
113.6781633247
 31
0.0
  0
ARC
  5
290
  8
0
  6
CONTINUOUS
 62
     7
 10
140.7502008989
 20
113.2897816087
 30
0.0
 40
0.4610414422715588
 50
2.6054784857
 51
57.39452166
  0
LINE
  5
291
  8
0
  6
CONTINUOUS
 62
     7
 10
141.2107657293
 20
113.3107398644
 30
0.0
 11
141.2107657293
 21
92.4232972465
 31
0.0
  0
LINE
  5
292
  8
0
  6
CONTINUOUS
 62
     7
 10
163.2673751847
 20
97.0051582083
 30
0.0
 11
198.622714244
 21
117.4153610039
 31
0.0
  0
POLYLINE
  5
293
  8
0
  6
CONTINUOUS
 62
     7
 66
     1
 10
0.0
 20
0.0
 30
0.0
 70
   128
  0
VERTEX
  5
31E
  8
0
  6
CONTINUOUS
 62
     7
 10
198.9226332961
 20
116.3711966184
 30
0.0
  0
VERTEX
  5
31F
  8
0
  6
CONTINUOUS
 62
     7
 10
198.9688117521
 20
116.4072417117
 30
0.0
  0
VERTEX
  5
320
  8
0
  6
CONTINUOUS
 62
     7
 10
199.0304196901
 20
116.5119829104
 30
0.0
  0
VERTEX
  5
321
  8
0
  6
CONTINUOUS
 62
     7
 10
199.0520948084
 20
116.6547787101
 30
0.0
  0
VERTEX
  5
322
  8
0
  6
CONTINUOUS
 62
     7
 10
199.031777557
 20
116.8220607829
 30
0.0
  0
VERTEX
  5
323
  8
0
  6
CONTINUOUS
 62
     7
 10
198.9713984626
 20
116.9979341378
 30
0.0
  0
VERTEX
  5
324
  8
0
  6
CONTINUOUS
 62
     7
 10
198.8766946922
 20
117.1656874478
 30
0.0
  0
VERTEX
  5
325
  8
0
  6
CONTINUOUS
 62
     7
 10
198.7566649123
 20
117.3093809452
 30
0.0
  0
VERTEX
  5
326
  8
0
  6
CONTINUOUS
 62
     7
 10
198.622714244
 20
117.4153610039
 30
0.0
  0
SEQEND
  5
33F
  8
0
  6
CONTINUOUS
 62
     7
  0
LINE
  5
294
  8
0
  6
CONTINUOUS
 62
     7
 10
159.8663314229
 20
99.0801613494
 30
0.0
 11
195.2216704822
 21
119.490364145
 31
0.0
  0
LINE
  5
295
  8
0
  6
CONTINUOUS
 62
     7
 10
195.2216704822
 20
119.490364145
 30
0.0
 11
198.622714244
 21
117.4153610039
 31
0.0
  0
LINE
  5
296
  8
0
  6
CONTINUOUS
 62
     7
 10
159.454120684
 20
100.4927609486
 30
0.0
 11
194.8094597433
 21
120.9029637441
 31
0.0
  0
LINE
  5
297
  8
0
  6
CONTINUOUS
 62
     7
 10
159.2419886496
 20
100.8601844089
 30
0.0
 11
194.5973277089
 21
121.2703872045
 31
0.0
  0
ARC
  5
298
  8
0
  6
CONTINUOUS
 62
     7
 10
194.3488949129
 20
120.8820054885
 30
0.0
 40
0.461041442271733
 50
2.6054784857
 51
57.39452166
  0
LINE
  5
299
  8
0
  6
CONTINUOUS
 62
     7
 10
159.454120684
 20
99.8078522755
 30
0.0
 11
194.8094597433
 21
120.2180550711
 31
0.0
  0
LINE
  5
29A
  8
0
  6
CONTINUOUS
 62
     7
 10
194.8094597433
 20
120.9029637441
 30
0.0
 11
194.8094597433
 21
120.2180550711
 31
0.0
  0
LINE
  5
29B
  8
0
  6
CONTINUOUS
 62
     7
 10
158.0676418227
 20
101.5381204018
 30
0.0
 11
193.422980882
 21
121.9483231974
 31
0.0
  0
LINE
  5
29C
  8
0
  6
CONTINUOUS
 62
     7
 10
193.422980882
 20
121.9483231974
 30
0.0
 11
194.5973277089
 21
121.2703872045
 31
0.0
  0
ARC
  5
29D
  8
0
  6
CONTINUOUS
 62
     7
 10
195.7342884773
 20
120.2613405459
 30
0.0
 40
0.9258411416543415
 50
182.679703127
 51
236.3802839277
  0
ARC
  5
29E
  8
0
  6
CONTINUOUS
 62
     7
 10
193.3355361691
 20
121.8300143378
 30
0.0
 40
0.1471175179093491
 50
53.5310681307
 51
115.1584734402
  0
LINE
  5
29F
  8
0
  6
CONTINUOUS
 62
     7
 10
163.2769699316
 20
88.0172349416
 30
0.0
 11
198.632308991
 21
108.4274377372
 31
0.0
  0
POLYLINE
  5
2A0
  8
0
  6
CONTINUOUS
 62
     7
 66
     1
 10
0.0
 20
0.0
 30
0.0
 70
   128
  0
VERTEX
  5
327
  8
0
  6
CONTINUOUS
 62
     7
 10
198.9226332961
 20
107.3892476877
 30
0.0
  0
VERTEX
  5
328
  8
0
  6
CONTINUOUS
 62
     7
 10
198.9705628733
 20
107.4271107186
 30
0.0
  0
VERTEX
  5
329
  8
0
  6
CONTINUOUS
 62
     7
 10
199.0307922356
 20
107.5311474491
 30
0.0
  0
VERTEX
  5
32A
  8
0
  6
CONTINUOUS
 62
     7
 10
199.0520914217
 20
107.6721473848
 30
0.0
  0
VERTEX
  5
32B
  8
0
  6
CONTINUOUS
 62
     7
 10
199.0324891647
 20
107.8370608001
 30
0.0
  0
VERTEX
  5
32C
  8
0
  6
CONTINUOUS
 62
     7
 10
198.9737996787
 20
108.0106247462
 30
0.0
  0
VERTEX
  5
32D
  8
0
  6
CONTINUOUS
 62
     7
 10
198.8814547511
 20
108.1767756562
 30
0.0
  0
VERTEX
  5
32E
  8
0
  6
CONTINUOUS
 62
     7
 10
198.764001024
 20
108.3201360495
 30
0.0
  0
VERTEX
  5
32F
  8
0
  6
CONTINUOUS
 62
     7
 10
198.632308991
 20
108.4274377372
 30
0.0
  0
SEQEND
  5
340
  8
0
  6
CONTINUOUS
 62
     7
  0
LINE
  5
2A1
  8
0
  6
CONTINUOUS
 62
     7
 10
192.2191172304
 20
112.5013391659
 30
0.0
 11
198.632308991
 21
108.4274377372
 31
0.0
  0
LINE
  5
2A2
  8
0
  6
CONTINUOUS
 62
     7
 10
153.4319085224
 20
101.7187675672
 30
0.0
 11
188.7872475817
 21
122.1289703628
 31
0.0
  0
ARC
  5
2A3
  8
0
  6
CONTINUOUS
 62
     7
 10
191.5758933636
 20
122.3223929721
 30
0.0
 40
2.795345703570447
 50
183.9677245379
 51
234.5056396329
  0
LINE
  5
2A4
  8
0
  6
CONTINUOUS
 62
     7
 10
153.3585542012
 20
104.0208326845
 30
0.0
 11
188.7138932605
 21
124.43103548
 31
0.0
  0
LINE
  5
2A5
  8
0
  6
CONTINUOUS
 62
     7
 10
153.1465710506
 20
104.3789940888
 30
0.0
 11
188.5019101099
 21
124.7891968844
 31
0.0
  0
ARC
  5
2A6
  8
0
  6
CONTINUOUS
 62
     7
 10
188.2515162168
 20
124.3991841457
 30
0.0
 40
0.4634728018787608
 50
3.940655383
 51
57.2989425465
  0
LINE
  5
2A7
  8
0
  6
CONTINUOUS
 62
     7
 10
188.7138932605
 20
124.43103548
 30
0.0
 11
188.7872475817
 21
122.1289703628
 31
0.0
  0
LINE
  5
2A8
  8
0
  6
CONTINUOUS
 62
     7
 10
152.3343021558
 20
104.8479069407
 30
0.0
 11
187.6896412151
 21
125.2581097363
 31
0.0
  0
LINE
  5
2A9
  8
0
  6
CONTINUOUS
 62
     7
 10
187.6896412151
 20
125.2581097363
 30
0.0
 11
188.5019101099
 21
124.7891968844
 31
0.0
  0
ARC
  5
2AA
  8
0
  6
CONTINUOUS
 62
     7
 10
187.6025295102
 20
125.1431637737
 30
0.0
 40
0.1442255990891883
 50
52.8433607077
 51
115.8461808632
  0
LINE
  5
2AB
  8
0
  6
CONTINUOUS
 62
     7
 10
147.8066199907
 20
107.2254366445
 30
0.0
 11
183.16195905
 21
127.6356394401
 31
0.0
  0
LINE
  5
2AC
  8
0
  6
CONTINUOUS
 62
     7
 10
183.16195905
 20
127.6356394401
 30
0.0
 11
183.3075513475
 21
122.8298216372
 31
0.0
  0
LINE
  5
2AD
  8
0
  6
CONTINUOUS
 62
     7
 10
147.5946222998
 20
107.5840658808
 30
0.0
 11
182.9499613592
 21
127.9942686763
 31
0.0
  0
ARC
  5
2AE
  8
0
  6
CONTINUOUS
 62
     7
 10
182.6996582578
 20
127.6043321057
 30
0.0
 40
0.4633596569604669
 50
3.8741951896
 51
57.3033014506
  0
LINE
  5
2AF
  8
0
  6
CONTINUOUS
 62
     7
 10
146.5644854918
 20
108.1787512018
 30
0.0
 11
181.9198245511
 21
128.5889539974
 31
0.0
  0
LINE
  5
2B0
  8
0
  6
CONTINUOUS
 62
     7
 10
181.9198245511
 20
128.5889539974
 30
0.0
 11
182.9499613592
 21
127.9942686763
 31
0.0
  0
LINE
  5
2B1
  8
0
  6
CONTINUOUS
 62
     7
 10
163.2736971431
 20
79.0373509681
 30
0.0
 11
198.6290362024
 21
99.4475537637
 31
0.0
  0
LINE
  5
2B2
  8
0
  6
CONTINUOUS
 62
     7
 10
192.1734283705
 20
103.4930146178
 30
0.0
 11
198.6290362024
 21
99.4475537637
 31
0.0
  0
POLYLINE
  5
2B3
  8
0
  6
CONTINUOUS
 62
     7
 66
     1
 10
0.0
 20
0.0
 30
0.0
 70
   128
  0
VERTEX
  5
330
  8
0
  6
CONTINUOUS
 62
     7
 10
198.9226332961
 20
98.4072987569
 30
0.0
  0
VERTEX
  5
331
  8
0
  6
CONTINUOUS
 62
     7
 10
198.9710617311
 20
98.445687193
 30
0.0
  0
VERTEX
  5
332
  8
0
  6
CONTINUOUS
 62
     7
 10
199.0311612001
 20
98.5503136665
 30
0.0
  0
VERTEX
  5
333
  8
0
  6
CONTINUOUS
 62
     7
 10
199.052098608
 20
98.6919871947
 30
0.0
  0
VERTEX
  5
334
  8
0
  6
CONTINUOUS
 62
     7
 10
199.0319263367
 20
98.8575291688
 30
0.0
  0
VERTEX
  5
335
  8
0
  6
CONTINUOUS
 62
     7
 10
198.9725208306
 20
99.0315407138
 30
0.0
  0
VERTEX
  5
336
  8
0
  6
CONTINUOUS
 62
     7
 10
198.8794080473
 20
99.1978351074
 30
0.0
  0
VERTEX
  5
337
  8
0
  6
CONTINUOUS
 62
     7
 10
198.7612494282
 20
99.340943484
 30
0.0
  0
VERTEX
  5
338
  8
0
  6
CONTINUOUS
 62
     7
 10
198.6290362024
 20
99.4475537637
 30
0.0
  0
SEQEND
  5
341
  8
0
  6
CONTINUOUS
 62
     7
  0
ARC
  5
2B4
  8
0
  6
CONTINUOUS
 62
     7
 10
181.8326891931
 20
128.4737691728
 30
0.0
 40
0.1444303099283285
 50
52.893115274
 51
115.7964262969
  0
LINE
  5
2B5
  8
0
  6
CONTINUOUS
 62
     7
 10
141.2107657293
 20
113.3107398644
 30
0.0
 11
176.5661047886
 21
133.7209426599
 31
0.0
  0
LINE
  5
2B6
  8
0
  6
CONTINUOUS
 62
     7
 10
140.998633695
 20
113.6781633247
 30
0.0
 11
176.3539727543
 21
134.0883661203
 31
0.0
  0
ARC
  5
2B7
  8
0
  6
CONTINUOUS
 62
     7
 10
176.1055399582
 20
133.6999844043
 30
0.0
 40
0.4610414422715765
 50
2.6054784856
 51
57.39452166
  0
LINE
  5
2B8
  8
0
  6
CONTINUOUS
 62
     7
 10
176.5661047886
 20
133.7209426599
 30
0.0
 11
176.5661047886
 21
125.5997558993
 31
0.0
  0
LINE
  5
2B9
  8
0
  6
CONTINUOUS
 62
     7
 10
138.8773133514
 20
114.9027754925
 30
0.0
 11
174.2326524107
 21
135.312978288
 31
0.0
  0
LINE
  5
2BA
  8
0
  6
CONTINUOUS
 62
     7
 10
174.2326524107
 20
135.312978288
 30
0.0
 11
176.3539727543
 21
134.0883661203
 31
0.0
  0
ARC
  5
2BB
  8
0
  6
CONTINUOUS
 62
     7
 10
174.1447763943
 20
135.1903138893
 30
0.0
 40
0.1508931707706798
 50
54.3824225248
 51
114.3071190461
  0
LINE
  5
2BC
  8
0
  6
CONTINUOUS
 62
     7
 10
163.6967613711
 20
67.5302326121
 30
0.0
 11
199.0521004304
 21
87.9404354077
 31
0.0
  0
LINE
  5
2BD
  8
0
  6
CONTINUOUS
 62
     7
 10
162.8852997479
 20
68.9775930746
 30
0.0
 11
198.2406388073
 21
89.3877958702
 31
0.0
  0
ARC
  5
2BE
  8
0
  6
CONTINUOUS
 62
     7
 10
197.1988038449
 20
87.8525389081
 30
0.0
 40
1.855379753198876
 50
2.715338514
 51
55.8389395759
  0
LINE
  5
2BF
  8
0
  6
CONTINUOUS
 62
     7
 10
191.0523287434
 20
93.8638686483
 30
0.0
 11
198.2406388073
 21
89.3877958702
 31
0.0
  0
LINE
  5
2C0
  8
0
  6
CONTINUOUS
 62
     7
 10
163.6967613711
 20
65.0552878129
 30
0.0
 11
199.0521004304
 21
85.4654906085
 31
0.0
  0
LINE
  5
2C1
  8
0
  6
CONTINUOUS
 62
     7
 10
199.0521004304
 20
87.9404354077
 30
0.0
 11
199.0521004304
 21
85.4654906085
 31
0.0
  0
ARC
  5
2C2
  8
0
  6
CONTINUOUS
 62
     7
 10
198.9050998597
 20
85.4492645873
 30
0.0
 40
0.1478933789929305
 50
305.0133328736
 51
6.298847514
  0
LINE
  5
2C3
  8
0
  6
CONTINUOUS
 62
     8
 10
157.7558421135
 20
98.6725226654
 30
0.0
 11
157.9896144862
 21
98.8074765835
 31
0.0
  0
LINE
  5
2C4
  8
0
  6
CONTINUOUS
 62
     8
 10
155.1975390061
 20
95.3259783515
 30
0.0
 11
159.7384464442
 21
97.9473884172
 31
0.0
  0
LINE
  5
2C5
  8
0
  6
CONTINUOUS
 62
     8
 10
156.2191364957
 20
92.5006370902
 30
0.0
 11
162.7515602191
 21
96.2717250358
 31
0.0
  0
LINE
  5
2C6
  8
0
  6
CONTINUOUS
 62
     8
 10
148.1446805211
 20
96.0664856295
 30
0.0
 11
151.9878547008
 21
98.2851028588
 31
0.0
  0
LINE
  5
2C7
  8
0
  6
CONTINUOUS
 62
     8
 10
151.1948305701
 20
86.6066741297
 30
0.0
 11
157.3531415172
 21
90.1617913667
 31
0.0
  0
LINE
  5
2C8
  8
0
  6
CONTINUOUS
 62
     8
 10
152.6630302085
 20
92.0105596351
 30
0.0
 11
153.0838204792
 21
92.2534766877
 31
0.0
  0
LINE
  5
2C9
  8
0
  6
CONTINUOUS
 62
     8
 10
141.2107657293
 20
92.4232972465
 30
0.0
 11
145.9412759911
 21
95.1541626926
 31
0.0
  0
LINE
  5
2CA
  8
0
  6
CONTINUOUS
 62
     8
 10
150.3356446362
 20
88.9660810782
 30
0.0
 11
154.7839461955
 21
91.534030908
 31
0.0
  0
LINE
  5
2CB
  8
0
  6
CONTINUOUS
 62
     8
 10
147.1296542785
 20
78.7884408483
 30
0.0
 11
154.1981752991
 21
82.8690111761
 31
0.0
  0
LINE
  5
2CC
  8
0
  6
CONTINUOUS
 62
     8
 10
147.7513365558
 20
85.5855193745
 30
0.0
 11
148.218881301
 21
85.8554272107
 31
0.0
  0
LINE
  5
2CD
  8
0
  6
CONTINUOUS
 62
     8
 10
145.6504303162
 20
82.8373009131
 30
0.0
 11
149.7885814326
 21
85.2262047034
 31
0.0
  0
ENDSEC
  0
EOF
