  0
SECTION
  2
HEADER
  9
$ACADVER
  1
AC1009
  9
$DWGCODEPAGE
  3
ansi_1252
  9
$INSBASE
 10
0.0
 20
0.0
 30
0.0
  9
$EXTMIN
 10
0.0
 20
0.0
 30
0.0
  9
$EXTMAX
 10
420.0
 20
594.0
 30
0.0
  9
$LIMMIN
 10
0.0
 20
0.0
  9
$LIMMAX
 10
420.0
 20
594.0
  9
$ORTHOMODE
 70
     0
  9
$REGENMODE
 70
     1
  9
$FILLMODE
 70
     1
  9
$QTEXTMODE
 70
     0
  9
$MIRRTEXT
 70
     1
  9
$DRAGMODE
 70
     2
  9
$LTSCALE
 40
2.0
  9
$OSMODE
 70
    37
  9
$ATTMODE
 70
     1
  9
$TEXTSIZE
 40
7.0
  9
$TRACEWID
 40
1.0
  9
$TEXTSTYLE
  7
STANDARD
  9
$CLAYER
  8
0
  9
$CELTYPE
  6
BYLAYER
  9
$CECOLOR
 62
   256
  9
$DIMSCALE
 40
1.0
  9
$DIMASZ
 40
6.604
  9
$DIMEXO
 40
2.0
  9
$DIMDLI
 40
3.75
  9
$DIMRND
 40
0.0
  9
$DIMDLE
 40
0.0
  9
$DIMEXE
 40
2.0
  9
$DIMTP
 40
0.0
  9
$DIMTM
 40
0.0
  9
$DIMTXT
 40
7.0
  9
$DIMCEN
 40
2.5
  9
$DIMTSZ
 40
0.0
  9
$DIMTOL
 70
     0
  9
$DIMLIM
 70
     0
  9
$DIMTIH
 70
     1
  9
$DIMTOH
 70
     1
  9
$DIMSE1
 70
     0
  9
$DIMSE2
 70
     0
  9
$DIMTAD
 70
     1
  9
$DIMZIN
 70
     0
  9
$DIMBLK
  1

  9
$DIMASO
 70
     1
  9
$DIMSHO
 70
     1
  9
$DIMPOST
  1

  9
$DIMAPOST
  1

  9
$DIMALT
 70
     0
  9
$DIMALTD
 70
     3
  9
$DIMALTF
 40
0.0393700787
  9
$DIMLFAC
 40
1.0
  9
$DIMTOFL
 70
     1
  9
$DIMTVP
 40
0.0
  9
$DIMTIX
 70
     0
  9
$DIMSOXD
 70
     0
  9
$DIMSAH
 70
     0
  9
$DIMBLK1
  1

  9
$DIMBLK2
  1

  9
$DIMSTYLE
  2
ISO-25
  9
$DIMCLRD
 70
     0
  9
$DIMCLRE
 70
     0
  9
$DIMCLRT
 70
     0
  9
$DIMTFAC
 40
1.0
  9
$DIMGAP
 40
3.048
  9
$LUNITS
 70
     2
  9
$LUPREC
 70
     2
  9
$SKETCHINC
 40
1.0
  9
$FILLETRAD
 40
10.0
  9
$AUNITS
 70
     0
  9
$AUPREC
 70
     2
  9
$MENU
  1
.
  9
$ELEVATION
 40
0.0
  9
$PELEVATION
 40
0.0
  9
$THICKNESS
 40
0.0
  9
$LIMCHECK
 70
     0
  9
$CHAMFERA
 40
0.0
  9
$CHAMFERB
 40
0.0
  9
$SKPOLY
 70
     0
  9
$TDCREATE
 40
2458555.356697408
  9
$TDUPDATE
 40
2458555.356716516
  9
$TDINDWG
 40
0.0000000116
  9
$TDUSRTIMER
 40
0.0000000116
  9
$USRTIMER
 70
     1
  9
$ANGBASE
 50
0.0
  9
$ANGDIR
 70
     0
  9
$PDMODE
 70
     0
  9
$PDSIZE
 40
-1.0
  9
$PLINEWID
 40
0.0
  9
$COORDS
 70
     1
  9
$SPLFRAME
 70
     0
  9
$SPLINETYPE
 70
     6
  9
$SPLINESEGS
 70
     8
  9
$ATTDIA
 70
     0
  9
$ATTREQ
 70
     1
  9
$HANDLING
 70
     1
  9
$HANDSEED
  5
66E
  9
$SURFTAB1
 70
     6
  9
$SURFTAB2
 70
     6
  9
$SURFTYPE
 70
     6
  9
$SURFU
 70
     6
  9
$SURFV
 70
     6
  9
$UCSNAME
  2

  9
$UCSORG
 10
0.0
 20
0.0
 30
0.0
  9
$UCSXDIR
 10
1.0
 20
0.0
 30
0.0
  9
$UCSYDIR
 10
0.0
 20
1.0
 30
0.0
  9
$PUCSNAME
  2

  9
$PUCSORG
 10
0.0
 20
0.0
 30
0.0
  9
$PUCSXDIR
 10
1.0
 20
0.0
 30
0.0
  9
$PUCSYDIR
 10
0.0
 20
1.0
 30
0.0
  9
$USERI1
 70
     0
  9
$USERI2
 70
     0
  9
$USERI3
 70
     0
  9
$USERI4
 70
     0
  9
$USERI5
 70
     0
  9
$USERR1
 40
0.0
  9
$USERR2
 40
0.0
  9
$USERR3
 40
0.0
  9
$USERR4
 40
0.0
  9
$USERR5
 40
0.0
  9
$WORLDVIEW
 70
     1
  9
$SHADEDGE
 70
     3
  9
$SHADEDIF
 70
    70
  9
$TILEMODE
 70
     1
  9
$MAXACTVP
 70
    64
  9
$PLIMCHECK
 70
     0
  9
$PEXTMIN
 10
1.0000000000E+20
 20
1.0000000000E+20
 30
1.0000000000E+20
  9
$PEXTMAX
 10
-1.0000000000E+20
 20
-1.0000000000E+20
 30
-1.0000000000E+20
  9
$PLIMMIN
 10
0.0
 20
0.0
  9
$PLIMMAX
 10
420.0
 20
297.0
  9
$UNITMODE
 70
     0
  9
$VISRETAIN
 70
     1
  9
$PLINEGEN
 70
     0
  9
$PSLTSCALE
 70
     1
  0
ENDSEC
  0
SECTION
  2
TABLES
  0
TABLE
  2
VPORT
 70
     1
  0
VPORT
  2
*ACTIVE
 70
     0
 10
0.0
 20
0.0
 11
1.0
 21
1.0
 12
210.0
 22
297.0
 13
0.0
 23
0.0
 14
10.0
 24
10.0
 15
10.0
 25
10.0
 16
0.0
 26
0.0
 36
1.0
 17
0.0
 27
0.0
 37
0.0
 40
594.0
 41
0.7070707071
 42
50.0
 43
0.0
 44
0.0
 50
0.0
 51
0.0
 71
     0
 72
  2000
 73
     1
 74
     3
 75
     0
 76
     0
 77
     0
 78
     0
  0
ENDTAB
  0
TABLE
  2
LTYPE
 70
     6
  0
LTYPE
  2
CONTINUOUS
 70
     0
  3
Solid line
 72
    65
 73
     0
 40
0.0
  0
LTYPE
  2
HIDDEN
 70
     0
  3
Hidden __ __ __ __ __ __ __ __ __ __ __ __ __ __
 72
    65
 73
     2
 40
1.905
 49
1.27
 49
-0.635
  0
LTYPE
  2
PHANTOM
 70
     0
  3
Phantom ______  __  __  ______  __  __  ______
 72
    65
 73
     6
 40
12.7
 49
6.35
 49
-1.27
 49
1.27
 49
-1.27
 49
1.27
 49
-1.27
  0
LTYPE
  2
CENTER
 70
     0
  3
Center ____ _ ____ _ ____ _ ____ _ ____ _ ____
 72
    65
 73
     4
 40
10.16
 49
6.35
 49
-1.27
 49
1.27
 49
-1.27
  0
LTYPE
  2
CENTERX2
 70
     0
  3
Center (2x) ________  __  ________  __  _____
 72
    65
 73
     4
 40
20.32
 49
12.7
 49
-2.54
 49
2.54
 49
-2.54
  0
LTYPE
  2
DOT2
 70
     0
  3
Dot (.5x) ........................................
 72
    65
 73
     2
 40
0.635
 49
0.0
 49
-0.635
  0
ENDTAB
  0
TABLE
  2
LAYER
 70
     1
  0
LAYER
  2
0
 70
     0
 62
     7
  6
CONTINUOUS
  0
ENDTAB
  0
TABLE
  2
STYLE
 70
     1
  0
STYLE
  2
STANDARD
 70
     0
 40
0.0
 41
1.0
 50
0.0
 71
     0
 42
7.0
  3
txt
  4

  0
ENDTAB
  0
TABLE
  2
VIEW
 70
     0
  0
ENDTAB
  0
TABLE
  2
UCS
 70
     0
  0
ENDTAB
  0
TABLE
  2
APPID
 70
     1
  0
APPID
  2
ACAD
 70
     0
  0
ENDTAB
  0
TABLE
  2
DIMSTYLE
 70
     9
  0
DIMSTYLE
  2
ISO-25
 70
     0
  3

  4

  5

  6

  7

 40
1.0
 41
2.5
 42
0.625
 43
3.75
 44
1.25
 45
0.0
 46
0.0
 47
0.0
 48
0.0
140
2.5
141
2.5
142
0.0
143
0.0393700787
144
1.0
145
0.0
146
1.0
147
0.625
 71
     0
 72
     0
 73
     0
 74
     0
 75
     0
 76
     0
 77
     1
 78
     8
170
     0
171
     3
172
     1
173
     0
174
     0
175
     0
176
     0
177
     0
178
     0
  0
DIMSTYLE
  2
SLDDIMSTYLE0
 70
     0
  3

  4

  5

  6
ORIGIN
  7
ORIGIN
 40
1.0
 41
0.6773333333
 42
0.0625
 43
0.38
 44
0.0
 45
0.000000001
 46
0.0
 47
0.0
 48
0.0
140
7.0
141
0.09
142
0.0
143
25.4
144
1.0
145
0.0
146
1.0
147
1.75
 71
     0
 72
     0
 73
     1
 74
     1
 75
     0
 76
     0
 77
     0
 78
     8
170
     0
171
     2
172
     0
173
     1
174
     0
175
     0
176
     0
177
     0
178
     0
  0
DIMSTYLE
  2
SLDDIMSTYLE1
 70
     0
  3

  4

  5

  6

  7

 40
1.0
 41
6.604
 42
0.0625
 43
0.38
 44
0.0
 45
0.000000001
 46
0.0
 47
0.0
 48
0.0
140
7.0
141
0.09
142
0.0
143
25.4
144
1.0
145
0.0
146
1.0
147
1.75
 71
     0
 72
     0
 73
     1
 74
     1
 75
     0
 76
     0
 77
     0
 78
    12
170
     0
171
     2
172
     0
173
     1
174
     0
175
     0
176
     0
177
     0
178
     0
  0
DIMSTYLE
  2
SLDDIMSTYLE2
 70
     0
  3

  4

  5

  6

  7

 40
1.0
 41
6.604
 42
0.0625
 43
0.38
 44
0.0
 45
0.000000001
 46
0.0
 47
0.0
 48
0.0
140
7.0
141
0.09
142
0.0
143
25.4
144
1.0
145
0.0
146
1.0
147
1.75
 71
     0
 72
     0
 73
     1
 74
     1
 75
     0
 76
     0
 77
     0
 78
    12
170
     0
171
     2
172
     0
173
     1
174
     0
175
     0
176
     0
177
     0
178
     0
  0
DIMSTYLE
  2
SLDDIMSTYLE3
 70
     0
  3

  4

  5

  6

  7

 40
1.0
 41
6.604
 42
0.0625
 43
0.38
 44
0.0
 45
0.000000001
 46
0.0
 47
0.0
 48
0.0
140
7.0
141
0.09
142
0.0
143
25.4
144
1.0
145
0.0
146
1.0
147
1.75
 71
     0
 72
     0
 73
     0
 74
     0
 75
     0
 76
     0
 77
     1
 78
    12
170
     0
171
     2
172
     1
173
     1
174
     0
175
     0
176
     0
177
     0
178
     0
  0
DIMSTYLE
  2
SLDDIMSTYLE4
 70
     0
  3

  4

  5

  6

  7

 40
1.0
 41
6.604
 42
0.0625
 43
0.38
 44
0.0
 45
0.000000001
 46
0.0
 47
0.0
 48
0.0
140
7.0
141
0.09
142
0.0
143
25.4
144
1.0
145
0.0
146
1.0
147
1.75
 71
     0
 72
     0
 73
     0
 74
     0
 75
     0
 76
     0
 77
     1
 78
    12
170
     0
171
     2
172
     1
173
     1
174
     0
175
     0
176
     0
177
     0
178
     0
  0
DIMSTYLE
  2
SLDDIMSTYLE5
 70
     0
  3

  4

  5

  6

  7

 40
1.0
 41
6.604
 42
0.0625
 43
0.38
 44
0.0
 45
0.000000001
 46
0.0
 47
0.0
 48
0.0
140
7.0
141
0.0
142
0.0
143
25.4
144
1.0
145
0.0
146
1.0
147
1.75
 71
     0
 72
     0
 73
     0
 74
     0
 75
     0
 76
     0
 77
     1
 78
     8
170
     0
171
     2
172
     0
173
     1
174
     0
175
     0
176
     0
177
     0
178
     0
  0
DIMSTYLE
  2
SLDDIMSTYLE6
 70
     0
  3

  4

  5

  6

  7

 40
1.0
 41
6.604
 42
0.0625
 43
0.38
 44
0.0
 45
0.0
 46
0.0
 47
0.0
 48
0.0
140
7.0
141
0.09
142
0.0
143
25.4
144
2.0
145
0.0
146
1.0
147
1.75
 71
     0
 72
     0
 73
     0
 74
     0
 75
     0
 76
     0
 77
     1
 78
    12
170
     0
171
     2
172
     0
173
     1
174
     0
175
     0
176
     0
177
     0
178
     0
  0
DIMSTYLE
  2
SLDDIMSTYLE7
 70
     0
  3

  4

  5

  6

  7

 40
1.0
 41
6.604
 42
0.0625
 43
0.38
 44
0.0
 45
0.000000001
 46
0.0
 47
0.0
 48
0.0
140
7.0
141
0.09
142
0.0
143
25.4
144
1.0
145
0.0
146
1.0
147
1.75
 71
     0
 72
     0
 73
     0
 74
     0
 75
     0
 76
     0
 77
     1
 78
    12
170
     0
171
     2
172
     0
173
     1
174
     0
175
     0
176
     0
177
     0
178
     0
  0
ENDTAB
  0
ENDSEC
  0
SECTION
  2
BLOCKS
  0
BLOCK
  8
0
  2
$MODEL_SPACE
 70
     0
 10
0.0
 20
0.0
 30
0.0
  3
$MODEL_SPACE
  1

  0
ENDBLK
  5
21
  8
0
  0
BLOCK
 67
     1
  8
0
  2
$PAPER_SPACE
 70
     0
 10
0.0
 20
0.0
 30
0.0
  3
$PAPER_SPACE
  1

  0
ENDBLK
  5
1D
 67
     1
  8
0
  0
BLOCK
  8
0
  2
BLOCK2
 70
     0
 10
0.0
 20
0.0
 30
0.0
  3
BLOCK2
  1

  0
INSERT
  5
84
  8
0
  6
CONTINUOUS
 62
     7
  2
BLOCK1
 10
-258.8262632916
 20
-286.6552837897
 30
0.0
  0
ENDBLK
  5
75
  8
0
  0
BLOCK
  8
0
  2
BLOCK1
 70
     0
 10
0.0
 20
0.0
 30
0.0
  3
BLOCK1
  1

  0
CIRCLE
  5
79
  8
0
  6
CONTINUOUS
 62
     7
 10
288.153184033
 20
301.2034238004
 30
0.0
 40
5.999999999999986
  0
CIRCLE
  5
7A
  8
0
  6
CONTINUOUS
 62
     7
 10
288.153184033
 20
301.2034238004
 30
0.0
 40
2.999999999999974
  0
LINE
  5
7B
  8
0
  6
CENTERX2
 62
     7
 10
251.3831182155
 20
301.2034238004
 30
0.0
 11
300.9232498505
 21
301.2034238004
 31
0.0
  0
LINE
  5
7C
  8
0
  6
CONTINUOUS
 62
     7
 10
276.153184033
 20
307.3771474308
 30
0.0
 11
276.153184033
 21
295.0297001701
 31
0.0
  0
LINE
  5
7D
  8
0
  6
CONTINUOUS
 62
     7
 10
262.5140928444
 20
304.3771474308
 30
0.0
 11
262.5140928444
 21
298.0297001701
 31
0.0
  0
LINE
  5
7E
  8
0
  6
CONTINUOUS
 62
     7
 10
262.5140928444
 20
304.3771474308
 30
0.0
 11
276.153184033
 21
307.3771474308
 31
0.0
  0
LINE
  5
7F
  8
0
  6
CONTINUOUS
 62
     7
 10
262.5140928444
 20
298.0297001701
 30
0.0
 11
276.153184033
 21
295.0297001701
 31
0.0
  0
LINE
  5
80
  8
0
  6
CENTERX2
 62
     7
 10
288.153184033
 20
290.6552837897
 30
0.0
 11
288.153184033
 21
311.4183296725
 31
0.0
  0
ENDBLK
  5
78
  8
0
  0
BLOCK
  8
0
  2
PROJEKTIONSMETHODE_1
 70
     0
 10
0.0
 20
0.0
 30
0.0
  3
PROJEKTIONSMETHODE_1
  1

  0
INSERT
  5
85
  8
0
  6
CONTINUOUS
 62
     7
  2
BLOCK2
 10
7.4431450761
 20
-4.0
 30
0.0
  0
ENDBLK
  5
83
  8
0
  0
BLOCK
  8
0
  2
SW_NOTE_0
 70
     0
 10
0.0
 20
0.0
 30
0.0
  3
SW_NOTE_0
  1

  0
TEXT
  5
C6
  8
0
  6
CONTINUOUS
 62
     0
 10
0.0
 20
1.4954675955
 30
0.0
 40
4.2333333333
  1
IF NOT OTHERWISE DEFINED:
 41
0.658
 11
0.0
 21
0.0
 31
0.0
 73
     1
  0
TEXT
  5
C7
  8
0
  6
CONTINUOUS
 62
     0
 10
0.0
 20
-4.1489767808
 30
0.0
 40
4.2333333333
  1
DIMENSIONS ARE IN MILLIMETERS
 41
0.6637931034
 11
0.0
 21
-5.6444443762
 31
0.0
 73
     1
  0
TEXT
  5
C8
  8
0
  6
CONTINUOUS
 62
     0
 10
0.0
 20
-9.793421157
 30
0.0
 40
4.2333333333
  1
SURFACE CONDITIONS:
 41
0.7
 11
0.0
 21
-11.2888887525
 31
0.0
 73
     1
  0
TEXT
  5
C9
  8
0
  6
CONTINUOUS
 62
     0
 10
0.0
 20
-21.0823099095
 30
0.0
 40
4.2333333333
  1
TOLERANCES: 
 41
0.7
 11
0.0
 21
-22.5777775049
 31
0.0
 73
     1
  0
TEXT
  5
CA
  8
0
  6
CONTINUOUS
 62
     0
 10
40.5959039927
 20
-21.0823099095
 30
0.0
 40
4.2333333333
  1
DIN ISO 2768-m
 41
0.65
 11
40.5959039927
 21
-22.5777775049
 31
0.0
 73
     1
  0
ENDBLK
  5
C5
  8
0
  0
BLOCK
  8
0
  2
SW_NOTE_0_1
 70
     0
 10
0.0
 20
0.0
 30
0.0
  3
SW_NOTE_0_1
  1

  0
TEXT
  5
D2
  8
0
  6
CONTINUOUS
 62
     0
 10
0.0
 20
1.7663003096
 30
0.0
 40
5.0
  1
MATERIAL: 
 41
0.7
 11
0.0
 21
0.0
 31
0.0
 73
     1
  0
TEXT
  5
D3
  8
0
  6
CONTINUOUS
 62
     0
 10
37.4140627682
 20
1.8532013339
 30
0.0
 40
6.35
  1
EN AW-6060 (AlMgSi0,5)
 41
0.6681818182
 11
37.4140627682
 21
-0.3900000593
 31
0.0
 73
     1
  0
ENDBLK
  5
D1
  8
0
  0
BLOCK
  8
0
  2
_ORIGIN
 70
     0
 10
0.0
 20
0.0
 30
0.0
  3
_ORIGIN
  1

  0
CIRCLE
  5
1DF
  8
0
  6
BYBLOCK
 62
     0
 10
0.0
 20
0.0
 30
0.0
 40
0.5
  0
LINE
  5
1E0
  8
0
  6
BYBLOCK
 62
     0
 10
0.0
 20
0.0
 30
0.0
 11
-1.0
 21
0.0
 31
0.0
  0
ENDBLK
  5
1DE
  8
0
  0
BLOCK
  8
0
  2
_D
 70
     0
 10
0.0
 20
0.0
 30
0.0
  3
_D
  1

  0
INSERT
  5
1E4
  8
0
  6
CONTINUOUS
 62
     7
  2
_ORIGIN
 10
79.7434289698
 20
516.5861857775
 30
0.0
 41
2.032
 42
2.032
 50
0.0
  0
LINE
  5
1E5
  8
0
  6
CONTINUOUS
 62
     7
 10
79.7434289698
 20
508.6181857775
 30
0.0
 11
79.7434289698
 21
518.6181857775
 31
0.0
  0
LINE
  5
1E6
  8
0
  6
CONTINUOUS
 62
     7
 10
79.7434289698
 20
508.6181857775
 30
0.0
 11
79.7434289698
 21
498.6181857775
 31
0.0
  0
LINE
  5
1E7
  8
0
  6
CONTINUOUS
 62
     7
 10
79.7434289698
 20
498.6181857775
 30
0.0
 11
79.7434289698
 21
465.33933152
 31
0.0
  0
TEXT
  5
1E8
  8
0
  6
CONTINUOUS
 62
     7
 10
82.8268588766
 20
518.6181857775
 30
0.0
 40
7.0
  1
0
 50
90.0
 41
0.7
 11
85.2996793101
 21
518.6181857775
 31
0.0
 73
     1
  0
ENDBLK
  5
1E3
  8
0
  0
BLOCK
  8
0
  2
_D_1
 70
     0
 10
0.0
 20
0.0
 30
0.0
  3
_D_1
  1

  0
SOLID
  5
1EE
  8
0
  6
CONTINUOUS
 62
   154
 10
90.9670539517
 20
516.5861857775
 30
0.0
 11
84.3630539517
 21
517.6021857775
 31
0.0
 12
84.3630539517
 22
515.5701857775
 32
0.0
 13
84.3630539517
 23
515.5701857775
 33
0.0
  0
LINE
  5
1EF
  8
0
  6
CONTINUOUS
 62
   154
 10
90.9670539517
 20
508.6181857775
 30
0.0
 11
90.9670539517
 21
518.6181857775
 31
0.0
  0
LINE
  5
1F0
  8
0
  6
CONTINUOUS
 62
   154
 10
79.7434289698
 20
516.5861857775
 30
0.0
 11
90.9670539517
 21
516.5861857775
 31
0.0
  0
LINE
  5
1F1
  8
0
  6
CONTINUOUS
 62
   154
 10
90.9670539517
 20
508.6181857775
 30
0.0
 11
81.4934289698
 21
498.6181857775
 31
0.0
  0
LINE
  5
1F2
  8
0
  6
CONTINUOUS
 62
   154
 10
81.4934289698
 20
498.6181857775
 30
0.0
 11
81.4934289698
 21
487.3393318041
 31
0.0
  0
TEXT
  5
1F3
  8
0
  6
CONTINUOUS
 62
   154
 10
94.0504838586
 20
518.6181857775
 30
0.0
 40
7.0
  1
1,75
 50
90.0
 41
0.7
 11
96.523304292
 21
518.6181857775
 31
0.0
 73
     1
  0
ENDBLK
  5
1ED
  8
0
  0
BLOCK
  8
0
  2
_D_2
 70
     0
 10
0.0
 20
0.0
 30
0.0
  3
_D_2
  1

  0
SOLID
  5
1F8
  8
0
  6
CONTINUOUS
 62
   154
 10
102.1906789336
 20
516.5861857775
 30
0.0
 11
95.5866789336
 21
517.6021857775
 31
0.0
 12
95.5866789336
 22
515.5701857775
 32
0.0
 13
95.5866789336
 23
515.5701857775
 33
0.0
  0
LINE
  5
1F9
  8
0
  6
CONTINUOUS
 62
   154
 10
102.1906789336
 20
508.6181857775
 30
0.0
 11
102.1906789336
 21
518.6181857775
 31
0.0
  0
LINE
  5
1FA
  8
0
  6
CONTINUOUS
 62
   154
 10
90.9670539517
 20
516.5861857775
 30
0.0
 11
102.1906789336
 21
516.5861857775
 31
0.0
  0
LINE
  5
1FB
  8
0
  6
CONTINUOUS
 62
   154
 10
102.1906789336
 20
508.6181857775
 30
0.0
 11
83.4934289698
 21
498.6181857775
 31
0.0
  0
LINE
  5
1FC
  8
0
  6
CONTINUOUS
 62
   154
 10
83.4934289698
 20
498.6181857775
 30
0.0
 11
83.4934289698
 21
490.8393318041
 31
0.0
  0
TEXT
  5
1FD
  8
0
  6
CONTINUOUS
 62
   154
 10
105.2741088405
 20
518.6181857775
 30
0.0
 40
7.0
  1
3,75
 50
90.0
 41
0.7
 11
107.7469292739
 21
518.6181857775
 31
0.0
 73
     1
  0
ENDBLK
  5
1F7
  8
0
  0
BLOCK
  8
0
  2
_D_3
 70
     0
 10
0.0
 20
0.0
 30
0.0
  3
_D_3
  1

  0
SOLID
  5
202
  8
0
  6
CONTINUOUS
 62
   154
 10
113.4143039156
 20
516.5861857775
 30
0.0
 11
106.8103039156
 21
517.6021857775
 31
0.0
 12
106.8103039156
 22
515.5701857775
 32
0.0
 13
106.8103039156
 23
515.5701857775
 33
0.0
  0
LINE
  5
203
  8
0
  6
CONTINUOUS
 62
   154
 10
113.4143039156
 20
508.6181857775
 30
0.0
 11
113.4143039156
 21
518.6181857775
 31
0.0
  0
LINE
  5
204
  8
0
  6
CONTINUOUS
 62
   154
 10
102.1906789336
 20
516.5861857775
 30
0.0
 11
113.4143039156
 21
516.5861857775
 31
0.0
  0
LINE
  5
205
  8
0
  6
CONTINUOUS
 62
   154
 10
113.4143039156
 20
508.6181857775
 30
0.0
 11
89.9934289698
 21
498.6181857775
 31
0.0
  0
LINE
  5
206
  8
0
  6
CONTINUOUS
 62
   154
 10
89.9934289698
 20
498.6181857775
 30
0.0
 11
89.9934289698
 21
490.8393318041
 31
0.0
  0
TEXT
  5
207
  8
0
  6
CONTINUOUS
 62
   154
 10
116.4977338225
 20
518.6181857775
 30
0.0
 40
7.0
  1
10,25
 50
90.0
 41
0.7
 11
118.9705542559
 21
518.6181857775
 31
0.0
 73
     1
  0
ENDBLK
  5
201
  8
0
  0
BLOCK
  8
0
  2
_D_4
 70
     0
 10
0.0
 20
0.0
 30
0.0
  3
_D_4
  1

  0
SOLID
  5
20C
  8
0
  6
CONTINUOUS
 62
   154
 10
124.6379288975
 20
516.5861857775
 30
0.0
 11
118.0339288975
 21
517.6021857775
 31
0.0
 12
118.0339288975
 22
515.5701857775
 32
0.0
 13
118.0339288975
 23
515.5701857775
 33
0.0
  0
LINE
  5
20D
  8
0
  6
CONTINUOUS
 62
   154
 10
124.6379288975
 20
508.6181857775
 30
0.0
 11
124.6379288975
 21
518.6181857775
 31
0.0
  0
LINE
  5
20E
  8
0
  6
CONTINUOUS
 62
   154
 10
113.4143039156
 20
516.5861857775
 30
0.0
 11
124.6379288975
 21
516.5861857775
 31
0.0
  0
LINE
  5
20F
  8
0
  6
CONTINUOUS
 62
   154
 10
124.6379288975
 20
508.6181857775
 30
0.0
 11
90.7434289698
 21
498.6181857775
 31
0.0
  0
LINE
  5
210
  8
0
  6
CONTINUOUS
 62
   154
 10
90.7434289698
 20
498.6181857775
 30
0.0
 11
90.7434289698
 21
463.58933152
 31
0.0
  0
TEXT
  5
211
  8
0
  6
CONTINUOUS
 62
   154
 10
127.7213588044
 20
518.6181857775
 30
0.0
 40
7.0
  1
11
 50
90.0
 41
0.7
 11
130.1941792378
 21
518.6181857775
 31
0.0
 73
     1
  0
ENDBLK
  5
20B
  8
0
  0
BLOCK
  8
0
  2
_D_5
 70
     0
 10
0.0
 20
0.0
 30
0.0
  3
_D_5
  1

  0
SOLID
  5
216
  8
0
  6
CONTINUOUS
 62
   154
 10
135.8615538795
 20
516.5861857775
 30
0.0
 11
129.2575538795
 21
517.6021857775
 31
0.0
 12
129.2575538795
 22
515.5701857775
 32
0.0
 13
129.2575538795
 23
515.5701857775
 33
0.0
  0
LINE
  5
217
  8
0
  6
CONTINUOUS
 62
   154
 10
135.8615538795
 20
508.6181857775
 30
0.0
 11
135.8615538795
 21
518.6181857775
 31
0.0
  0
LINE
  5
218
  8
0
  6
CONTINUOUS
 62
   154
 10
124.6379288975
 20
516.5861857775
 30
0.0
 11
135.8615538795
 21
516.5861857775
 31
0.0
  0
LINE
  5
219
  8
0
  6
CONTINUOUS
 62
   154
 10
135.8615538795
 20
508.6181857775
 30
0.0
 11
91.9934289698
 21
498.6181857775
 31
0.0
  0
LINE
  5
21A
  8
0
  6
CONTINUOUS
 62
   154
 10
91.9934289698
 20
498.6181857775
 30
0.0
 11
91.9934289698
 21
487.3393318041
 31
0.0
  0
TEXT
  5
21B
  8
0
  6
CONTINUOUS
 62
   154
 10
138.9449837863
 20
518.6181857775
 30
0.0
 40
7.0
  1
12,25
 50
90.0
 41
0.7
 11
141.4178042198
 21
518.6181857775
 31
0.0
 73
     1
  0
ENDBLK
  5
215
  8
0
  0
BLOCK
  8
0
  2
_D_6
 70
     0
 10
0.0
 20
0.0
 30
0.0
  3
_D_6
  1

  0
SOLID
  5
220
  8
0
  6
CONTINUOUS
 62
   154
 10
146.3392749565
 20
516.5861857775
 30
0.0
 11
139.7352749565
 21
517.6021857775
 31
0.0
 12
139.7352749565
 22
515.5701857775
 32
0.0
 13
139.7352749565
 23
515.5701857775
 33
0.0
  0
LINE
  5
221
  8
0
  6
CONTINUOUS
 62
   154
 10
146.3392749565
 20
508.6181857775
 30
0.0
 11
146.3392749565
 21
518.6181857775
 31
0.0
  0
LINE
  5
222
  8
0
  6
CONTINUOUS
 62
   154
 10
135.8615538795
 20
516.5861857775
 30
0.0
 11
146.3392749565
 21
516.5861857775
 31
0.0
  0
LINE
  5
223
  8
0
  6
CONTINUOUS
 62
   154
 10
146.3392749565
 20
508.6181857775
 30
0.0
 11
93.7434289698
 21
498.6181857775
 31
0.0
  0
LINE
  5
224
  8
0
  6
CONTINUOUS
 62
   154
 10
93.7434289698
 20
498.6181857775
 30
0.0
 11
93.7434289698
 21
490.3393318041
 31
0.0
  0
TEXT
  5
225
  8
0
  6
CONTINUOUS
 62
   154
 10
149.4227048633
 20
518.6181857775
 30
0.0
 40
7.0
  1
14
 50
90.0
 41
0.7
 11
151.8955252968
 21
518.6181857775
 31
0.0
 73
     1
  0
ENDBLK
  5
21F
  8
0
  0
BLOCK
  8
0
  2
_D_7
 70
     0
 10
0.0
 20
0.0
 30
0.0
  3
_D_7
  1

  0
SOLID
  5
22B
  8
0
  6
CONTINUOUS
 62
   154
 10
158.3088038433
 20
516.5861857775
 30
0.0
 11
151.7048038433
 21
517.6021857775
 31
0.0
 12
151.7048038433
 22
515.5701857775
 32
0.0
 13
151.7048038433
 23
515.5701857775
 33
0.0
  0
LINE
  5
22C
  8
0
  6
CONTINUOUS
 62
   154
 10
158.3088038433
 20
508.6181857775
 30
0.0
 11
158.3088038433
 21
518.6181857775
 31
0.0
  0
LINE
  5
22D
  8
0
  6
CONTINUOUS
 62
   154
 10
146.3392749565
 20
516.5861857775
 30
0.0
 11
158.3088038433
 21
516.5861857775
 31
0.0
  0
LINE
  5
22E
  8
0
  6
CONTINUOUS
 62
   154
 10
158.3088038433
 20
508.6181857775
 30
0.0
 11
102.1434289698
 21
498.6181857775
 31
0.0
  0
LINE
  5
22F
  8
0
  6
CONTINUOUS
 62
   154
 10
102.1434289698
 20
498.6181857775
 30
0.0
 11
102.1434289698
 21
488.0393318041
 31
0.0
  0
TEXT
  5
230
  8
0
  6
CONTINUOUS
 62
   154
 10
161.3922337502
 20
518.6181857775
 30
0.0
 40
7.0
  1
22,4
 50
90.0
 41
0.7
 11
163.8650541836
 21
518.6181857775
 31
0.0
 73
     1
  0
ENDBLK
  5
22A
  8
0
  0
BLOCK
  8
0
  2
_D_8
 70
     0
 10
0.0
 20
0.0
 30
0.0
  3
_D_8
  1

  0
SOLID
  5
235
  8
0
  6
CONTINUOUS
 62
   154
 10
169.5324288253
 20
516.5861857775
 30
0.0
 11
162.9284288253
 21
517.6021857775
 31
0.0
 12
162.9284288253
 22
515.5701857775
 32
0.0
 13
162.9284288253
 23
515.5701857775
 33
0.0
  0
LINE
  5
236
  8
0
  6
CONTINUOUS
 62
   154
 10
169.5324288253
 20
508.6181857775
 30
0.0
 11
169.5324288253
 21
518.6181857775
 31
0.0
  0
LINE
  5
237
  8
0
  6
CONTINUOUS
 62
   154
 10
158.3088038433
 20
516.5861857775
 30
0.0
 11
169.5324288253
 21
516.5861857775
 31
0.0
  0
LINE
  5
238
  8
0
  6
CONTINUOUS
 62
   154
 10
169.5324288253
 20
508.6181857775
 30
0.0
 11
111.4434288542
 21
498.6181857775
 31
0.0
  0
LINE
  5
239
  8
0
  6
CONTINUOUS
 62
   154
 10
111.4434288542
 20
498.6181857775
 30
0.0
 11
111.4434288542
 21
488.0393318041
 31
0.0
  0
TEXT
  5
23A
  8
0
  6
CONTINUOUS
 62
   154
 10
172.6158587322
 20
518.6181857775
 30
0.0
 40
7.0
  1
31,7
 50
90.0
 41
0.7
 11
175.0886791656
 21
518.6181857775
 31
0.0
 73
     1
  0
ENDBLK
  5
234
  8
0
  0
BLOCK
  8
0
  2
_D_9
 70
     0
 10
0.0
 20
0.0
 30
0.0
  3
_D_9
  1

  0
SOLID
  5
23F
  8
0
  6
CONTINUOUS
 62
   154
 10
180.7560538072
 20
516.5861857775
 30
0.0
 11
174.1520538072
 21
517.6021857775
 31
0.0
 12
174.1520538072
 22
515.5701857775
 32
0.0
 13
174.1520538072
 23
515.5701857775
 33
0.0
  0
LINE
  5
240
  8
0
  6
CONTINUOUS
 62
   154
 10
180.7560538072
 20
508.6181857775
 30
0.0
 11
180.7560538072
 21
518.6181857775
 31
0.0
  0
LINE
  5
241
  8
0
  6
CONTINUOUS
 62
   154
 10
169.5324288253
 20
516.5861857775
 30
0.0
 11
180.7560538072
 21
516.5861857775
 31
0.0
  0
LINE
  5
242
  8
0
  6
CONTINUOUS
 62
   154
 10
180.7560538072
 20
508.6181857775
 30
0.0
 11
120.9434288542
 21
498.6181857775
 31
0.0
  0
LINE
  5
243
  8
0
  6
CONTINUOUS
 62
   154
 10
120.9434288542
 20
498.6181857775
 30
0.0
 11
120.9434288542
 21
488.0393318041
 31
0.0
  0
TEXT
  5
244
  8
0
  6
CONTINUOUS
 62
   154
 10
183.8394837141
 20
518.6181857775
 30
0.0
 40
7.0
  1
41,2
 50
90.0
 41
0.7
 11
186.3123041475
 21
518.6181857775
 31
0.0
 73
     1
  0
ENDBLK
  5
23E
  8
0
  0
BLOCK
  8
0
  2
_D_10
 70
     0
 10
0.0
 20
0.0
 30
0.0
  3
_D_10
  1

  0
SOLID
  5
249
  8
0
  6
CONTINUOUS
 62
   154
 10
199.7434293286
 20
516.5861857775
 30
0.0
 11
193.1394293286
 21
517.6021857775
 31
0.0
 12
193.1394293286
 22
515.5701857775
 32
0.0
 13
193.1394293286
 23
515.5701857775
 33
0.0
  0
LINE
  5
24A
  8
0
  6
CONTINUOUS
 62
   154
 10
199.7434293286
 20
490.3393321634
 30
0.0
 11
199.7434293286
 21
518.6181857775
 31
0.0
  0
LINE
  5
24B
  8
0
  6
CONTINUOUS
 62
   154
 10
180.7560538072
 20
516.5861857775
 30
0.0
 11
199.7434293286
 21
516.5861857775
 31
0.0
  0
TEXT
  5
24C
  8
0
  6
CONTINUOUS
 62
   154
 10
202.8268592355
 20
518.6181857775
 30
0.0
 40
7.0
  1
120
 50
90.0
 41
0.7
 11
205.2996796689
 21
518.6181857775
 31
0.0
 73
     1
  0
ENDBLK
  5
248
  8
0
  0
BLOCK
  8
0
  2
_D_11
 70
     0
 10
0.0
 20
0.0
 30
0.0
  3
_D_11
  1

  0
INSERT
  5
251
  8
0
  6
CONTINUOUS
 62
     7
  2
_ORIGIN
 10
232.7101625362
 20
424.8393304207
 30
0.0
 41
2.032
 42
2.032
 50
0.0
  0
LINE
  5
252
  8
0
  6
CONTINUOUS
 62
     7
 10
224.7421625362
 20
424.8393304207
 30
0.0
 11
234.7421625362
 21
424.8393304207
 31
0.0
  0
LINE
  5
253
  8
0
  6
CONTINUOUS
 62
     7
 10
224.7421625362
 20
424.8393304207
 30
0.0
 11
214.7421625362
 21
424.8393304207
 31
0.0
  0
LINE
  5
254
  8
0
  6
CONTINUOUS
 62
     7
 10
214.7421625362
 20
424.8393304207
 30
0.0
 11
200.9434283094
 21
424.8393304207
 31
0.0
  0
TEXT
  5
255
  8
0
  6
CONTINUOUS
 62
     7
 10
234.7421625362
 20
421.7559005138
 30
0.0
 40
7.0
  1
0
 41
0.7
 11
234.7421625362
 21
419.2830800804
 31
0.0
 73
     1
  0
ENDBLK
  5
250
  8
0
  0
BLOCK
  8
0
  2
_D_12
 70
     0
 10
0.0
 20
0.0
 30
0.0
  3
_D_12
  1

  0
SOLID
  5
25A
  8
0
  6
CONTINUOUS
 62
   154
 10
232.7101625362
 20
436.0629554026
 30
0.0
 11
231.6941625362
 21
429.4589554026
 31
0.0
 12
233.7261625362
 22
429.4589554026
 32
0.0
 13
233.7261625362
 23
429.4589554026
 33
0.0
  0
LINE
  5
25B
  8
0
  6
CONTINUOUS
 62
   154
 10
224.7421625362
 20
436.0629554026
 30
0.0
 11
234.7421625362
 21
436.0629554026
 31
0.0
  0
LINE
  5
25C
  8
0
  6
CONTINUOUS
 62
   154
 10
232.7101625362
 20
424.8393304207
 30
0.0
 11
232.7101625362
 21
436.0629554026
 31
0.0
  0
LINE
  5
25D
  8
0
  6
CONTINUOUS
 62
   154
 10
224.7421625362
 20
436.0629554026
 30
0.0
 11
214.7421625362
 21
426.4393304207
 31
0.0
  0
LINE
  5
25E
  8
0
  6
CONTINUOUS
 62
   154
 10
214.7421625362
 20
426.4393304207
 30
0.0
 11
200.9434283094
 21
426.4393304207
 31
0.0
  0
TEXT
  5
25F
  8
0
  6
CONTINUOUS
 62
   154
 10
234.7421625362
 20
432.9795254958
 30
0.0
 40
7.0
  1
1,60
 41
0.7
 11
234.7421625362
 21
430.5067050623
 31
0.0
 73
     1
  0
ENDBLK
  5
259
  8
0
  0
BLOCK
  8
0
  2
_D_13
 70
     0
 10
0.0
 20
0.0
 30
0.0
  3
_D_13
  1

  0
SOLID
  5
264
  8
0
  6
CONTINUOUS
 62
   154
 10
232.7101625362
 20
447.2865803846
 30
0.0
 11
231.6941625362
 21
440.6825803846
 31
0.0
 12
233.7261625362
 22
440.6825803846
 32
0.0
 13
233.7261625362
 23
440.6825803846
 33
0.0
  0
LINE
  5
265
  8
0
  6
CONTINUOUS
 62
   154
 10
224.7421625362
 20
447.2865803846
 30
0.0
 11
234.7421625362
 21
447.2865803846
 31
0.0
  0
LINE
  5
266
  8
0
  6
CONTINUOUS
 62
   154
 10
232.7101625362
 20
436.0629554026
 30
0.0
 11
232.7101625362
 21
447.2865803846
 31
0.0
  0
LINE
  5
267
  8
0
  6
CONTINUOUS
 62
   154
 10
224.7421625362
 20
447.2865803846
 30
0.0
 11
214.7421625362
 21
428.8393303517
 31
0.0
  0
LINE
  5
268
  8
0
  6
CONTINUOUS
 62
   154
 10
214.7421625362
 20
428.8393303517
 30
0.0
 11
160.7434284946
 21
428.8393303517
 31
0.0
  0
TEXT
  5
269
  8
0
  6
CONTINUOUS
 62
   154
 10
234.7421625362
 20
444.2031504777
 30
0.0
 40
7.0
  1
4
 41
0.7
 11
234.7421625362
 21
441.7303300443
 31
0.0
 73
     1
  0
ENDBLK
  5
263
  8
0
  0
BLOCK
  8
0
  2
_D_14
 70
     0
 10
0.0
 20
0.0
 30
0.0
  3
_D_14
  1

  0
SOLID
  5
26E
  8
0
  6
CONTINUOUS
 62
   154
 10
232.7101625362
 20
458.5102053665
 30
0.0
 11
231.6941625362
 21
451.9062053665
 31
0.0
 12
233.7261625362
 22
451.9062053665
 32
0.0
 13
233.7261625362
 23
451.9062053665
 33
0.0
  0
LINE
  5
26F
  8
0
  6
CONTINUOUS
 62
   154
 10
224.7421625362
 20
458.5102053665
 30
0.0
 11
234.7421625362
 21
458.5102053665
 31
0.0
  0
LINE
  5
270
  8
0
  6
CONTINUOUS
 62
   154
 10
232.7101625362
 20
447.2865803846
 30
0.0
 11
232.7101625362
 21
458.5102053665
 31
0.0
  0
LINE
  5
271
  8
0
  6
CONTINUOUS
 62
   154
 10
224.7421625362
 20
458.5102053665
 30
0.0
 11
214.7421625362
 21
430.4393303517
 31
0.0
  0
LINE
  5
272
  8
0
  6
CONTINUOUS
 62
   154
 10
214.7421625362
 20
430.4393303517
 30
0.0
 11
160.7434284946
 21
430.4393303517
 31
0.0
  0
TEXT
  5
273
  8
0
  6
CONTINUOUS
 62
   154
 10
234.7421625362
 20
455.4267754597
 30
0.0
 40
7.0
  1
5,60
 41
0.7
 11
234.7421625362
 21
452.9539550262
 31
0.0
 73
     1
  0
ENDBLK
  5
26D
  8
0
  0
BLOCK
  8
0
  2
_D_15
 70
     0
 10
0.0
 20
0.0
 30
0.0
  3
_D_15
  1

  0
SOLID
  5
278
  8
0
  6
CONTINUOUS
 62
   154
 10
232.7101625362
 20
469.7338303485
 30
0.0
 11
231.6941625362
 21
463.1298303485
 31
0.0
 12
233.7261625362
 22
463.1298303485
 32
0.0
 13
233.7261625362
 23
463.1298303485
 33
0.0
  0
LINE
  5
279
  8
0
  6
CONTINUOUS
 62
   154
 10
224.7421625362
 20
469.7338303485
 30
0.0
 11
234.7421625362
 21
469.7338303485
 31
0.0
  0
LINE
  5
27A
  8
0
  6
CONTINUOUS
 62
   154
 10
232.7101625362
 20
458.5102053665
 30
0.0
 11
232.7101625362
 21
469.7338303485
 31
0.0
  0
LINE
  5
27B
  8
0
  6
CONTINUOUS
 62
   154
 10
224.7421625362
 20
469.7338303485
 30
0.0
 11
214.7421625362
 21
433.8393304207
 31
0.0
  0
LINE
  5
27C
  8
0
  6
CONTINUOUS
 62
   154
 10
214.7421625362
 20
433.8393304207
 30
0.0
 11
200.9434283094
 21
433.8393304207
 31
0.0
  0
TEXT
  5
27D
  8
0
  6
CONTINUOUS
 62
   154
 10
234.7421625362
 20
466.6504004416
 30
0.0
 40
7.0
  1
9
 41
0.7
 11
234.7421625362
 21
464.1775800082
 31
0.0
 73
     1
  0
ENDBLK
  5
277
  8
0
  0
BLOCK
  8
0
  2
_D_16
 70
     0
 10
0.0
 20
0.0
 30
0.0
  3
_D_16
  1

  0
SOLID
  5
282
  8
0
  6
CONTINUOUS
 62
   154
 10
232.7101625362
 20
480.9574553304
 30
0.0
 11
231.6941625362
 21
474.3534553304
 31
0.0
 12
233.7261625362
 22
474.3534553304
 32
0.0
 13
233.7261625362
 23
474.3534553304
 33
0.0
  0
LINE
  5
283
  8
0
  6
CONTINUOUS
 62
   154
 10
224.7421625362
 20
480.9574553304
 30
0.0
 11
234.7421625362
 21
480.9574553304
 31
0.0
  0
LINE
  5
284
  8
0
  6
CONTINUOUS
 62
   154
 10
232.7101625362
 20
469.7338303485
 30
0.0
 11
232.7101625362
 21
480.9574553304
 31
0.0
  0
LINE
  5
285
  8
0
  6
CONTINUOUS
 62
   154
 10
224.7421625362
 20
480.9574553304
 30
0.0
 11
214.7421625362
 21
438.4393303517
 31
0.0
  0
LINE
  5
286
  8
0
  6
CONTINUOUS
 62
   154
 10
214.7421625362
 20
438.4393303517
 30
0.0
 11
160.7434284946
 21
438.4393303517
 31
0.0
  0
TEXT
  5
287
  8
0
  6
CONTINUOUS
 62
   154
 10
234.7421625362
 20
477.8740254235
 30
0.0
 40
7.0
  1
13,60
 41
0.7
 11
234.7421625362
 21
475.4012049901
 31
0.0
 73
     1
  0
ENDBLK
  5
281
  8
0
  0
BLOCK
  8
0
  2
_D_17
 70
     0
 10
0.0
 20
0.0
 30
0.0
  3
_D_17
  1

  0
SOLID
  5
28C
  8
0
  6
CONTINUOUS
 62
   154
 10
232.7101625362
 20
492.1810803123
 30
0.0
 11
231.6941625362
 21
485.5770803123
 31
0.0
 12
233.7261625362
 22
485.5770803123
 32
0.0
 13
233.7261625362
 23
485.5770803123
 33
0.0
  0
LINE
  5
28D
  8
0
  6
CONTINUOUS
 62
   154
 10
224.7421625362
 20
492.1810803123
 30
0.0
 11
234.7421625362
 21
492.1810803123
 31
0.0
  0
LINE
  5
28E
  8
0
  6
CONTINUOUS
 62
   154
 10
232.7101625362
 20
480.9574553304
 30
0.0
 11
232.7101625362
 21
492.1810803123
 31
0.0
  0
LINE
  5
28F
  8
0
  6
CONTINUOUS
 62
   154
 10
224.7421625362
 20
492.1810803123
 30
0.0
 11
214.7421625362
 21
440.0393303517
 31
0.0
  0
LINE
  5
290
  8
0
  6
CONTINUOUS
 62
   154
 10
214.7421625362
 20
440.0393303517
 30
0.0
 11
160.7434284946
 21
440.0393303517
 31
0.0
  0
TEXT
  5
291
  8
0
  6
CONTINUOUS
 62
   154
 10
234.7421625362
 20
489.0976504055
 30
0.0
 40
7.0
  1
15,20
 41
0.7
 11
234.7421625362
 21
486.624829972
 31
0.0
 73
     1
  0
ENDBLK
  5
28B
  8
0
  0
BLOCK
  8
0
  2
_D_18
 70
     0
 10
0.0
 20
0.0
 30
0.0
  3
_D_18
  1

  0
SOLID
  5
296
  8
0
  6
CONTINUOUS
 62
   154
 10
232.7101625362
 20
503.4047052943
 30
0.0
 11
231.6941625362
 21
496.8007052943
 31
0.0
 12
233.7261625362
 22
496.8007052943
 32
0.0
 13
233.7261625362
 23
496.8007052943
 33
0.0
  0
LINE
  5
297
  8
0
  6
CONTINUOUS
 62
   154
 10
224.7421625362
 20
503.4047052943
 30
0.0
 11
234.7421625362
 21
503.4047052943
 31
0.0
  0
LINE
  5
298
  8
0
  6
CONTINUOUS
 62
   154
 10
232.7101625362
 20
492.1810803123
 30
0.0
 11
232.7101625362
 21
503.4047052943
 31
0.0
  0
LINE
  5
299
  8
0
  6
CONTINUOUS
 62
   154
 10
224.7421625362
 20
503.4047052943
 30
0.0
 11
214.7421625362
 21
442.0393304207
 31
0.0
  0
LINE
  5
29A
  8
0
  6
CONTINUOUS
 62
   154
 10
214.7421625362
 20
442.0393304207
 30
0.0
 11
200.9434283094
 21
442.0393304207
 31
0.0
  0
TEXT
  5
29B
  8
0
  6
CONTINUOUS
 62
   154
 10
234.7421625362
 20
500.3212753874
 30
0.0
 40
7.0
  1
17,20
 41
0.7
 11
234.7421625362
 21
497.848454954
 31
0.0
 73
     1
  0
ENDBLK
  5
295
  8
0
  0
BLOCK
  8
0
  2
_D_19
 70
     0
 10
0.0
 20
0.0
 30
0.0
  3
_D_19
  1

  0
SOLID
  5
2A0
  8
0
  6
CONTINUOUS
 62
   154
 10
232.7101625362
 20
514.6283302762
 30
0.0
 11
231.6941625362
 21
508.0243302762
 31
0.0
 12
233.7261625362
 22
508.0243302762
 32
0.0
 13
233.7261625362
 23
508.0243302762
 33
0.0
  0
LINE
  5
2A1
  8
0
  6
CONTINUOUS
 62
   154
 10
224.7421625362
 20
514.6283302762
 30
0.0
 11
234.7421625362
 21
514.6283302762
 31
0.0
  0
LINE
  5
2A2
  8
0
  6
CONTINUOUS
 62
   154
 10
232.7101625362
 20
503.4047052943
 30
0.0
 11
232.7101625362
 21
514.6283302762
 31
0.0
  0
LINE
  5
2A3
  8
0
  6
CONTINUOUS
 62
   154
 10
224.7421625362
 20
514.6283302762
 30
0.0
 11
214.7421625362
 21
449.8393304207
 31
0.0
  0
LINE
  5
2A4
  8
0
  6
CONTINUOUS
 62
   154
 10
214.7421625362
 20
449.8393304207
 30
0.0
 11
201.2434283094
 21
449.8393304207
 31
0.0
  0
TEXT
  5
2A5
  8
0
  6
CONTINUOUS
 62
   154
 10
234.7421625362
 20
511.5449003694
 30
0.0
 40
7.0
  1
25
 41
0.7
 11
234.7421625362
 21
509.0720799359
 31
0.0
 73
     1
  0
ENDBLK
  5
29F
  8
0
  0
BLOCK
  8
0
  2
_D_20
 70
     0
 10
0.0
 20
0.0
 30
0.0
  3
_D_20
  1

  0
SOLID
  5
2AA
  8
0
  6
CONTINUOUS
 62
   154
 10
232.7101625362
 20
525.8519552582
 30
0.0
 11
231.6941625362
 21
519.2479552582
 31
0.0
 12
233.7261625362
 22
519.2479552582
 32
0.0
 13
233.7261625362
 23
519.2479552582
 33
0.0
  0
LINE
  5
2AB
  8
0
  6
CONTINUOUS
 62
   154
 10
224.7421625362
 20
525.8519552582
 30
0.0
 11
234.7421625362
 21
525.8519552582
 31
0.0
  0
LINE
  5
2AC
  8
0
  6
CONTINUOUS
 62
   154
 10
232.7101625362
 20
514.6283302762
 30
0.0
 11
232.7101625362
 21
525.8519552582
 31
0.0
  0
LINE
  5
2AD
  8
0
  6
CONTINUOUS
 62
   154
 10
224.7421625362
 20
525.8519552582
 30
0.0
 11
214.7421625362
 21
451.5893304207
 31
0.0
  0
LINE
  5
2AE
  8
0
  6
CONTINUOUS
 62
   154
 10
214.7421625362
 20
451.5893304207
 30
0.0
 11
198.7434283094
 21
451.5893304207
 31
0.0
  0
TEXT
  5
2AF
  8
0
  6
CONTINUOUS
 62
   154
 10
234.7421625362
 20
522.7685253513
 30
0.0
 40
7.0
  1
26,75
 41
0.7
 11
234.7421625362
 21
520.2957049179
 31
0.0
 73
     1
  0
ENDBLK
  5
2A9
  8
0
  0
BLOCK
  8
0
  2
_D_21
 70
     0
 10
0.0
 20
0.0
 30
0.0
  3
_D_21
  1

  0
SOLID
  5
2B4
  8
0
  6
CONTINUOUS
 62
   154
 10
232.7101625362
 20
537.0755802401
 30
0.0
 11
231.6941625362
 21
530.4715802401
 31
0.0
 12
233.7261625362
 22
530.4715802401
 32
0.0
 13
233.7261625362
 23
530.4715802401
 33
0.0
  0
LINE
  5
2B5
  8
0
  6
CONTINUOUS
 62
   154
 10
224.7421625362
 20
537.0755802401
 30
0.0
 11
234.7421625362
 21
537.0755802401
 31
0.0
  0
LINE
  5
2B6
  8
0
  6
CONTINUOUS
 62
   154
 10
232.7101625362
 20
525.8519552582
 30
0.0
 11
232.7101625362
 21
537.0755802401
 31
0.0
  0
LINE
  5
2B7
  8
0
  6
CONTINUOUS
 62
   154
 10
224.7421625362
 20
537.0755802401
 30
0.0
 11
214.7421625362
 21
453.5893304207
 31
0.0
  0
LINE
  5
2B8
  8
0
  6
CONTINUOUS
 62
   154
 10
214.7421625362
 20
453.5893304207
 30
0.0
 11
201.7434283094
 21
453.5893304207
 31
0.0
  0
TEXT
  5
2B9
  8
0
  6
CONTINUOUS
 62
   154
 10
234.7421625362
 20
533.9921503332
 30
0.0
 40
7.0
  1
28,75
 41
0.7
 11
234.7421625362
 21
531.5193298998
 31
0.0
 73
     1
  0
ENDBLK
  5
2B3
  8
0
  0
BLOCK
  8
0
  2
_D_22
 70
     0
 10
0.0
 20
0.0
 30
0.0
  3
_D_22
  1

  0
SOLID
  5
2BE
  8
0
  6
CONTINUOUS
 62
   154
 10
232.7101625362
 20
548.299205222
 30
0.0
 11
231.6941625362
 21
541.695205222
 31
0.0
 12
233.7261625362
 22
541.695205222
 32
0.0
 13
233.7261625362
 23
541.695205222
 33
0.0
  0
LINE
  5
2BF
  8
0
  6
CONTINUOUS
 62
   154
 10
224.7421625362
 20
548.299205222
 30
0.0
 11
234.7421625362
 21
548.299205222
 31
0.0
  0
LINE
  5
2C0
  8
0
  6
CONTINUOUS
 62
   154
 10
232.7101625362
 20
537.0755802401
 30
0.0
 11
232.7101625362
 21
548.299205222
 31
0.0
  0
LINE
  5
2C1
  8
0
  6
CONTINUOUS
 62
   154
 10
224.7421625362
 20
548.299205222
 30
0.0
 11
214.7421625362
 21
453.9393303517
 31
0.0
  0
LINE
  5
2C2
  8
0
  6
CONTINUOUS
 62
   154
 10
214.7421625362
 20
453.9393303517
 30
0.0
 11
159.2434284946
 21
453.9393303517
 31
0.0
  0
TEXT
  5
2C3
  8
0
  6
CONTINUOUS
 62
   154
 10
234.7421625362
 20
545.2157753152
 30
0.0
 40
7.0
  1
29,10
 41
0.7
 11
234.7421625362
 21
542.7429548817
 31
0.0
 73
     1
  0
ENDBLK
  5
2BD
  8
0
  0
BLOCK
  8
0
  2
_D_23
 70
     0
 10
0.0
 20
0.0
 30
0.0
  3
_D_23
  1

  0
SOLID
  5
2C8
  8
0
  6
CONTINUOUS
 62
   154
 10
232.7101625362
 20
559.522830204
 30
0.0
 11
231.6941625362
 21
552.918830204
 31
0.0
 12
233.7261625362
 22
552.918830204
 32
0.0
 13
233.7261625362
 23
552.918830204
 33
0.0
  0
LINE
  5
2C9
  8
0
  6
CONTINUOUS
 62
   154
 10
224.7421625362
 20
559.522830204
 30
0.0
 11
234.7421625362
 21
559.522830204
 31
0.0
  0
LINE
  5
2CA
  8
0
  6
CONTINUOUS
 62
   154
 10
232.7101625362
 20
548.299205222
 30
0.0
 11
232.7101625362
 21
559.522830204
 31
0.0
  0
LINE
  5
2CB
  8
0
  6
CONTINUOUS
 62
   154
 10
224.7421625362
 20
559.522830204
 30
0.0
 11
214.7421625362
 21
488.8393321634
 31
0.0
  0
LINE
  5
2CC
  8
0
  6
CONTINUOUS
 62
   154
 10
214.7421625362
 20
488.8393321634
 30
0.0
 11
201.2434293286
 21
488.8393321634
 31
0.0
  0
TEXT
  5
2CD
  8
0
  6
CONTINUOUS
 62
   154
 10
234.7421625362
 20
556.4394002971
 30
0.0
 40
7.0
  1
64
 41
0.7
 11
234.7421625362
 21
553.9665798637
 31
0.0
 73
     1
  0
ENDBLK
  5
2C7
  8
0
  0
BLOCK
  8
0
  2
_D_24
 70
     0
 10
0.0
 20
0.0
 30
0.0
  3
_D_24
  1

  0
SOLID
  5
2D3
  8
0
  6
CONTINUOUS
 62
   154
 10
120.7434288542
 20
484.113456363
 30
0.0
 11
127.3474288542
 21
483.097456363
 31
0.0
 12
127.3474288542
 22
485.129456363
 32
0.0
 13
127.3474288542
 23
485.129456363
 33
0.0
  0
SOLID
  5
2D4
  8
0
  6
CONTINUOUS
 62
   154
 10
158.7434288542
 20
484.113456363
 30
0.0
 11
152.1394288542
 21
485.129456363
 31
0.0
 12
152.1394288542
 22
483.097456363
 32
0.0
 13
152.1394288542
 23
483.097456363
 33
0.0
  0
LINE
  5
2D5
  8
0
  6
CONTINUOUS
 62
   154
 10
120.7434288542
 20
481.2393318041
 30
0.0
 11
120.7434288542
 21
482.113456363
 31
0.0
  0
LINE
  5
2D6
  8
0
  6
CONTINUOUS
 62
   154
 10
158.7434288542
 20
486.8393318041
 30
0.0
 11
158.7434288542
 21
486.113456363
 31
0.0
  0
LINE
  5
2D7
  8
0
  6
CONTINUOUS
 62
   154
 10
120.7434288542
 20
484.113456363
 30
0.0
 11
158.7434288542
 21
484.113456363
 31
0.0
  0
TEXT
  5
2D8
  8
0
  6
CONTINUOUS
 62
   154
 10
134.3812564668
 20
486.5862764472
 30
-25.0
 40
7.0
  1
38
 41
0.7
 11
134.3812564668
 21
484.1134560138
 31
-25.0
 73
     1
  0
ENDBLK
  5
2D2
  8
0
  0
BLOCK
  8
0
  2
_D_25
 70
     0
 10
0.0
 20
0.0
 30
0.0
  3
_D_25
  1

  0
SOLID
  5
2DD
  8
0
  6
CONTINUOUS
 62
   154
 10
121.7434288542
 20
469.1864801632
 30
0.0
 11
128.3474288542
 21
468.1704801632
 31
0.0
 12
128.3474288542
 22
470.2024801632
 32
0.0
 13
128.3474288542
 23
470.2024801632
 33
0.0
  0
SOLID
  5
2DE
  8
0
  6
CONTINUOUS
 62
   154
 10
157.7434288542
 20
469.1864801632
 30
0.0
 11
151.1394288542
 21
470.2024801632
 31
0.0
 12
151.1394288542
 22
468.1704801632
 32
0.0
 13
151.1394288542
 23
468.1704801632
 33
0.0
  0
LINE
  5
2DF
  8
0
  6
CONTINUOUS
 62
   154
 10
121.7434288542
 20
469.1864801632
 30
0.0
 11
157.7434288542
 21
469.1864801632
 31
0.0
  0
TEXT
  5
2E0
  8
0
  6
CONTINUOUS
 62
   154
 10
134.3812564668
 20
471.6593002474
 30
-25.0
 40
7.0
  1
36
 41
0.7
 11
134.3812564668
 21
469.1864798139
 31
-25.0
 73
     1
  0
ENDBLK
  5
2DC
  8
0
  0
BLOCK
  8
0
  2
_D_26
 70
     0
 10
0.0
 20
0.0
 30
0.0
  3
_D_26
  1

  0
SOLID
  5
2E6
  8
0
  6
CONTINUOUS
 62
   154
 10
71.0959417742
 20
453.58933152
 30
0.0
 11
70.0799417742
 21
446.98533152
 31
0.0
 12
72.1119417742
 22
446.98533152
 32
0.0
 13
72.1119417742
 23
446.98533152
 33
0.0
  0
SOLID
  5
2E7
  8
0
  6
CONTINUOUS
 62
   154
 10
71.0959417742
 20
460.08933152
 30
0.0
 11
72.1119417742
 21
466.69333152
 31
0.0
 12
70.0799417742
 22
466.69333152
 32
0.0
 13
70.0799417742
 23
466.69333152
 33
0.0
  0
LINE
  5
2E8
  8
0
  6
CONTINUOUS
 62
   154
 10
77.7434289698
 20
453.58933152
 30
0.0
 11
69.0959417742
 21
453.58933152
 31
0.0
  0
LINE
  5
2E9
  8
0
  6
CONTINUOUS
 62
   154
 10
77.7434289698
 20
460.08933152
 30
0.0
 11
69.0959417742
 21
460.08933152
 31
0.0
  0
LINE
  5
2EA
  8
0
  6
CONTINUOUS
 62
   154
 10
71.0959417742
 20
453.58933152
 30
0.0
 11
71.0959417742
 21
440.88933152
 31
0.0
  0
LINE
  5
2EB
  8
0
  6
CONTINUOUS
 62
   154
 10
71.0959417742
 20
453.58933152
 30
0.0
 11
71.0959417742
 21
460.08933152
 31
0.0
  0
LINE
  5
2EC
  8
0
  6
CONTINUOUS
 62
   154
 10
71.0959417742
 20
460.08933152
 30
0.0
 11
71.0959417742
 21
480.801832336
 31
0.0
  0
TEXT
  5
2ED
  8
0
  6
CONTINUOUS
 62
   154
 10
68.62312169
 20
467.8712770669
 30
-25.0
 40
7.0
  1
6,5
 50
90.0
 41
0.7
 11
71.0959421235
 21
467.8712770669
 31
-25.0
 73
     1
  0
ENDBLK
  5
2E5
  8
0
  0
BLOCK
  8
0
  2
_D_27
 70
     0
 10
0.0
 20
0.0
 30
0.0
  3
_D_27
  1

  0
SOLID
  5
2F2
  8
0
  6
CONTINUOUS
 62
   154
 10
150.5004886977
 20
453.9393303517
 30
0.0
 11
149.4844886977
 21
447.3353303517
 31
0.0
 12
151.5164886977
 22
447.3353303517
 32
0.0
 13
151.5164886977
 23
447.3353303517
 33
0.0
  0
SOLID
  5
2F3
  8
0
  6
CONTINUOUS
 62
   154
 10
150.5004886977
 20
459.7393318041
 30
0.0
 11
151.5164886977
 21
466.3433318041
 31
0.0
 12
149.4844886977
 22
466.3433318041
 32
0.0
 13
149.4844886977
 23
466.3433318041
 33
0.0
  0
LINE
  5
2F4
  8
0
  6
CONTINUOUS
 62
   154
 10
150.5004886977
 20
453.9393303517
 30
0.0
 11
150.5004886977
 21
433.191942851
 31
0.0
  0
LINE
  5
2F5
  8
0
  6
CONTINUOUS
 62
   154
 10
150.5004886977
 20
453.9393303517
 30
0.0
 11
150.5004886977
 21
459.7393318041
 31
0.0
  0
LINE
  5
2F6
  8
0
  6
CONTINUOUS
 62
   154
 10
150.5004886977
 20
459.7393318041
 30
0.0
 11
150.5004886977
 21
472.4393318041
 31
0.0
  0
TEXT
  5
2F7
  8
0
  6
CONTINUOUS
 62
   154
 10
148.0276686135
 20
433.191942851
 30
-25.0
 40
7.0
  1
5,8
 50
90.0
 41
0.7
 11
150.5004890469
 21
433.191942851
 31
-25.0
 73
     1
  0
ENDBLK
  5
2F1
  8
0
  0
BLOCK
  8
0
  2
_D_28
 70
     0
 10
0.0
 20
0.0
 30
0.0
  3
_D_28
  1

  0
SOLID
  5
2FD
  8
0
  6
CONTINUOUS
 62
   154
 10
111.0434289003
 20
426.9465101177
 30
0.0
 11
106.8615470901
 21
421.7352783511
 31
0.0
 12
108.6213107106
 22
420.7192783511
 32
0.0
 13
108.6213107106
 23
420.7192783511
 33
0.0
  0
LINE
  5
2FE
  8
0
  6
CONTINUOUS
 62
   154
 10
111.0434289003
 20
426.9465101177
 30
0.0
 11
98.9864897888
 21
406.0632789927
 31
0.0
  0
TEXT
  5
2FF
  8
0
  6
CONTINUOUS
 62
   154
 10
97.0971897911
 20
407.154066855
 30
-25.0
 40
7.0
  1
R0,8
 50
60.0
 41
0.7
 11
99.2387151054
 21
405.9176566383
 31
-25.0
 73
     1
  0
ENDBLK
  5
2FC
  8
0
  0
BLOCK
  8
0
  2
_D_29
 70
     0
 10
0.0
 20
0.0
 30
0.0
  3
_D_29
  1

  0
SOLID
  5
304
  8
0
  6
CONTINUOUS
 62
   154
 10
79.8104162679
 20
488.5893318041
 30
0.0
 11
74.5991845013
 21
492.7712136143
 31
0.0
 12
73.5831845013
 22
491.0114499939
 32
0.0
 13
73.5831845013
 23
491.0114499939
 33
0.0
  0
LINE
  5
305
  8
0
  6
CONTINUOUS
 62
   154
 10
79.8104162679
 20
488.5893318041
 30
0.0
 11
56.7924810324
 21
501.8787429085
 31
0.0
  0
TEXT
  5
306
  8
0
  6
CONTINUOUS
 62
   154
 10
57.9121810099
 20
503.8181201588
 30
-25.0
 40
7.0
  1
R0,5
 50
-30.0
 41
0.7
 11
56.6757707932
 21
501.6765948444
 31
-25.0
 73
     1
  0
ENDBLK
  5
303
  8
0
  0
BLOCK
  8
0
  2
_D_30
 70
     0
 10
0.0
 20
0.0
 30
0.0
  3
_D_30
  1

  0
ARC
  5
30C
  8
0
  6
CONTINUOUS
 62
   154
 10
-16.564374839
 20
456.8393311838
 30
0.0
 40
94.78613372273067
 50
358.7988136606
 51
1.2011863394
  0
ARC
  5
30D
  8
0
  6
CONTINUOUS
 62
   154
 10
-16.564374839
 20
456.8393311838
 30
0.0
 40
94.78613372273067
 50
338.0487238735
 51
358.7988136606
  0
ARC
  5
30E
  8
0
  6
CONTINUOUS
 62
   154
 10
-16.564374839
 20
456.8393311838
 30
0.0
 40
94.78613372273065
 50
1.2011863394
 51
8.8632759999
  0
SOLID
  5
30F
  8
0
  6
CONTINUOUS
 62
   154
 10
78.2009295964
 20
454.8523180061
 30
0.0
 11
76.8185599545
 21
448.3151836054
 31
0.0
 12
78.8474035728
 22
448.2019688876
 32
0.0
 13
78.8474035728
 23
448.2019688876
 33
0.0
  0
SOLID
  5
310
  8
0
  6
CONTINUOUS
 62
   154
 10
78.2009295964
 20
458.8263443615
 30
0.0
 11
78.8474035728
 21
465.47669348
 31
0.0
 12
76.8185599545
 22
465.3634787622
 32
0.0
 13
76.8185599545
 23
465.3634787622
 33
0.0
  0
LINE
  5
311
  8
0
  6
CONTINUOUS
 62
   154
 10
111.0486023202
 20
454.1635769216
 30
0.0
 11
76.2013690971
 21
454.8942442479
 31
0.0
  0
LINE
  5
312
  8
0
  6
CONTINUOUS
 62
   154
 10
111.0486019211
 20
459.5150854377
 30
0.0
 11
76.2013690971
 21
458.7844181197
 31
0.0
  0
TEXT
  5
313
  8
0
  6
CONTINUOUS
 62
   154
 10
69.3232793391
 20
421.9899405229
 30
-25.0
 40
7.0
  1
2,4°
 50
73.0722576659
 41
0.7
 11
71.6889591777
 21
421.2699406637
 31
-25.0
 73
     1
  0
ENDBLK
  5
30B
  8
0
  0
BLOCK
  8
0
  2
_D_31
 70
     0
 10
0.0
 20
0.0
 30
0.0
  3
_D_31
  1

  0
SOLID
  5
547
  8
0
  6
CONTINUOUS
 62
   154
 10
295.0176023869
 20
410.5609291725
 30
0.0
 11
301.6216023869
 21
409.5449291725
 31
0.0
 12
301.6216023869
 22
411.5769291725
 32
0.0
 13
301.6216023869
 23
411.5769291725
 33
0.0
  0
SOLID
  5
548
  8
0
  6
CONTINUOUS
 62
   154
 10
345.0176023869
 20
410.5609291725
 30
0.0
 11
338.4136023869
 21
411.5769291725
 31
0.0
 12
338.4136023869
 22
409.5449291725
 32
0.0
 13
338.4136023869
 23
409.5449291725
 33
0.0
  0
LINE
  5
549
  8
0
  6
CONTINUOUS
 62
   154
 10
295.0176023869
 20
422.8393309518
 30
0.0
 11
295.0176023869
 21
408.5609291725
 31
0.0
  0
LINE
  5
54A
  8
0
  6
CONTINUOUS
 62
   154
 10
345.0176023869
 20
422.8393309518
 30
0.0
 11
345.0176023869
 21
408.5609291725
 31
0.0
  0
LINE
  5
54B
  8
0
  6
CONTINUOUS
 62
   154
 10
295.0176023869
 20
410.5609291725
 30
0.0
 11
345.0176023869
 21
410.5609291725
 31
0.0
  0
TEXT
  5
54C
  8
0
  6
CONTINUOUS
 62
   154
 10
317.7340896083
 20
413.0337492567
 30
0.0000004558
 40
7.0
  1
L
 41
0.7
 11
317.7340896083
 21
410.5609288233
 31
0.0000004558
 73
     1
  0
ENDBLK
  5
546
  8
0
  0
ENDSEC
  0
SECTION
  2
ENTITIES
  0
LINE
  5
87
  8
0
  6
CONTINUOUS
 62
     7
 10
35.6
 20
120.5
 30
0.0
 11
35.6
 21
10.0
 31
0.0
  0
LINE
  5
88
  8
0
  6
CONTINUOUS
 62
     7
 10
50.84
 20
86.5
 30
0.0
 11
50.84
 21
10.0
 31
0.0
  0
LINE
  5
89
  8
0
  6
CONTINUOUS
 62
     7
 10
101.64
 20
10.0
 30
0.0
 11
101.64
 21
86.5
 31
0.0
  0
LINE
  5
8A
  8
0
  6
CONTINUOUS
 62
     7
 10
142.28
 20
44.0
 30
0.0
 11
410.0
 21
44.0
 31
0.0
  0
LINE
  5
8B
  8
0
  6
CONTINUOUS
 62
     7
 10
410.0
 20
86.5
 30
0.0
 11
35.6
 21
86.5
 31
0.0
  0
LINE
  5
8C
  8
0
  6
CONTINUOUS
 62
     7
 10
35.6
 20
120.5
 30
0.0
 11
410.0
 21
120.5
 31
0.0
  0
LINE
  5
8D
  8
0
  6
CONTINUOUS
 62
     7
 10
142.28
 20
77.8895423413
 30
0.0
 11
35.6
 21
77.8895423413
 31
0.0
  0
LINE
  5
8E
  8
0
  6
CONTINUOUS
 62
     7
 10
142.28
 20
10.0
 30
0.0
 11
142.28
 21
120.5
 31
0.0
  0
LINE
  5
8F
  8
0
  6
CONTINUOUS
 62
     7
 10
228.64
 20
120.5
 30
0.0
 11
228.64
 21
10.0
 31
0.0
  0
LINE
  5
90
  8
0
  6
CONTINUOUS
 62
     7
 10
127.04
 20
86.5
 30
0.0
 11
127.04
 21
10.0
 31
0.0
  0
LINE
  5
91
  8
0
  6
CONTINUOUS
 62
     7
 10
165.1048038001
 20
44.0
 30
0.0
 11
165.1048038001
 21
86.5
 31
0.0
  0
LINE
  5
92
  8
0
  6
CONTINUOUS
 62
     7
 10
142.28
 20
27.0
 30
0.0
 11
35.6
 21
27.0
 31
0.0
  0
LINE
  5
93
  8
0
  6
CONTINUOUS
 62
     7
 10
193.3938514809
 20
120.5
 30
0.0
 11
193.3938514809
 21
44.0
 31
0.0
  0
LINE
  5
94
  8
0
  6
CONTINUOUS
 62
     7
 10
316.96
 20
10.0
 30
0.0
 11
316.96
 21
18.5
 31
0.0
  0
LINE
  5
95
  8
0
  6
CONTINUOUS
 62
     7
 10
332.56
 20
107.75
 30
0.0
 11
332.56
 21
120.5
 31
0.0
  0
LINE
  5
96
  8
0
  6
CONTINUOUS
 62
     7
 10
35.6
 20
18.46
 30
0.0
 11
142.28
 21
18.46
 31
0.0
  0
LINE
  5
97
  8
0
  6
CONTINUOUS
 62
     7
 10
379.36
 20
18.5
 30
0.0
 11
379.36
 21
44.0
 31
0.0
  0
LINE
  5
98
  8
0
  6
CONTINUOUS
 62
     7
 10
410.0
 20
107.75
 30
0.0
 11
228.64
 21
107.75
 31
0.0
  0
LINE
  5
99
  8
0
  6
CONTINUOUS
 62
     7
 10
410.0
 20
10.0
 30
0.0
 11
410.0
 21
120.5
 31
0.0
  0
LINE
  5
9A
  8
0
  6
CONTINUOUS
 62
     7
 10
35.6
 20
10.0
 30
0.0
 11
410.0
 21
10.0
 31
0.0
  0
LINE
  5
9B
  8
0
  6
CONTINUOUS
 62
     7
 10
142.28
 20
35.5
 30
0.0
 11
35.6
 21
35.5
 31
0.0
  0
LINE
  5
9C
  8
0
  6
CONTINUOUS
 62
     7
 10
142.28
 20
44.0
 30
0.0
 11
35.6
 21
44.0
 31
0.0
  0
LINE
  5
9D
  8
0
  6
CONTINUOUS
 62
     7
 10
228.64
 20
52.5
 30
0.0
 11
35.6
 21
52.5
 31
0.0
  0
LINE
  5
9E
  8
0
  6
CONTINUOUS
 62
     7
 10
228.64
 20
61.0
 30
0.0
 11
35.6
 21
61.0
 31
0.0
  0
LINE
  5
9F
  8
0
  6
CONTINUOUS
 62
     7
 10
228.64
 20
69.5
 30
0.0
 11
35.6
 21
69.5
 31
0.0
  0
LINE
  5
A0
  8
0
  6
CONTINUOUS
 62
     7
 10
228.64
 20
77.8895423413
 30
0.0
 11
142.28
 21
77.8895423413
 31
0.0
  0
LINE
  5
A1
  8
0
  6
CONTINUOUS
 62
     7
 10
35.6
 20
582.6838275312
 30
0.0
 11
410.0
 21
582.6838275312
 31
0.0
  0
LINE
  5
A2
  8
0
  6
CONTINUOUS
 62
     7
 10
410.0
 20
27.0
 30
0.0
 11
379.36
 21
27.0
 31
0.0
  0
LINE
  5
A3
  8
0
  6
CONTINUOUS
 62
     7
 10
228.64
 20
18.46
 30
0.0
 11
410.0
 21
18.46
 31
0.0
  0
LINE
  5
A4
  8
0
  6
CONTINUOUS
 62
     7
 10
25.6
 20
571.5421239083
 30
0.0
 11
25.6
 21
10.0
 31
0.0
  0
LINE
  5
A5
  8
0
  6
CONTINUOUS
 62
     7
 10
35.6
 20
97.0
 30
0.0
 11
25.6
 21
97.0
 31
0.0
  0
LINE
  5
A6
  8
0
  6
CONTINUOUS
 62
     7
 10
25.6
 20
10.0
 30
0.0
 11
35.6
 21
10.0
 31
0.0
  0
LINE
  5
A7
  8
0
  6
CONTINUOUS
 62
     7
 10
35.6
 20
571.5421239083
 30
0.0
 11
35.6
 21
120.5
 31
0.0
  0
LINE
  5
A8
  8
0
  6
CONTINUOUS
 62
     7
 10
410.0
 20
120.5
 30
0.0
 11
410.0
 21
571.5421239083
 31
0.0
  0
LINE
  5
A9
  8
0
  6
CONTINUOUS
 62
     7
 10
410.0
 20
571.5421239083
 30
0.0
 11
35.6
 21
571.5421239083
 31
0.0
  0
LINE
  5
AA
  8
0
  6
CONTINUOUS
 62
     7
 10
25.6
 20
197.0
 30
0.0
 11
35.6
 21
197.0
 31
0.0
  0
LINE
  5
AB
  8
0
  6
CONTINUOUS
 62
     7
 10
25.6
 20
397.0
 30
0.0
 11
35.6
 21
397.0
 31
0.0
  0
LINE
  5
AC
  8
0
  6
CONTINUOUS
 62
     7
 10
35.6
 20
497.0
 30
0.0
 11
25.6
 21
497.0
 31
0.0
  0
LINE
  5
AD
  8
0
  6
CONTINUOUS
 62
     7
 10
117.8
 20
571.5421239083
 30
0.0
 11
117.8
 21
582.6838275312
 31
0.0
  0
LINE
  5
AE
  8
0
  6
CONTINUOUS
 62
     7
 10
317.8
 20
571.5421239083
 30
0.0
 11
317.8
 21
582.6838275312
 31
0.0
  0
LINE
  5
AF
  8
0
  6
CONTINUOUS
 62
     7
 10
35.6
 20
571.5421239083
 30
0.0
 11
25.6
 21
571.5421239083
 31
0.0
  0
LINE
  5
B0
  8
0
  6
CONTINUOUS
 62
     7
 10
35.6
 20
571.5421239083
 30
0.0
 11
35.6
 21
582.6838275312
 31
0.0
  0
LINE
  5
B1
  8
0
  6
CONTINUOUS
 62
     7
 10
410.0
 20
571.5421239083
 30
0.0
 11
410.0
 21
582.6838275312
 31
0.0
  0
LINE
  5
B2
  8
0
  6
CONTINUOUS
 62
     7
 10
217.8
 20
582.6838275312
 30
0.0
 11
217.8
 21
571.5421239083
 31
0.0
  0
LINE
  5
B3
  8
0
  6
CONTINUOUS
 62
     7
 10
25.6
 20
297.0
 30
0.0
 11
35.6
 21
297.0
 31
0.0
  0
INSERT
  5
B4
  8
0
  6
CONTINUOUS
 62
     7
  2
PROJEKTIONSMETHODE_1
 10
142.28
 20
91.121938092
 30
0.0
  0
TEXT
  5
B5
  8
0
  6
CONTINUOUS
 62
     7
 10
28.9333333333
 20
342.9728284716
 30
0.0
 40
7.0
  1
C
 41
0.7
 11
28.9333333333
 21
340.5000080382
 31
0.0
 73
     1
  0
TEXT
  5
B6
  8
0
  6
CONTINUOUS
 62
     7
 10
166.1333393333
 20
574.0193265123
 30
0.0
 40
7.0
  1
2
 41
0.7
 11
166.1333393333
 21
571.5465060789
 31
0.0
 73
     1
  0
TEXT
  5
B7
  8
0
  6
CONTINUOUS
 62
     7
 10
266.1333393333
 20
574.0193265123
 30
0.0
 40
7.0
  1
3
 41
0.7
 11
266.1333393333
 21
571.5465060789
 31
0.0
 73
     1
  0
TEXT
  5
B8
  8
0
  6
CONTINUOUS
 62
     7
 10
66.9666726667
 20
574.0193265123
 30
0.0
 40
7.0
  1
1
 41
0.7
 11
66.9666726667
 21
571.5465060789
 31
0.0
 73
     1
  0
TEXT
  5
B9
  8
0
  6
CONTINUOUS
 62
     7
 10
366.1333213333
 20
574.0193265123
 30
0.0
 40
7.0
  1
4
 41
0.7
 11
366.1333213333
 21
571.5465060789
 31
0.0
 73
     1
  0
TEXT
  5
BA
  8
0
  6
CONTINUOUS
 62
     7
 10
28.9333333333
 20
442.9728284716
 30
0.0
 40
7.0
  1
B
 41
0.7
 11
28.9333333333
 21
440.5000080382
 31
0.0
 73
     1
  0
TEXT
  5
BB
  8
0
  6
CONTINUOUS
 62
     7
 10
28.9333333333
 20
542.9728284716
 30
0.0
 40
7.0
  1
A
 41
0.7
 11
28.9333333333
 21
540.5000080382
 31
0.0
 73
     1
  0
TEXT
  5
BC
  8
0
  6
CONTINUOUS
 62
     7
 10
28.9333333333
 20
242.9728284716
 30
0.0
 40
7.0
  1
D
 41
0.7
 11
28.9333333333
 21
240.5000080382
 31
0.0
 73
     1
  0
TEXT
  5
BD
  8
0
  6
CONTINUOUS
 62
     7
 10
28.9333333333
 20
142.9728284716
 30
0.0
 40
7.0
  1
E
 41
0.7
 11
28.9333333333
 21
140.5000080382
 31
0.0
 73
     1
  0
TEXT
  5
BE
  8
0
  6
CONTINUOUS
 62
     7
 10
28.9333333333
 20
42.9728284716
 30
0.0
 40
7.0
  1
F
 41
0.7
 11
28.9333333333
 21
40.5000080382
 31
0.0
 73
     1
  0
TEXT
  5
BF
  8
0
  6
CONTINUOUS
 62
     7
 10
290.0159167137
 20
30.0606051618
 30
0.0
 40
7.0
  1
PR208
 41
0.7
 11
290.0159167137
 21
27.5877847284
 31
0.0
 73
     1
  0
TEXT
  5
C0
  8
0
  6
CONTINUOUS
 62
     7
 10
334.5422195915
 20
111.6151419011
 30
0.0
 40
5.0
  1
Weight: 
 41
0.7
 11
334.5422195915
 21
109.8488415915
 31
0.0
 73
     1
  0
TEXT
  5
C1
  8
0
  6
CONTINUOUS
 62
     7
 10
143.8692104853
 20
114.0859236658
 30
0.0
 40
4.0
  1
Projectionsmethods
 41
0.7
 11
143.8692104853
 21
112.6728834181
 31
0.0
 73
     1
  0
TEXT
  5
C2
  8
0
  6
CONTINUOUS
 62
     7
 10
195.6464979287
 20
72.5586081072
 30
0.0
 40
3.7041666667
  1
Sommerburg
 41
0.7
 11
195.6464979287
 21
71.2500739612
 31
0.0
 73
     1
  0
INSERT
  5
CB
  8
0
  6
CONTINUOUS
 62
     7
  2
SW_NOTE_0
 10
39.2512041349
 20
113.1479165885
 30
0.0
  0
TEXT
  5
CC
  8
0
  6
CONTINUOUS
 62
     7
 10
199.817693192
 20
114.0970346934
 30
0.0
 40
4.0
  1
Surface
 41
0.7
 11
199.817693192
 21
112.6839944457
 31
0.0
 73
     1
  0
TEXT
  5
CD
  8
0
  6
CONTINUOUS
 62
     7
 10
231.6521285824
 20
37.3463905159
 30
0.0
 40
5.0
  1
Drawing No.:
 41
0.7
 11
231.6521285824
 21
35.5800902063
 31
0.0
 73
     1
  0
TEXT
  5
CE
  8
0
  6
CONTINUOUS
 62
     7
 10
231.6521285824
 20
77.7721380696
 30
0.0
 40
5.0
  1
Title:
 41
0.7
 11
231.6521285824
 21
76.00583776
 31
0.0
 73
     1
  0
INSERT
  5
D4
  8
0
  6
CONTINUOUS
 62
     7
  2
SW_NOTE_0_1
 10
231.8719748463
 20
95.3143091978
 30
0.0
  0
TEXT
  5
D5
  8
0
  6
CONTINUOUS
 62
     7
 10
319.495609531
 20
12.0253493661
 30
0.0
 40
4.0
  1
replaced by:
 41
0.7
 11
319.495609531
 21
10.6123091184
 31
0.0
 73
     1
  0
TEXT
  5
D6
  8
0
  6
CONTINUOUS
 62
     7
 10
231.5387587919
 20
12.0253493661
 30
0.0
 40
4.0
  1
replaces:
 41
0.7
 11
231.5387587919
 21
10.6123091184
 31
0.0
 73
     1
  0
TEXT
  5
D7
  8
0
  6
CONTINUOUS
 62
     7
 10
383.2228044925
 20
21.4327870454
 30
0.0
 40
4.0
  1
1 von 1
 41
0.6
 11
383.2228044925
 21
20.0197467977
 31
0.0
 73
     1
  0
TEXT
  5
D8
  8
0
  6
CONTINUOUS
 62
     7
 10
383.2228044925
 20
29.8869360306
 30
0.0
 40
4.0
  1
1 (A4)
 41
0.7
 11
383.2228044925
 21
28.473895783
 31
0.0
 73
     1
  0
TEXT
  5
D9
  8
0
  6
CONTINUOUS
 62
     7
 10
381.359984
 20
37.7669651148
 30
0.0
 40
5.0
  1
Page
 41
0.7
 11
381.359984
 21
36.0006648052
 31
0.0
 73
     1
  0
TEXT
  5
DA
  8
0
  6
CONTINUOUS
 62
     7
 10
201.9517210828
 20
80.4799369748
 30
0.0
 40
4.0
  1
Name
 41
0.7
 11
201.9517210828
 21
79.0668967271
 31
0.0
 73
     1
  0
TEXT
  5
DB
  8
0
  6
CONTINUOUS
 62
     7
 10
171.9433421699
 20
80.4799369748
 30
0.0
 40
4.0
  1
Date
 41
0.7
 11
171.9433421699
 21
79.0668967271
 31
0.0
 73
     1
  0
TEXT
  5
DC
  8
0
  6
CONTINUOUS
 62
     7
 10
231.594721075
 20
111.1671465673
 30
0.0
 40
5.0
  1
Scale: 1:2
 41
0.7
 11
231.594721075
 21
109.4008462577
 31
0.0
 73
     1
  0
TEXT
  5
DD
  8
0
  6
CONTINUOUS
 62
     7
 10
142.4140452572
 20
55.3844121821
 30
0.0
 40
4.0
  1
approved
 41
0.7
 11
142.4140452572
 21
53.9713719344
 31
0.0
 73
     1
  0
TEXT
  5
DE
  8
0
  6
CONTINUOUS
 62
     7
 10
142.3504531151
 20
63.5771086417
 30
0.0
 40
4.0
  1
checked
 41
0.7
 11
142.3504531151
 21
62.164068394
 31
0.0
 73
     1
  0
TEXT
  5
DF
  8
0
  6
CONTINUOUS
 62
     7
 10
142.3504531151
 20
72.5982298964
 30
0.0
 40
4.0
  1
drawn
 41
0.7
 11
142.3504531151
 21
71.1851896488
 31
0.0
 73
     1
  0
TEXT
  5
E0
  8
0
  6
CONTINUOUS
 62
     7
 10
127.4974490636
 20
11.6586427104
 30
0.0
 40
4.0
  1
Name
 41
0.7
 11
127.4974490636
 21
10.2456024628
 31
0.0
 73
     1
  0
TEXT
  5
E1
  8
0
  6
CONTINUOUS
 62
     7
 10
108.6943244378
 20
11.6586427104
 30
0.0
 40
4.0
  1
Date
 41
0.7
 11
108.6943244378
 21
10.2456024628
 31
0.0
 73
     1
  0
TEXT
  5
E2
  8
0
  6
CONTINUOUS
 62
     7
 10
64.6472531005
 20
11.6810884944
 30
0.0
 40
4.0
  1
Revision
 41
0.7
 11
64.6472531005
 21
10.2680482467
 31
0.0
 73
     1
  0
TEXT
  5
E3
  8
0
  6
CONTINUOUS
 62
     7
 10
36.0352318007
 20
11.6810884944
 30
0.0
 40
4.0
  1
Agree
 41
0.7
 11
36.0352318007
 21
10.2680482467
 31
0.0
 73
     1
  0
TEXT
  5
E4
  8
0
  6
CONTINUOUS
 62
     7
 10
292.2606777957
 20
66.8848166669
 30
0.0
 40
7.0
  1
Alu-Profil
 41
0.7
 11
292.2606777957
 21
64.4119962335
 31
0.0
 73
     1
  0
TEXT
  5
E5
  8
0
  6
CONTINUOUS
 62
     7
 10
166.6286152642
 20
72.5586081072
 30
0.0
 40
3.7041666667
  1
12.03.2019
 41
0.7
 11
166.6286152642
 21
71.2500739612
 31
0.0
 73
     1
  0
LINE
  5
E6
  8
0
  6
CONTINUOUS
 62
     7
 10
91.4565701156
 20
444.326531378
 30
0.0
 11
80.5224031156
 21
444.039055378
 31
0.0
  0
ARC
  5
E7
  8
0
  6
CONTINUOUS
 62
     7
 10
91.4434291119
 20
444.82635852
 30
0.0
 40
0.4999998579049958
 50
271.5060219464
 51
0.0
  0
ARC
  5
E8
  8
0
  6
CONTINUOUS
 62
     7
 10
80.2434289698
 20
450.33933152
 30
0.0
 40
0.5
 50
180.0
 51
270.0
  0
LINE
  5
E9
  8
0
  6
CONTINUOUS
 62
     7
 10
79.7434289698
 20
453.58933152
 30
0.0
 11
79.7434289698
 21
450.33933152
 31
0.0
  0
LINE
  5
EA
  8
0
  6
CONTINUOUS
 62
     7
 10
82.2434289698
 20
453.58933152
 30
0.0
 11
79.7434289698
 21
453.58933152
 31
0.0
  0
LINE
  5
EB
  8
0
  6
CONTINUOUS
 62
     7
 10
82.2434289698
 20
452.08933152
 30
0.0
 11
82.2434289698
 21
453.58933152
 31
0.0
  0
ARC
  5
EC
  8
0
  6
CONTINUOUS
 62
     7
 10
82.7434289698
 20
452.08933152
 30
0.0
 40
0.5
 50
180.0
 51
270.0
  0
LINE
  5
ED
  8
0
  6
CONTINUOUS
 62
     7
 10
90.2434289698
 20
451.58933152
 30
0.0
 11
82.7434289698
 21
451.58933152
 31
0.0
  0
ARC
  5
EE
  8
0
  6
CONTINUOUS
 62
     7
 10
90.2434289698
 20
452.08933152
 30
0.0
 40
0.5000000000000142
 50
270.0
 51
0.0
  0
LINE
  5
EF
  8
0
  6
CONTINUOUS
 62
     7
 10
90.7434289698
 20
461.58933152
 30
0.0
 11
90.7434289698
 21
452.08933152
 31
0.0
  0
ARC
  5
F0
  8
0
  6
CONTINUOUS
 62
     7
 10
90.2434289698
 20
461.58933152
 30
0.0
 40
0.5000000000000142
 50
0.0
 51
90.0
  0
LINE
  5
F1
  8
0
  6
CONTINUOUS
 62
     7
 10
82.7434289698
 20
462.08933152
 30
0.0
 11
90.2434289698
 21
462.08933152
 31
0.0
  0
ARC
  5
F2
  8
0
  6
CONTINUOUS
 62
     7
 10
82.7434289698
 20
461.58933152
 30
0.0
 40
0.5
 50
90.0
 51
180.0
  0
LINE
  5
F3
  8
0
  6
CONTINUOUS
 62
     7
 10
82.2434289698
 20
460.08933152
 30
0.0
 11
82.2434289698
 21
461.58933152
 31
0.0
  0
LINE
  5
F4
  8
0
  6
CONTINUOUS
 62
     7
 10
79.7434289698
 20
460.08933152
 30
0.0
 11
82.2434289698
 21
460.08933152
 31
0.0
  0
LINE
  5
F5
  8
0
  6
CONTINUOUS
 62
     7
 10
79.7434289698
 20
463.33933152
 30
0.0
 11
79.7434289698
 21
460.08933152
 31
0.0
  0
ARC
  5
F6
  8
0
  6
CONTINUOUS
 62
     7
 10
80.2434289698
 20
463.33933152
 30
0.0
 40
0.5
 50
90.0
 51
180.0
  0
LINE
  5
F7
  8
0
  6
CONTINUOUS
 62
     7
 10
91.4434289698
 20
463.83933152
 30
0.0
 11
80.2434289698
 21
463.83933152
 31
0.0
  0
ARC
  5
F8
  8
0
  6
CONTINUOUS
 62
     7
 10
91.4434289698
 20
464.33933152
 30
0.0
 40
0.5
 50
270.0
 51
0.0
  0
LINE
  5
F9
  8
0
  6
CONTINUOUS
 62
     7
 10
91.9434289698
 20
468.75230452
 30
0.0
 11
91.9434289698
 21
464.33933152
 31
0.0
  0
ARC
  5
FA
  8
0
  6
CONTINUOUS
 62
     7
 10
91.4434291119
 20
468.75230452
 30
0.0
 40
0.4999998579049958
 50
0.0
 51
88.4939780537
  0
LINE
  5
FB
  8
0
  6
CONTINUOUS
 62
     7
 10
80.5224031539
 20
469.5396080167
 30
0.0
 11
91.4565701156
 21
469.2521316621
 31
0.0
  0
ARC
  5
FC
  8
0
  6
CONTINUOUS
 62
     7
 10
80.5434291156
 20
470.3393316621
 30
0.0
 40
0.8000000000000114
 50
180.0
 51
268.493953
  0
ARC
  5
FD
  8
0
  6
CONTINUOUS
 62
     7
 10
80.5434291156
 20
470.3393316621
 30
0.0
 40
0.8000000000000114
 50
91.506047
 51
180.0
  0
LINE
  5
FE
  8
0
  6
CONTINUOUS
 62
     7
 10
91.4565701156
 20
471.4265316621
 30
0.0
 11
80.5224031539
 21
471.1390553074
 31
0.0
  0
ARC
  5
FF
  8
0
  6
CONTINUOUS
 62
     7
 10
91.4434291119
 20
471.9263588041
 30
0.0
 40
0.4999998579049958
 50
271.5060219463
 51
0.0
  0
LINE
  5
100
  8
0
  6
CONTINUOUS
 62
     7
 10
91.9434289698
 20
476.3393318041
 30
0.0
 11
91.9434289698
 21
471.9263588041
 31
0.0
  0
ARC
  5
101
  8
0
  6
CONTINUOUS
 62
     7
 10
91.4434289698
 20
476.3393318041
 30
0.0
 40
0.5
 50
0.0
 51
90.0
  0
LINE
  5
102
  8
0
  6
CONTINUOUS
 62
     7
 10
80.2434289698
 20
476.8393318041
 30
0.0
 11
91.4434289698
 21
476.8393318041
 31
0.0
  0
ARC
  5
103
  8
0
  6
CONTINUOUS
 62
     7
 10
80.2434289698
 20
477.3393318041
 30
0.0
 40
0.5
 50
180.0
 51
270.0
  0
LINE
  5
104
  8
0
  6
CONTINUOUS
 62
     7
 10
79.7434289698
 20
488.3393318041
 30
0.0
 11
79.7434289698
 21
477.3393318041
 31
0.0
  0
ARC
  5
105
  8
0
  6
CONTINUOUS
 62
     7
 10
80.2434289698
 20
488.3393318041
 30
0.0
 40
0.5000000000000568
 50
90.0
 51
180.0
  0
LINE
  5
106
  8
0
  6
CONTINUOUS
 62
     7
 10
83.4934289698
 20
488.8393318041
 30
0.0
 11
80.2434289698
 21
488.8393318041
 31
0.0
  0
LINE
  5
107
  8
0
  6
CONTINUOUS
 62
     7
 10
83.4934289698
 20
485.8393318041
 30
0.0
 11
83.4934289698
 21
488.8393318041
 31
0.0
  0
LINE
  5
108
  8
0
  6
CONTINUOUS
 62
     7
 10
81.9934289698
 20
485.8393318041
 30
0.0
 11
83.4934289698
 21
485.8393318041
 31
0.0
  0
ARC
  5
109
  8
0
  6
CONTINUOUS
 62
     7
 10
81.9934289698
 20
485.3393318041
 30
0.0
 40
0.5000000000000568
 50
90.0
 51
180.0
  0
LINE
  5
10A
  8
0
  6
CONTINUOUS
 62
     7
 10
81.4934289698
 20
480.3393318041
 30
0.0
 11
81.4934289698
 21
485.3393318041
 31
0.0
  0
ARC
  5
10B
  8
0
  6
CONTINUOUS
 62
     7
 10
81.9934289698
 20
480.3393318041
 30
0.0
 40
0.5
 50
180.0
 51
270.0
  0
LINE
  5
10C
  8
0
  6
CONTINUOUS
 62
     7
 10
91.4934289698
 20
479.8393318041
 30
0.0
 11
81.9934289698
 21
479.8393318041
 31
0.0
  0
ARC
  5
10D
  8
0
  6
CONTINUOUS
 62
     7
 10
91.4934289698
 20
480.3393318041
 30
0.0
 40
0.5000000000001137
 50
270.0
 51
0.0
  0
LINE
  5
10E
  8
0
  6
CONTINUOUS
 62
     7
 10
91.9934289698
 20
485.3393318041
 30
0.0
 11
91.9934289698
 21
480.3393318041
 31
0.0
  0
ARC
  5
10F
  8
0
  6
CONTINUOUS
 62
     7
 10
91.4934289698
 20
485.3393318041
 30
0.0
 40
0.5000000000001137
 50
0.0
 51
90.0
  0
LINE
  5
110
  8
0
  6
CONTINUOUS
 62
     7
 10
89.9934289698
 20
485.8393318041
 30
0.0
 11
91.4934289698
 21
485.8393318041
 31
0.0
  0
LINE
  5
111
  8
0
  6
CONTINUOUS
 62
     7
 10
89.9934289698
 20
488.8393318041
 30
0.0
 11
89.9934289698
 21
485.8393318041
 31
0.0
  0
LINE
  5
112
  8
0
  6
CONTINUOUS
 62
     7
 10
93.2434289698
 20
488.8393318041
 30
0.0
 11
89.9934289698
 21
488.8393318041
 31
0.0
  0
ARC
  5
113
  8
0
  6
CONTINUOUS
 62
     7
 10
93.2434289698
 20
488.3393318041
 30
0.0
 40
0.5000000000000568
 50
0.0
 51
90.0
  0
LINE
  5
114
  8
0
  6
CONTINUOUS
 62
     7
 10
93.7434289698
 20
459.6628288041
 30
0.0
 11
93.7434289698
 21
488.3393318041
 31
0.0
  0
ARC
  5
115
  8
0
  6
CONTINUOUS
 62
     7
 10
94.2434289698
 20
459.6628288041
 30
0.0
 40
0.4999999999999858
 50
180.0
 51
271.201187
  0
LINE
  5
116
  8
0
  6
CONTINUOUS
 62
     7
 10
100.559373536
 20
459.2951496794
 30
0.0
 11
94.253910536
 21
459.1629386794
 31
0.0
  0
ARC
  5
117
  8
0
  6
CONTINUOUS
 62
     7
 10
100.5488919698
 20
459.7950398041
 30
0.0
 40
0.5000000000000396
 50
271.201187
 51
359.357182
  0
LINE
  5
118
  8
0
  6
CONTINUOUS
 62
     7
 10
101.3434793182
 20
486.0483070483
 30
0.0
 11
101.048860502
 21
459.7894302765
 31
0.0
  0
ARC
  5
119
  8
0
  6
CONTINUOUS
 62
     7
 10
102.1434289698
 20
486.0393318041
 30
0.0
 40
0.8000000000000187
 50
0.643929
 51
179.357182
  0
LINE
  5
11A
  8
0
  6
CONTINUOUS
 62
     7
 10
103.2377545464
 20
459.8562835818
 30
0.0
 11
102.9433784471
 21
486.0483225598
 31
0.0
  0
ARC
  5
11B
  8
0
  6
CONTINUOUS
 62
     7
 10
103.737722912
 20
459.8619028035
 30
0.0
 40
0.4999999422120259
 50
180.643929
 51
271.2012369988
  0
LINE
  5
11C
  8
0
  6
CONTINUOUS
 62
     7
 10
109.8594139132
 20
459.4901507457
 30
0.0
 11
103.7482049132
 21
459.3620127457
 31
0.0
  0
ARC
  5
11D
  8
0
  6
CONTINUOUS
 62
     7
 10
109.848931912
 20
459.9900408035
 30
0.0
 40
0.4999999422120152
 50
271.2012369988
 51
359.35246
  0
LINE
  5
11E
  8
0
  6
CONTINUOUS
 62
     7
 10
110.6434799451
 20
486.0483729757
 30
0.0
 11
110.3488999224
 21
459.9843900719
 31
0.0
  0
ARC
  5
11F
  8
0
  6
CONTINUOUS
 62
     7
 10
111.4434288542
 20
486.0393318041
 30
0.0
 40
0.8000000000000352
 50
0.648667
 51
179.35246
  0
LINE
  5
120
  8
0
  6
CONTINUOUS
 62
     7
 10
112.5377128972
 20
460.0512412376
 30
0.0
 11
112.2433775853
 21
486.0483887105
 31
0.0
  0
ARC
  5
121
  8
0
  6
CONTINUOUS
 62
     7
 10
113.0376808542
 20
460.0569018041
 30
0.0
 40
0.5000000000000352
 50
180.648667
 51
271.201187
  0
LINE
  5
122
  8
0
  6
CONTINUOUS
 62
     7
 10
119.0649324204
 20
459.6831696794
 30
0.0
 11
113.0481624204
 21
459.5570116794
 31
0.0
  0
ARC
  5
123
  8
0
  6
CONTINUOUS
 62
     7
 10
119.0544508542
 20
460.1830598041
 30
0.0
 40
0.4999999999999881
 50
271.201187
 51
358.695837
  0
LINE
  5
124
  8
0
  6
CONTINUOUS
 62
     7
 10
120.1436360876
 20
486.0575397824
 30
0.0
 11
119.5543213333
 21
460.1716798177
 31
0.0
  0
ARC
  5
125
  8
0
  6
CONTINUOUS
 62
     7
 10
120.9434288542
 20
486.0393318041
 30
0.0
 40
0.800000000000054
 50
0.0
 51
178.695837
  0
LINE
  5
126
  8
0
  6
CONTINUOUS
 62
     7
 10
121.7434288542
 20
484.8393318041
 30
0.0
 11
121.7434288542
 21
486.0393318041
 31
0.0
  0
LINE
  5
127
  8
0
  6
CONTINUOUS
 62
     7
 10
120.7434288542
 20
484.8393318041
 30
0.0
 11
121.7434288542
 21
484.8393318041
 31
0.0
  0
LINE
  5
128
  8
0
  6
CONTINUOUS
 62
     7
 10
120.7434288542
 20
483.2393318041
 30
0.0
 11
120.7434288542
 21
484.8393318041
 31
0.0
  0
LINE
  5
129
  8
0
  6
CONTINUOUS
 62
     7
 10
121.7434288542
 20
483.2393318041
 30
0.0
 11
120.7434288542
 21
483.2393318041
 31
0.0
  0
LINE
  5
12A
  8
0
  6
CONTINUOUS
 62
     7
 10
121.7434288542
 20
475.2393318041
 30
0.0
 11
121.7434288542
 21
483.2393318041
 31
0.0
  0
LINE
  5
12B
  8
0
  6
CONTINUOUS
 62
     7
 10
120.7434288542
 20
475.2393318041
 30
0.0
 11
121.7434288542
 21
475.2393318041
 31
0.0
  0
LINE
  5
12C
  8
0
  6
CONTINUOUS
 62
     7
 10
120.7434288542
 20
473.6393318041
 30
0.0
 11
120.7434288542
 21
475.2393318041
 31
0.0
  0
LINE
  5
12D
  8
0
  6
CONTINUOUS
 62
     7
 10
121.7434288542
 20
473.6393318041
 30
0.0
 11
120.7434288542
 21
473.6393318041
 31
0.0
  0
LINE
  5
12E
  8
0
  6
CONTINUOUS
 62
     7
 10
121.7434288542
 20
460.2393318041
 30
0.0
 11
121.7434288542
 21
473.6393318041
 31
0.0
  0
ARC
  5
12F
  8
0
  6
CONTINUOUS
 62
     7
 10
122.2434288542
 20
460.2393318041
 30
0.0
 40
0.5
 50
180.0
 51
270.0
  0
LINE
  5
130
  8
0
  6
CONTINUOUS
 62
     7
 10
157.2434288542
 20
459.7393318041
 30
0.0
 11
122.2434288542
 21
459.7393318041
 31
0.0
  0
ARC
  5
131
  8
0
  6
CONTINUOUS
 62
     7
 10
157.2434288542
 20
460.2393318041
 30
0.0
 40
0.5
 50
270.0
 51
0.0
  0
LINE
  5
132
  8
0
  6
CONTINUOUS
 62
     7
 10
157.7434288542
 20
473.6393318041
 30
0.0
 11
157.7434288542
 21
460.2393318041
 31
0.0
  0
LINE
  5
133
  8
0
  6
CONTINUOUS
 62
     7
 10
158.7434288542
 20
473.6393318041
 30
0.0
 11
157.7434288542
 21
473.6393318041
 31
0.0
  0
LINE
  5
134
  8
0
  6
CONTINUOUS
 62
     7
 10
158.7434288542
 20
475.2393318041
 30
0.0
 11
158.7434288542
 21
473.6393318041
 31
0.0
  0
LINE
  5
135
  8
0
  6
CONTINUOUS
 62
     7
 10
157.7434288542
 20
475.2393318041
 30
0.0
 11
158.7434288542
 21
475.2393318041
 31
0.0
  0
LINE
  5
136
  8
0
  6
CONTINUOUS
 62
     7
 10
157.7434288542
 20
483.2393318041
 30
0.0
 11
157.7434288542
 21
475.2393318041
 31
0.0
  0
LINE
  5
137
  8
0
  6
CONTINUOUS
 62
     7
 10
158.7434288542
 20
483.2393318041
 30
0.0
 11
157.7434288542
 21
483.2393318041
 31
0.0
  0
LINE
  5
138
  8
0
  6
CONTINUOUS
 62
     7
 10
158.7434288542
 20
484.8393318041
 30
0.0
 11
158.7434288542
 21
483.2393318041
 31
0.0
  0
LINE
  5
139
  8
0
  6
CONTINUOUS
 62
     7
 10
157.7434288542
 20
484.8393318041
 30
0.0
 11
158.7434288542
 21
484.8393318041
 31
0.0
  0
LINE
  5
13A
  8
0
  6
CONTINUOUS
 62
     7
 10
157.7434288542
 20
486.0393318041
 30
0.0
 11
157.7434288542
 21
484.8393318041
 31
0.0
  0
ARC
  5
13B
  8
0
  6
CONTINUOUS
 62
     7
 10
158.5434289711
 20
486.0393318041
 30
0.0
 40
0.8000001169102973
 50
1.3041641737
 51
180.0
  0
LINE
  5
13C
  8
0
  6
CONTINUOUS
 62
     7
 10
159.9325358542
 20
460.1716798014
 30
0.0
 11
159.3432218542
 21
486.0575398014
 31
0.0
  0
ARC
  5
13D
  8
0
  6
CONTINUOUS
 62
     7
 10
160.4324060253
 20
460.1830598053
 30
0.0
 40
0.4999996923804076
 50
181.3041658038
 51
268.7988775676
  0
LINE
  5
13E
  8
0
  6
CONTINUOUS
 62
     7
 10
166.4386950288
 20
459.5570119764
 30
0.0
 11
160.4219250288
 21
459.6831699764
 31
0.0
  0
ARC
  5
13F
  8
0
  6
CONTINUOUS
 62
     7
 10
166.4491760308
 20
460.0569020686
 30
0.0
 40
0.4999999557029885
 50
268.7988775676
 51
359.3512833865
  0
LINE
  5
140
  8
0
  6
CONTINUOUS
 62
     7
 10
167.2434799385
 20
486.0483890696
 30
0.0
 11
166.9491439385
 21
460.0512410696
 31
0.0
  0
ARC
  5
141
  8
0
  6
CONTINUOUS
 62
     7
 10
168.0434288481
 20
486.0393320707
 30
0.0
 40
0.8000001794162854
 50
0.6475276403
 51
179.3513265177
  0
LINE
  5
142
  8
0
  6
CONTINUOUS
 62
     7
 10
169.1379579385
 20
459.9843900717
 30
0.0
 11
168.8433779385
 21
486.0483730717
 31
0.0
  0
ARC
  5
143
  8
0
  6
CONTINUOUS
 62
     7
 10
169.6379259711
 20
459.9900410721
 30
0.0
 40
0.4999999674125562
 50
180.6475707712
 51
268.798813
  0
LINE
  5
144
  8
0
  6
CONTINUOUS
 62
     7
 10
175.7386534056
 20
459.3620129799
 30
0.0
 11
169.6274444056
 21
459.4901509799
 31
0.0
  0
ARC
  5
145
  8
0
  6
CONTINUOUS
 62
     7
 10
175.7491349674
 20
459.8619028918
 30
0.0
 40
0.4999997870924353
 50
268.798813
 51
359.3560959276
  0
LINE
  5
146
  8
0
  6
CONTINUOUS
 62
     7
 10
176.5434791802
 20
486.0483228894
 30
0.0
 11
176.2491031802
 21
459.8562838894
 31
0.0
  0
ARC
  5
147
  8
0
  6
CONTINUOUS
 62
     7
 10
177.3434285905
 20
486.039331896
 30
0.0
 40
0.7999999355644558
 50
0.6428010364
 51
179.3560539243
  0
LINE
  5
148
  8
0
  6
CONTINUOUS
 62
     7
 10
178.4379971802
 20
459.7894309026
 30
0.0
 11
178.1433781802
 21
486.0483069026
 31
0.0
  0
ARC
  5
149
  8
0
  6
CONTINUOUS
 62
     7
 10
178.937965381
 20
459.7950399049
 30
0.0
 40
0.4999996626828946
 50
180.642758228
 51
268.7988775676
  0
LINE
  5
14A
  8
0
  6
CONTINUOUS
 62
     7
 10
185.2329473852
 20
459.1629391056
 30
0.0
 11
178.9274843852
 21
459.2951501056
 31
0.0
  0
ARC
  5
14B
  8
0
  6
CONTINUOUS
 62
     7
 10
185.2434293864
 20
459.6628291634
 30
0.0
 40
0.4999999422119338
 50
268.7987630012
 51
0.0
  0
LINE
  5
14C
  8
0
  6
CONTINUOUS
 62
     7
 10
185.7434293286
 20
488.3393321634
 30
0.0
 11
185.7434293286
 21
459.6628291634
 31
0.0
  0
ARC
  5
14D
  8
0
  6
CONTINUOUS
 62
     7
 10
186.2434293286
 20
488.3393321634
 30
0.0
 40
0.5
 50
90.0
 51
180.0
  0
LINE
  5
14E
  8
0
  6
CONTINUOUS
 62
     7
 10
189.4934293286
 20
488.8393321634
 30
0.0
 11
186.2434293286
 21
488.8393321634
 31
0.0
  0
LINE
  5
14F
  8
0
  6
CONTINUOUS
 62
     7
 10
189.4934293286
 20
485.8393321634
 30
0.0
 11
189.4934293286
 21
488.8393321634
 31
0.0
  0
LINE
  5
150
  8
0
  6
CONTINUOUS
 62
     7
 10
187.9934293286
 20
485.8393321634
 30
0.0
 11
189.4934293286
 21
485.8393321634
 31
0.0
  0
ARC
  5
151
  8
0
  6
CONTINUOUS
 62
     7
 10
187.9934293286
 20
485.3393321634
 30
0.0
 40
0.5
 50
90.0
 51
180.0
  0
LINE
  5
152
  8
0
  6
CONTINUOUS
 62
     7
 10
187.4934293286
 20
480.3393321634
 30
0.0
 11
187.4934293286
 21
485.3393321634
 31
0.0
  0
ARC
  5
153
  8
0
  6
CONTINUOUS
 62
     7
 10
187.9934293286
 20
480.3393321634
 30
0.0
 40
0.5
 50
180.0
 51
270.0
  0
LINE
  5
154
  8
0
  6
CONTINUOUS
 62
     7
 10
197.4934293286
 20
479.8393321634
 30
0.0
 11
187.9934293286
 21
479.8393321634
 31
0.0
  0
ARC
  5
155
  8
0
  6
CONTINUOUS
 62
     7
 10
197.4934293286
 20
480.3393321634
 30
0.0
 40
0.5
 50
270.0
 51
0.0
  0
LINE
  5
156
  8
0
  6
CONTINUOUS
 62
     7
 10
197.9934293286
 20
485.3393321634
 30
0.0
 11
197.9934293286
 21
480.3393321634
 31
0.0
  0
ARC
  5
157
  8
0
  6
CONTINUOUS
 62
     7
 10
197.4934293286
 20
485.3393321634
 30
0.0
 40
0.5
 50
0.0
 51
90.0
  0
LINE
  5
158
  8
0
  6
CONTINUOUS
 62
     7
 10
195.9934293286
 20
485.8393321634
 30
0.0
 11
197.4934293286
 21
485.8393321634
 31
0.0
  0
LINE
  5
159
  8
0
  6
CONTINUOUS
 62
     7
 10
195.9934293286
 20
488.8393321634
 30
0.0
 11
195.9934293286
 21
485.8393321634
 31
0.0
  0
LINE
  5
15A
  8
0
  6
CONTINUOUS
 62
     7
 10
199.2434293286
 20
488.8393321634
 30
0.0
 11
195.9934293286
 21
488.8393321634
 31
0.0
  0
ARC
  5
15B
  8
0
  6
CONTINUOUS
 62
     7
 10
199.2434293286
 20
488.3393321634
 30
0.0
 40
0.5
 50
0.0
 51
90.0
  0
LINE
  5
15C
  8
0
  6
CONTINUOUS
 62
     7
 10
199.7434293286
 20
477.3393321634
 30
0.0
 11
199.7434293286
 21
488.3393321634
 31
0.0
  0
ARC
  5
15D
  8
0
  6
CONTINUOUS
 62
     7
 10
199.2434293286
 20
477.3393321634
 30
0.0
 40
0.5
 50
270.0
 51
0.0
  0
LINE
  5
15E
  8
0
  6
CONTINUOUS
 62
     7
 10
188.0434293286
 20
476.8393321634
 30
0.0
 11
199.2434293286
 21
476.8393321634
 31
0.0
  0
ARC
  5
15F
  8
0
  6
CONTINUOUS
 62
     7
 10
188.0434293286
 20
476.3393321634
 30
0.0
 40
0.5
 50
90.0
 51
180.0
  0
LINE
  5
160
  8
0
  6
CONTINUOUS
 62
     7
 10
187.5434293286
 20
471.9263591634
 30
0.0
 11
187.5434293286
 21
476.3393321634
 31
0.0
  0
ARC
  5
161
  8
0
  6
CONTINUOUS
 62
     7
 10
188.0434293286
 20
471.9263591634
 30
0.0
 40
0.5000000000000625
 50
180.0
 51
268.493953
  0
LINE
  5
162
  8
0
  6
CONTINUOUS
 62
     7
 10
198.9644553286
 20
471.1390561634
 30
0.0
 11
188.0302881026
 21
471.4265318851
 31
0.0
  0
ARC
  5
163
  8
0
  6
CONTINUOUS
 62
     7
 10
198.9434293286
 20
470.3393321634
 30
0.0
 40
0.8000003555324464
 50
271.5060490785
 51
88.4939509215
  0
LINE
  5
164
  8
0
  6
CONTINUOUS
 62
     7
 10
188.0302881026
 20
469.2521324417
 30
0.0
 11
198.9644553286
 21
469.5396081634
 31
0.0
  0
ARC
  5
165
  8
0
  6
CONTINUOUS
 62
     7
 10
188.0434293286
 20
468.7523051634
 30
0.0
 40
0.5000000000000058
 50
91.506047
 51
180.0
  0
LINE
  5
166
  8
0
  6
CONTINUOUS
 62
     7
 10
187.5434293286
 20
464.3393321634
 30
0.0
 11
187.5434293286
 21
468.7523051634
 31
0.0
  0
ARC
  5
167
  8
0
  6
CONTINUOUS
 62
     7
 10
188.0434293286
 20
464.3393321634
 30
0.0
 40
0.5
 50
180.0
 51
270.0
  0
LINE
  5
168
  8
0
  6
CONTINUOUS
 62
     7
 10
199.2434293286
 20
463.8393321634
 30
0.0
 11
188.0434293286
 21
463.8393321634
 31
0.0
  0
ARC
  5
169
  8
0
  6
CONTINUOUS
 62
     7
 10
199.2434293286
 20
463.3393321634
 30
0.0
 40
0.5
 50
0.0
 51
90.0
  0
LINE
  5
16A
  8
0
  6
CONTINUOUS
 62
     7
 10
199.7434293286
 20
460.0893304207
 30
0.0
 11
199.7434293286
 21
463.3393321634
 31
0.0
  0
LINE
  5
16B
  8
0
  6
CONTINUOUS
 62
     7
 10
197.2434283094
 20
460.0893304207
 30
0.0
 11
199.7434293286
 21
460.0893304207
 31
0.0
  0
LINE
  5
16C
  8
0
  6
CONTINUOUS
 62
     7
 10
197.2434283094
 20
461.5893304207
 30
0.0
 11
197.2434283094
 21
460.0893304207
 31
0.0
  0
ARC
  5
16D
  8
0
  6
CONTINUOUS
 62
     7
 10
196.7434283094
 20
461.5893304207
 30
0.0
 40
0.5
 50
0.0
 51
90.0
  0
LINE
  5
16E
  8
0
  6
CONTINUOUS
 62
     7
 10
189.2434283094
 20
462.0893304207
 30
0.0
 11
196.7434283094
 21
462.0893304207
 31
0.0
  0
ARC
  5
16F
  8
0
  6
CONTINUOUS
 62
     7
 10
189.2434283094
 20
461.5893304207
 30
0.0
 40
0.5
 50
90.0
 51
180.0
  0
LINE
  5
170
  8
0
  6
CONTINUOUS
 62
     7
 10
188.7434283094
 20
452.0893304207
 30
0.0
 11
188.7434283094
 21
461.5893304207
 31
0.0
  0
ARC
  5
171
  8
0
  6
CONTINUOUS
 62
     7
 10
189.2434283094
 20
452.0893304207
 30
0.0
 40
0.5
 50
180.0
 51
270.0
  0
LINE
  5
172
  8
0
  6
CONTINUOUS
 62
     7
 10
196.7434283094
 20
451.5893304207
 30
0.0
 11
189.2434283094
 21
451.5893304207
 31
0.0
  0
ARC
  5
173
  8
0
  6
CONTINUOUS
 62
     7
 10
196.7434283094
 20
452.0893304207
 30
0.0
 40
0.5
 50
270.0
 51
0.0
  0
LINE
  5
174
  8
0
  6
CONTINUOUS
 62
     7
 10
197.2434283094
 20
453.5893304207
 30
0.0
 11
197.2434283094
 21
452.0893304207
 31
0.0
  0
LINE
  5
175
  8
0
  6
CONTINUOUS
 62
     7
 10
199.7434283094
 20
453.5893304207
 30
0.0
 11
197.2434283094
 21
453.5893304207
 31
0.0
  0
LINE
  5
176
  8
0
  6
CONTINUOUS
 62
     7
 10
199.7434283094
 20
450.3393304207
 30
0.0
 11
199.7434283094
 21
453.5893304207
 31
0.0
  0
ARC
  5
177
  8
0
  6
CONTINUOUS
 62
     7
 10
199.2434283094
 20
450.3393304207
 30
0.0
 40
0.5
 50
270.0
 51
0.0
  0
LINE
  5
178
  8
0
  6
CONTINUOUS
 62
     7
 10
188.0434283094
 20
449.8393304207
 30
0.0
 11
199.2434283094
 21
449.8393304207
 31
0.0
  0
ARC
  5
179
  8
0
  6
CONTINUOUS
 62
     7
 10
188.0434283094
 20
449.3393304207
 30
0.0
 40
0.5
 50
90.0
 51
180.0
  0
LINE
  5
17A
  8
0
  6
CONTINUOUS
 62
     7
 10
187.5434283094
 20
443.6263574207
 30
0.0
 11
187.5434283094
 21
449.3393304207
 31
0.0
  0
ARC
  5
17B
  8
0
  6
CONTINUOUS
 62
     7
 10
188.0434283094
 20
443.6263574207
 30
0.0
 40
0.5
 50
180.0
 51
268.493953
  0
LINE
  5
17C
  8
0
  6
CONTINUOUS
 62
     7
 10
198.9644543094
 20
442.8390544207
 30
0.0
 11
188.0302870833
 21
443.1265301424
 31
0.0
  0
ARC
  5
17D
  8
0
  6
CONTINUOUS
 62
     7
 10
198.9434283094
 20
442.0393304207
 30
0.0
 40
0.8000003555324464
 50
271.5060490785
 51
88.4939509215
  0
LINE
  5
17E
  8
0
  6
CONTINUOUS
 62
     7
 10
188.0302870833
 20
440.952130699
 30
0.0
 11
198.9644543094
 21
441.2396064207
 31
0.0
  0
ARC
  5
17F
  8
0
  6
CONTINUOUS
 62
     7
 10
188.0434283094
 20
440.4523034207
 30
0.0
 40
0.5
 50
91.506047
 51
180.0
  0
LINE
  5
180
  8
0
  6
CONTINUOUS
 62
     7
 10
187.5434283094
 20
435.4263574207
 30
0.0
 11
187.5434283094
 21
440.4523034207
 31
0.0
  0
ARC
  5
181
  8
0
  6
CONTINUOUS
 62
     7
 10
188.0434283094
 20
435.4263574207
 30
0.0
 40
0.5000000000000064
 50
180.0
 51
268.493953
  0
LINE
  5
182
  8
0
  6
CONTINUOUS
 62
     7
 10
198.9644543094
 20
434.6390544207
 30
0.0
 11
188.0302870833
 21
434.9265301424
 31
0.0
  0
ARC
  5
183
  8
0
  6
CONTINUOUS
 62
     7
 10
198.9434283094
 20
433.8393304207
 30
0.0
 40
0.8000003555324487
 50
271.5060490785
 51
88.4939509215
  0
LINE
  5
184
  8
0
  6
CONTINUOUS
 62
     7
 10
188.0302870833
 20
432.752130699
 30
0.0
 11
198.9644543094
 21
433.0396064207
 31
0.0
  0
ARC
  5
185
  8
0
  6
CONTINUOUS
 62
     7
 10
188.0434283094
 20
432.2523034207
 30
0.0
 40
0.5
 50
91.506047
 51
180.0
  0
LINE
  5
186
  8
0
  6
CONTINUOUS
 62
     7
 10
187.5434283094
 20
426.9393304207
 30
0.0
 11
187.5434283094
 21
432.2523034207
 31
0.0
  0
ARC
  5
187
  8
0
  6
CONTINUOUS
 62
     7
 10
188.0434283094
 20
426.9393304207
 30
0.0
 40
0.5000000000000568
 50
180.0
 51
270.0
  0
LINE
  5
188
  8
0
  6
CONTINUOUS
 62
     7
 10
198.9434283094
 20
426.4393304207
 30
0.0
 11
188.0434283094
 21
426.4393304207
 31
0.0
  0
ARC
  5
189
  8
0
  6
CONTINUOUS
 62
     7
 10
198.9434283094
 20
425.6393304207
 30
0.0
 40
0.8000000000000114
 50
270.0
 51
90.0
  0
LINE
  5
18A
  8
0
  6
CONTINUOUS
 62
     7
 10
186.2434283094
 20
424.8393304207
 30
0.0
 11
198.9434283094
 21
424.8393304207
 31
0.0
  0
ARC
  5
18B
  8
0
  6
CONTINUOUS
 62
     7
 10
186.2434283094
 20
425.3393304207
 30
0.0
 40
0.5
 50
180.0
 51
270.0
  0
LINE
  5
18C
  8
0
  6
CONTINUOUS
 62
     7
 10
185.7434283094
 20
454.0158334207
 30
0.0
 11
185.7434283094
 21
425.3393304207
 31
0.0
  0
ARC
  5
18D
  8
0
  6
CONTINUOUS
 62
     7
 10
185.2434283094
 20
454.0158334207
 30
0.0
 40
0.4999999999999784
 50
0.0
 51
91.201187
  0
LINE
  5
18E
  8
0
  6
CONTINUOUS
 62
     7
 10
178.9274833094
 20
454.3835124207
 30
0.0
 11
185.2329467432
 21
454.5157235454
 31
0.0
  0
ARC
  5
18F
  8
0
  6
CONTINUOUS
 62
     7
 10
178.9379643108
 20
453.8836223524
 30
0.0
 40
0.4999999317305401
 50
91.2011224324
 51
179.357182
  0
LINE
  5
190
  8
0
  6
CONTINUOUS
 62
     7
 10
178.1433780306
 20
427.6303551075
 30
0.0
 11
178.4379958468
 21
453.8892318793
 31
0.0
  0
ARC
  5
191
  8
0
  6
CONTINUOUS
 62
     7
 10
177.3434283791
 20
427.6393303517
 30
0.0
 40
0.8000000000000207
 50
180.643929
 51
359.357182
  0
LINE
  5
192
  8
0
  6
CONTINUOUS
 62
     7
 10
176.2491028024
 20
453.822378574
 30
0.0
 11
176.5434789017
 21
427.630339596
 31
0.0
  0
ARC
  5
193
  8
0
  6
CONTINUOUS
 62
     7
 10
175.7491344368
 20
453.8167593523
 30
0.0
 40
0.4999999422120463
 50
0.643929
 51
91.2012369988
  0
LINE
  5
194
  8
0
  6
CONTINUOUS
 62
     7
 10
169.6274434356
 20
454.1885114101
 30
0.0
 11
175.7386524356
 21
454.3166494101
 31
0.0
  0
ARC
  5
195
  8
0
  6
CONTINUOUS
 62
     7
 10
169.6379254368
 20
453.6886213523
 30
0.0
 40
0.4999999422120475
 50
91.2012369988
 51
179.35246
  0
LINE
  5
196
  8
0
  6
CONTINUOUS
 62
     7
 10
168.8433774038
 20
427.6302891801
 30
0.0
 11
169.1379574264
 21
453.6942720839
 31
0.0
  0
ARC
  5
197
  8
0
  6
CONTINUOUS
 62
     7
 10
168.0434284946
 20
427.6393303517
 30
0.0
 40
0.8000000000000569
 50
180.648667
 51
359.35246
  0
LINE
  5
198
  8
0
  6
CONTINUOUS
 62
     7
 10
166.9491434516
 20
453.6274209182
 30
0.0
 11
167.2434797635
 21
427.6302734452
 31
0.0
  0
ARC
  5
199
  8
0
  6
CONTINUOUS
 62
     7
 10
166.4491754946
 20
453.6217603517
 30
0.0
 40
0.5000000000000345
 50
0.648667
 51
91.201187
  0
LINE
  5
19A
  8
0
  6
CONTINUOUS
 62
     7
 10
160.4219239284
 20
453.9954924764
 30
0.0
 11
166.4386939284
 21
454.1216504764
 31
0.0
  0
ARC
  5
19B
  8
0
  6
CONTINUOUS
 62
     7
 10
160.4324054946
 20
453.4956023517
 30
0.0
 40
0.5000000000000345
 50
91.201187
 51
178.695837
  0
LINE
  5
19C
  8
0
  6
CONTINUOUS
 62
     7
 10
159.3432212612
 20
427.6211223734
 30
0.0
 11
159.9325350155
 21
453.5069823381
 31
0.0
  0
ARC
  5
19D
  8
0
  6
CONTINUOUS
 62
     7
 10
158.5434284946
 20
427.6393303517
 30
0.0
 40
0.8000000000000114
 50
180.0
 51
358.695837
  0
LINE
  5
19E
  8
0
  6
CONTINUOUS
 62
     7
 10
157.7434284946
 20
428.8393303517
 30
0.0
 11
157.7434284946
 21
427.6393303517
 31
0.0
  0
LINE
  5
19F
  8
0
  6
CONTINUOUS
 62
     7
 10
158.7434284946
 20
428.8393303517
 30
0.0
 11
157.7434284946
 21
428.8393303517
 31
0.0
  0
LINE
  5
1A0
  8
0
  6
CONTINUOUS
 62
     7
 10
158.7434284946
 20
430.4393303517
 30
0.0
 11
158.7434284946
 21
428.8393303517
 31
0.0
  0
LINE
  5
1A1
  8
0
  6
CONTINUOUS
 62
     7
 10
157.7434284946
 20
430.4393303517
 30
0.0
 11
158.7434284946
 21
430.4393303517
 31
0.0
  0
LINE
  5
1A2
  8
0
  6
CONTINUOUS
 62
     7
 10
157.7434284946
 20
438.4393303517
 30
0.0
 11
157.7434284946
 21
430.4393303517
 31
0.0
  0
LINE
  5
1A3
  8
0
  6
CONTINUOUS
 62
     7
 10
158.7434284946
 20
438.4393303517
 30
0.0
 11
157.7434284946
 21
438.4393303517
 31
0.0
  0
LINE
  5
1A4
  8
0
  6
CONTINUOUS
 62
     7
 10
158.7434284946
 20
440.0393303517
 30
0.0
 11
158.7434284946
 21
438.4393303517
 31
0.0
  0
LINE
  5
1A5
  8
0
  6
CONTINUOUS
 62
     7
 10
157.7434284946
 20
440.0393303517
 30
0.0
 11
158.7434284946
 21
440.0393303517
 31
0.0
  0
LINE
  5
1A6
  8
0
  6
CONTINUOUS
 62
     7
 10
157.7434284946
 20
453.4393303517
 30
0.0
 11
157.7434284946
 21
440.0393303517
 31
0.0
  0
ARC
  5
1A7
  8
0
  6
CONTINUOUS
 62
     7
 10
157.2434284946
 20
453.4393303517
 30
0.0
 40
0.5
 50
0.0
 51
90.0
  0
LINE
  5
1A8
  8
0
  6
CONTINUOUS
 62
     7
 10
122.2434284946
 20
453.9393303517
 30
0.0
 11
157.2434284946
 21
453.9393303517
 31
0.0
  0
ARC
  5
1A9
  8
0
  6
CONTINUOUS
 62
     7
 10
122.2434284946
 20
453.4393303517
 30
0.0
 40
0.5
 50
90.0
 51
180.0
  0
LINE
  5
1AA
  8
0
  6
CONTINUOUS
 62
     7
 10
121.7434284946
 20
440.0393303517
 30
0.0
 11
121.7434284946
 21
453.4393303517
 31
0.0
  0
LINE
  5
1AB
  8
0
  6
CONTINUOUS
 62
     7
 10
120.7434284946
 20
440.0393303517
 30
0.0
 11
121.7434284946
 21
440.0393303517
 31
0.0
  0
LINE
  5
1AC
  8
0
  6
CONTINUOUS
 62
     7
 10
120.7434284946
 20
438.4393303517
 30
0.0
 11
120.7434284946
 21
440.0393303517
 31
0.0
  0
LINE
  5
1AD
  8
0
  6
CONTINUOUS
 62
     7
 10
121.7434284946
 20
438.4393303517
 30
0.0
 11
120.7434284946
 21
438.4393303517
 31
0.0
  0
LINE
  5
1AE
  8
0
  6
CONTINUOUS
 62
     7
 10
121.7434284946
 20
430.4393303517
 30
0.0
 11
121.7434284946
 21
438.4393303517
 31
0.0
  0
LINE
  5
1AF
  8
0
  6
CONTINUOUS
 62
     7
 10
120.7434284946
 20
430.4393303517
 30
0.0
 11
121.7434284946
 21
430.4393303517
 31
0.0
  0
LINE
  5
1B0
  8
0
  6
CONTINUOUS
 62
     7
 10
120.7434284946
 20
428.8393303517
 30
0.0
 11
120.7434284946
 21
430.4393303517
 31
0.0
  0
LINE
  5
1B1
  8
0
  6
CONTINUOUS
 62
     7
 10
121.7434284946
 20
428.8393303517
 30
0.0
 11
120.7434284946
 21
428.8393303517
 31
0.0
  0
LINE
  5
1B2
  8
0
  6
CONTINUOUS
 62
     7
 10
121.7434284946
 20
427.6393303517
 30
0.0
 11
121.7434284946
 21
428.8393303517
 31
0.0
  0
ARC
  5
1B3
  8
0
  6
CONTINUOUS
 62
     7
 10
120.9434283777
 20
427.6393303517
 30
0.0
 40
0.8000001169102987
 50
181.3041641737
 51
0.0
  0
LINE
  5
1B4
  8
0
  6
CONTINUOUS
 62
     7
 10
119.5543214946
 20
453.5069823543
 30
0.0
 11
120.1436354946
 21
427.6211223543
 31
0.0
  0
ARC
  5
1B5
  8
0
  6
CONTINUOUS
 62
     7
 10
119.0544508128
 20
453.4956023616
 30
0.0
 40
0.5000002027323708
 50
1.3041631957
 51
88.7987630012
  0
LINE
  5
1B6
  8
0
  6
CONTINUOUS
 62
     7
 10
113.0481628195
 20
454.1216506798
 30
0.0
 11
119.0649328195
 21
453.9954926798
 31
0.0
  0
ARC
  5
1B7
  8
0
  6
CONTINUOUS
 62
     7
 10
113.0376808178
 20
453.6217605981
 30
0.0
 40
0.4999999661845063
 50
88.7987630012
 51
179.3512833865
  0
LINE
  5
1B8
  8
0
  6
CONTINUOUS
 62
     7
 10
112.2433778995
 20
427.6302735972
 30
0.0
 11
112.5377128995
 21
453.6274215972
 31
0.0
  0
ARC
  5
1B9
  8
0
  6
CONTINUOUS
 62
     7
 10
111.44342899
 20
427.6393305961
 30
0.0
 40
0.8000001794161958
 50
180.6475276403
 51
359.3513265177
  0
LINE
  5
1BA
  8
0
  6
CONTINUOUS
 62
     7
 10
110.3488998995
 20
453.6942725951
 30
0.0
 11
110.6434798995
 21
427.6302895951
 31
0.0
  0
ARC
  5
1BB
  8
0
  6
CONTINUOUS
 62
     7
 10
109.8489318669
 20
453.6886215947
 30
0.0
 40
0.4999999674125771
 50
0.6475707712
 51
88.798813
  0
LINE
  5
1BC
  8
0
  6
CONTINUOUS
 62
     7
 10
103.7482044325
 20
454.3166496869
 30
0.0
 11
109.8594134325
 21
454.1885116869
 31
0.0
  0
ARC
  5
1BD
  8
0
  6
CONTINUOUS
 62
     7
 10
103.7377228707
 20
453.816759775
 30
0.0
 40
0.4999997870923794
 50
88.798813
 51
179.3560959276
  0
LINE
  5
1BE
  8
0
  6
CONTINUOUS
 62
     7
 10
102.9433776578
 20
427.6303397774
 30
0.0
 11
103.2377546578
 21
453.8223787774
 31
0.0
  0
ARC
  5
1BF
  8
0
  6
CONTINUOUS
 62
     7
 10
102.1434282477
 20
427.639330782
 30
0.0
 40
0.7999999355645737
 50
180.642800233
 51
359.3560531194
  0
LINE
  5
1C0
  8
0
  6
CONTINUOUS
 62
     7
 10
101.0488606578
 20
453.8892317866
 30
0.0
 11
101.3434786578
 21
427.6303557866
 31
0.0
  0
ARC
  5
1C1
  8
0
  6
CONTINUOUS
 62
     7
 10
100.5488918887
 20
453.8836227892
 30
0.0
 40
0.5000002309209116
 50
0.6427569425
 51
88.798813
  0
LINE
  5
1C2
  8
0
  6
CONTINUOUS
 62
     7
 10
94.2539098936
 20
454.5157240201
 30
0.0
 11
100.5593734598
 21
454.3835131448
 31
0.0
  0
ARC
  5
1C3
  8
0
  6
CONTINUOUS
 62
     7
 10
94.2434288922
 20
454.0158339518
 30
0.0
 40
0.4999999317305404
 50
88.7988775676
 51
180.0
  0
LINE
  5
1C4
  8
0
  6
CONTINUOUS
 62
     7
 10
93.7434289604
 20
425.3393309518
 30
0.0
 11
93.7434289604
 21
454.0158339518
 31
0.0
  0
ARC
  5
1C5
  8
0
  6
CONTINUOUS
 62
     7
 10
93.2434289604
 20
425.3393309518
 30
0.0
 40
0.5000000000000568
 50
270.0
 51
0.0
  0
LINE
  5
1C6
  8
0
  6
CONTINUOUS
 62
     7
 10
80.5434289604
 20
424.8393309518
 30
0.0
 11
93.2434289604
 21
424.8393309518
 31
0.0
  0
ARC
  5
1C7
  8
0
  6
CONTINUOUS
 62
     7
 10
80.5434289604
 20
425.6393309518
 30
0.0
 40
0.8000000000000682
 50
180.0
 51
270.0
  0
ARC
  5
1C8
  8
0
  6
CONTINUOUS
 62
     7
 10
80.5434289604
 20
425.6393309518
 30
0.0
 40
0.8000000000000114
 50
90.0
 51
180.0
  0
LINE
  5
1C9
  8
0
  6
CONTINUOUS
 62
     7
 10
91.4434289604
 20
426.4393309518
 30
0.0
 11
80.5434289604
 21
426.4393309518
 31
0.0
  0
ARC
  5
1CA
  8
0
  6
CONTINUOUS
 62
     7
 10
91.4434289604
 20
426.9393309518
 30
0.0
 40
0.5
 50
270.0
 51
0.0
  0
LINE
  5
1CB
  8
0
  6
CONTINUOUS
 62
     7
 10
91.9434289604
 20
432.8523039518
 30
0.0
 11
91.9434289604
 21
426.9393309518
 31
0.0
  0
ARC
  5
1CC
  8
0
  6
CONTINUOUS
 62
     7
 10
91.4434291025
 20
432.8523039518
 30
0.0
 40
0.4999998579049469
 50
0.0
 51
88.4939780537
  0
LINE
  5
1CD
  8
0
  6
CONTINUOUS
 62
     7
 10
80.5224031446
 20
433.6396074485
 30
0.0
 11
91.4565701062
 21
433.3521310939
 31
0.0
  0
ARC
  5
1CE
  8
0
  6
CONTINUOUS
 62
     7
 10
80.5434291062
 20
434.4393310939
 30
0.0
 40
0.7999999999999995
 50
180.0
 51
268.493953
  0
ARC
  5
1CF
  8
0
  6
CONTINUOUS
 62
     7
 10
80.5434291062
 20
434.4393310939
 30
0.0
 40
0.7999999999999972
 50
91.506047
 51
180.0
  0
LINE
  5
1D0
  8
0
  6
CONTINUOUS
 62
     7
 10
91.4565701062
 20
435.5265310939
 30
0.0
 11
80.5224031446
 21
435.2390547392
 31
0.0
  0
ARC
  5
1D1
  8
0
  6
CONTINUOUS
 62
     7
 10
91.4434291025
 20
436.0263582359
 30
0.0
 40
0.4999998579049469
 50
271.5060219463
 51
0.0
  0
LINE
  5
1D2
  8
0
  6
CONTINUOUS
 62
     7
 10
91.9434289604
 20
441.6523042359
 30
0.0
 11
91.9434289604
 21
436.0263582359
 31
0.0
  0
ARC
  5
1D3
  8
0
  6
CONTINUOUS
 62
     7
 10
91.4434291025
 20
441.6523042359
 30
0.0
 40
0.4999998579048963
 50
0.0
 51
88.4939780537
  0
LINE
  5
1D4
  8
0
  6
CONTINUOUS
 62
     7
 10
80.5224031446
 20
442.4396077326
 30
0.0
 11
91.4565701062
 21
442.152131378
 31
0.0
  0
ARC
  5
1D5
  8
0
  6
CONTINUOUS
 62
     7
 10
80.5434291109
 20
443.2393315557
 30
0.0
 40
0.8000001777661936
 50
180.0
 51
268.493953
  0
ARC
  5
1D6
  8
0
  6
CONTINUOUS
 62
     7
 10
80.5434291109
 20
443.2393315557
 30
0.0
 40
0.8000001777662317
 50
91.5060490785
 51
180.0
  0
LINE
  5
1D7
  8
0
  6
CONTINUOUS
 62
     7
 10
91.9434289698
 20
449.33933152
 30
0.0
 11
91.9434289698
 21
444.82635852
 31
0.0
  0
LINE
  5
1D8
  8
0
  6
CONTINUOUS
 62
     7
 10
80.2434289698
 20
449.83933152
 30
0.0
 11
91.4434289698
 21
449.83933152
 31
0.0
  0
ARC
  5
1D9
  8
0
  6
CONTINUOUS
 62
     7
 10
91.4434289698
 20
449.33933152
 30
0.0
 40
0.5
 50
0.0
 51
90.0
  0
DIMENSION
  5
1DA
  8
0
  6
CONTINUOUS
 62
     7
  2
_D
 10
79.7434289698
 20
463.33933152
 30
0.0
 11
79.7434289698
 21
521.204296971
 31
0.0
 70
   102
  1
<>
  3
SLDDIMSTYLE0
 13
79.7434289698
 23
463.33933152
 33
0.0
 14
79.7434289698
 24
518.6181857775
 34
0.0
  0
DIMENSION
  5
1E9
  8
0
  6
CONTINUOUS
 62
   154
  2
_D_1
 10
79.7434289698
 20
463.33933152
 30
0.0
 11
90.9670539517
 21
527.6695748384
 31
0.0
 70
   102
  1
<>
  3
SLDDIMSTYLE1
 13
81.4934289698
 23
485.3393318041
 33
0.0
 14
90.9670539517
 24
518.6181857775
 34
0.0
  0
DIMENSION
  5
1F4
  8
0
  6
CONTINUOUS
 62
   154
  2
_D_2
 10
79.7434289698
 20
463.33933152
 30
0.0
 11
102.1906789336
 21
527.6695748384
 31
0.0
 70
   102
  1
<>
  3
SLDDIMSTYLE1
 13
83.4934289698
 23
488.8393318041
 33
0.0
 14
102.1906789336
 24
518.6181857775
 34
0.0
  0
DIMENSION
  5
1FE
  8
0
  6
CONTINUOUS
 62
   154
  2
_D_3
 10
79.7434289698
 20
463.33933152
 30
0.0
 11
113.4143039156
 21
530.2556862647
 31
0.0
 70
   102
  1
<>
  3
SLDDIMSTYLE1
 13
89.9934289698
 23
488.8393318041
 33
0.0
 14
113.4143039156
 24
518.6181857775
 34
0.0
  0
DIMENSION
  5
208
  8
0
  6
CONTINUOUS
 62
   154
  2
_D_4
 10
79.7434289698
 20
463.33933152
 30
0.0
 11
124.6379288975
 21
523.7904081645
 31
0.0
 70
   102
  1
<>
  3
SLDDIMSTYLE1
 13
90.7434289698
 23
461.58933152
 33
0.0
 14
124.6379288975
 24
518.6181857775
 34
0.0
  0
DIMENSION
  5
212
  8
0
  6
CONTINUOUS
 62
   154
  2
_D_5
 10
79.7434289698
 20
463.33933152
 30
0.0
 11
135.8615538795
 21
530.2556862647
 31
0.0
 70
   102
  1
<>
  3
SLDDIMSTYLE1
 13
91.9934289698
 23
485.3393318041
 33
0.0
 14
135.8615538795
 24
518.6181857775
 34
0.0
  0
DIMENSION
  5
21C
  8
0
  6
CONTINUOUS
 62
   154
  2
_D_6
 10
79.7434289698
 20
463.33933152
 30
0.0
 11
146.3392749565
 21
523.7904081645
 31
0.0
 70
   102
  1
<>
  3
SLDDIMSTYLE1
 13
93.7434289698
 23
488.3393318041
 33
0.0
 14
146.3392749565
 24
518.6181857775
 34
0.0
  0
DIMENSION
  5
226
  8
0
  6
CONTINUOUS
 62
   154
  2
_D_7
 10
79.7434289698
 20
463.33933152
 30
0.0
 11
158.3088038433
 21
527.6695748384
 31
0.0
 70
   102
  1
<>
  3
SLDDIMSTYLE2
 13
102.1434289698
 23
486.0393318041
 33
0.0
 14
158.3088038433
 24
518.6181857775
 34
0.0
  0
DIMENSION
  5
231
  8
0
  6
CONTINUOUS
 62
   154
  2
_D_8
 10
79.7434289698
 20
463.33933152
 30
0.0
 11
169.5324288253
 21
527.6695748384
 31
0.0
 70
   102
  1
<>
  3
SLDDIMSTYLE2
 13
111.4434288542
 23
486.0393318041
 33
0.0
 14
169.5324288253
 24
518.6181857775
 34
0.0
  0
DIMENSION
  5
23B
  8
0
  6
CONTINUOUS
 62
   154
  2
_D_9
 10
79.7434289698
 20
463.33933152
 30
0.0
 11
180.7560538072
 21
527.6695748384
 31
0.0
 70
   102
  1
<>
  3
SLDDIMSTYLE2
 13
120.9434288542
 23
486.0393318041
 33
0.0
 14
180.7560538072
 24
518.6181857775
 34
0.0
  0
DIMENSION
  5
245
  8
0
  6
CONTINUOUS
 62
   154
  2
_D_10
 10
79.7434289698
 20
463.33933152
 30
0.0
 11
199.7434293286
 21
526.3765191252
 31
0.0
 70
   102
  1
<>
  3
SLDDIMSTYLE1
 13
199.7434293286
 23
488.3393321634
 33
0.0
 14
199.7434293286
 24
518.6181857775
 34
0.0
  0
DIMENSION
  5
24D
  8
0
  6
CONTINUOUS
 62
     7
  2
_D_11
 10
198.9434283094
 20
424.8393304207
 30
0.0
 11
237.3282737297
 21
424.8393304207
 31
0.0
 70
    38
  1
<>
  3
SLDDIMSTYLE0
 13
198.9434283094
 23
424.8393304207
 33
0.0
 14
234.7421625362
 24
424.8393304207
 34
0.0
  0
DIMENSION
  5
256
  8
0
  6
CONTINUOUS
 62
   154
  2
_D_12
 10
198.9434283094
 20
424.8393304207
 30
0.0
 11
243.7935515971
 21
436.0629554026
 31
0.0
 70
    38
  1
<>
  3
SLDDIMSTYLE1
 13
198.9434283094
 23
426.4393304207
 33
0.0
 14
234.7421625362
 24
436.0629554026
 34
0.0
  0
DIMENSION
  5
260
  8
0
  6
CONTINUOUS
 62
   154
  2
_D_13
 10
198.9434283094
 20
424.8393304207
 30
0.0
 11
237.3282737297
 21
447.2865803846
 31
0.0
 70
    38
  1
<>
  3
SLDDIMSTYLE1
 13
158.7434284946
 23
428.8393303517
 33
0.0
 14
234.7421625362
 24
447.2865803846
 34
0.0
  0
DIMENSION
  5
26A
  8
0
  6
CONTINUOUS
 62
   154
  2
_D_14
 10
198.9434283094
 20
424.8393304207
 30
0.0
 11
243.7935515971
 21
458.5102053665
 31
0.0
 70
    38
  1
<>
  3
SLDDIMSTYLE1
 13
158.7434284946
 23
430.4393303517
 33
0.0
 14
234.7421625362
 24
458.5102053665
 34
0.0
  0
DIMENSION
  5
274
  8
0
  6
CONTINUOUS
 62
   154
  2
_D_15
 10
198.9434283094
 20
424.8393304207
 30
0.0
 11
237.3282737297
 21
469.7338303485
 31
0.0
 70
    38
  1
<>
  3
SLDDIMSTYLE1
 13
198.9434283094
 23
433.8393304207
 33
0.0
 14
234.7421625362
 24
469.7338303485
 34
0.0
  0
DIMENSION
  5
27E
  8
0
  6
CONTINUOUS
 62
   154
  2
_D_16
 10
198.9434283094
 20
424.8393304207
 30
0.0
 11
246.3796630235
 21
480.9574553304
 31
0.0
 70
    38
  1
<>
  3
SLDDIMSTYLE1
 13
158.7434284946
 23
438.4393303517
 33
0.0
 14
234.7421625362
 24
480.9574553304
 34
0.0
  0
DIMENSION
  5
288
  8
0
  6
CONTINUOUS
 62
   154
  2
_D_17
 10
198.9434283094
 20
424.8393304207
 30
0.0
 11
246.3796630235
 21
492.1810803123
 31
0.0
 70
    38
  1
<>
  3
SLDDIMSTYLE1
 13
158.7434284946
 23
440.0393303517
 33
0.0
 14
234.7421625362
 24
492.1810803123
 34
0.0
  0
DIMENSION
  5
292
  8
0
  6
CONTINUOUS
 62
   154
  2
_D_18
 10
198.9434283094
 20
424.8393304207
 30
0.0
 11
246.3796630235
 21
503.4047052943
 31
0.0
 70
    38
  1
<>
  3
SLDDIMSTYLE1
 13
198.9434283094
 23
442.0393304207
 33
0.0
 14
234.7421625362
 24
503.4047052943
 34
0.0
  0
DIMENSION
  5
29C
  8
0
  6
CONTINUOUS
 62
   154
  2
_D_19
 10
198.9434283094
 20
424.8393304207
 30
0.0
 11
239.9143849233
 21
514.6283302762
 31
0.0
 70
    38
  1
<>
  3
SLDDIMSTYLE1
 13
199.2434283094
 23
449.8393304207
 33
0.0
 14
234.7421625362
 24
514.6283302762
 34
0.0
  0
DIMENSION
  5
2A6
  8
0
  6
CONTINUOUS
 62
   154
  2
_D_20
 10
198.9434283094
 20
424.8393304207
 30
0.0
 11
246.3796630235
 21
525.8519552582
 31
0.0
 70
    38
  1
<>
  3
SLDDIMSTYLE1
 13
196.7434283094
 23
451.5893304207
 33
0.0
 14
234.7421625362
 24
525.8519552582
 34
0.0
  0
DIMENSION
  5
2B0
  8
0
  6
CONTINUOUS
 62
   154
  2
_D_21
 10
198.9434283094
 20
424.8393304207
 30
0.0
 11
246.3796630235
 21
537.0755802401
 31
0.0
 70
    38
  1
<>
  3
SLDDIMSTYLE1
 13
199.7434283094
 23
453.5893304207
 33
0.0
 14
234.7421625362
 24
537.0755802401
 34
0.0
  0
DIMENSION
  5
2BA
  8
0
  6
CONTINUOUS
 62
   154
  2
_D_22
 10
198.9434283094
 20
424.8393304207
 30
0.0
 11
246.3796630235
 21
548.299205222
 31
0.0
 70
    38
  1
<>
  3
SLDDIMSTYLE1
 13
157.2434284946
 23
453.9393303517
 33
0.0
 14
234.7421625362
 24
548.299205222
 34
0.0
  0
DIMENSION
  5
2C4
  8
0
  6
CONTINUOUS
 62
   154
  2
_D_23
 10
198.9434283094
 20
424.8393304207
 30
0.0
 11
239.9143849233
 21
559.522830204
 31
0.0
 70
    38
  1
<>
  3
SLDDIMSTYLE1
 13
199.2434293286
 23
488.8393321634
 33
0.0
 14
234.7421625362
 24
559.522830204
 34
0.0
  0
DIMENSION
  5
2CE
  8
0
  6
CONTINUOUS
 62
   154
  2
_D_24
 10
158.7434288542
 20
484.113456363
 30
0.0
 11
139.5534788538
 21
484.113456363
 31
0.0
 70
   160
  1
<>
  3
SLDDIMSTYLE3
 13
120.7434288542
 23
484.8393318041
 33
0.0
 14
158.7434288542
 24
484.8393318041
 34
0.0
  0
DIMENSION
  5
2D9
  8
0
  6
CONTINUOUS
 62
   154
  2
_D_25
 10
157.7434288542
 20
469.1864801632
 30
0.0
 11
139.5534788538
 21
469.1864801632
 31
0.0
 70
   160
  1
<>
  3
SLDDIMSTYLE3
 13
121.7434288542
 23
473.6393318041
 33
0.0
 14
157.7434288542
 24
473.6393318041
 34
0.0
  0
DIMENSION
  5
2E1
  8
0
  6
CONTINUOUS
 62
   154
  2
_D_26
 10
71.0959417742
 20
460.08933152
 30
0.0
 11
71.0959417742
 21
474.3365547014
 31
0.0
 70
   160
  1
<>
  3
SLDDIMSTYLE4
 13
79.7434289698
 23
453.58933152
 33
0.0
 14
79.7434289698
 24
460.08933152
 34
0.0
 50
90.0
  0
DIMENSION
  5
2EE
  8
0
  6
CONTINUOUS
 62
   154
  2
_D_27
 10
150.5004886977
 20
459.7393318041
 30
0.0
 11
150.5004886977
 21
439.6572204855
 31
0.0
 70
   160
  1
<>
  3
SLDDIMSTYLE4
 13
157.2434284946
 23
453.9393303517
 33
0.0
 14
157.2434288542
 24
459.7393318041
 34
0.0
 50
90.0
  0
DIMENSION
  5
2F8
  8
0
  6
CONTINUOUS
 62
   154
  2
_D_28
 10
111.44342899
 20
427.6393305961
 30
0.0
 11
103.2042871789
 21
413.3687037275
 31
0.0
 70
   164
  1
<>
  3
SLDDIMSTYLE5
 15
111.0434289003
 25
426.9465101177
 35
0.0
 40
0.0
  0
DIMENSION
  5
300
  8
0
  6
CONTINUOUS
 62
   154
  2
_D_29
 10
80.2434289698
 20
488.3393318041
 30
0.0
 11
64.1707149005
 21
497.6189491456
 31
0.0
 70
   164
  1
<>
  3
SLDDIMSTYLE5
 15
79.8104162679
 25
488.5893318041
 35
0.0
 40
0.0
  0
DIMENSION
  5
307
  8
0
  6
CONTINUOUS
 62
   154
  2
_D_30
 10
113.0481628195
 20
454.1216506798
 30
0.0
 11
74.1149330854
 21
429.2408844804
 31
0.0
 70
   162
  1
<>
  3
SLDDIMSTYLE6
 13
113.0481624204
 23
459.5570116794
 33
0.0
 14
119.0649324204
 24
459.6831696794
 34
0.0
 15
119.0649328195
 25
453.9954926798
 35
0.0
 16
78.2217588837
 26
456.8393311838
 36
0.0
  0
LINE
  5
314
  8
0
  6
CENTERX2
 62
   154
 10
139.7434293087
 20
465.0911176052
 30
0.0
 11
139.7434293087
 21
451.7529054165
 31
0.0
  0
LINE
  5
315
  8
0
  6
CENTERX2
 62
   154
 10
77.5871250855
 20
456.8393310779
 30
0.0
 11
201.4071733025
 21
456.8393310779
 31
0.0
  0
LINE
  5
316
  8
0
  6
CONTINUOUS
 62
     7
 10
331.4574189242
 20
212.3956713763
 30
0.0
 11
402.1680980965
 21
253.2160775757
 31
0.0
  0
LINE
  5
317
  8
0
  6
CONTINUOUS
 62
     7
 10
382.7834032305
 20
283.5253786862
 30
0.0
 11
312.0727240582
 21
242.7049724868
 31
0.0
  0
LINE
  5
318
  8
0
  6
CONTINUOUS
 62
     7
 10
331.3331331363
 20
200.6893920685
 30
0.0
 11
402.0438123086
 21
241.5097982679
 31
0.0
  0
LINE
  5
319
  8
0
  6
CONTINUOUS
 62
     7
 10
369.896925273
 20
287.5549543931
 30
0.0
 11
299.1862461006
 21
246.7345481937
 31
0.0
  0
LINE
  5
31A
  8
0
  6
CONTINUOUS
 62
     7
 10
356.7447404115
 20
295.1475491007
 30
0.0
 11
286.0340612392
 21
254.3271429013
 31
0.0
  0
LINE
  5
31B
  8
0
  6
CONTINUOUS
 62
     7
 10
331.4574189242
 20
168.3024656303
 30
0.0
 11
402.1680980965
 21
209.1228718297
 31
0.0
  0
LINE
  5
31C
  8
0
  6
CONTINUOUS
 62
     7
 10
343.3097133181
 20
302.9034251533
 30
0.0
 11
272.5990341457
 21
262.0830189539
 31
0.0
  0
LINE
  5
31D
  8
0
  6
CONTINUOUS
 62
     7
 10
331.3331331363
 20
154.4731800156
 30
0.0
 11
402.0438123086
 21
195.293586215
 31
0.0
  0
LINE
  5
31E
  8
0
  6
CONTINUOUS
 62
     7
 10
331.3331331363
 20
141.081910635
 30
0.0
 11
402.0438123086
 21
181.9023168344
 31
0.0
  0
LINE
  5
31F
  8
0
  6
CONTINUOUS
 62
     7
 10
331.3331331363
 20
127.6906397334
 30
0.0
 11
402.0438123086
 21
168.5110459328
 31
0.0
  0
LINE
  5
320
  8
0
  6
CONTINUOUS
 62
     7
 10
290.1352815057
 20
333.6003712357
 30
0.0
 11
219.4246023334
 21
292.7799650362
 31
0.0
  0
LINE
  5
321
  8
0
  6
CONTINUOUS
 62
     7
 10
300.7861193967
 20
148.5912191891
 30
0.0
 11
311.8655775661
 21
154.9872542469
 31
0.0
  0
LINE
  5
322
  8
0
  6
CONTINUOUS
 62
     7
 10
276.7002544123
 20
341.3562472882
 30
0.0
 11
205.98957524
 21
300.5358410888
 31
0.0
  0
LINE
  5
323
  8
0
  6
CONTINUOUS
 62
     7
 10
287.6339319011
 20
156.1838154174
 30
0.0
 11
298.7389415974
 21
162.5946010577
 31
0.0
  0
LINE
  5
324
  8
0
  6
CONTINUOUS
 62
     7
 10
263.5480669167
 20
348.9488435165
 30
0.0
 11
192.8373877443
 21
308.1284373171
 31
0.0
  0
LINE
  5
325
  8
0
  6
CONTINUOUS
 62
     7
 10
274.1989021734
 20
163.9396929907
 30
0.0
 11
285.5827448828
 21
170.5114455031
 31
0.0
  0
LINE
  5
326
  8
0
  6
CONTINUOUS
 62
     7
 10
232.8767673891
 20
370.0646375176
 30
0.0
 11
162.1660882168
 21
329.2442313181
 31
0.0
  0
LINE
  5
327
  8
0
  6
CONTINUOUS
 62
     7
 10
170.6840611313
 20
304.9690433815
 30
0.0
 11
162.2903740047
 21
300.1234709443
 31
0.0
  0
LINE
  5
328
  8
0
  6
CONTINUOUS
 62
     7
 10
221.0244729953
 20
194.6366375524
 30
0.0
 11
259.0245325939
 21
216.5736050172
 31
0.0
  0
LINE
  5
329
  8
0
  6
CONTINUOUS
 62
     7
 10
170.2469350919
 20
293.0821644802
 30
0.0
 11
162.1660882168
 21
288.417190876
 31
0.0
  0
LINE
  5
32A
  8
0
  6
CONTINUOUS
 62
     7
 10
207.5894459018
 20
202.392513605
 30
0.0
 11
218.8546663061
 21
208.8957869183
 31
0.0
  0
LINE
  5
32B
  8
0
  6
CONTINUOUS
 62
     7
 10
194.437255772
 20
209.9851143958
 30
0.0
 11
205.5416227289
 21
216.3955289905
 31
0.0
  0
LINE
  5
32C
  8
0
  6
CONTINUOUS
 62
     7
 10
170.8255059549
 20
260.7941848696
 30
0.0
 11
162.2903740047
 21
255.8669580738
 31
0.0
  0
LINE
  5
32D
  8
0
  6
CONTINUOUS
 62
     7
 10
181.5507830828
 20
214.0146840194
 30
0.0
 11
192.425992356
 21
220.2928086992
 31
0.0
  0
LINE
  5
32E
  8
0
  6
CONTINUOUS
 62
     7
 10
172.5564190713
 20
247.4223000102
 30
0.0
 11
162.2903740047
 21
241.4958383415
 31
0.0
  0
LINE
  5
32F
  8
0
  6
CONTINUOUS
 62
     7
 10
172.5564190713
 20
233.0511817988
 30
0.0
 11
162.2903740047
 21
227.1247201302
 31
0.0
  0
LINE
  5
330
  8
0
  6
CONTINUOUS
 62
     7
 10
178.5238227646
 20
247.3471889068
 30
0.0
 11
163.0605760511
 21
255.8044594575
 31
0.0
  0
ARC
  5
331
  8
0
  6
CONTINUOUS
 62
     7
 10
178.7845455701
 20
247.6939251816
 30
0.0
 40
0.4338230348550401
 50
233.059248528
 51
9.5596413225
  0
LINE
  5
332
  8
0
  6
CONTINUOUS
 62
     7
 10
179.2123442186
 20
255.1360254722
 30
0.0
 11
179.2123442186
 21
247.7659719854
 31
0.0
  0
ARC
  5
333
  8
0
  6
CONTINUOUS
 62
     7
 10
177.6771394983
 20
255.0661715851
 30
0.0
 40
1.536793121656225
 50
2.6052383618
 51
57.3945769259
  0
LINE
  5
334
  8
0
  6
CONTINUOUS
 62
     7
 10
162.6660446706
 20
265.5045418275
 30
0.0
 11
178.5052412727
 21
256.3607682597
 31
0.0
  0
ARC
  5
335
  8
0
  6
CONTINUOUS
 62
     7
 10
163.4941390203
 20
266.7991342154
 30
0.0
 40
1.536785509744219
 50
182.6050912903
 51
237.3947239974
  0
LINE
  5
336
  8
0
  6
CONTINUOUS
 62
     7
 10
161.9589417247
 20
272.0367996215
 30
0.0
 11
161.9589417247
 21
266.729284615
 31
0.0
  0
LINE
  5
337
  8
0
  6
CONTINUOUS
 62
     7
 10
165.4944722589
 20
269.9957812884
 30
0.0
 11
161.9589417247
 21
272.0367996215
 31
0.0
  0
LINE
  5
338
  8
0
  6
CONTINUOUS
 62
     7
 10
165.4944722589
 20
267.5461588315
 30
0.0
 11
165.4944722589
 21
269.9957812884
 31
0.0
  0
ARC
  5
339
  8
0
  6
CONTINUOUS
 62
     7
 10
167.0296986244
 20
267.6160255627
 30
0.0
 40
1.536815328332514
 50
182.6056800452
 51
237.3943817195
  0
LINE
  5
33A
  8
0
  6
CONTINUOUS
 62
     7
 10
176.8081826124
 20
260.1983519206
 30
0.0
 11
166.2015804731
 21
266.3214130026
 31
0.0
  0
ARC
  5
33B
  8
0
  6
CONTINUOUS
 62
     7
 10
177.0842145948
 20
260.5367636207
 30
0.0
 40
0.4367105838859378
 50
230.7969361709
 51
9.2136307467
  0
LINE
  5
33C
  8
0
  6
CONTINUOUS
 62
     7
 10
177.5152908265
 20
276.1209636706
 30
0.0
 11
177.5152908265
 21
260.6066879832
 31
0.0
  0
ARC
  5
33D
  8
0
  6
CONTINUOUS
 62
     7
 10
175.9800679168
 20
276.0510981307
 30
0.0
 40
1.536811821984323
 50
2.6056415324
 51
57.3944510419
  0
LINE
  5
33E
  8
0
  6
CONTINUOUS
 62
     7
 10
166.2015804731
 20
283.468769821
 30
0.0
 11
176.8081826124
 21
277.345708739
 31
0.0
  0
ARC
  5
33F
  8
0
  6
CONTINUOUS
 62
     7
 10
165.9255479455
 20
283.1303591952
 30
0.0
 40
0.4367100959904983
 50
50.7967916553
 51
189.2136828435
  0
LINE
  5
340
  8
0
  6
CONTINUOUS
 62
     7
 10
165.4944722589
 20
280.6108116817
 30
0.0
 11
165.4944722589
 21
283.0604345189
 31
0.0
  0
LINE
  5
341
  8
0
  6
CONTINUOUS
 62
     7
 10
161.9589417247
 20
282.6518300148
 30
0.0
 11
165.4944722589
 21
280.6108116817
 31
0.0
  0
LINE
  5
342
  8
0
  6
CONTINUOUS
 62
     7
 10
161.9589417247
 20
287.9593454016
 30
0.0
 11
161.9589417247
 21
282.6518300148
 31
0.0
  0
ARC
  5
343
  8
0
  6
CONTINUOUS
 62
     7
 10
162.3900126938
 20
288.0292778366
 30
0.0
 40
0.4367066816427393
 50
50.7965195137
 51
189.2147867547
  0
LINE
  5
344
  8
0
  6
CONTINUOUS
 62
     7
 10
178.5052412727
 20
279.2239109378
 30
0.0
 11
162.6660446706
 21
288.3676845055
 31
0.0
  0
ARC
  5
345
  8
0
  6
CONTINUOUS
 62
     7
 10
178.7812723539
 20
279.5623191576
 30
0.0
 40
0.4367073173714218
 50
230.7967391893
 51
9.2145670792
  0
LINE
  5
346
  8
0
  6
CONTINUOUS
 62
     7
 10
179.2123442186
 20
286.838994883
 30
0.0
 11
179.2123442186
 21
279.6322500417
 31
0.0
  0
ARC
  5
347
  8
0
  6
CONTINUOUS
 62
     7
 10
177.6714091516
 20
286.7670169255
 30
0.0
 40
1.542615216706768
 50
2.6743746786
 51
56.4560171788
  0
LINE
  5
348
  8
0
  6
CONTINUOUS
 62
     7
 10
163.0605760511
 20
297.4489435149
 30
0.0
 11
178.5238227646
 21
288.0527279115
 31
0.0
  0
ARC
  5
349
  8
0
  6
CONTINUOUS
 62
     7
 10
164.424436823
 20
299.5060805201
 30
0.0
 40
2.468183312297037
 50
182.6743625009
 51
236.4560293565
  0
ARC
  5
34A
  8
0
  6
CONTINUOUS
 62
     7
 10
162.6434188997
 20
299.5061935951
 30
0.0
 40
0.6941165924710956
 50
53.0591637612
 51
189.5598415723
  0
LINE
  5
34B
  8
0
  6
CONTINUOUS
 62
     7
 10
178.5238227646
 20
291.6037017773
 30
0.0
 11
163.0605760511
 21
300.0609708071
 31
0.0
  0
ARC
  5
34C
  8
0
  6
CONTINUOUS
 62
     7
 10
178.7845461166
 20
291.9504371536
 30
0.0
 40
0.4338226451822047
 50
233.0591195287
 51
9.5597703217
  0
LINE
  5
34D
  8
0
  6
CONTINUOUS
 62
     7
 10
179.2123442186
 20
299.2292289368
 30
0.0
 11
179.2123442186
 21
292.022484856
 31
0.0
  0
ARC
  5
34E
  8
0
  6
CONTINUOUS
 62
     7
 10
177.6771353278
 20
299.1593742496
 30
0.0
 40
1.536797324178656
 50
2.6052610945
 51
57.3944925741
  0
LINE
  5
34F
  8
0
  6
CONTINUOUS
 62
     7
 10
162.6660446706
 20
309.597746813
 30
0.0
 11
178.5052412727
 21
300.4539732453
 31
0.0
  0
ARC
  5
350
  8
0
  6
CONTINUOUS
 62
     7
 10
163.4941351522
 20
310.8923370544
 30
0.0
 40
1.536781617171808
 50
182.6050745453
 51
237.3948023616
  0
LINE
  5
351
  8
0
  6
CONTINUOUS
 62
     7
 10
161.9589417247
 20
328.7863858438
 30
0.0
 11
161.9589417247
 21
310.8224880796
 31
0.0
  0
ARC
  5
352
  8
0
  6
CONTINUOUS
 62
     7
 10
162.3900139792
 20
328.8563173132
 30
0.0
 40
0.436707795917611
 50
50.7968564042
 51
189.2146347014
  0
LINE
  5
353
  8
0
  6
CONTINUOUS
 62
     7
 10
167.2622427944
 20
326.5413977694
 30
0.0
 11
162.6660446706
 21
329.1947264686
 31
0.0
  0
LINE
  5
354
  8
0
  6
CONTINUOUS
 62
     7
 10
167.2622427944
 20
321.6421520951
 30
0.0
 11
167.2622427944
 21
326.5413977694
 31
0.0
  0
LINE
  5
355
  8
0
  6
CONTINUOUS
 62
     7
 10
165.1409181518
 20
322.8667667446
 30
0.0
 11
167.2622427944
 21
321.6421520951
 31
0.0
  0
ARC
  5
356
  8
0
  6
CONTINUOUS
 62
     7
 10
164.864887838
 20
322.5283569355
 30
0.0
 40
0.4367080638326898
 50
50.7969489809
 51
189.2145421247
  0
LINE
  5
357
  8
0
  6
CONTINUOUS
 62
     7
 10
164.433815206
 20
314.2930197043
 30
0.0
 11
164.433815206
 21
322.4584261197
 31
0.0
  0
ARC
  5
358
  8
0
  6
CONTINUOUS
 62
     7
 10
165.9690240968
 20
314.3628743915
 30
0.0
 40
1.536797324179322
 50
182.6052610945
 51
237.3944925741
  0
LINE
  5
359
  8
0
  6
CONTINUOUS
 62
     7
 10
178.5759478795
 20
305.3123978226
 30
0.0
 11
165.1409181518
 21
313.0682753958
 31
0.0
  0
ARC
  5
35A
  8
0
  6
CONTINUOUS
 62
     7
 10
178.8519805148
 20
305.6508086525
 30
0.0
 40
0.4367103222574011
 50
230.7967976289
 51
9.2139541258
  0
LINE
  5
35B
  8
0
  6
CONTINUOUS
 62
     7
 10
179.2830560936
 20
313.8861418215
 30
0.0
 11
179.2830560936
 21
305.7207354061
 31
0.0
  0
ARC
  5
35C
  8
0
  6
CONTINUOUS
 62
     7
 10
177.7478336728
 20
313.8162789754
 30
0.0
 40
1.536811211125658
 50
2.6055420341
 51
57.3944581115
  0
LINE
  5
35D
  8
0
  6
CONTINUOUS
 62
     7
 10
176.4546285053
 20
316.3355007794
 30
0.0
 11
178.5759478795
 21
315.1108891713
 31
0.0
  0
LINE
  5
35E
  8
0
  6
CONTINUOUS
 62
     7
 10
176.4546285053
 20
321.2347464538
 30
0.0
 11
176.4546285053
 21
316.3355007794
 31
0.0
  0
LINE
  5
35F
  8
0
  6
CONTINUOUS
 62
     7
 10
181.0508213607
 20
318.581420796
 30
0.0
 11
176.4546285053
 21
321.2347464538
 31
0.0
  0
ARC
  5
360
  8
0
  6
CONTINUOUS
 62
     7
 10
180.2227030965
 20
317.2868082574
 30
0.0
 40
1.536815371034034
 50
2.6056224063
 51
57.3943777394
  0
LINE
  5
361
  8
0
  6
CONTINUOUS
 62
     7
 10
181.7579295749
 20
270.5256039517
 30
0.0
 11
181.7579295749
 21
317.3566734461
 31
0.0
  0
ARC
  5
362
  8
0
  6
CONTINUOUS
 62
     7
 10
183.2881738183
 20
270.5935953494
 30
0.0
 40
1.531753986330585
 50
182.5440772823
 51
238.1493943848
  0
LINE
  5
363
  8
0
  6
CONTINUOUS
 62
     7
 10
191.397129832
 20
264.360561997
 30
0.0
 11
182.4798576747
 21
269.2924822542
 31
0.0
  0
ARC
  5
364
  8
0
  6
CONTINUOUS
 62
     7
 10
191.6611148732
 20
264.7038519511
 30
0.0
 40
0.4330543783361711
 50
232.4402331385
 51
8.5373145722
  0
LINE
  5
365
  8
0
  6
CONTINUOUS
 62
     7
 10
192.506023953
 20
307.4105018782
 30
0.0
 11
192.0893707453
 21
264.7681403842
 31
0.0
  0
POLYLINE
  5
366
  8
0
  6
CONTINUOUS
 62
     7
 66
     1
 10
0.0
 20
0.0
 30
0.0
 70
   128
  0
VERTEX
  5
54D
  8
0
  6
CONTINUOUS
 62
     7
 10
194.7686248317
 20
306.1043545284
 30
0.0
  0
VERTEX
  5
54E
  8
0
  6
CONTINUOUS
 62
     7
 10
194.6788889229
 20
306.6515964977
 30
0.0
  0
VERTEX
  5
54F
  8
0
  6
CONTINUOUS
 62
     7
 10
194.4328092795
 20
307.2125242962
 30
0.0
  0
VERTEX
  5
550
  8
0
  6
CONTINUOUS
 62
     7
 10
194.0673328826
 20
307.7029398976
 30
0.0
  0
VERTEX
  5
551
  8
0
  6
CONTINUOUS
 62
     7
 10
193.6373138556
 20
308.0492295575
 30
0.0
  0
VERTEX
  5
552
  8
0
  6
CONTINUOUS
 62
     7
 10
193.2072948286
 20
308.1994201725
 30
0.0
  0
VERTEX
  5
553
  8
0
  6
CONTINUOUS
 62
     7
 10
192.8418184318
 20
308.1309685534
 30
0.0
  0
VERTEX
  5
554
  8
0
  6
CONTINUOUS
 62
     7
 10
192.5957545935
 20
307.8541400139
 30
0.0
  0
VERTEX
  5
555
  8
0
  6
CONTINUOUS
 62
     7
 10
192.506023953
 20
307.4105018782
 30
0.0
  0
SEQEND
  5
650
  8
0
  6
CONTINUOUS
 62
     7
  0
LINE
  5
367
  8
0
  6
CONTINUOUS
 62
     7
 10
195.1849355963
 20
263.0902858294
 30
0.0
 11
194.7686248317
 21
306.1043545284
 31
0.0
  0
ARC
  5
368
  8
0
  6
CONTINUOUS
 62
     7
 10
196.7170556938
 20
263.1691027478
 30
0.0
 40
1.534146049131923
 50
182.9448732584
 51
238.1205607503
  0
LINE
  5
369
  8
0
  6
CONTINUOUS
 62
     7
 10
204.5493752795
 20
257.086385275
 30
0.0
 11
195.9068215492
 21
261.8663653487
 31
0.0
  0
ARC
  5
36A
  8
0
  6
CONTINUOUS
 62
     7
 10
204.8133601865
 20
257.4296597284
 30
0.0
 40
0.4330420089068032
 50
232.4389970183
 51
8.5309858576
  0
LINE
  5
36B
  8
0
  6
CONTINUOUS
 62
     7
 10
205.6582114486
 20
299.8180121148
 30
0.0
 11
205.2416109245
 21
257.4938990224
 31
0.0
  0
POLYLINE
  5
36C
  8
0
  6
CONTINUOUS
 62
     7
 66
     1
 10
0.0
 20
0.0
 30
0.0
 70
   128
  0
VERTEX
  5
556
  8
0
  6
CONTINUOUS
 62
     7
 10
207.920807059
 20
298.5118708481
 30
0.0
  0
VERTEX
  5
557
  8
0
  6
CONTINUOUS
 62
     7
 10
207.8310448084
 20
299.0590945638
 30
0.0
  0
VERTEX
  5
558
  8
0
  6
CONTINUOUS
 62
     7
 10
207.584965165
 20
299.6199858601
 30
0.0
  0
VERTEX
  5
559
  8
0
  6
CONTINUOUS
 62
     7
 10
207.2194993049
 20
300.1103649603
 30
0.0
  0
VERTEX
  5
55A
  8
0
  6
CONTINUOUS
 62
     7
 10
206.7894987171
 20
300.4566348499
 30
0.0
  0
VERTEX
  5
55B
  8
0
  6
CONTINUOUS
 62
     7
 10
206.3595007635
 20
300.6068224251
 30
0.0
  0
VERTEX
  5
55C
  8
0
  6
CONTINUOUS
 62
     7
 10
205.9940401717
 20
300.5383890585
 30
0.0
  0
VERTEX
  5
55D
  8
0
  6
CONTINUOUS
 62
     7
 10
205.7479657967
 20
300.2616061458
 30
0.0
  0
VERTEX
  5
55E
  8
0
  6
CONTINUOUS
 62
     7
 10
205.6582114486
 20
299.8180121148
 30
0.0
  0
SEQEND
  5
651
  8
0
  6
CONTINUOUS
 62
     7
  0
LINE
  5
36D
  8
0
  6
CONTINUOUS
 62
     7
 10
208.3370598716
 20
255.8161079554
 30
0.0
 11
207.920807059
 21
298.5118708481
 31
0.0
  0
ARC
  5
36E
  8
0
  6
CONTINUOUS
 62
     7
 10
209.8692068676
 20
255.8950123767
 30
0.0
 40
1.534177409866125
 50
182.9480852416
 51
238.1201061828
  0
LINE
  5
36F
  8
0
  6
CONTINUOUS
 62
     7
 10
217.5679440945
 20
249.8861411399
 30
0.0
 11
209.0589458245
 21
254.5922547757
 31
0.0
  0
ARC
  5
370
  8
0
  6
CONTINUOUS
 62
     7
 10
217.8320551543
 20
250.2276606766
 30
0.0
 40
0.4317293664832633
 50
232.2837487966
 51
7.548903642
  0
LINE
  5
371
  8
0
  6
CONTINUOUS
 62
     7
 10
219.093459813
 20
292.0769772767
 30
0.0
 11
218.2600427622
 21
250.2843779876
 31
0.0
  0
POLYLINE
  5
372
  8
0
  6
CONTINUOUS
 62
     7
 66
     1
 10
0.0
 20
0.0
 30
0.0
 70
   128
  0
VERTEX
  5
55F
  8
0
  6
CONTINUOUS
 62
     7
 10
221.3559105436
 20
290.7411581717
 30
0.0
  0
VERTEX
  5
560
  8
0
  6
CONTINUOUS
 62
     7
 10
221.271016254
 20
291.2866941166
 30
0.0
  0
VERTEX
  5
561
  8
0
  6
CONTINUOUS
 62
     7
 10
221.0290775385
 20
291.848373641
 30
0.0
  0
VERTEX
  5
562
  8
0
  6
CONTINUOUS
 62
     7
 10
220.6664012729
 20
292.3419089239
 30
0.0
  0
VERTEX
  5
563
  8
0
  6
CONTINUOUS
 62
     7
 10
220.2374148437
 20
292.693232945
 30
0.0
  0
VERTEX
  5
564
  8
0
  6
CONTINUOUS
 62
     7
 10
219.8064949278
 20
292.849622769
 30
0.0
  0
VERTEX
  5
565
  8
0
  6
CONTINUOUS
 62
     7
 10
219.4383105959
 20
292.7876104955
 30
0.0
  0
VERTEX
  5
566
  8
0
  6
CONTINUOUS
 62
     7
 10
219.1881190006
 20
292.5164987287
 30
0.0
  0
VERTEX
  5
567
  8
0
  6
CONTINUOUS
 62
     7
 10
219.093459813
 20
292.0769772767
 30
0.0
  0
SEQEND
  5
652
  8
0
  6
CONTINUOUS
 62
     7
  0
LINE
  5
373
  8
0
  6
CONTINUOUS
 62
     7
 10
221.3559105436
 20
288.7814605103
 30
0.0
 11
221.3559105436
 21
290.7411581717
 31
0.0
  0
LINE
  5
374
  8
0
  6
CONTINUOUS
 62
     7
 10
219.9416967494
 20
289.597868756
 30
0.0
 11
221.3559105436
 21
288.7814605103
 31
0.0
  0
LINE
  5
375
  8
0
  6
CONTINUOUS
 62
     7
 10
219.9416967494
 20
286.9849395548
 30
0.0
 11
219.9416967494
 21
289.597868756
 31
0.0
  0
LINE
  5
376
  8
0
  6
CONTINUOUS
 62
     7
 10
221.3559105436
 20
286.1685313091
 30
0.0
 11
219.9416967494
 21
286.9849395548
 31
0.0
  0
LINE
  5
377
  8
0
  6
CONTINUOUS
 62
     7
 10
221.3559105436
 20
273.1038761775
 30
0.0
 11
221.3559105436
 21
286.1685313091
 31
0.0
  0
LINE
  5
378
  8
0
  6
CONTINUOUS
 62
     7
 10
219.9416967494
 20
273.9202844231
 30
0.0
 11
221.3559105436
 21
273.1038761775
 31
0.0
  0
LINE
  5
379
  8
0
  6
CONTINUOUS
 62
     7
 10
219.9416967494
 20
271.3073552219
 30
0.0
 11
219.9416967494
 21
273.9202844231
 31
0.0
  0
LINE
  5
37A
  8
0
  6
CONTINUOUS
 62
     7
 10
221.3559105436
 20
270.4909469763
 30
0.0
 11
219.9416967494
 21
271.3073552219
 31
0.0
  0
LINE
  5
37B
  8
0
  6
CONTINUOUS
 62
     7
 10
221.3559105436
 20
248.6076527487
 30
0.0
 11
221.3559105436
 21
270.4909469763
 31
0.0
  0
ARC
  5
37C
  8
0
  6
CONTINUOUS
 62
     7
 10
222.8911214366
 20
248.6775103732
 30
0.0
 40
1.536799457893914
 50
182.6053671002
 51
237.3945714263
  0
LINE
  5
37D
  8
0
  6
CONTINUOUS
 62
     7
 10
271.5604910174
 20
218.808624405
 30
0.0
 11
222.0630161236
 21
247.3829084405
 31
0.0
  0
ARC
  5
37E
  8
0
  6
CONTINUOUS
 62
     7
 10
271.8365232703
 20
219.1470331162
 30
0.0
 40
0.4367084387277976
 50
230.7966608
 51
9.2142757923
  0
LINE
  5
37F
  8
0
  6
CONTINUOUS
 62
     7
 10
272.2675965974
 20
241.1002562159
 30
0.0
 11
272.2675965974
 21
219.2169619883
 31
0.0
  0
LINE
  5
380
  8
0
  6
CONTINUOUS
 62
     7
 10
273.6818103916
 20
240.2838479702
 30
0.0
 11
272.2675965974
 21
241.1002562159
 31
0.0
  0
LINE
  5
381
  8
0
  6
CONTINUOUS
 62
     7
 10
273.6818103916
 20
242.8967771714
 30
0.0
 11
273.6818103916
 21
240.2838479702
 31
0.0
  0
LINE
  5
382
  8
0
  6
CONTINUOUS
 62
     7
 10
272.2675965974
 20
243.7131854171
 30
0.0
 11
273.6818103916
 21
242.8967771714
 31
0.0
  0
LINE
  5
383
  8
0
  6
CONTINUOUS
 62
     7
 10
272.2675965974
 20
256.7778405487
 30
0.0
 11
272.2675965974
 21
243.7131854171
 31
0.0
  0
LINE
  5
384
  8
0
  6
CONTINUOUS
 62
     7
 10
273.6818103916
 20
255.9614323031
 30
0.0
 11
272.2675965974
 21
256.7778405487
 31
0.0
  0
LINE
  5
385
  8
0
  6
CONTINUOUS
 62
     7
 10
273.6818103916
 20
258.5743615043
 30
0.0
 11
273.6818103916
 21
255.9614323031
 31
0.0
  0
LINE
  5
386
  8
0
  6
CONTINUOUS
 62
     7
 10
272.2675965974
 20
259.3907697499
 30
0.0
 11
273.6818103916
 21
258.5743615043
 31
0.0
  0
LINE
  5
387
  8
0
  6
CONTINUOUS
 62
     7
 10
272.2675965974
 20
261.3504674113
 30
0.0
 11
272.2675965974
 21
259.3907697499
 31
0.0
  0
POLYLINE
  5
388
  8
0
  6
CONTINUOUS
 62
     7
 66
     1
 10
0.0
 20
0.0
 30
0.0
 70
   128
  0
VERTEX
  5
568
  8
0
  6
CONTINUOUS
 62
     7
 10
274.530047328
 20
260.0741165044
 30
0.0
  0
VERTEX
  5
569
  8
0
  6
CONTINUOUS
 62
     7
 10
274.4353881404
 20
260.622929128
 30
0.0
  0
VERTEX
  5
56A
  8
0
  6
CONTINUOUS
 62
     7
 10
274.1851965451
 20
261.1829059621
 30
0.0
  0
VERTEX
  5
56B
  8
0
  6
CONTINUOUS
 62
     7
 10
273.8170122133
 20
261.6700148167
 30
0.0
  0
VERTEX
  5
56C
  8
0
  6
CONTINUOUS
 62
     7
 10
273.3860922974
 20
262.0111545374
 30
0.0
  0
VERTEX
  5
56D
  8
0
  6
CONTINUOUS
 62
     7
 10
272.9571058682
 20
262.1551277047
 30
0.0
  0
VERTEX
  5
56E
  8
0
  6
CONTINUOUS
 62
     7
 10
272.5944296025
 20
262.080329525
 30
0.0
  0
VERTEX
  5
56F
  8
0
  6
CONTINUOUS
 62
     7
 10
272.352490887
 20
261.7979864957
 30
0.0
  0
VERTEX
  5
570
  8
0
  6
CONTINUOUS
 62
     7
 10
272.2675965974
 20
261.3504674113
 30
0.0
  0
SEQEND
  5
653
  8
0
  6
CONTINUOUS
 62
     7
  0
LINE
  5
389
  8
0
  6
CONTINUOUS
 62
     7
 10
275.3634617446
 20
217.319275891
 30
0.0
 11
274.530047328
 21
260.0741165044
 31
0.0
  0
ARC
  5
38A
  8
0
  6
CONTINUOUS
 62
     7
 10
276.9074824761
 20
217.4130950146
 30
0.0
 40
1.546868464715948
 50
183.4771805366
 51
236.5823341951
  0
LINE
  5
38B
  8
0
  6
CONTINUOUS
 62
     7
 10
284.5645613165
 20
211.0037911389
 30
0.0
 11
276.0555630466
 21
216.12195779
 31
0.0
  0
POLYLINE
  5
38C
  8
0
  6
CONTINUOUS
 62
     7
 66
     1
 10
0.0
 20
0.0
 30
0.0
 70
   128
  0
VERTEX
  5
571
  8
0
  6
CONTINUOUS
 62
     7
 10
285.2864446352
 20
211.3941732986
 30
0.0
  0
VERTEX
  5
572
  8
0
  6
CONTINUOUS
 62
     7
 10
285.2711216216
 20
211.2429450695
 30
0.0
  0
VERTEX
  5
573
  8
0
  6
CONTINUOUS
 62
     7
 10
285.2288878452
 20
211.1138384623
 30
0.0
  0
VERTEX
  5
574
  8
0
  6
CONTINUOUS
 62
     7
 10
285.1613870332
 20
211.0118761082
 30
0.0
  0
VERTEX
  5
575
  8
0
  6
CONTINUOUS
 62
     7
 10
285.0712480951
 20
210.9410221667
 30
0.0
  0
VERTEX
  5
576
  8
0
  6
CONTINUOUS
 62
     7
 10
284.9619718536
 20
210.9040363061
 30
0.0
  0
VERTEX
  5
577
  8
0
  6
CONTINUOUS
 62
     7
 10
284.8378151404
 20
210.9023539191
 30
0.0
  0
VERTEX
  5
578
  8
0
  6
CONTINUOUS
 62
     7
 10
284.7036037697
 20
210.9360431398
 30
0.0
  0
VERTEX
  5
579
  8
0
  6
CONTINUOUS
 62
     7
 10
284.5645613165
 20
211.0037911389
 30
0.0
  0
SEQEND
  5
654
  8
0
  6
CONTINUOUS
 62
     7
  0
LINE
  5
38D
  8
0
  6
CONTINUOUS
 62
     7
 10
285.702700082
 20
253.6093397832
 30
0.0
 11
285.2864446352
 21
211.3941732986
 31
0.0
  0
POLYLINE
  5
38E
  8
0
  6
CONTINUOUS
 62
     7
 66
     1
 10
0.0
 20
0.0
 30
0.0
 70
   128
  0
VERTEX
  5
57A
  8
0
  6
CONTINUOUS
 62
     7
 10
287.9652956924
 20
252.3031437632
 30
0.0
  0
VERTEX
  5
57B
  8
0
  6
CONTINUOUS
 62
     7
 10
287.8755413443
 20
252.8503659587
 30
0.0
  0
VERTEX
  5
57C
  8
0
  6
CONTINUOUS
 62
     7
 10
287.6294669693
 20
253.4112602974
 30
0.0
  0
VERTEX
  5
57D
  8
0
  6
CONTINUOUS
 62
     7
 10
287.2640063775
 20
253.9016454818
 30
0.0
  0
VERTEX
  5
57E
  8
0
  6
CONTINUOUS
 62
     7
 10
286.8340084239
 20
254.2479229762
 30
0.0
  0
VERTEX
  5
57F
  8
0
  6
CONTINUOUS
 62
     7
 10
286.4040078362
 20
254.3981211976
 30
0.0
  0
VERTEX
  5
580
  8
0
  6
CONTINUOUS
 62
     7
 10
286.038541976
 20
254.329699998
 30
0.0
  0
VERTEX
  5
581
  8
0
  6
CONTINUOUS
 62
     7
 10
285.7924623326
 20
254.0529262103
 30
0.0
  0
VERTEX
  5
582
  8
0
  6
CONTINUOUS
 62
     7
 10
285.702700082
 20
253.6093397832
 30
0.0
  0
SEQEND
  5
655
  8
0
  6
CONTINUOUS
 62
     7
  0
LINE
  5
38F
  8
0
  6
CONTINUOUS
 62
     7
 10
288.3818962165
 20
209.498033944
 30
0.0
 11
287.9652956924
 21
252.3031437632
 31
0.0
  0
ARC
  5
390
  8
0
  6
CONTINUOUS
 62
     7
 10
289.9238981551
 20
209.5806600111
 30
0.0
 40
1.544214054316608
 50
183.0671828043
 51
236.6131736444
  0
LINE
  5
391
  8
0
  6
CONTINUOUS
 62
     7
 10
297.7166908602
 20
203.0927792067
 30
0.0
 11
289.0741344957
 21
208.2912807928
 31
0.0
  0
POLYLINE
  5
392
  8
0
  6
CONTINUOUS
 62
     7
 66
     1
 10
0.0
 20
0.0
 30
0.0
 70
   128
  0
VERTEX
  5
583
  8
0
  6
CONTINUOUS
 62
     7
 10
298.4385715448
 20
203.4832309484
 30
0.0
  0
VERTEX
  5
584
  8
0
  6
CONTINUOUS
 62
     7
 10
298.4232617021
 20
203.33198523
 30
0.0
  0
VERTEX
  5
585
  8
0
  6
CONTINUOUS
 62
     7
 10
298.3810305598
 20
203.2028656951
 30
0.0
  0
VERTEX
  5
586
  8
0
  6
CONTINUOUS
 62
     7
 10
298.3135376503
 20
203.1008866115
 30
0.0
  0
VERTEX
  5
587
  8
0
  6
CONTINUOUS
 62
     7
 10
298.2233960781
 20
203.0300227838
 30
0.0
  0
VERTEX
  5
588
  8
0
  6
CONTINUOUS
 62
     7
 10
298.1141198366
 20
202.9930270372
 30
0.0
  0
VERTEX
  5
589
  8
0
  6
CONTINUOUS
 62
     7
 10
297.9899552209
 20
202.9913416076
 30
0.0
  0
VERTEX
  5
58A
  8
0
  6
CONTINUOUS
 62
     7
 10
297.8557385818
 20
203.0250293069
 30
0.0
  0
VERTEX
  5
58B
  8
0
  6
CONTINUOUS
 62
     7
 10
297.7166908602
 20
203.0927792067
 30
0.0
  0
SEQEND
  5
656
  8
0
  6
CONTINUOUS
 62
     7
  0
LINE
  5
393
  8
0
  6
CONTINUOUS
 62
     7
 10
298.8548823093
 20
246.0166370896
 30
0.0
 11
298.4385715448
 21
203.4832309484
 31
0.0
  0
POLYLINE
  5
394
  8
0
  6
CONTINUOUS
 62
     7
 66
     1
 10
0.0
 20
0.0
 30
0.0
 70
   128
  0
VERTEX
  5
58C
  8
0
  6
CONTINUOUS
 62
     7
 10
301.117483188
 20
244.7104410702
 30
0.0
  0
VERTEX
  5
58D
  8
0
  6
CONTINUOUS
 62
     7
 10
301.0277525476
 20
245.2576799981
 30
0.0
  0
VERTEX
  5
58E
  8
0
  6
CONTINUOUS
 62
     7
 10
300.7816887092
 20
245.8186047562
 30
0.0
  0
VERTEX
  5
58F
  8
0
  6
CONTINUOUS
 62
     7
 10
300.4162123124
 20
246.3090294832
 30
0.0
  0
VERTEX
  5
590
  8
0
  6
CONTINUOUS
 62
     7
 10
299.9861932854
 20
246.6553282686
 30
0.0
  0
VERTEX
  5
591
  8
0
  6
CONTINUOUS
 62
     7
 10
299.5561742584
 20
246.8055280092
 30
0.0
  0
VERTEX
  5
592
  8
0
  6
CONTINUOUS
 62
     7
 10
299.1906978615
 20
246.7370855156
 30
0.0
  0
VERTEX
  5
593
  8
0
  6
CONTINUOUS
 62
     7
 10
298.9446182181
 20
246.4602721839
 30
0.0
  0
VERTEX
  5
594
  8
0
  6
CONTINUOUS
 62
     7
 10
298.8548823093
 20
246.0166370896
 30
0.0
  0
SEQEND
  5
657
  8
0
  6
CONTINUOUS
 62
     7
  0
LINE
  5
395
  8
0
  6
CONTINUOUS
 62
     7
 10
301.5341363957
 20
201.5870231628
 30
0.0
 11
301.117483188
 21
244.7104410702
 31
0.0
  0
ARC
  5
396
  8
0
  6
CONTINUOUS
 62
     7
 10
303.0761293297
 20
201.6695711693
 30
0.0
 40
1.544200887827546
 50
183.0643084826
 51
236.6133688724
  0
LINE
  5
397
  8
0
  6
CONTINUOUS
 62
     7
 10
311.1436494663
 20
195.016457023
 30
0.0
 11
302.2263773091
 21
200.3802000492
 31
0.0
  0
ARC
  5
398
  8
0
  6
CONTINUOUS
 62
     7
 10
311.4316888271
 20
195.3480049402
 30
0.0
 40
0.4391932316470863
 50
229.016821056
 51
8.9139422567
  0
LINE
  5
399
  8
0
  6
CONTINUOUS
 62
     7
 10
311.8655775661
 20
242.2471270125
 30
0.0
 11
311.8655775661
 21
195.4160582784
 31
0.0
  0
ARC
  5
39A
  8
0
  6
CONTINUOUS
 62
     7
 10
312.2966550834
 20
242.3170504093
 30
0.0
 40
0.4367116981910949
 50
50.7972730604
 51
189.2134786943
  0
LINE
  5
39B
  8
0
  6
CONTINUOUS
 62
     7
 10
317.1688786358
 20
240.0021389381
 30
0.0
 11
312.5726857803
 21
242.655464596
 31
0.0
  0
LINE
  5
39C
  8
0
  6
CONTINUOUS
 62
     7
 10
317.1688786358
 20
235.1028932638
 30
0.0
 11
317.1688786358
 21
240.0021389381
 31
0.0
  0
LINE
  5
39D
  8
0
  6
CONTINUOUS
 62
     7
 10
315.0475592616
 20
236.3275048719
 30
0.0
 11
317.1688786358
 21
235.1028932638
 31
0.0
  0
ARC
  5
39E
  8
0
  6
CONTINUOUS
 62
     7
 10
314.7715268958
 20
235.9890940961
 30
0.0
 40
0.4367101099251458
 50
50.7968205396
 51
189.2135615404
  0
LINE
  5
39F
  8
0
  6
CONTINUOUS
 62
     7
 10
314.3404510474
 20
227.753760873
 30
0.0
 11
314.3404510474
 21
235.9191703303
 31
0.0
  0
ARC
  5
3A0
  8
0
  6
CONTINUOUS
 62
     7
 10
315.8756718179
 20
227.8236259817
 30
0.0
 40
1.536809665407961
 50
182.605629098
 51
237.3944942859
  0
LINE
  5
3A1
  8
0
  6
CONTINUOUS
 62
     7
 10
328.4825889892
 20
218.7731389918
 30
0.0
 11
315.0475592616
 21
226.529016565
 31
0.0
  0
ARC
  5
3A2
  8
0
  6
CONTINUOUS
 62
     7
 10
328.7586218612
 20
219.11154385
 30
0.0
 40
0.4367058443785262
 50
230.7962783413
 51
9.2148430896
  0
LINE
  5
3A3
  8
0
  6
CONTINUOUS
 62
     7
 10
329.189691935
 20
227.346886032
 30
0.0
 11
329.189691935
 21
219.1814765748
 31
0.0
  0
ARC
  5
3A4
  8
0
  6
CONTINUOUS
 62
     7
 10
327.6544956586
 20
227.2770354124
 30
0.0
 40
1.536784537978499
 50
2.6051309793
 51
57.3947459276
  0
LINE
  5
3A5
  8
0
  6
CONTINUOUS
 62
     7
 10
326.361269615
 20
229.7962389068
 30
0.0
 11
328.4825889892
 21
228.5716272986
 31
0.0
  0
LINE
  5
3A6
  8
0
  6
CONTINUOUS
 62
     7
 10
326.361269615
 20
234.6954845811
 30
0.0
 11
326.361269615
 21
229.7962389068
 31
0.0
  0
LINE
  5
3A7
  8
0
  6
CONTINUOUS
 62
     7
 10
330.9574624705
 20
232.0421589233
 30
0.0
 11
326.361269615
 21
234.6954845811
 31
0.0
  0
ARC
  5
3A8
  8
0
  6
CONTINUOUS
 62
     7
 10
330.1293581661
 20
230.7475608748
 30
0.0
 40
1.536795642246565
 50
2.6052285978
 51
57.3945250708
  0
LINE
  5
3A9
  8
0
  6
CONTINUOUS
 62
     7
 10
331.6645654163
 20
212.8535168507
 30
0.0
 11
331.6645654163
 21
230.8174146148
 31
0.0
  0
ARC
  5
3AA
  8
0
  6
CONTINUOUS
 62
     7
 10
331.2334948307
 20
212.7835850122
 30
0.0
 40
0.4367062076699934
 50
230.796403878
 51
9.2147175529
  0
LINE
  5
3AB
  8
0
  6
CONTINUOUS
 62
     7
 10
315.1182711367
 20
221.5889497941
 30
0.0
 11
330.9574624705
 21
212.4451792677
 31
0.0
  0
ARC
  5
3AC
  8
0
  6
CONTINUOUS
 62
     7
 10
314.8422385014
 20
221.2505389641
 30
0.0
 40
0.436710322257375
 50
50.7967976289
 51
189.2139541258
  0
LINE
  5
3AD
  8
0
  6
CONTINUOUS
 62
     7
 10
314.4111629225
 20
213.9738681297
 30
0.0
 11
314.4111629225
 21
221.1806122106
 31
0.0
  0
ARC
  5
3AE
  8
0
  6
CONTINUOUS
 62
     7
 10
315.9521018452
 20
214.0458482745
 30
0.0
 40
1.542619170343345
 50
182.674449148
 51
236.4559427094
  0
LINE
  5
3AF
  8
0
  6
CONTINUOUS
 62
     7
 10
330.5629310899
 20
203.3639210188
 30
0.0
 11
315.0996843765
 21
212.7601351013
 31
0.0
  0
POLYLINE
  5
3B0
  8
0
  6
CONTINUOUS
 62
     7
 66
     1
 10
0.0
 20
0.0
 30
0.0
 70
   128
  0
VERTEX
  5
595
  8
0
  6
CONTINUOUS
 62
     7
 10
330.5629310899
 20
200.7518922056
 30
0.0
  0
VERTEX
  5
596
  8
0
  6
CONTINUOUS
 62
     7
 10
330.9866755048
 20
200.6163566426
 30
0.0
  0
VERTEX
  5
597
  8
0
  6
CONTINUOUS
 62
     7
 10
331.3436435067
 20
200.6956212457
 30
0.0
  0
VERTEX
  5
598
  8
0
  6
CONTINUOUS
 62
     7
 10
331.5812727069
 20
200.9780094984
 30
0.0
  0
VERTEX
  5
599
  8
0
  6
CONTINUOUS
 62
     7
 10
331.6645706846
 20
201.421943611
 30
0.0
  0
VERTEX
  5
59A
  8
0
  6
CONTINUOUS
 62
     7
 10
331.5812727069
 20
201.9620515215
 30
0.0
  0
VERTEX
  5
59B
  8
0
  6
CONTINUOUS
 62
     7
 10
331.3436435067
 20
202.5188006089
 30
0.0
  0
VERTEX
  5
59C
  8
0
  6
CONTINUOUS
 62
     7
 10
330.9866755048
 20
203.0102116941
 30
0.0
  0
VERTEX
  5
59D
  8
0
  6
CONTINUOUS
 62
     7
 10
330.5629310899
 20
203.3639210188
 30
0.0
  0
SEQEND
  5
658
  8
0
  6
CONTINUOUS
 62
     7
  0
LINE
  5
3B1
  8
0
  6
CONTINUOUS
 62
     7
 10
315.0996843765
 20
209.2091627563
 30
0.0
 11
330.5629310899
 21
200.7518922056
 31
0.0
  0
ARC
  5
3B2
  8
0
  6
CONTINUOUS
 62
     7
 10
314.838961841
 20
208.8624260376
 30
0.0
 40
0.4338232274047236
 50
53.0593122703
 51
189.5595775802
  0
LINE
  5
3B3
  8
0
  6
CONTINUOUS
 62
     7
 10
314.4111629225
 20
201.5836340759
 30
0.0
 11
314.4111629225
 21
208.7903796777
 31
0.0
  0
ARC
  5
3B4
  8
0
  6
CONTINUOUS
 62
     7
 10
315.9463811729
 20
201.6534961219
 30
0.0
 40
1.536807008683006
 50
182.6055193039
 51
237.3945424608
  0
LINE
  5
3B5
  8
0
  6
CONTINUOUS
 62
     7
 10
330.9574624705
 20
191.2151177206
 30
0.0
 11
315.1182711367
 21
200.358888247
 31
0.0
  0
ARC
  5
3B6
  8
0
  6
CONTINUOUS
 62
     7
 10
330.1293699955
 20
189.9205264151
 30
0.0
 40
1.536783587715528
 50
2.6050541542
 51
57.3947611336
  0
LINE
  5
3B7
  8
0
  6
CONTINUOUS
 62
     7
 10
331.6645654163
 20
184.6828572649
 30
0.0
 11
331.6645654163
 21
189.9903749331
 31
0.0
  0
LINE
  5
3B8
  8
0
  6
CONTINUOUS
 62
     7
 10
328.1290348821
 20
186.723875598
 30
0.0
 11
331.6645654163
 21
184.6828572649
 31
0.0
  0
LINE
  5
3B9
  8
0
  6
CONTINUOUS
 62
     7
 10
328.1290348821
 20
189.1734976748
 30
0.0
 11
328.1290348821
 21
186.723875598
 31
0.0
  0
ARC
  5
3BA
  8
0
  6
CONTINUOUS
 62
     7
 10
326.5938085166
 20
189.1036309435
 30
0.0
 40
1.536815328332255
 50
2.6056800452
 51
57.3943817195
  0
LINE
  5
3BB
  8
0
  6
CONTINUOUS
 62
     7
 10
316.8153245287
 20
196.5213045856
 30
0.0
 11
327.4219266679
 21
190.3982435036
 31
0.0
  0
ARC
  5
3BC
  8
0
  6
CONTINUOUS
 62
     7
 10
316.5392925463
 20
196.1828928855
 30
0.0
 40
0.4367105838859639
 50
50.7969361709
 51
189.2136307467
  0
LINE
  5
3BD
  8
0
  6
CONTINUOUS
 62
     7
 10
316.1082163145
 20
180.5986935961
 30
0.0
 11
316.1082163145
 21
196.1129685231
 31
0.0
  0
ARC
  5
3BE
  8
0
  6
CONTINUOUS
 62
     7
 10
317.6434419677
 20
180.6685599161
 30
0.0
 40
1.536814598064344
 50
182.605665936
 51
237.3943958287
  0
LINE
  5
3BF
  8
0
  6
CONTINUOUS
 62
     7
 10
327.4219266679
 20
173.2508866852
 30
0.0
 11
316.8153245287
 21
179.3739477672
 31
0.0
  0
ARC
  5
3C0
  8
0
  6
CONTINUOUS
 62
     7
 10
327.6979587783
 20
173.5892981637
 30
0.0
 40
0.4367104930547443
 50
230.7969047856
 51
9.213662132
  0
LINE
  5
3C1
  8
0
  6
CONTINUOUS
 62
     7
 10
328.1290348821
 20
176.1088448245
 30
0.0
 11
328.1290348821
 21
173.6592227478
 31
0.0
  0
LINE
  5
3C2
  8
0
  6
CONTINUOUS
 62
     7
 10
331.6645654163
 20
174.0678264914
 30
0.0
 11
328.1290348821
 21
176.1088448245
 31
0.0
  0
LINE
  5
3C3
  8
0
  6
CONTINUOUS
 62
     7
 10
331.6645654163
 20
168.7603111047
 30
0.0
 11
331.6645654163
 21
174.0678264914
 31
0.0
  0
ARC
  5
3C4
  8
0
  6
CONTINUOUS
 62
     7
 10
331.2334904767
 20
168.6903845045
 30
0.0
 40
0.4367096666302064
 50
230.7966192247
 51
9.2139476928
  0
LINE
  5
3C5
  8
0
  6
CONTINUOUS
 62
     7
 10
315.1182658683
 20
177.4957455685
 30
0.0
 11
330.9574572021
 21
168.3519750421
 31
0.0
  0
ARC
  5
3C6
  8
0
  6
CONTINUOUS
 62
     7
 10
314.8422333463
 20
177.1573399738
 30
0.0
 40
0.4367061937601263
 50
50.796374998
 51
189.2148388517
  0
LINE
  5
3C7
  8
0
  6
CONTINUOUS
 62
     7
 10
314.4111629225
 20
167.7576560769
 30
0.0
 11
314.4111629225
 21
177.087407225
 31
0.0
  0
ARC
  5
3C8
  8
0
  6
CONTINUOUS
 62
     7
 10
315.9521050669
 20
167.8296364381
 30
0.0
 40
1.542622398655597
 50
182.6744515962
 51
236.4558786351
  0
LINE
  5
3C9
  8
0
  6
CONTINUOUS
 62
     7
 10
330.5629310899
 20
157.1477089659
 30
0.0
 11
315.0996843765
 21
166.5439215275
 31
0.0
  0
POLYLINE
  5
3CA
  8
0
  6
CONTINUOUS
 62
     7
 66
     1
 10
0.0
 20
0.0
 30
0.0
 70
   128
  0
VERTEX
  5
59E
  8
0
  6
CONTINUOUS
 62
     7
 10
330.5629310899
 20
154.5356801528
 30
0.0
  0
VERTEX
  5
59F
  8
0
  6
CONTINUOUS
 62
     7
 10
330.9866755048
 20
154.4001445898
 30
0.0
  0
VERTEX
  5
5A0
  8
0
  6
CONTINUOUS
 62
     7
 10
331.3436382383
 20
154.4794107134
 30
0.0
  0
VERTEX
  5
5A1
  8
0
  6
CONTINUOUS
 62
     7
 10
331.5812674386
 20
154.761800487
 30
0.0
  0
VERTEX
  5
5A2
  8
0
  6
CONTINUOUS
 62
     7
 10
331.6645654163
 20
155.2057330786
 30
0.0
  0
VERTEX
  5
5A3
  8
0
  6
CONTINUOUS
 62
     7
 10
331.5812674386
 20
155.7458409891
 30
0.0
  0
VERTEX
  5
5A4
  8
0
  6
CONTINUOUS
 62
     7
 10
331.3436382383
 20
156.3025915974
 30
0.0
  0
VERTEX
  5
5A5
  8
0
  6
CONTINUOUS
 62
     7
 10
330.9866755048
 20
156.7939981204
 30
0.0
  0
VERTEX
  5
5A6
  8
0
  6
CONTINUOUS
 62
     7
 10
330.5629310899
 20
157.1477089659
 30
0.0
  0
SEQEND
  5
659
  8
0
  6
CONTINUOUS
 62
     7
  0
LINE
  5
3CB
  8
0
  6
CONTINUOUS
 62
     7
 10
315.0996843765
 20
162.9929491826
 30
0.0
 11
330.5629310899
 21
154.5356801528
 31
0.0
  0
ARC
  5
3CC
  8
0
  6
CONTINUOUS
 62
     7
 10
314.8389618386
 20
162.6462127295
 30
0.0
 40
0.4338230165626752
 50
53.0592909349
 51
189.5594141425
  0
LINE
  5
3CD
  8
0
  6
CONTINUOUS
 62
     7
 10
314.4111629225
 20
154.3663851753
 30
0.0
 11
314.4111629225
 21
162.5741676249
 31
0.0
  0
ARC
  5
3CE
  8
0
  6
CONTINUOUS
 62
     7
 10
315.9521036076
 20
154.438367931
 30
0.0
 40
1.542621052654185
 50
182.6745429614
 51
236.4559105223
  0
LINE
  5
3CF
  8
0
  6
CONTINUOUS
 62
     7
 10
330.5629310899
 20
143.7564380644
 30
0.0
 11
315.0996843765
 21
153.1526536678
 31
0.0
  0
POLYLINE
  5
3D0
  8
0
  6
CONTINUOUS
 62
     7
 66
     1
 10
0.0
 20
0.0
 30
0.0
 70
   128
  0
VERTEX
  5
5A7
  8
0
  6
CONTINUOUS
 62
     7
 10
330.5629310899
 20
141.1444092512
 30
0.0
  0
VERTEX
  5
5A8
  8
0
  6
CONTINUOUS
 62
     7
 10
330.9866755048
 20
141.0088736882
 30
0.0
  0
VERTEX
  5
5A9
  8
0
  6
CONTINUOUS
 62
     7
 10
331.3436382383
 20
141.0881413327
 30
0.0
  0
VERTEX
  5
5AA
  8
0
  6
CONTINUOUS
 62
     7
 10
331.5812674386
 20
141.3705295854
 30
0.0
  0
VERTEX
  5
5AB
  8
0
  6
CONTINUOUS
 62
     7
 10
331.6645654163
 20
141.8144652189
 30
0.0
  0
VERTEX
  5
5AC
  8
0
  6
CONTINUOUS
 62
     7
 10
331.5812674386
 20
142.3545716085
 30
0.0
  0
VERTEX
  5
5AD
  8
0
  6
CONTINUOUS
 62
     7
 10
331.3436382383
 20
142.9113206959
 30
0.0
  0
VERTEX
  5
5AE
  8
0
  6
CONTINUOUS
 62
     7
 10
330.9866755048
 20
143.4027287398
 30
0.0
  0
VERTEX
  5
5AF
  8
0
  6
CONTINUOUS
 62
     7
 10
330.5629310899
 20
143.7564380644
 30
0.0
  0
SEQEND
  5
65A
  8
0
  6
CONTINUOUS
 62
     7
  0
LINE
  5
3D1
  8
0
  6
CONTINUOUS
 62
     7
 10
315.0996843765
 20
149.6016813229
 30
0.0
 11
330.5629310899
 21
141.1444092512
 31
0.0
  0
ARC
  5
3D2
  8
0
  6
CONTINUOUS
 62
     7
 10
314.8389618434
 20
149.2549443385
 30
0.0
 40
0.4338234382496287
 50
53.0593336059
 51
189.5597410173
  0
LINE
  5
3D3
  8
0
  6
CONTINUOUS
 62
     7
 10
314.4111629225
 20
140.506377115
 30
0.0
 11
314.4111629225
 21
149.1828967233
 31
0.0
  0
ARC
  5
3D4
  8
0
  6
CONTINUOUS
 62
     7
 10
315.9463591989
 20
140.5762277347
 30
0.0
 40
1.536784537978226
 50
182.6051309792
 51
237.3947459277
  0
LINE
  5
3D5
  8
0
  6
CONTINUOUS
 62
     7
 10
330.5331964883
 20
130.3827858188
 30
0.0
 11
315.1182658683
 21
139.2816358484
 31
0.0
  0
POLYLINE
  5
3D6
  8
0
  6
CONTINUOUS
 62
     7
 66
     1
 10
0.0
 20
0.0
 30
0.0
 70
   128
  0
VERTEX
  5
5B0
  8
0
  6
CONTINUOUS
 62
     7
 10
330.5331964883
 20
127.7698535758
 30
0.0
  0
VERTEX
  5
5B1
  8
0
  6
CONTINUOUS
 62
     7
 10
330.9661499896
 20
127.6193651346
 30
0.0
  0
VERTEX
  5
5B2
  8
0
  6
CONTINUOUS
 62
     7
 10
331.3331963566
 20
127.6906823253
 30
0.0
  0
VERTEX
  5
5B3
  8
0
  6
CONTINUOUS
 62
     7
 10
331.5784435997
 20
127.9729496187
 30
0.0
  0
VERTEX
  5
5B4
  8
0
  6
CONTINUOUS
 62
     7
 10
331.6645654163
 20
128.4231943173
 30
0.0
  0
VERTEX
  5
5B5
  8
0
  6
CONTINUOUS
 62
     7
 10
331.5784435997
 20
128.9728761907
 30
0.0
  0
VERTEX
  5
5B6
  8
0
  6
CONTINUOUS
 62
     7
 10
331.3331963566
 20
129.5382999239
 30
0.0
  0
VERTEX
  5
5B7
  8
0
  6
CONTINUOUS
 62
     7
 10
330.9661499896
 20
130.0333998294
 30
0.0
  0
VERTEX
  5
5B8
  8
0
  6
CONTINUOUS
 62
     7
 10
330.5331964883
 20
130.3827858188
 30
0.0
  0
SEQEND
  5
65B
  8
0
  6
CONTINUOUS
 62
     7
  0
LINE
  5
3D7
  8
0
  6
CONTINUOUS
 62
     7
 10
312.5726857803
 20
138.1382357103
 30
0.0
 11
330.5331964883
 21
127.7698535758
 31
0.0
  0
ARC
  5
3D8
  8
0
  6
CONTINUOUS
 62
     7
 10
313.4008040445
 20
139.4328482489
 30
0.0
 40
1.536815371033936
 50
182.6056224062
 51
237.3943777394
  0
LINE
  5
3D9
  8
0
  6
CONTINUOUS
 62
     7
 10
311.8655775661
 20
186.194053315
 30
0.0
 11
311.8655775661
 21
139.3629830601
 31
0.0
  0
ARC
  5
3DA
  8
0
  6
CONTINUOUS
 62
     7
 10
310.3353356581
 20
186.126062639
 30
0.0
 40
1.531751621223443
 50
2.5440541914
 51
58.149674262
  0
LINE
  5
3DB
  8
0
  6
CONTINUOUS
 62
     7
 10
302.2263773091
 20
192.3590948895
 30
0.0
 11
311.143644198
 21
187.4271776737
 31
0.0
  0
ARC
  5
3DC
  8
0
  6
CONTINUOUS
 62
     7
 10
301.9623906265
 20
192.015807723
 30
0.0
 40
0.4330531690791293
 50
52.4398361714
 51
188.5377115393
  0
LINE
  5
3DD
  8
0
  6
CONTINUOUS
 62
     7
 10
301.117483188
 20
149.3091576698
 30
0.0
 11
301.5341363957
 21
191.9515165023
 31
0.0
  0
POLYLINE
  5
3DE
  8
0
  6
CONTINUOUS
 62
     7
 66
     1
 10
0.0
 20
0.0
 30
0.0
 70
   128
  0
VERTEX
  5
5B9
  8
0
  6
CONTINUOUS
 62
     7
 10
298.8548823093
 20
150.6153019778
 30
0.0
  0
VERTEX
  5
5BA
  8
0
  6
CONTINUOUS
 62
     7
 10
298.9446182181
 20
150.0680600086
 30
0.0
  0
VERTEX
  5
5BB
  8
0
  6
CONTINUOUS
 62
     7
 10
299.1906925932
 20
149.5071352514
 30
0.0
  0
VERTEX
  5
5BC
  8
0
  6
CONTINUOUS
 62
     7
 10
299.5561742584
 20
149.0167166087
 30
0.0
  0
VERTEX
  5
5BD
  8
0
  6
CONTINUOUS
 62
     7
 10
299.9861932854
 20
148.6704269488
 30
0.0
  0
VERTEX
  5
5BE
  8
0
  6
CONTINUOUS
 62
     7
 10
300.4162123124
 20
148.5202393756
 30
0.0
  0
VERTEX
  5
5BF
  8
0
  6
CONTINUOUS
 62
     7
 10
300.7816887092
 20
148.5886909947
 30
0.0
  0
VERTEX
  5
5C0
  8
0
  6
CONTINUOUS
 62
     7
 10
301.0277525476
 20
148.8655164924
 30
0.0
  0
VERTEX
  5
5C1
  8
0
  6
CONTINUOUS
 62
     7
 10
301.117483188
 20
149.3091576698
 30
0.0
  0
SEQEND
  5
65C
  8
0
  6
CONTINUOUS
 62
     7
  0
LINE
  5
3DF
  8
0
  6
CONTINUOUS
 62
     7
 10
298.4385715448
 20
193.629371057
 30
0.0
 11
298.8548823093
 21
150.6153019778
 31
0.0
  0
ARC
  5
3E0
  8
0
  6
CONTINUOUS
 62
     7
 10
296.9064523761
 20
193.5505546866
 30
0.0
 40
1.53414509325089
 50
2.9448546049
 51
58.1205794038
  0
LINE
  5
3E1
  8
0
  6
CONTINUOUS
 62
     7
 10
289.0741318615
 20
199.6332719917
 30
0.0
 11
297.7166855918
 21
194.8532915378
 31
0.0
  0
ARC
  5
3E2
  8
0
  6
CONTINUOUS
 62
     7
 10
288.8101471309
 20
199.2899946502
 30
0.0
 40
0.4330441907790867
 50
52.4392484589
 51
188.5304035808
  0
LINE
  5
3E3
  8
0
  6
CONTINUOUS
 62
     7
 10
287.9652956924
 20
156.9016443915
 30
0.0
 11
288.3818935823
 21
199.2257593848
 31
0.0
  0
POLYLINE
  5
3E4
  8
0
  6
CONTINUOUS
 62
     7
 66
     1
 10
0.0
 20
0.0
 30
0.0
 70
   128
  0
VERTEX
  5
5C2
  8
0
  6
CONTINUOUS
 62
     7
 10
285.7026974478
 20
158.2077902206
 30
0.0
  0
VERTEX
  5
5C3
  8
0
  6
CONTINUOUS
 62
     7
 10
285.7924623326
 20
157.6605649843
 30
0.0
  0
VERTEX
  5
5C4
  8
0
  6
CONTINUOUS
 62
     7
 10
286.038541976
 20
157.0996706461
 30
0.0
  0
VERTEX
  5
5C5
  8
0
  6
CONTINUOUS
 62
     7
 10
286.4040078362
 20
156.6092915459
 30
0.0
  0
VERTEX
  5
5C6
  8
0
  6
CONTINUOUS
 62
     7
 10
286.8340084239
 20
156.2630216564
 30
0.0
  0
VERTEX
  5
5C7
  8
0
  6
CONTINUOUS
 62
     7
 10
287.2640063775
 20
156.1128340812
 30
0.0
  0
VERTEX
  5
5C8
  8
0
  6
CONTINUOUS
 62
     7
 10
287.6294669693
 20
156.1812674478
 30
0.0
  0
VERTEX
  5
5C9
  8
0
  6
CONTINUOUS
 62
     7
 10
287.8755413443
 20
156.4580503605
 30
0.0
  0
VERTEX
  5
5CA
  8
0
  6
CONTINUOUS
 62
     7
 10
287.9652956924
 20
156.9016443915
 30
0.0
  0
SEQEND
  5
65D
  8
0
  6
CONTINUOUS
 62
     7
  0
LINE
  5
3E5
  8
0
  6
CONTINUOUS
 62
     7
 10
285.2864446352
 20
200.903550832
 30
0.0
 11
285.7026974478
 21
158.2077902206
 31
0.0
  0
ARC
  5
3E6
  8
0
  6
CONTINUOUS
 62
     7
 10
283.7543078786
 20
200.8246520456
 30
0.0
 40
1.534166894270262
 50
2.9478947437
 51
58.1203122601
  0
LINE
  5
3E7
  8
0
  6
CONTINUOUS
 62
     7
 10
276.0555630466
 20
206.8335161268
 30
0.0
 11
284.5645586823
 21
202.1274036315
 31
0.0
  0
ARC
  5
3E8
  8
0
  6
CONTINUOUS
 62
     7
 10
275.79145002
 20
206.4919973936
 30
0.0
 40
0.4317299339743043
 50
52.283477093
 51
187.5487976563
  0
LINE
  5
3E9
  8
0
  6
CONTINUOUS
 62
     7
 10
274.5300446938
 20
164.6426807502
 30
0.0
 11
275.3634617446
 21
206.4352807998
 31
0.0
  0
POLYLINE
  5
3EA
  8
0
  6
CONTINUOUS
 62
     7
 66
     1
 10
0.0
 20
0.0
 30
0.0
 70
   128
  0
VERTEX
  5
5CB
  8
0
  6
CONTINUOUS
 62
     7
 10
272.2675965974
 20
165.9784983345
 30
0.0
  0
VERTEX
  5
5CC
  8
0
  6
CONTINUOUS
 62
     7
 10
272.352490887
 20
165.4329623897
 30
0.0
  0
VERTEX
  5
5CD
  8
0
  6
CONTINUOUS
 62
     7
 10
272.5944296025
 20
164.8712828653
 30
0.0
  0
VERTEX
  5
5CE
  8
0
  6
CONTINUOUS
 62
     7
 10
272.9571058682
 20
164.3777475823
 30
0.0
  0
VERTEX
  5
5CF
  8
0
  6
CONTINUOUS
 62
     7
 10
273.3860922974
 20
164.0264235612
 30
0.0
  0
VERTEX
  5
5D0
  8
0
  6
CONTINUOUS
 62
     7
 10
273.8170122133
 20
163.8700337372
 30
0.0
  0
VERTEX
  5
5D1
  8
0
  6
CONTINUOUS
 62
     7
 10
274.185193911
 20
163.9320475314
 30
0.0
  0
VERTEX
  5
5D2
  8
0
  6
CONTINUOUS
 62
     7
 10
274.4353881404
 20
164.2031577775
 30
0.0
  0
VERTEX
  5
5D3
  8
0
  6
CONTINUOUS
 62
     7
 10
274.5300446938
 20
164.6426807502
 30
0.0
  0
SEQEND
  5
65E
  8
0
  6
CONTINUOUS
 62
     7
  0
LINE
  5
3EB
  8
0
  6
CONTINUOUS
 62
     7
 10
272.2675965974
 20
167.9381959959
 30
0.0
 11
272.2675965974
 21
165.9784983345
 31
0.0
  0
LINE
  5
3EC
  8
0
  6
CONTINUOUS
 62
     7
 10
273.6818103916
 20
167.1217877502
 30
0.0
 11
272.2675965974
 21
167.9381959959
 31
0.0
  0
LINE
  5
3ED
  8
0
  6
CONTINUOUS
 62
     7
 10
273.6818103916
 20
169.7347199933
 30
0.0
 11
273.6818103916
 21
167.1217877502
 31
0.0
  0
LINE
  5
3EE
  8
0
  6
CONTINUOUS
 62
     7
 10
272.2675965974
 20
170.551128239
 30
0.0
 11
273.6818103916
 21
169.7347199933
 31
0.0
  0
LINE
  5
3EF
  8
0
  6
CONTINUOUS
 62
     7
 10
272.2675965974
 20
183.6157803287
 30
0.0
 11
272.2675965974
 21
170.551128239
 31
0.0
  0
LINE
  5
3F0
  8
0
  6
CONTINUOUS
 62
     7
 10
273.6818103916
 20
182.7993720831
 30
0.0
 11
272.2675965974
 21
183.6157803287
 31
0.0
  0
LINE
  5
3F1
  8
0
  6
CONTINUOUS
 62
     7
 10
273.6818103916
 20
185.4123012843
 30
0.0
 11
273.6818103916
 21
182.7993720831
 31
0.0
  0
LINE
  5
3F2
  8
0
  6
CONTINUOUS
 62
     7
 10
272.2675965974
 20
186.22870953
 30
0.0
 11
273.6818103916
 21
185.4123012843
 31
0.0
  0
LINE
  5
3F3
  8
0
  6
CONTINUOUS
 62
     7
 10
272.2675965974
 20
208.112004518
 30
0.0
 11
272.2675965974
 21
186.22870953
 31
0.0
  0
ARC
  5
3F4
  8
0
  6
CONTINUOUS
 62
     7
 10
270.7323856315
 20
208.0421464495
 30
0.0
 40
1.536799550881893
 50
2.6053835129
 51
57.3945704183
  0
LINE
  5
3F5
  8
0
  6
CONTINUOUS
 62
     7
 10
222.0630161236
 20
237.9110324814
 30
0.0
 11
271.5604910174
 21
209.336748446
 31
0.0
  0
ARC
  5
3F6
  8
0
  6
CONTINUOUS
 62
     7
 10
221.7869832225
 20
237.5726224373
 30
0.0
 40
0.4367098813077246
 50
50.7967054395
 51
189.2138152687
  0
LINE
  5
3F7
  8
0
  6
CONTINUOUS
 62
     7
 10
221.3559079094
 20
215.6194018111
 30
0.0
 11
221.3559079094
 21
237.5026967991
 31
0.0
  0
LINE
  5
3F8
  8
0
  6
CONTINUOUS
 62
     7
 10
219.9416941153
 20
216.4358100567
 30
0.0
 11
221.3559079094
 21
215.6194018111
 31
0.0
  0
LINE
  5
3F9
  8
0
  6
CONTINUOUS
 62
     7
 10
219.9416941153
 20
213.8228808555
 30
0.0
 11
219.9416941153
 21
216.4358100567
 31
0.0
  0
LINE
  5
3FA
  8
0
  6
CONTINUOUS
 62
     7
 10
221.3559079094
 20
213.0064726098
 30
0.0
 11
219.9416941153
 21
213.8228808555
 31
0.0
  0
LINE
  5
3FB
  8
0
  6
CONTINUOUS
 62
     7
 10
221.3559079094
 20
199.9418205201
 30
0.0
 11
221.3559079094
 21
213.0064726098
 31
0.0
  0
LINE
  5
3FC
  8
0
  6
CONTINUOUS
 62
     7
 10
219.9416941153
 20
200.7582287657
 30
0.0
 11
221.3559079094
 21
199.9418205201
 31
0.0
  0
LINE
  5
3FD
  8
0
  6
CONTINUOUS
 62
     7
 10
219.9416941153
 20
198.1452965226
 30
0.0
 11
219.9416941153
 21
200.7582287657
 31
0.0
  0
LINE
  5
3FE
  8
0
  6
CONTINUOUS
 62
     7
 10
221.3559079094
 20
197.328888277
 30
0.0
 11
219.9416941153
 21
198.1452965226
 31
0.0
  0
LINE
  5
3FF
  8
0
  6
CONTINUOUS
 62
     7
 10
221.3559079094
 20
195.3691906156
 30
0.0
 11
221.3559079094
 21
197.328888277
 31
0.0
  0
POLYLINE
  5
400
  8
0
  6
CONTINUOUS
 62
     7
 66
     1
 10
0.0
 20
0.0
 30
0.0
 70
   128
  0
VERTEX
  5
5D4
  8
0
  6
CONTINUOUS
 62
     7
 10
219.093459813
 20
196.6455400019
 30
0.0
  0
VERTEX
  5
5D5
  8
0
  6
CONTINUOUS
 62
     7
 10
219.1881163664
 20
196.0967288989
 30
0.0
  0
VERTEX
  5
5D6
  8
0
  6
CONTINUOUS
 62
     7
 10
219.4383105959
 20
195.5367505442
 30
0.0
  0
VERTEX
  5
5D7
  8
0
  6
CONTINUOUS
 62
     7
 10
219.8064949278
 20
195.0496416895
 30
0.0
  0
VERTEX
  5
5D8
  8
0
  6
CONTINUOUS
 62
     7
 10
220.2374148437
 20
194.7085019688
 30
0.0
  0
VERTEX
  5
5D9
  8
0
  6
CONTINUOUS
 62
     7
 10
220.6664012729
 20
194.5645288015
 30
0.0
  0
VERTEX
  5
5DA
  8
0
  6
CONTINUOUS
 62
     7
 10
221.0290775385
 20
194.6393269812
 30
0.0
  0
VERTEX
  5
5DB
  8
0
  6
CONTINUOUS
 62
     7
 10
221.271016254
 20
194.9216700105
 30
0.0
  0
VERTEX
  5
5DC
  8
0
  6
CONTINUOUS
 62
     7
 10
221.3559079094
 20
195.3691906156
 30
0.0
  0
SEQEND
  5
65F
  8
0
  6
CONTINUOUS
 62
     7
  0
LINE
  5
401
  8
0
  6
CONTINUOUS
 62
     7
 10
218.2600453964
 20
239.4003813757
 30
0.0
 11
219.093459813
 21
196.6455400019
 31
0.0
  0
ARC
  5
402
  8
0
  6
CONTINUOUS
 62
     7
 10
216.7160201124
 20
239.3065604406
 30
0.0
 40
1.546873118755845
 50
3.4772372839
 51
56.5822459136
  0
LINE
  5
403
  8
0
  6
CONTINUOUS
 62
     7
 10
209.0589458245
 20
245.715866508
 30
0.0
 11
217.5679440945
 21
240.5977002372
 31
0.0
  0
POLYLINE
  5
404
  8
0
  6
CONTINUOUS
 62
     7
 66
     1
 10
0.0
 20
0.0
 30
0.0
 70
   128
  0
VERTEX
  5
5DD
  8
0
  6
CONTINUOUS
 62
     7
 10
208.3370598716
 20
245.3254862493
 30
0.0
  0
VERTEX
  5
5DE
  8
0
  6
CONTINUOUS
 62
     7
 10
208.3523855194
 20
245.4767129576
 30
0.0
  0
VERTEX
  5
5DF
  8
0
  6
CONTINUOUS
 62
     7
 10
208.3946192958
 20
245.6058195649
 30
0.0
  0
VERTEX
  5
5E0
  8
0
  6
CONTINUOUS
 62
     7
 10
208.4621174737
 20
245.7077838199
 30
0.0
  0
VERTEX
  5
5E1
  8
0
  6
CONTINUOUS
 62
     7
 10
208.5522590459
 20
245.7786362407
 30
0.0
  0
VERTEX
  5
5E2
  8
0
  6
CONTINUOUS
 62
     7
 10
208.6615352874
 20
245.8156221013
 30
0.0
  0
VERTEX
  5
5E3
  8
0
  6
CONTINUOUS
 62
     7
 10
208.7856920006
 20
245.8173044883
 30
0.0
  0
VERTEX
  5
5E4
  8
0
  6
CONTINUOUS
 62
     7
 10
208.9199033713
 20
245.7836152676
 30
0.0
  0
VERTEX
  5
5E5
  8
0
  6
CONTINUOUS
 62
     7
 10
209.0589458245
 20
245.715866508
 30
0.0
  0
SEQEND
  5
660
  8
0
  6
CONTINUOUS
 62
     7
  0
LINE
  5
405
  8
0
  6
CONTINUOUS
 62
     7
 10
207.9208096932
 20
203.1103182442
 30
0.0
 11
208.3370598716
 21
245.3254862493
 31
0.0
  0
POLYLINE
  5
406
  8
0
  6
CONTINUOUS
 62
     7
 66
     1
 10
0.0
 20
0.0
 30
0.0
 70
   128
  0
VERTEX
  5
5E6
  8
0
  6
CONTINUOUS
 62
     7
 10
205.6582114486
 20
204.416512743
 30
0.0
  0
VERTEX
  5
5E7
  8
0
  6
CONTINUOUS
 62
     7
 10
205.7479657967
 20
203.8692905475
 30
0.0
  0
VERTEX
  5
5E8
  8
0
  6
CONTINUOUS
 62
     7
 10
205.9940401717
 20
203.3083962089
 30
0.0
  0
VERTEX
  5
5E9
  8
0
  6
CONTINUOUS
 62
     7
 10
206.3595007635
 20
202.8180110245
 30
0.0
  0
VERTEX
  5
5EA
  8
0
  6
CONTINUOUS
 62
     7
 10
206.7894987171
 20
202.47173353
 30
0.0
  0
VERTEX
  5
5EB
  8
0
  6
CONTINUOUS
 62
     7
 10
207.2194993049
 20
202.3215353086
 30
0.0
  0
VERTEX
  5
5EC
  8
0
  6
CONTINUOUS
 62
     7
 10
207.584965165
 20
202.3899565083
 30
0.0
  0
VERTEX
  5
5ED
  8
0
  6
CONTINUOUS
 62
     7
 10
207.8310448084
 20
202.6667333378
 30
0.0
  0
VERTEX
  5
5EE
  8
0
  6
CONTINUOUS
 62
     7
 10
207.9208096932
 20
203.1103182442
 30
0.0
  0
SEQEND
  5
661
  8
0
  6
CONTINUOUS
 62
     7
  0
LINE
  5
407
  8
0
  6
CONTINUOUS
 62
     7
 10
205.2416109245
 20
247.2216237029
 30
0.0
 11
205.6582114486
 21
204.416512743
 31
0.0
  0
ARC
  5
408
  8
0
  6
CONTINUOUS
 62
     7
 10
203.6996081037
 20
247.138997536
 30
0.0
 40
1.544214940665048
 50
3.0671847517
 51
56.6131561131
  0
LINE
  5
409
  8
0
  6
CONTINUOUS
 62
     7
 10
195.9068215492
 20
253.6268757791
 30
0.0
 11
204.5493726453
 21
248.4283772344
 31
0.0
  0
POLYLINE
  5
40A
  8
0
  6
CONTINUOUS
 62
     7
 66
     1
 10
0.0
 20
0.0
 30
0.0
 70
   128
  0
VERTEX
  5
5EF
  8
0
  6
CONTINUOUS
 62
     7
 10
195.1849355963
 20
253.2364266985
 30
0.0
  0
VERTEX
  5
5F0
  8
0
  6
CONTINUOUS
 62
     7
 10
195.200245439
 20
253.3876727972
 30
0.0
  0
VERTEX
  5
5F1
  8
0
  6
CONTINUOUS
 62
     7
 10
195.2424765812
 20
253.5167919519
 30
0.0
  0
VERTEX
  5
5F2
  8
0
  6
CONTINUOUS
 62
     7
 10
195.3099694907
 20
253.6187710354
 30
0.0
  0
VERTEX
  5
5F3
  8
0
  6
CONTINUOUS
 62
     7
 10
195.400111063
 20
253.6896352433
 30
0.0
  0
VERTEX
  5
5F4
  8
0
  6
CONTINUOUS
 62
     7
 10
195.5093873044
 20
253.72663099
 30
0.0
  0
VERTEX
  5
5F5
  8
0
  6
CONTINUOUS
 62
     7
 10
195.6335519202
 20
253.7283160393
 30
0.0
  0
VERTEX
  5
5F6
  8
0
  6
CONTINUOUS
 62
     7
 10
195.7677685592
 20
253.6946287203
 30
0.0
  0
VERTEX
  5
5F7
  8
0
  6
CONTINUOUS
 62
     7
 10
195.9068215492
 20
253.6268757791
 30
0.0
  0
SEQEND
  5
662
  8
0
  6
CONTINUOUS
 62
     7
  0
LINE
  5
40B
  8
0
  6
CONTINUOUS
 62
     7
 10
194.7686195634
 20
210.703022458
 30
0.0
 11
195.1849355963
 21
253.2364266985
 31
0.0
  0
POLYLINE
  5
40C
  8
0
  6
CONTINUOUS
 62
     7
 66
     1
 10
0.0
 20
0.0
 30
0.0
 70
   128
  0
VERTEX
  5
5F8
  8
0
  6
CONTINUOUS
 62
     7
 10
192.506023953
 20
212.0092184779
 30
0.0
  0
VERTEX
  5
5F9
  8
0
  6
CONTINUOUS
 62
     7
 10
192.5957493251
 20
211.4619795495
 30
0.0
  0
VERTEX
  5
5FA
  8
0
  6
CONTINUOUS
 62
     7
 10
192.8418184318
 20
210.90105175
 30
0.0
  0
VERTEX
  5
5FB
  8
0
  6
CONTINUOUS
 62
     7
 10
193.2072895603
 20
210.4106331063
 30
0.0
  0
VERTEX
  5
5FC
  8
0
  6
CONTINUOUS
 62
     7
 10
193.6373138556
 20
210.0643312795
 30
0.0
  0
VERTEX
  5
5FD
  8
0
  6
CONTINUOUS
 62
     7
 10
194.0673328826
 20
209.9141315389
 30
0.0
  0
VERTEX
  5
5FE
  8
0
  6
CONTINUOUS
 62
     7
 10
194.4328092795
 20
209.9825740325
 30
0.0
  0
VERTEX
  5
5FF
  8
0
  6
CONTINUOUS
 62
     7
 10
194.6788836545
 20
210.2593873637
 30
0.0
  0
VERTEX
  5
600
  8
0
  6
CONTINUOUS
 62
     7
 10
194.7686195634
 20
210.703022458
 30
0.0
  0
SEQEND
  5
663
  8
0
  6
CONTINUOUS
 62
     7
  0
LINE
  5
40D
  8
0
  6
CONTINUOUS
 62
     7
 10
192.0893707453
 20
255.1326348644
 30
0.0
 11
192.506023953
 21
212.0092184779
 31
0.0
  0
ARC
  5
40E
  8
0
  6
CONTINUOUS
 62
     7
 10
190.5473752121
 20
255.0500861794
 30
0.0
 40
1.544203519545089
 50
3.0643284632
 51
56.6133177267
  0
LINE
  5
40F
  8
0
  6
CONTINUOUS
 62
     7
 10
182.4798576747
 20
261.7032013844
 30
0.0
 11
191.397129832
 21
256.3394587384
 31
0.0
  0
ARC
  5
410
  8
0
  6
CONTINUOUS
 62
     7
 10
182.1918185152
 20
261.3716531683
 30
0.0
 40
0.4391933252727828
 50
49.0168664524
 51
188.9138506609
  0
LINE
  5
411
  8
0
  6
CONTINUOUS
 62
     7
 10
181.7579295749
 20
214.4725294938
 30
0.0
 11
181.7579295749
 21
261.3036005092
 31
0.0
  0
ARC
  5
412
  8
0
  6
CONTINUOUS
 62
     7
 10
181.3268533499
 20
214.4026038591
 30
0.0
 40
0.4367107809141362
 50
230.7969561118
 51
9.213795643
  0
LINE
  5
413
  8
0
  6
CONTINUOUS
 62
     7
 10
163.0903106527
 20
224.4325740448
 30
0.0
 11
181.0508213607
 21
214.0641919103
 31
0.0
  0
ARC
  5
414
  8
0
  6
CONTINUOUS
 62
     7
 10
164.4152799588
 20
226.5039373939
 30
0.0
 40
2.45887978278406
 50
182.6052872547
 51
237.3945588432
  0
ARC
  5
415
  8
0
  6
CONTINUOUS
 62
     7
 10
162.6486565044
 20
226.5040571715
 30
0.0
 40
0.698731373545565
 50
50.7962492752
 51
189.2145024795
  0
LINE
  5
416
  8
0
  6
CONTINUOUS
 62
     7
 10
178.5052412727
 20
218.1466562583
 30
0.0
 11
163.0903106527
 21
227.0455062879
 31
0.0
  0
ARC
  5
417
  8
0
  6
CONTINUOUS
 62
     7
 10
178.7812715866
 20
218.4850660673
 30
0.0
 40
0.4367080638326481
 50
230.7969489809
 51
9.2145421247
  0
LINE
  5
418
  8
0
  6
CONTINUOUS
 62
     7
 10
179.2123442186
 20
228.2113638012
 30
0.0
 11
179.2123442186
 21
218.5549968831
 31
0.0
  0
ARC
  5
419
  8
0
  6
CONTINUOUS
 62
     7
 10
177.6714041512
 20
228.1393846182
 30
0.0
 40
1.542620268914472
 50
2.6744114813
 51
56.45591875
  0
LINE
  5
41A
  8
0
  6
CONTINUOUS
 62
     7
 10
163.0605760511
 20
238.8213109121
 30
0.0
 11
178.5238227646
 21
229.4250983505
 31
0.0
  0
ARC
  5
41B
  8
0
  6
CONTINUOUS
 62
     7
 10
164.4244459939
 20
240.8784529394
 30
0.0
 40
2.468192565649295
 50
182.6743984853
 51
236.4559163394
  0
ARC
  5
41C
  8
0
  6
CONTINUOUS
 62
     7
 10
162.6434188973
 20
240.8785627788
 30
0.0
 40
0.6941163816238767
 50
53.0591504262
 51
189.5597394243
  0
LINE
  5
41D
  8
0
  6
CONTINUOUS
 62
     7
 10
178.5238227646
 20
232.9760706955
 30
0.0
 11
163.0605760511
 21
241.4333397253
 31
0.0
  0
ARC
  5
41E
  8
0
  6
CONTINUOUS
 62
     7
 10
178.7845453025
 20
233.3228071486
 30
0.0
 40
0.4338230165626956
 50
233.0592909349
 51
9.5594141425
  0
LINE
  5
41F
  8
0
  6
CONTINUOUS
 62
     7
 10
179.2123442186
 20
242.5824820125
 30
0.0
 11
179.2123442186
 21
233.3948522532
 31
0.0
  0
ARC
  5
420
  8
0
  6
CONTINUOUS
 62
     7
 10
177.6714020741
 20
242.5105016513
 30
0.0
 40
1.542622398655359
 50
2.6744515962
 51
56.4558786351
  0
LINE
  5
421
  8
0
  6
CONTINUOUS
 62
     7
 10
163.0605760511
 20
253.1924306444
 30
0.0
 11
178.5238227646
 21
243.7962165619
 31
0.0
  0
ARC
  5
422
  8
0
  6
CONTINUOUS
 62
     7
 10
164.4244424469
 20
255.2495707497
 30
0.0
 40
2.468189003824169
 50
182.6743930289
 51
236.4559603121
  0
ARC
  5
423
  8
0
  6
CONTINUOUS
 62
     7
 10
162.6434197162
 20
255.2496809031
 30
0.0
 40
0.6941171746916527
 50
53.0592842245
 51
189.559721109
  0
LINE
  5
424
  8
0
  6
CONTINUOUS
 62
     7
 10
331.6645654163
 20
230.8174146148
 30
0.0
 11
402.3752445886
 21
271.6378208142
 31
0.0
  0
LINE
  5
425
  8
0
  6
CONTINUOUS
 62
     7
 10
330.9574624705
 20
232.0421589233
 30
0.0
 11
401.6681416428
 21
272.8625651227
 31
0.0
  0
ARC
  5
426
  8
0
  6
CONTINUOUS
 62
     7
 10
400.8400373384
 20
271.5679670742
 30
0.0
 40
1.53679564224639
 50
2.6052285978
 51
57.3945250708
  0
LINE
  5
427
  8
0
  6
CONTINUOUS
 62
     7
 10
331.6645654163
 20
212.8535168507
 30
0.0
 11
402.3752445886
 21
253.6739230501
 31
0.0
  0
LINE
  5
428
  8
0
  6
CONTINUOUS
 62
     7
 10
402.3752445886
 20
253.6739230501
 30
0.0
 11
402.3752445886
 21
271.6378208142
 31
0.0
  0
LINE
  5
429
  8
0
  6
CONTINUOUS
 62
     7
 10
326.361269615
 20
234.6954845811
 30
0.0
 11
397.0719487873
 21
275.5158907805
 31
0.0
  0
LINE
  5
42A
  8
0
  6
CONTINUOUS
 62
     7
 10
401.6681416428
 20
272.8625651227
 30
0.0
 11
397.0719487873
 21
275.5158907805
 31
0.0
  0
LINE
  5
42B
  8
0
  6
CONTINUOUS
 62
     7
 10
317.1688786358
 20
235.1028932638
 30
0.0
 11
387.8795578081
 21
275.9232994632
 31
0.0
  0
LINE
  5
42C
  8
0
  6
CONTINUOUS
 62
     7
 10
317.1688786358
 20
240.0021389381
 30
0.0
 11
387.8795578081
 21
280.8225451375
 31
0.0
  0
LINE
  5
42D
  8
0
  6
CONTINUOUS
 62
     7
 10
387.8795578081
 20
275.9232994632
 30
0.0
 11
387.8795578081
 21
280.8225451375
 31
0.0
  0
LINE
  5
42E
  8
0
  6
CONTINUOUS
 62
     7
 10
312.5726857803
 20
242.655464596
 30
0.0
 11
383.2833649526
 21
283.4758707954
 31
0.0
  0
LINE
  5
42F
  8
0
  6
CONTINUOUS
 62
     7
 10
387.8795578081
 20
280.8225451375
 30
0.0
 11
383.2833649526
 21
283.4758707954
 31
0.0
  0
ARC
  5
430
  8
0
  6
CONTINUOUS
 62
     7
 10
401.8852506525
 20
253.6198315494
 30
0.0
 40
0.4929705344606951
 50
305.01293551
 51
6.2994993805
  0
ARC
  5
431
  8
0
  6
CONTINUOUS
 62
     7
 10
382.9904437915
 20
283.0669866679
 30
0.0
 40
0.5029801549944805
 50
54.3825057164
 51
114.3071250325
  0
LINE
  5
432
  8
0
  6
CONTINUOUS
 62
     7
 10
385.0511302197
 20
268.5764241262
 30
0.0
 11
385.0511302197
 21
274.2904844956
 31
0.0
  0
LINE
  5
433
  8
0
  6
CONTINUOUS
 62
     7
 10
330.5629310899
 20
203.3639210188
 30
0.0
 11
401.2736102622
 21
244.1843272182
 31
0.0
  0
POLYLINE
  5
434
  8
0
  6
CONTINUOUS
 62
     7
 66
     1
 10
0.0
 20
0.0
 30
0.0
 70
   128
  0
VERTEX
  5
601
  8
0
  6
CONTINUOUS
 62
     7
 10
402.0438123086
 20
241.5097982679
 30
0.0
  0
VERTEX
  5
602
  8
0
  6
CONTINUOUS
 62
     7
 10
402.054322679
 20
241.5160274452
 30
0.0
  0
VERTEX
  5
603
  8
0
  6
CONTINUOUS
 62
     7
 10
402.2919518792
 20
241.7984156979
 30
0.0
  0
VERTEX
  5
604
  8
0
  6
CONTINUOUS
 62
     7
 10
402.375249857
 20
242.2423498104
 30
0.0
  0
VERTEX
  5
605
  8
0
  6
CONTINUOUS
 62
     7
 10
402.2919518792
 20
242.7824577209
 30
0.0
  0
VERTEX
  5
606
  8
0
  6
CONTINUOUS
 62
     7
 10
402.054322679
 20
243.3392068083
 30
0.0
  0
VERTEX
  5
607
  8
0
  6
CONTINUOUS
 62
     7
 10
401.6973546772
 20
243.8306178935
 30
0.0
  0
VERTEX
  5
608
  8
0
  6
CONTINUOUS
 62
     7
 10
401.2736102622
 20
244.1843272182
 30
0.0
  0
SEQEND
  5
664
  8
0
  6
CONTINUOUS
 62
     7
  0
LINE
  5
435
  8
0
  6
CONTINUOUS
 62
     7
 10
401.2736102622
 20
244.1843272182
 30
0.0
 11
394.0872512214
 21
248.5511053533
 31
0.0
  0
LINE
  5
436
  8
0
  6
CONTINUOUS
 62
     7
 10
301.117483188
 20
244.7104410702
 30
0.0
 11
371.8281623604
 21
285.5308472696
 31
0.0
  0
POLYLINE
  5
437
  8
0
  6
CONTINUOUS
 62
     7
 66
     1
 10
0.0
 20
0.0
 30
0.0
 70
   128
  0
VERTEX
  5
609
  8
0
  6
CONTINUOUS
 62
     7
 10
371.8281623604
 20
285.5308472696
 30
0.0
  0
VERTEX
  5
60A
  8
0
  6
CONTINUOUS
 62
     7
 10
371.7384317199
 20
286.0780861975
 30
0.0
  0
VERTEX
  5
60B
  8
0
  6
CONTINUOUS
 62
     7
 10
371.4923678816
 20
286.6390109556
 30
0.0
  0
VERTEX
  5
60C
  8
0
  6
CONTINUOUS
 62
     7
 10
371.1268914847
 20
287.1294356826
 30
0.0
  0
VERTEX
  5
60D
  8
0
  6
CONTINUOUS
 62
     7
 10
370.6968724577
 20
287.475734468
 30
0.0
  0
VERTEX
  5
60E
  8
0
  6
CONTINUOUS
 62
     7
 10
370.2668534307
 20
287.6259342086
 30
0.0
  0
VERTEX
  5
60F
  8
0
  6
CONTINUOUS
 62
     7
 10
369.9013770338
 20
287.557491715
 30
0.0
  0
VERTEX
  5
610
  8
0
  6
CONTINUOUS
 62
     7
 10
369.896925273
 20
287.5549543931
 30
0.0
  0
SEQEND
  5
665
  8
0
  6
CONTINUOUS
 62
     7
  0
LINE
  5
438
  8
0
  6
CONTINUOUS
 62
     7
 10
371.9081992257
 20
277.2472541799
 30
0.0
 11
371.8281623604
 21
285.5308472696
 31
0.0
  0
LINE
  5
439
  8
0
  6
CONTINUOUS
 62
     7
 10
331.6645654163
 20
189.9903749331
 30
0.0
 11
402.3752445886
 21
230.8107811325
 31
0.0
  0
LINE
  5
43A
  8
0
  6
CONTINUOUS
 62
     7
 10
330.9574624705
 20
191.2151177206
 30
0.0
 11
401.6681416428
 21
232.03552392
 31
0.0
  0
ARC
  5
43B
  8
0
  6
CONTINUOUS
 62
     7
 10
400.8400491678
 20
230.7409326145
 30
0.0
 40
1.536783587715347
 50
2.6050541541
 51
57.3947611336
  0
LINE
  5
43C
  8
0
  6
CONTINUOUS
 62
     7
 10
331.6645654163
 20
184.6828572649
 30
0.0
 11
402.3752445886
 21
225.5032634644
 31
0.0
  0
LINE
  5
43D
  8
0
  6
CONTINUOUS
 62
     7
 10
402.3752445886
 20
225.5032634644
 30
0.0
 11
402.3752445886
 21
230.8107811325
 31
0.0
  0
LINE
  5
43E
  8
0
  6
CONTINUOUS
 62
     7
 10
401.6681416428
 20
232.03552392
 30
0.0
 11
393.6501251821
 21
236.6642262981
 31
0.0
  0
LINE
  5
43F
  8
0
  6
CONTINUOUS
 62
     7
 10
287.9652956924
 20
252.3031437632
 30
0.0
 11
358.6759748647
 21
293.1235499626
 31
0.0
  0
POLYLINE
  5
440
  8
0
  6
CONTINUOUS
 62
     7
 66
     1
 10
0.0
 20
0.0
 30
0.0
 70
   128
  0
VERTEX
  5
611
  8
0
  6
CONTINUOUS
 62
     7
 10
358.6759748647
 20
293.1235499626
 30
0.0
  0
VERTEX
  5
612
  8
0
  6
CONTINUOUS
 62
     7
 10
358.5862205167
 20
293.6707721582
 30
0.0
  0
VERTEX
  5
613
  8
0
  6
CONTINUOUS
 62
     7
 10
358.3401461416
 20
294.2316664968
 30
0.0
  0
VERTEX
  5
614
  8
0
  6
CONTINUOUS
 62
     7
 10
357.9746855498
 20
294.7220516812
 30
0.0
  0
VERTEX
  5
615
  8
0
  6
CONTINUOUS
 62
     7
 10
357.5446875963
 20
295.0683291756
 30
0.0
  0
VERTEX
  5
616
  8
0
  6
CONTINUOUS
 62
     7
 10
357.1146870085
 20
295.218527397
 30
0.0
  0
VERTEX
  5
617
  8
0
  6
CONTINUOUS
 62
     7
 10
356.7492211484
 20
295.1501061974
 30
0.0
  0
VERTEX
  5
618
  8
0
  6
CONTINUOUS
 62
     7
 10
356.7447404115
 20
295.1475491007
 30
0.0
  0
SEQEND
  5
666
  8
0
  6
CONTINUOUS
 62
     7
  0
LINE
  5
441
  8
0
  6
CONTINUOUS
 62
     7
 10
358.7925609503
 20
281.1445380314
 30
0.0
 11
358.6759748647
 21
293.1235499626
 31
0.0
  0
LINE
  5
442
  8
0
  6
CONTINUOUS
 62
     7
 10
331.6645654163
 20
174.0678264914
 30
0.0
 11
402.3752445886
 21
214.8882326908
 31
0.0
  0
LINE
  5
443
  8
0
  6
CONTINUOUS
 62
     7
 10
328.1290348821
 20
176.1088448245
 30
0.0
 11
398.8397140544
 21
216.9292510239
 31
0.0
  0
LINE
  5
444
  8
0
  6
CONTINUOUS
 62
     7
 10
402.3752445886
 20
214.8882326908
 30
0.0
 11
398.8397140544
 21
216.9292510239
 31
0.0
  0
LINE
  5
445
  8
0
  6
CONTINUOUS
 62
     7
 10
331.6645654163
 20
168.7603111047
 30
0.0
 11
402.3752445886
 21
209.5807173041
 31
0.0
  0
LINE
  5
446
  8
0
  6
CONTINUOUS
 62
     7
 10
402.3752445886
 20
209.5807173041
 30
0.0
 11
402.3752445886
 21
214.8882326908
 31
0.0
  0
ARC
  5
447
  8
0
  6
CONTINUOUS
 62
     7
 10
401.8911665512
 20
209.5239492286
 30
0.0
 40
0.4873952818182359
 50
304.6238794702
 51
6.6885554203
  0
LINE
  5
448
  8
0
  6
CONTINUOUS
 62
     7
 10
396.0108228507
 20
215.2961721322
 30
0.0
 11
390.3524767292
 21
218.5626658189
 31
0.0
  0
LINE
  5
449
  8
0
  6
CONTINUOUS
 62
     7
 10
274.530047328
 20
260.0741165044
 30
0.0
 11
345.2407265003
 21
300.8945227038
 31
0.0
  0
POLYLINE
  5
44A
  8
0
  6
CONTINUOUS
 62
     7
 66
     1
 10
0.0
 20
0.0
 30
0.0
 70
   128
  0
VERTEX
  5
619
  8
0
  6
CONTINUOUS
 62
     7
 10
345.2407265003
 20
300.8945227038
 30
0.0
  0
VERTEX
  5
61A
  8
0
  6
CONTINUOUS
 62
     7
 10
345.1460673128
 20
301.4433353274
 30
0.0
  0
VERTEX
  5
61B
  8
0
  6
CONTINUOUS
 62
     7
 10
344.8958757175
 20
302.0033121615
 30
0.0
  0
VERTEX
  5
61C
  8
0
  6
CONTINUOUS
 62
     7
 10
344.5276913856
 20
302.4904210161
 30
0.0
  0
VERTEX
  5
61D
  8
0
  6
CONTINUOUS
 62
     7
 10
344.0967714697
 20
302.8315607368
 30
0.0
  0
VERTEX
  5
61E
  8
0
  6
CONTINUOUS
 62
     7
 10
343.6677850405
 20
302.9755339042
 30
0.0
  0
VERTEX
  5
61F
  8
0
  6
CONTINUOUS
 62
     7
 10
343.3097133181
 20
302.9034251533
 30
0.0
  0
SEQEND
  5
667
  8
0
  6
CONTINUOUS
 62
     7
  0
LINE
  5
44B
  8
0
  6
CONTINUOUS
 62
     7
 10
345.4795200073
 20
288.6442727309
 30
0.0
 11
345.2407265003
 21
300.8945227038
 31
0.0
  0
LINE
  5
44C
  8
0
  6
CONTINUOUS
 62
     7
 10
330.5629310899
 20
157.1477089659
 30
0.0
 11
401.2736102622
 21
197.9681151653
 31
0.0
  0
POLYLINE
  5
44D
  8
0
  6
CONTINUOUS
 62
     7
 66
     1
 10
0.0
 20
0.0
 30
0.0
 70
   128
  0
VERTEX
  5
620
  8
0
  6
CONTINUOUS
 62
     7
 10
402.0438123086
 20
195.293586215
 30
0.0
  0
VERTEX
  5
621
  8
0
  6
CONTINUOUS
 62
     7
 10
402.0543174106
 20
195.2998169128
 30
0.0
  0
VERTEX
  5
622
  8
0
  6
CONTINUOUS
 62
     7
 10
402.2919466109
 20
195.5822066864
 30
0.0
  0
VERTEX
  5
623
  8
0
  6
CONTINUOUS
 62
     7
 10
402.3752445886
 20
196.026139278
 30
0.0
  0
VERTEX
  5
624
  8
0
  6
CONTINUOUS
 62
     7
 10
402.2919466109
 20
196.5662471885
 30
0.0
  0
VERTEX
  5
625
  8
0
  6
CONTINUOUS
 62
     7
 10
402.0543174106
 20
197.1229977968
 30
0.0
  0
VERTEX
  5
626
  8
0
  6
CONTINUOUS
 62
     7
 10
401.6973546772
 20
197.6144043198
 30
0.0
  0
VERTEX
  5
627
  8
0
  6
CONTINUOUS
 62
     7
 10
401.2736102622
 20
197.9681151653
 30
0.0
  0
SEQEND
  5
668
  8
0
  6
CONTINUOUS
 62
     7
  0
LINE
  5
44E
  8
0
  6
CONTINUOUS
 62
     7
 10
401.2736102622
 20
197.9681151653
 30
0.0
 11
392.2955886912
 21
203.4235924531
 31
0.0
  0
LINE
  5
44F
  8
0
  6
CONTINUOUS
 62
     7
 10
272.2675965974
 20
256.7778405487
 30
0.0
 11
273.6818130258
 21
257.594250315
 31
0.0
  0
LINE
  5
450
  8
0
  6
CONTINUOUS
 62
     7
 10
330.5629310899
 20
143.7564380644
 30
0.0
 11
401.2736102622
 21
184.5768442638
 31
0.0
  0
POLYLINE
  5
451
  8
0
  6
CONTINUOUS
 62
     7
 66
     1
 10
0.0
 20
0.0
 30
0.0
 70
   128
  0
VERTEX
  5
628
  8
0
  6
CONTINUOUS
 62
     7
 10
402.0438123086
 20
181.9023168344
 30
0.0
  0
VERTEX
  5
629
  8
0
  6
CONTINUOUS
 62
     7
 10
402.0543174106
 20
181.9085475321
 30
0.0
  0
VERTEX
  5
62A
  8
0
  6
CONTINUOUS
 62
     7
 10
402.2919466109
 20
182.1909357848
 30
0.0
  0
VERTEX
  5
62B
  8
0
  6
CONTINUOUS
 62
     7
 10
402.3752445886
 20
182.6348714183
 30
0.0
  0
VERTEX
  5
62C
  8
0
  6
CONTINUOUS
 62
     7
 10
402.2919466109
 20
183.1749778079
 30
0.0
  0
VERTEX
  5
62D
  8
0
  6
CONTINUOUS
 62
     7
 10
402.0543174106
 20
183.7317268953
 30
0.0
  0
VERTEX
  5
62E
  8
0
  6
CONTINUOUS
 62
     7
 10
401.6973546772
 20
184.2231349392
 30
0.0
  0
VERTEX
  5
62F
  8
0
  6
CONTINUOUS
 62
     7
 10
401.2736102622
 20
184.5768442638
 30
0.0
  0
SEQEND
  5
669
  8
0
  6
CONTINUOUS
 62
     7
  0
LINE
  5
452
  8
0
  6
CONTINUOUS
 62
     7
 10
401.2736102622
 20
184.5768442638
 30
0.0
 11
392.6046884098
 21
189.844499491
 31
0.0
  0
LINE
  5
453
  8
0
  6
CONTINUOUS
 62
     7
 10
272.2675965974
 20
241.1002562159
 30
0.0
 11
273.6818130258
 21
241.9166659822
 31
0.0
  0
LINE
  5
454
  8
0
  6
CONTINUOUS
 62
     7
 10
330.5331964883
 20
130.3827858188
 30
0.0
 11
401.2438756606
 21
171.2031920183
 31
0.0
  0
POLYLINE
  5
455
  8
0
  6
CONTINUOUS
 62
     7
 66
     1
 10
0.0
 20
0.0
 30
0.0
 70
   128
  0
VERTEX
  5
630
  8
0
  6
CONTINUOUS
 62
     7
 10
402.0438123086
 20
168.5110459328
 30
0.0
  0
VERTEX
  5
631
  8
0
  6
CONTINUOUS
 62
     7
 10
402.0438755289
 20
168.5110885247
 30
0.0
  0
VERTEX
  5
632
  8
0
  6
CONTINUOUS
 62
     7
 10
402.289122772
 20
168.7933558182
 30
0.0
  0
VERTEX
  5
633
  8
0
  6
CONTINUOUS
 62
     7
 10
402.3752445886
 20
169.2436005167
 30
0.0
  0
VERTEX
  5
634
  8
0
  6
CONTINUOUS
 62
     7
 10
402.289122772
 20
169.7932823901
 30
0.0
  0
VERTEX
  5
635
  8
0
  6
CONTINUOUS
 62
     7
 10
402.0438755289
 20
170.3587061233
 30
0.0
  0
VERTEX
  5
636
  8
0
  6
CONTINUOUS
 62
     7
 10
401.6768291619
 20
170.8538060288
 30
0.0
  0
VERTEX
  5
637
  8
0
  6
CONTINUOUS
 62
     7
 10
401.2438756606
 20
171.2031920183
 30
0.0
  0
SEQEND
  5
66A
  8
0
  6
CONTINUOUS
 62
     7
  0
LINE
  5
456
  8
0
  6
CONTINUOUS
 62
     7
 10
401.2438756606
 20
171.2031920183
 30
0.0
 11
392.3771217697
 21
176.3218600856
 31
0.0
  0
LINE
  5
457
  8
0
  6
CONTINUOUS
 62
     7
 10
222.0630161236
 20
247.3829084405
 30
0.0
 11
292.7736952959
 21
288.2033146399
 31
0.0
  0
LINE
  5
458
  8
0
  6
CONTINUOUS
 62
     7
 10
305.3096550366
 20
280.9664591224
 30
0.0
 11
292.7736952959
 21
288.2033146399
 31
0.0
  0
LINE
  5
459
  8
0
  6
CONTINUOUS
 62
     7
 10
221.3559105436
 20
290.7411581717
 30
0.0
 11
292.0665897159
 21
331.5615643711
 31
0.0
  0
POLYLINE
  5
45A
  8
0
  6
CONTINUOUS
 62
     7
 66
     1
 10
0.0
 20
0.0
 30
0.0
 70
   128
  0
VERTEX
  5
638
  8
0
  6
CONTINUOUS
 62
     7
 10
292.0665897159
 20
331.5615643711
 30
0.0
  0
VERTEX
  5
639
  8
0
  6
CONTINUOUS
 62
     7
 10
291.9816954263
 20
332.107100316
 30
0.0
  0
VERTEX
  5
63A
  8
0
  6
CONTINUOUS
 62
     7
 10
291.7397567108
 20
332.6687798404
 30
0.0
  0
VERTEX
  5
63B
  8
0
  6
CONTINUOUS
 62
     7
 10
291.3770804452
 20
333.1623151233
 30
0.0
  0
VERTEX
  5
63C
  8
0
  6
CONTINUOUS
 62
     7
 10
290.948094016
 20
333.5136391444
 30
0.0
  0
VERTEX
  5
63D
  8
0
  6
CONTINUOUS
 62
     7
 10
290.5171741001
 20
333.6700289684
 30
0.0
  0
VERTEX
  5
63E
  8
0
  6
CONTINUOUS
 62
     7
 10
290.1489897682
 20
333.6080166949
 30
0.0
  0
VERTEX
  5
63F
  8
0
  6
CONTINUOUS
 62
     7
 10
290.1352815057
 20
333.6003712357
 30
0.0
  0
SEQEND
  5
66B
  8
0
  6
CONTINUOUS
 62
     7
  0
LINE
  5
45B
  8
0
  6
CONTINUOUS
 62
     7
 10
221.3559105436
 20
288.7814605103
 30
0.0
 11
292.0665897159
 21
329.6018667098
 31
0.0
  0
LINE
  5
45C
  8
0
  6
CONTINUOUS
 62
     7
 10
292.0665897159
 20
329.6018667098
 30
0.0
 11
292.0665897159
 21
331.5615643711
 31
0.0
  0
LINE
  5
45D
  8
0
  6
CONTINUOUS
 62
     7
 10
219.9416967494
 20
286.9849395548
 30
0.0
 11
290.6523759218
 21
327.8053457542
 31
0.0
  0
LINE
  5
45E
  8
0
  6
CONTINUOUS
 62
     7
 10
290.6523759218
 20
327.8053457542
 30
0.0
 11
290.6523759218
 21
328.785457705
 31
0.0
  0
LINE
  5
45F
  8
0
  6
CONTINUOUS
 62
     7
 10
221.3559105436
 20
286.1685313091
 30
0.0
 11
292.0665897159
 21
326.9889375085
 31
0.0
  0
LINE
  5
460
  8
0
  6
CONTINUOUS
 62
     7
 10
292.0665897159
 20
326.9889375085
 30
0.0
 11
290.6523759218
 21
327.8053457542
 31
0.0
  0
LINE
  5
461
  8
0
  6
CONTINUOUS
 62
     7
 10
221.3559105436
 20
273.1038761775
 30
0.0
 11
292.0665897159
 21
313.9242823769
 31
0.0
  0
LINE
  5
462
  8
0
  6
CONTINUOUS
 62
     7
 10
292.0665897159
 20
313.9242823769
 30
0.0
 11
292.0665897159
 21
326.9889375085
 31
0.0
  0
LINE
  5
463
  8
0
  6
CONTINUOUS
 62
     7
 10
207.920807059
 20
298.5118708481
 30
0.0
 11
278.6314862313
 21
339.3322770476
 31
0.0
  0
POLYLINE
  5
464
  8
0
  6
CONTINUOUS
 62
     7
 66
     1
 10
0.0
 20
0.0
 30
0.0
 70
   128
  0
VERTEX
  5
640
  8
0
  6
CONTINUOUS
 62
     7
 10
278.6314862313
 20
339.3322770476
 30
0.0
  0
VERTEX
  5
641
  8
0
  6
CONTINUOUS
 62
     7
 10
278.5417239807
 20
339.8795007632
 30
0.0
  0
VERTEX
  5
642
  8
0
  6
CONTINUOUS
 62
     7
 10
278.2956443373
 20
340.4403920595
 30
0.0
  0
VERTEX
  5
643
  8
0
  6
CONTINUOUS
 62
     7
 10
277.9301784772
 20
340.9307711597
 30
0.0
  0
VERTEX
  5
644
  8
0
  6
CONTINUOUS
 62
     7
 10
277.5001778894
 20
341.2770410493
 30
0.0
  0
VERTEX
  5
645
  8
0
  6
CONTINUOUS
 62
     7
 10
277.0701799358
 20
341.4272286245
 30
0.0
  0
VERTEX
  5
646
  8
0
  6
CONTINUOUS
 62
     7
 10
276.7047193441
 20
341.3587952579
 30
0.0
  0
VERTEX
  5
647
  8
0
  6
CONTINUOUS
 62
     7
 10
276.7002544123
 20
341.3562472882
 30
0.0
  0
SEQEND
  5
66C
  8
0
  6
CONTINUOUS
 62
     7
  0
LINE
  5
465
  8
0
  6
CONTINUOUS
 62
     7
 10
278.7514387964
 20
327.0286177402
 30
0.0
 11
278.6314862313
 21
339.3322770476
 31
0.0
  0
LINE
  5
466
  8
0
  6
CONTINUOUS
 62
     7
 10
272.2675965974
 20
183.6157803287
 30
0.0
 11
273.6818130258
 21
184.4321900951
 31
0.0
  0
LINE
  5
467
  8
0
  6
CONTINUOUS
 62
     7
 10
219.9416967494
 20
271.3073552219
 30
0.0
 11
290.6523759218
 21
312.1277614213
 31
0.0
  0
LINE
  5
468
  8
0
  6
CONTINUOUS
 62
     7
 10
290.6523759218
 20
312.1277614213
 30
0.0
 11
290.6523759218
 21
313.107876414
 31
0.0
  0
LINE
  5
469
  8
0
  6
CONTINUOUS
 62
     7
 10
221.3559105436
 20
270.4909469763
 30
0.0
 11
292.0665897159
 21
311.3113531757
 31
0.0
  0
LINE
  5
46A
  8
0
  6
CONTINUOUS
 62
     7
 10
292.0665897159
 20
311.3113531757
 30
0.0
 11
290.6523759218
 21
312.1277614213
 31
0.0
  0
LINE
  5
46B
  8
0
  6
CONTINUOUS
 62
     7
 10
221.3559105436
 20
248.6076527487
 30
0.0
 11
292.0665897159
 21
289.4280589481
 31
0.0
  0
LINE
  5
46C
  8
0
  6
CONTINUOUS
 62
     7
 10
292.0665897159
 20
289.4280589481
 30
0.0
 11
292.0665897159
 21
311.3113531757
 31
0.0
  0
LINE
  5
46D
  8
0
  6
CONTINUOUS
 62
     7
 10
194.7686248317
 20
306.1043545284
 30
0.0
 11
265.4793040041
 21
346.9247607278
 31
0.0
  0
POLYLINE
  5
46E
  8
0
  6
CONTINUOUS
 62
     7
 66
     1
 10
0.0
 20
0.0
 30
0.0
 70
   128
  0
VERTEX
  5
648
  8
0
  6
CONTINUOUS
 62
     7
 10
265.4793040041
 20
346.9247607278
 30
0.0
  0
VERTEX
  5
649
  8
0
  6
CONTINUOUS
 62
     7
 10
265.3895680952
 20
347.4720026971
 30
0.0
  0
VERTEX
  5
64A
  8
0
  6
CONTINUOUS
 62
     7
 10
265.1434884518
 20
348.0329304956
 30
0.0
  0
VERTEX
  5
64B
  8
0
  6
CONTINUOUS
 62
     7
 10
264.778012055
 20
348.523346097
 30
0.0
  0
VERTEX
  5
64C
  8
0
  6
CONTINUOUS
 62
     7
 10
264.347993028
 20
348.8696357569
 30
0.0
  0
VERTEX
  5
64D
  8
0
  6
CONTINUOUS
 62
     7
 10
263.917974001
 20
349.0198263719
 30
0.0
  0
VERTEX
  5
64E
  8
0
  6
CONTINUOUS
 62
     7
 10
263.5524976041
 20
348.9513747528
 30
0.0
  0
VERTEX
  5
64F
  8
0
  6
CONTINUOUS
 62
     7
 10
263.5480669167
 20
348.9488435165
 30
0.0
  0
SEQEND
  5
66D
  8
0
  6
CONTINUOUS
 62
     7
  0
LINE
  5
46F
  8
0
  6
CONTINUOUS
 62
     7
 10
265.595244716
 20
334.945461281
 30
0.0
 11
265.4793040041
 21
346.9247607278
 31
0.0
  0
LINE
  5
470
  8
0
  6
CONTINUOUS
 62
     7
 10
272.2675965974
 20
167.9381959959
 30
0.0
 11
273.6818130258
 21
168.7546057622
 31
0.0
  0
LINE
  5
471
  8
0
  6
CONTINUOUS
 62
     7
 10
181.7579295749
 20
317.3566734461
 30
0.0
 11
252.4686087472
 21
358.1770796455
 31
0.0
  0
LINE
  5
472
  8
0
  6
CONTINUOUS
 62
     7
 10
181.0508213607
 20
318.581420796
 30
0.0
 11
251.7615005331
 21
359.4018269954
 31
0.0
  0
ARC
  5
473
  8
0
  6
CONTINUOUS
 62
     7
 10
250.9333822688
 20
358.1072144568
 30
0.0
 40
1.536815371034139
 50
2.6056224062
 51
57.3943777394
  0
ARC
  5
474
  8
0
  6
CONTINUOUS
 62
     7
 10
293.601800609
 20
289.4979165727
 30
0.0
 40
1.536799457893999
 50
182.6053671002
 51
237.3945714263
  0
LINE
  5
475
  8
0
  6
CONTINUOUS
 62
     7
 10
252.4686087472
 20
342.5528068032
 30
0.0
 11
252.4686087472
 21
358.1770796455
 31
0.0
  0
LINE
  5
476
  8
0
  6
CONTINUOUS
 62
     7
 10
176.4546285053
 20
321.2347464538
 30
0.0
 11
247.1653076776
 21
362.0551526532
 31
0.0
  0
LINE
  5
477
  8
0
  6
CONTINUOUS
 62
     7
 10
251.7615005331
 20
359.4018269954
 30
0.0
 11
247.1653076776
 21
362.0551526532
 31
0.0
  0
LINE
  5
478
  8
0
  6
CONTINUOUS
 62
     7
 10
221.3559079094
 20
215.6194018111
 30
0.0
 11
241.0166751699
 21
226.9693211607
 31
0.0
  0
LINE
  5
479
  8
0
  6
CONTINUOUS
 62
     7
 10
167.2622427944
 20
326.5413977694
 30
0.0
 11
237.9729219667
 21
367.3618039688
 31
0.0
  0
LINE
  5
47A
  8
0
  6
CONTINUOUS
 62
     7
 10
162.6660446706
 20
329.1947264686
 30
0.0
 11
233.3767238429
 21
370.015132668
 31
0.0
  0
LINE
  5
47B
  8
0
  6
CONTINUOUS
 62
     7
 10
237.9729219667
 20
367.3618039688
 30
0.0
 11
233.3767238429
 21
370.015132668
 31
0.0
  0
LINE
  5
47C
  8
0
  6
CONTINUOUS
 62
     7
 10
167.2622427944
 20
321.6421520951
 30
0.0
 11
237.9729219667
 21
362.4625582945
 31
0.0
  0
LINE
  5
47D
  8
0
  6
CONTINUOUS
 62
     7
 10
237.9729219667
 20
362.4625582945
 30
0.0
 11
237.9729219667
 21
367.3618039688
 31
0.0
  0
ARC
  5
47E
  8
0
  6
CONTINUOUS
 62
     7
 10
233.0838082469
 20
369.6062545493
 30
0.0
 40
0.5029720293752491
 50
54.3826224493
 51
114.3075802073
  0
LINE
  5
47F
  8
0
  6
CONTINUOUS
 62
     7
 10
235.1444943783
 20
355.1156829576
 30
0.0
 11
235.1444943783
 21
360.8297433269
 31
0.0
  0
LINE
  5
480
  8
0
  6
CONTINUOUS
 62
     7
 10
219.9416941153
 20
213.8228808555
 30
0.0
 11
241.8655680167
 21
226.4792638601
 31
0.0
  0
LINE
  5
481
  8
0
  6
CONTINUOUS
 62
     7
 10
221.3559079094
 20
199.9418205201
 30
0.0
 11
254.5953308206
 21
219.1305309235
 31
0.0
  0
LINE
  5
482
  8
0
  6
CONTINUOUS
 62
     7
 10
221.3559079094
 20
213.0064726098
 30
0.0
 11
243.2797818109
 21
225.6628556144
 31
0.0
  0
LINE
  5
483
  8
0
  6
CONTINUOUS
 62
     7
 10
219.9416941153
 20
198.1452965226
 30
0.0
 11
255.4442263015
 21
218.6404721017
 31
0.0
  0
LINE
  5
484
  8
0
  6
CONTINUOUS
 62
     7
 10
221.3559079094
 20
197.328888277
 30
0.0
 11
256.8584400957
 21
217.824063856
 31
0.0
  0
LINE
  5
485
  8
0
  6
CONTINUOUS
 62
     7
 10
165.4944722589
 20
280.6108116817
 30
0.0
 11
168.3233581943
 21
282.2438927711
 31
0.0
  0
LINE
  5
486
  8
0
  6
CONTINUOUS
 62
     7
 10
165.4944722589
 20
269.9957812884
 30
0.0
 11
177.3091400538
 21
276.8162438288
 31
0.0
  0
LINE
  5
487
  8
0
  6
CONTINUOUS
 62
     7
 10
161.9589417247
 20
272.0367996215
 30
0.0
 11
173.9817095841
 21
278.977395772
 31
0.0
  0
LINE
  5
488
  8
0
  6
CONTINUOUS
 62
     8
 10
328.4825889892
 20
218.7731389918
 30
0.0
 11
329.1896972034
 21
219.1813438749
 31
0.0
  0
LINE
  5
489
  8
0
  6
CONTINUOUS
 62
     8
 10
315.0475592616
 20
226.529016565
 30
0.0
 11
326.361269615
 21
233.0602825302
 31
0.0
  0
LINE
  5
48A
  8
0
  6
CONTINUOUS
 62
     8
 10
314.3404510474
 20
235.9191703303
 30
0.0
 11
315.0476751654
 21
236.3274421233
 31
0.0
  0
LINE
  5
48B
  8
0
  6
CONTINUOUS
 62
     8
 10
314.3404510474
 20
227.753760873
 30
0.0
 11
326.361269615
 21
234.6932317213
 31
0.0
  0
LINE
  5
48C
  8
0
  6
CONTINUOUS
 62
     8
 10
315.0996843765
 20
212.7601351013
 30
0.0
 11
322.755785849
 21
217.1799084038
 31
0.0
  0
LINE
  5
48D
  8
0
  6
CONTINUOUS
 62
     8
 10
314.4111629225
 20
221.1806122106
 30
0.0
 11
315.1183870405
 21
221.5888840036
 31
0.0
  0
LINE
  5
48E
  8
0
  6
CONTINUOUS
 62
     8
 10
301.5341363957
 20
201.5870231628
 30
0.0
 11
311.8655775661
 21
207.5512371986
 31
0.0
  0
LINE
  5
48F
  8
0
  6
CONTINUOUS
 62
     8
 10
314.4111629225
 20
213.9738681297
 30
0.0
 11
321.3602878898
 21
217.985512583
 31
0.0
  0
LINE
  5
490
  8
0
  6
CONTINUOUS
 62
     8
 10
315.1182711367
 20
200.358888247
 30
0.0
 11
322.9816350051
 21
204.8983115839
 31
0.0
  0
LINE
  5
491
  8
0
  6
CONTINUOUS
 62
     8
 10
314.4111629225
 20
208.7903796777
 30
0.0
 11
315.1186399216
 21
209.1987974559
 31
0.0
  0
LINE
  5
492
  8
0
  6
CONTINUOUS
 62
     8
 10
314.4111629225
 20
201.5836340759
 30
0.0
 11
321.5291070915
 21
205.69273578
 31
0.0
  0
LINE
  5
493
  8
0
  6
CONTINUOUS
 62
     8
 10
288.3818962165
 20
209.498033944
 30
0.0
 11
298.5549284568
 21
215.370800451
 31
0.0
  0
LINE
  5
494
  8
0
  6
CONTINUOUS
 62
     8
 10
316.1082163145
 20
196.1129685231
 30
0.0
 11
316.8154404325
 21
196.5212403161
 31
0.0
  0
LINE
  5
495
  8
0
  6
CONTINUOUS
 62
     8
 10
316.1082163145
 20
180.5986935961
 30
0.0
 11
328.1290348821
 21
187.5381644444
 31
0.0
  0
LINE
  5
496
  8
0
  6
CONTINUOUS
 62
     8
 10
327.4219266679
 20
173.2508866852
 30
0.0
 11
328.1290348821
 21
173.6590915684
 31
0.0
  0
LINE
  5
497
  8
0
  6
CONTINUOUS
 62
     8
 10
316.8153245287
 20
179.3739477672
 30
0.0
 11
328.838092388
 21
186.3145439177
 31
0.0
  0
LINE
  5
498
  8
0
  6
CONTINUOUS
 62
     8
 10
275.3634617446
 20
217.319275891
 30
0.0
 11
285.4020086597
 21
223.1144056722
 31
0.0
  0
LINE
  5
499
  8
0
  6
CONTINUOUS
 62
     8
 10
311.1436494663
 20
195.016457023
 30
0.0
 11
311.8655828345
 21
195.4332202854
 31
0.0
  0
LINE
  5
49A
  8
0
  6
CONTINUOUS
 62
     8
 10
302.2263773091
 20
200.3802000492
 30
0.0
 11
311.8655775661
 21
205.9447919119
 31
0.0
  0
LINE
  5
49B
  8
0
  6
CONTINUOUS
 62
     8
 10
315.0996843765
 20
166.5439215275
 30
0.0
 11
324.5945632875
 21
172.0251984506
 31
0.0
  0
LINE
  5
49C
  8
0
  6
CONTINUOUS
 62
     8
 10
314.4111629225
 20
177.087407225
 30
0.0
 11
315.1183870405
 21
177.495679018
 31
0.0
  0
LINE
  5
49D
  8
0
  6
CONTINUOUS
 62
     8
 10
314.4111629225
 20
167.7576560769
 30
0.0
 11
323.1990653282
 21
172.8308041507
 31
0.0
  0
LINE
  5
49E
  8
0
  6
CONTINUOUS
 62
     8
 10
297.7166908602
 20
203.0927792067
 30
0.0
 11
298.4388349626
 21
203.5096641233
 31
0.0
  0
LINE
  5
49F
  8
0
  6
CONTINUOUS
 62
     8
 10
289.0741344957
 20
208.2912807928
 30
0.0
 11
298.5391154861
 21
213.7552980136
 31
0.0
  0
LINE
  5
4A0
  8
0
  6
CONTINUOUS
 62
     8
 10
315.0996843765
 20
153.1526536678
 30
0.0
 11
323.8527260701
 21
158.2056770809
 31
0.0
  0
LINE
  5
4A1
  8
0
  6
CONTINUOUS
 62
     8
 10
301.5341363957
 20
191.9515165023
 30
0.0
 11
302.2334158328
 21
192.3552019286
 31
0.0
  0
LINE
  5
4A2
  8
0
  6
CONTINUOUS
 62
     8
 10
301.117483188
 20
149.3091576698
 30
0.0
 11
311.8655775661
 21
155.5139004826
 31
0.0
  0
LINE
  5
4A3
  8
0
  6
CONTINUOUS
 62
     8
 10
314.4111629225
 20
162.5741676249
 30
0.0
 11
315.1186399216
 21
162.982585403
 31
0.0
  0
LINE
  5
4A4
  8
0
  6
CONTINUOUS
 62
     8
 10
314.4111629225
 20
154.3663851753
 30
0.0
 11
322.4195382916
 21
158.9895218697
 31
0.0
  0
LINE
  5
4A5
  8
0
  6
CONTINUOUS
 62
     8
 10
284.5645613165
 20
211.0037911389
 30
0.0
 11
285.2867054189
 21
211.4206760556
 31
0.0
  0
LINE
  5
4A6
  8
0
  6
CONTINUOUS
 62
     8
 10
276.0555630466
 20
216.12195779
 30
0.0
 11
285.3861746155
 21
221.508405195
 31
0.0
  0
LINE
  5
4A7
  8
0
  6
CONTINUOUS
 62
     8
 10
315.1182658683
 20
139.2816358484
 30
0.0
 11
324.2890039041
 21
144.5757902273
 31
0.0
  0
LINE
  5
4A8
  8
0
  6
CONTINUOUS
 62
     8
 10
288.3818935823
 20
199.2257593848
 30
0.0
 11
289.0811150675
 21
199.6294113562
 31
0.0
  0
LINE
  5
4A9
  8
0
  6
CONTINUOUS
 62
     8
 10
287.9652956924
 20
156.9016443915
 30
0.0
 11
298.7338734389
 21
163.1182120011
 31
0.0
  0
LINE
  5
4AA
  8
0
  6
CONTINUOUS
 62
     8
 10
314.4111629225
 20
149.1828967233
 30
0.0
 11
315.1186399216
 21
149.5913145015
 31
0.0
  0
LINE
  5
4AB
  8
0
  6
CONTINUOUS
 62
     8
 10
314.4111629225
 20
140.506377115
 30
0.0
 11
322.8364865272
 21
145.3702129024
 31
0.0
  0
LINE
  5
4AC
  8
0
  6
CONTINUOUS
 62
     8
 10
271.5604910174
 20
218.808624405
 30
0.0
 11
272.2675992316
 21
219.2168292882
 31
0.0
  0
LINE
  5
4AD
  8
0
  6
CONTINUOUS
 62
     8
 10
275.3634617446
 20
206.4352807998
 30
0.0
 11
276.0544066424
 21
206.834154799
 31
0.0
  0
LINE
  5
4AE
  8
0
  6
CONTINUOUS
 62
     8
 10
274.5300446938
 20
164.6426807502
 30
0.0
 11
285.5777820914
 21
171.0204037961
 31
0.0
  0
LINE
  5
4AF
  8
0
  6
CONTINUOUS
 62
     8
 10
208.3370598716
 20
255.8161079554
 30
0.0
 11
218.4872063731
 21
261.6756628066
 31
0.0
  0
LINE
  5
4B0
  8
0
  6
CONTINUOUS
 62
     8
 10
195.1849355963
 20
263.0902858294
 30
0.0
 11
205.3544854532
 21
268.9610419993
 31
0.0
  0
LINE
  5
4B1
  8
0
  6
CONTINUOUS
 62
     8
 10
181.7579295749
 20
270.5256039517
 30
0.0
 11
192.2045528139
 21
276.5563111803
 31
0.0
  0
LINE
  5
4B2
  8
0
  6
CONTINUOUS
 62
     8
 10
217.5679440945
 20
249.8861411399
 30
0.0
 11
218.2600743723
 21
250.2856994445
 31
0.0
  0
LINE
  5
4B3
  8
0
  6
CONTINUOUS
 62
     8
 10
209.0589458245
 20
254.5922547757
 30
0.0
 11
218.4541105604
 21
260.0159679307
 31
0.0
  0
LINE
  5
4B4
  8
0
  6
CONTINUOUS
 62
     8
 10
221.3559079094
 20
237.5026967991
 30
0.0
 11
222.0631320275
 21
237.9109685921
 31
0.0
  0
LINE
  5
4B5
  8
0
  6
CONTINUOUS
 62
     8
 10
178.5759478795
 20
305.3123978226
 30
0.0
 11
179.2830560936
 21
305.7206027057
 31
0.0
  0
LINE
  5
4B6
  8
0
  6
CONTINUOUS
 62
     8
 10
165.1409181518
 20
313.0682753958
 30
0.0
 11
176.4546285053
 21
319.599541361
 31
0.0
  0
LINE
  5
4B7
  8
0
  6
CONTINUOUS
 62
     8
 10
204.5493752795
 20
257.086385275
 30
0.0
 11
205.241500289
 21
257.4859405383
 31
0.0
  0
LINE
  5
4B8
  8
0
  6
CONTINUOUS
 62
     8
 10
195.9068215492
 20
261.8663653487
 30
0.0
 11
205.3382431114
 21
267.3110091241
 31
0.0
  0
LINE
  5
4B9
  8
0
  6
CONTINUOUS
 62
     8
 10
164.433815206
 20
322.4584261197
 30
0.0
 11
165.141039324
 21
322.8666979127
 31
0.0
  0
LINE
  5
4BA
  8
0
  6
CONTINUOUS
 62
     8
 10
208.3370598716
 20
245.3254862493
 30
0.0
 11
209.0362339416
 21
245.7291108484
 31
0.0
  0
LINE
  5
4BB
  8
0
  6
CONTINUOUS
 62
     8
 10
164.433815206
 20
314.2930197043
 30
0.0
 11
176.4546337736
 21
321.2324905526
 31
0.0
  0
LINE
  5
4BC
  8
0
  6
CONTINUOUS
 62
     8
 10
207.9208096932
 20
203.1103182442
 30
0.0
 11
218.8445194523
 21
209.4164416585
 31
0.0
  0
LINE
  5
4BD
  8
0
  6
CONTINUOUS
 62
     8
 10
178.5238227646
 20
291.6037017773
 30
0.0
 11
179.2120966058
 21
292.0010338084
 31
0.0
  0
LINE
  5
4BE
  8
0
  6
CONTINUOUS
 62
     8
 10
163.0605760511
 20
300.0609708071
 30
0.0
 11
171.123294513
 21
304.7154791012
 31
0.0
  0
LINE
  5
4BF
  8
0
  6
CONTINUOUS
 62
     8
 10
191.397129832
 20
264.360561997
 30
0.0
 11
192.0892548415
 21
264.7601172602
 31
0.0
  0
LINE
  5
4C0
  8
0
  6
CONTINUOUS
 62
     8
 10
182.4798576747
 20
269.2924822542
 30
0.0
 11
192.188336814
 21
274.8970679643
 31
0.0
  0
LINE
  5
4C1
  8
0
  6
CONTINUOUS
 62
     8
 10
195.1849355963
 20
253.2364266985
 30
0.0
 11
195.8841676181
 21
253.6400847526
 31
0.0
  0
LINE
  5
4C2
  8
0
  6
CONTINUOUS
 62
     8
 10
194.7686195634
 20
210.703022458
 30
0.0
 11
205.5365282286
 21
216.9192038153
 31
0.0
  0
LINE
  5
4C3
  8
0
  6
CONTINUOUS
 62
     8
 10
178.5052412727
 20
279.2239109378
 30
0.0
 11
179.2123494869
 21
279.6321158209
 31
0.0
  0
LINE
  5
4C4
  8
0
  6
CONTINUOUS
 62
     8
 10
162.6660446706
 20
288.3676845055
 30
0.0
 11
170.5322903298
 21
292.9087714648
 31
0.0
  0
LINE
  5
4C5
  8
0
  6
CONTINUOUS
 62
     8
 10
221.3559079094
 20
195.3691906156
 30
0.0
 11
258.5557700764
 21
216.8442139359
 31
0.0
  0
LINE
  5
4C6
  8
0
  6
CONTINUOUS
 62
     8
 10
181.7579295749
 20
261.3036005092
 30
0.0
 11
182.4651536929
 21
261.7118723022
 31
0.0
  0
LINE
  5
4C7
  8
0
  6
CONTINUOUS
 62
     8
 10
181.7579295749
 20
214.4725294938
 30
0.0
 11
192.422736512
 21
220.6291914903
 31
0.0
  0
LINE
  5
4C8
  8
0
  6
CONTINUOUS
 62
     8
 10
165.4944722589
 20
283.0604345189
 30
0.0
 11
166.2016963769
 21
283.4687063119
 31
0.0
  0
LINE
  5
4C9
  8
0
  6
CONTINUOUS
 62
     8
 10
176.8081826124
 20
260.1983519206
 30
0.0
 11
177.5152908265
 21
260.6065568038
 31
0.0
  0
LINE
  5
4CA
  8
0
  6
CONTINUOUS
 62
     8
 10
166.2015804731
 20
266.3214130026
 30
0.0
 11
177.5152908265
 21
272.8526789677
 31
0.0
  0
LINE
  5
4CB
  8
0
  6
CONTINUOUS
 62
     8
 10
178.5238227646
 20
247.3471889068
 30
0.0
 11
179.2120966058
 21
247.7445209379
 31
0.0
  0
LINE
  5
4CC
  8
0
  6
CONTINUOUS
 62
     8
 10
165.4944722589
 20
267.5461588315
 30
0.0
 11
177.5152908265
 21
274.4856296798
 31
0.0
  0
LINE
  5
4CD
  8
0
  6
CONTINUOUS
 62
     8
 10
163.0605760511
 20
255.8044594575
 30
0.0
 11
171.2647393366
 21
260.5406221102
 31
0.0
  0
LINE
  5
4CE
  8
0
  6
CONTINUOUS
 62
     8
 10
178.5238227646
 20
232.9760706955
 30
0.0
 11
179.2120966058
 21
233.3734027266
 31
0.0
  0
LINE
  5
4CF
  8
0
  6
CONTINUOUS
 62
     8
 10
163.0605760511
 20
241.4333397253
 30
0.0
 11
172.9843992445
 21
247.1622409117
 31
0.0
  0
LINE
  5
4D0
  8
0
  6
CONTINUOUS
 62
     8
 10
178.5052412727
 20
218.1466562583
 30
0.0
 11
179.2123494869
 21
218.5548611414
 31
0.0
  0
LINE
  5
4D1
  8
0
  6
CONTINUOUS
 62
     8
 10
163.0903106527
 20
227.0455062879
 30
0.0
 11
173.0129906129
 21
232.7737474998
 31
0.0
  0
LINE
  5
4D2
  8
0
  6
CONTINUOUS
 62
     7
 10
345.017603132
 20
442.4396077555
 30
0.0
 11
295.0176023869
 21
442.4396077555
 31
0.0
  0
LINE
  5
4D3
  8
0
  6
CONTINUOUS
 62
     7
 10
295.0176023869
 20
443.2393316564
 30
0.0
 11
295.0176023869
 21
442.4396077555
 31
0.0
  0
LINE
  5
4D4
  8
0
  6
CONTINUOUS
 62
     7
 10
345.017603132
 20
443.2393316564
 30
0.0
 11
295.0176023869
 21
443.2393316564
 31
0.0
  0
LINE
  5
4D5
  8
0
  6
CONTINUOUS
 62
     7
 10
345.017603132
 20
443.2393316564
 30
0.0
 11
345.017603132
 21
442.4396077555
 31
0.0
  0
LINE
  5
4D6
  8
0
  6
CONTINUOUS
 62
     7
 10
295.0176023869
 20
444.0390555573
 30
0.0
 11
295.0176023869
 21
443.2393316564
 31
0.0
  0
LINE
  5
4D7
  8
0
  6
CONTINUOUS
 62
     7
 10
345.017603132
 20
444.0390555573
 30
0.0
 11
295.0176023869
 21
444.0390555573
 31
0.0
  0
LINE
  5
4D8
  8
0
  6
CONTINUOUS
 62
     7
 10
345.017603132
 20
444.0390555573
 30
0.0
 11
345.017603132
 21
443.2393316564
 31
0.0
  0
LINE
  5
4D9
  8
0
  6
CONTINUOUS
 62
     7
 10
345.017603132
 20
424.8393293855
 30
0.0
 11
295.0176023869
 21
424.8393293855
 31
0.0
  0
LINE
  5
4DA
  8
0
  6
CONTINUOUS
 62
     7
 10
345.017603132
 20
425.6393317518
 30
0.0
 11
295.0176023869
 21
425.6393317518
 31
0.0
  0
LINE
  5
4DB
  8
0
  6
CONTINUOUS
 62
     7
 10
345.017603132
 20
425.6393317518
 30
0.0
 11
345.017603132
 21
424.8393293855
 31
0.0
  0
LINE
  5
4DC
  8
0
  6
CONTINUOUS
 62
     7
 10
295.0176023869
 20
425.6393317518
 30
0.0
 11
295.0176023869
 21
424.8393293855
 31
0.0
  0
LINE
  5
4DD
  8
0
  6
CONTINUOUS
 62
     7
 10
345.017603132
 20
426.4393303928
 30
0.0
 11
295.0176023869
 21
426.4393303928
 31
0.0
  0
LINE
  5
4DE
  8
0
  6
CONTINUOUS
 62
     7
 10
345.017603132
 20
426.4393303928
 30
0.0
 11
345.017603132
 21
425.6393317518
 31
0.0
  0
LINE
  5
4DF
  8
0
  6
CONTINUOUS
 62
     7
 10
295.0176023869
 20
426.4393303928
 30
0.0
 11
295.0176023869
 21
425.6393317518
 31
0.0
  0
LINE
  5
4E0
  8
0
  6
CONTINUOUS
 62
     7
 10
345.017603132
 20
488.339331412
 30
0.0
 11
295.0176023869
 21
488.339331412
 31
0.0
  0
LINE
  5
4E1
  8
0
  6
CONTINUOUS
 62
     7
 10
345.017603132
 20
477.3393314716
 30
0.0
 11
295.0176023869
 21
477.3393314716
 31
0.0
  0
LINE
  5
4E2
  8
0
  6
CONTINUOUS
 62
     7
 10
345.017603132
 20
488.339331412
 30
0.0
 11
345.017603132
 21
477.3393314716
 31
0.0
  0
LINE
  5
4E3
  8
0
  6
CONTINUOUS
 62
     7
 10
295.0176023869
 20
488.339331412
 30
0.0
 11
295.0176023869
 21
477.3393314716
 31
0.0
  0
LINE
  5
4E4
  8
0
  6
CONTINUOUS
 62
     7
 10
345.017603132
 20
463.3393315052
 30
0.0
 11
295.0176023869
 21
463.3393315052
 31
0.0
  0
LINE
  5
4E5
  8
0
  6
CONTINUOUS
 62
     7
 10
345.017603132
 20
460.0893314381
 30
0.0
 11
295.0176023869
 21
460.0893314381
 31
0.0
  0
LINE
  5
4E6
  8
0
  6
CONTINUOUS
 62
     7
 10
345.017603132
 20
463.3393315052
 30
0.0
 11
345.017603132
 21
460.0893314381
 31
0.0
  0
LINE
  5
4E7
  8
0
  6
CONTINUOUS
 62
     7
 10
295.0176023869
 20
463.3393315052
 30
0.0
 11
295.0176023869
 21
460.0893314381
 31
0.0
  0
LINE
  5
4E8
  8
0
  6
CONTINUOUS
 62
     7
 10
345.017603132
 20
450.3393317026
 30
0.0
 11
295.0176023869
 21
450.3393317026
 31
0.0
  0
LINE
  5
4E9
  8
0
  6
CONTINUOUS
 62
     7
 10
345.017603132
 20
449.8393316206
 30
0.0
 11
295.0176023869
 21
449.8393316206
 31
0.0
  0
LINE
  5
4EA
  8
0
  6
CONTINUOUS
 62
     7
 10
345.017603132
 20
450.3393317026
 30
0.0
 11
345.017603132
 21
449.8393316206
 31
0.0
  0
LINE
  5
4EB
  8
0
  6
CONTINUOUS
 62
     7
 10
295.0176023869
 20
450.3393317026
 30
0.0
 11
295.0176023869
 21
449.8393316206
 31
0.0
  0
LINE
  5
4EC
  8
0
  6
CONTINUOUS
 62
     7
 10
345.017603132
 20
463.8393315871
 30
0.0
 11
295.0176023869
 21
463.8393315871
 31
0.0
  0
LINE
  5
4ED
  8
0
  6
CONTINUOUS
 62
     7
 10
345.017603132
 20
463.8393315871
 30
0.0
 11
345.017603132
 21
463.3393315052
 31
0.0
  0
LINE
  5
4EE
  8
0
  6
CONTINUOUS
 62
     7
 10
295.0176023869
 20
463.8393315871
 30
0.0
 11
295.0176023869
 21
463.3393315052
 31
0.0
  0
LINE
  5
4EF
  8
0
  6
CONTINUOUS
 62
     7
 10
345.017603132
 20
476.839332321
 30
0.0
 11
295.0176023869
 21
476.839332321
 31
0.0
  0
LINE
  5
4F0
  8
0
  6
CONTINUOUS
 62
     7
 10
345.017603132
 20
477.3393314716
 30
0.0
 11
345.017603132
 21
476.839332321
 31
0.0
  0
LINE
  5
4F1
  8
0
  6
CONTINUOUS
 62
     7
 10
295.0176023869
 20
477.3393314716
 30
0.0
 11
295.0176023869
 21
476.839332321
 31
0.0
  0
LINE
  5
4F2
  8
0
  6
CONTINUOUS
 62
     7
 10
345.017603132
 20
488.8393324253
 30
0.0
 11
295.0176023869
 21
488.8393324253
 31
0.0
  0
LINE
  5
4F3
  8
0
  6
CONTINUOUS
 62
     7
 10
345.017603132
 20
488.8393324253
 30
0.0
 11
345.017603132
 21
488.339331412
 31
0.0
  0
LINE
  5
4F4
  8
0
  6
CONTINUOUS
 62
     7
 10
295.0176023869
 20
488.8393324253
 30
0.0
 11
295.0176023869
 21
488.339331412
 31
0.0
  0
LINE
  5
4F5
  8
0
  6
CONTINUOUS
 62
     7
 10
345.017603132
 20
453.5893315368
 30
0.0
 11
295.0176023869
 21
453.5893315368
 31
0.0
  0
LINE
  5
4F6
  8
0
  6
CONTINUOUS
 62
     7
 10
345.017603132
 20
453.5893315368
 30
0.0
 11
345.017603132
 21
450.3393317026
 31
0.0
  0
LINE
  5
4F7
  8
0
  6
CONTINUOUS
 62
     7
 10
295.0176023869
 20
453.5893315368
 30
0.0
 11
295.0176023869
 21
450.3393317026
 31
0.0
  0
LINE
  5
4F8
  8
0
  6
CONTINUOUS
 62
     7
 10
345.017603132
 20
433.6396068719
 30
0.0
 11
295.0176023869
 21
433.6396068719
 31
0.0
  0
LINE
  5
4F9
  8
0
  6
CONTINUOUS
 62
     7
 10
345.017603132
 20
434.4393317041
 30
0.0
 11
295.0176023869
 21
434.4393317041
 31
0.0
  0
LINE
  5
4FA
  8
0
  6
CONTINUOUS
 62
     7
 10
345.017603132
 20
434.4393317041
 30
0.0
 11
345.017603132
 21
433.6396068719
 31
0.0
  0
LINE
  5
4FB
  8
0
  6
CONTINUOUS
 62
     7
 10
295.0176023869
 20
434.4393317041
 30
0.0
 11
295.0176023869
 21
433.6396068719
 31
0.0
  0
LINE
  5
4FC
  8
0
  6
CONTINUOUS
 62
     7
 10
345.017603132
 20
435.2390546736
 30
0.0
 11
295.0176023869
 21
435.2390546736
 31
0.0
  0
LINE
  5
4FD
  8
0
  6
CONTINUOUS
 62
     7
 10
345.017603132
 20
435.2390546736
 30
0.0
 11
345.017603132
 21
434.4393317041
 31
0.0
  0
LINE
  5
4FE
  8
0
  6
CONTINUOUS
 62
     7
 10
295.0176023869
 20
435.2390546736
 30
0.0
 11
295.0176023869
 21
434.4393317041
 31
0.0
  0
LINE
  5
4FF
  8
0
  6
CONTINUOUS
 62
     7
 10
345.017603132
 20
471.1390551564
 30
0.0
 11
295.0176023869
 21
471.1390551564
 31
0.0
  0
LINE
  5
500
  8
0
  6
CONTINUOUS
 62
     7
 10
345.017603132
 20
470.3393312556
 30
0.0
 11
295.0176023869
 21
470.3393312556
 31
0.0
  0
LINE
  5
501
  8
0
  6
CONTINUOUS
 62
     7
 10
345.017603132
 20
471.1390551564
 30
0.0
 11
345.017603132
 21
470.3393312556
 31
0.0
  0
LINE
  5
502
  8
0
  6
CONTINUOUS
 62
     7
 10
295.0176023869
 20
471.1390551564
 30
0.0
 11
295.0176023869
 21
470.3393312556
 31
0.0
  0
LINE
  5
503
  8
0
  6
CONTINUOUS
 62
     7
 10
345.017603132
 20
469.539608286
 30
0.0
 11
295.0176023869
 21
469.539608286
 31
0.0
  0
LINE
  5
504
  8
0
  6
CONTINUOUS
 62
     7
 10
345.017603132
 20
470.3393312556
 30
0.0
 11
345.017603132
 21
469.539608286
 31
0.0
  0
LINE
  5
505
  8
0
  6
CONTINUOUS
 62
     7
 10
295.0176023869
 20
470.3393312556
 30
0.0
 11
295.0176023869
 21
469.539608286
 31
0.0
  0
LINE
  5
506
  8
0
  6
CONTINUOUS
 62
     7
 10
345.017603132
 20
444.326531553
 30
0.0
 11
295.0176023869
 21
444.326531553
 31
0.0
  0
LINE
  5
507
  8
0
  6
CONTINUOUS
 62
     7
 10
345.017603132
 20
444.326531553
 30
0.0
 11
345.017603132
 21
444.0390555573
 31
0.0
  0
LINE
  5
508
  8
0
  6
CONTINUOUS
 62
     7
 10
295.0176023869
 20
444.326531553
 30
0.0
 11
295.0176023869
 21
444.0390555573
 31
0.0
  0
LINE
  5
509
  8
0
  6
CONTINUOUS
 62
     7
 10
345.017603132
 20
433.3521318075
 30
0.0
 11
295.0176023869
 21
433.3521318075
 31
0.0
  0
LINE
  5
50A
  8
0
  6
CONTINUOUS
 62
     7
 10
345.017603132
 20
433.6396068719
 30
0.0
 11
345.017603132
 21
433.3521318075
 31
0.0
  0
LINE
  5
50B
  8
0
  6
CONTINUOUS
 62
     7
 10
295.0176023869
 20
433.6396068719
 30
0.0
 11
295.0176023869
 21
433.3521318075
 31
0.0
  0
LINE
  5
50C
  8
0
  6
CONTINUOUS
 62
     7
 10
345.017603132
 20
435.5265316007
 30
0.0
 11
295.0176023869
 21
435.5265316007
 31
0.0
  0
LINE
  5
50D
  8
0
  6
CONTINUOUS
 62
     7
 10
345.017603132
 20
435.5265316007
 30
0.0
 11
345.017603132
 21
435.2390546736
 31
0.0
  0
LINE
  5
50E
  8
0
  6
CONTINUOUS
 62
     7
 10
295.0176023869
 20
435.5265316007
 30
0.0
 11
295.0176023869
 21
435.2390546736
 31
0.0
  0
LINE
  5
50F
  8
0
  6
CONTINUOUS
 62
     7
 10
345.017603132
 20
442.1521317598
 30
0.0
 11
295.0176023869
 21
442.1521317598
 31
0.0
  0
LINE
  5
510
  8
0
  6
CONTINUOUS
 62
     7
 10
345.017603132
 20
442.4396077555
 30
0.0
 11
345.017603132
 21
442.1521317598
 31
0.0
  0
LINE
  5
511
  8
0
  6
CONTINUOUS
 62
     7
 10
295.0176023869
 20
442.4396077555
 30
0.0
 11
295.0176023869
 21
442.1521317598
 31
0.0
  0
LINE
  5
512
  8
0
  6
CONTINUOUS
 62
     7
 10
345.017603132
 20
471.4265320835
 30
0.0
 11
295.0176023869
 21
471.4265320835
 31
0.0
  0
LINE
  5
513
  8
0
  6
CONTINUOUS
 62
     7
 10
345.017603132
 20
471.4265320835
 30
0.0
 11
345.017603132
 21
471.1390551564
 31
0.0
  0
LINE
  5
514
  8
0
  6
CONTINUOUS
 62
     7
 10
295.0176023869
 20
471.4265320835
 30
0.0
 11
295.0176023869
 21
471.1390551564
 31
0.0
  0
LINE
  5
515
  8
0
  6
CONTINUOUS
 62
     7
 10
345.017603132
 20
469.252131359
 30
0.0
 11
295.0176023869
 21
469.252131359
 31
0.0
  0
LINE
  5
516
  8
0
  6
CONTINUOUS
 62
     7
 10
345.017603132
 20
469.539608286
 30
0.0
 11
345.017603132
 21
469.252131359
 31
0.0
  0
LINE
  5
517
  8
0
  6
CONTINUOUS
 62
     7
 10
295.0176023869
 20
469.539608286
 30
0.0
 11
295.0176023869
 21
469.252131359
 31
0.0
  0
LINE
  5
518
  8
0
  6
CONTINUOUS
 62
     7
 10
345.017603132
 20
460.0893305068
 30
0.0
 11
345.017603132
 21
453.5893303727
 31
0.0
  0
LINE
  5
519
  8
0
  6
CONTINUOUS
 62
     7
 10
295.0176023869
 20
460.0893314381
 30
0.0
 11
295.0176023869
 21
453.5893315368
 31
0.0
  0
LINE
  5
51A
  8
0
  6
CONTINUOUS
 62
     7
 10
345.017603132
 20
426.9393314061
 30
0.0
 11
295.0176023869
 21
426.9393314061
 31
0.0
  0
LINE
  5
51B
  8
0
  6
CONTINUOUS
 62
     7
 10
345.017603132
 20
426.9393314061
 30
0.0
 11
345.017603132
 21
426.4393303928
 31
0.0
  0
LINE
  5
51C
  8
0
  6
CONTINUOUS
 62
     7
 10
295.0176023869
 20
426.9393314061
 30
0.0
 11
295.0176023869
 21
426.4393303928
 31
0.0
  0
LINE
  5
51D
  8
0
  6
CONTINUOUS
 62
     7
 10
345.017603132
 20
464.3393316691
 30
0.0
 11
295.0176023869
 21
464.3393316691
 31
0.0
  0
LINE
  5
51E
  8
0
  6
CONTINUOUS
 62
     7
 10
345.017603132
 20
464.3393316691
 30
0.0
 11
345.017603132
 21
463.8393315871
 31
0.0
  0
LINE
  5
51F
  8
0
  6
CONTINUOUS
 62
     7
 10
295.0176023869
 20
464.3393316691
 30
0.0
 11
295.0176023869
 21
463.8393315871
 31
0.0
  0
LINE
  5
520
  8
0
  6
CONTINUOUS
 62
     7
 10
345.017603132
 20
449.3393315387
 30
0.0
 11
295.0176023869
 21
449.3393315387
 31
0.0
  0
LINE
  5
521
  8
0
  6
CONTINUOUS
 62
     7
 10
345.017603132
 20
449.8393316206
 30
0.0
 11
345.017603132
 21
449.3393315387
 31
0.0
  0
LINE
  5
522
  8
0
  6
CONTINUOUS
 62
     7
 10
295.0176023869
 20
449.8393316206
 30
0.0
 11
295.0176023869
 21
449.3393315387
 31
0.0
  0
LINE
  5
523
  8
0
  6
CONTINUOUS
 62
     7
 10
345.017603132
 20
476.3393313077
 30
0.0
 11
295.0176023869
 21
476.3393313077
 31
0.0
  0
LINE
  5
524
  8
0
  6
CONTINUOUS
 62
     7
 10
345.017603132
 20
476.839332321
 30
0.0
 11
345.017603132
 21
476.3393313077
 31
0.0
  0
LINE
  5
525
  8
0
  6
CONTINUOUS
 62
     7
 10
295.0176023869
 20
476.839332321
 30
0.0
 11
295.0176023869
 21
476.3393313077
 31
0.0
  0
LINE
  5
526
  8
0
  6
CONTINUOUS
 62
     7
 10
345.017603132
 20
441.6523039726
 30
0.0
 11
295.0176023869
 21
441.6523039726
 31
0.0
  0
LINE
  5
527
  8
0
  6
CONTINUOUS
 62
     7
 10
345.017603132
 20
442.1521317598
 30
0.0
 11
345.017603132
 21
441.6523039726
 31
0.0
  0
LINE
  5
528
  8
0
  6
CONTINUOUS
 62
     7
 10
295.0176023869
 20
442.1521317598
 30
0.0
 11
295.0176023869
 21
441.6523039726
 31
0.0
  0
LINE
  5
529
  8
0
  6
CONTINUOUS
 62
     7
 10
345.017603132
 20
432.8523040202
 30
0.0
 11
295.0176023869
 21
432.8523040202
 31
0.0
  0
LINE
  5
52A
  8
0
  6
CONTINUOUS
 62
     7
 10
345.017603132
 20
433.3521318075
 30
0.0
 11
345.017603132
 21
432.8523040202
 31
0.0
  0
LINE
  5
52B
  8
0
  6
CONTINUOUS
 62
     7
 10
295.0176023869
 20
433.3521318075
 30
0.0
 11
295.0176023869
 21
432.8523040202
 31
0.0
  0
LINE
  5
52C
  8
0
  6
CONTINUOUS
 62
     7
 10
345.017603132
 20
436.0263575253
 30
0.0
 11
295.0176023869
 21
436.0263575253
 31
0.0
  0
LINE
  5
52D
  8
0
  6
CONTINUOUS
 62
     7
 10
345.017603132
 20
436.0263575253
 30
0.0
 11
345.017603132
 21
435.5265316007
 31
0.0
  0
LINE
  5
52E
  8
0
  6
CONTINUOUS
 62
     7
 10
295.0176023869
 20
436.0263575253
 30
0.0
 11
295.0176023869
 21
435.5265316007
 31
0.0
  0
LINE
  5
52F
  8
0
  6
CONTINUOUS
 62
     7
 10
345.017603132
 20
471.9263589394
 30
0.0
 11
295.0176023869
 21
471.9263589394
 31
0.0
  0
LINE
  5
530
  8
0
  6
CONTINUOUS
 62
     7
 10
345.017603132
 20
471.9263589394
 30
0.0
 11
345.017603132
 21
471.4265320835
 31
0.0
  0
LINE
  5
531
  8
0
  6
CONTINUOUS
 62
     7
 10
295.0176023869
 20
471.9263589394
 30
0.0
 11
295.0176023869
 21
471.4265320835
 31
0.0
  0
LINE
  5
532
  8
0
  6
CONTINUOUS
 62
     7
 10
345.017603132
 20
468.752304503
 30
0.0
 11
295.0176023869
 21
468.752304503
 31
0.0
  0
LINE
  5
533
  8
0
  6
CONTINUOUS
 62
     7
 10
345.017603132
 20
469.252131359
 30
0.0
 11
345.017603132
 21
468.752304503
 31
0.0
  0
LINE
  5
534
  8
0
  6
CONTINUOUS
 62
     7
 10
295.0176023869
 20
469.252131359
 30
0.0
 11
295.0176023869
 21
468.752304503
 31
0.0
  0
LINE
  5
535
  8
0
  6
CONTINUOUS
 62
     7
 10
345.017603132
 20
444.8263584089
 30
0.0
 11
295.0176023869
 21
444.8263584089
 31
0.0
  0
LINE
  5
536
  8
0
  6
CONTINUOUS
 62
     7
 10
345.017603132
 20
444.8263584089
 30
0.0
 11
345.017603132
 21
444.326531553
 31
0.0
  0
LINE
  5
537
  8
0
  6
CONTINUOUS
 62
     7
 10
295.0176023869
 20
444.8263584089
 30
0.0
 11
295.0176023869
 21
444.326531553
 31
0.0
  0
LINE
  5
538
  8
0
  6
CONTINUOUS
 62
     7
 10
345.017603132
 20
441.6523039726
 30
0.0
 11
345.017603132
 21
436.0263575253
 31
0.0
  0
LINE
  5
539
  8
0
  6
CONTINUOUS
 62
     7
 10
295.0176023869
 20
441.6523039726
 30
0.0
 11
295.0176023869
 21
436.0263575253
 31
0.0
  0
LINE
  5
53A
  8
0
  6
CONTINUOUS
 62
     7
 10
345.017603132
 20
432.8523040202
 30
0.0
 11
345.017603132
 21
426.9393314061
 31
0.0
  0
LINE
  5
53B
  8
0
  6
CONTINUOUS
 62
     7
 10
295.0176023869
 20
432.8523040202
 30
0.0
 11
295.0176023869
 21
426.9393314061
 31
0.0
  0
LINE
  5
53C
  8
0
  6
CONTINUOUS
 62
     7
 10
345.017603132
 20
449.3393315387
 30
0.0
 11
345.017603132
 21
444.8263584089
 31
0.0
  0
LINE
  5
53D
  8
0
  6
CONTINUOUS
 62
     7
 10
295.0176023869
 20
449.3393315387
 30
0.0
 11
295.0176023869
 21
444.8263584089
 31
0.0
  0
LINE
  5
53E
  8
0
  6
CONTINUOUS
 62
     7
 10
345.017603132
 20
468.752304503
 30
0.0
 11
345.017603132
 21
464.3393316691
 31
0.0
  0
LINE
  5
53F
  8
0
  6
CONTINUOUS
 62
     7
 10
295.0176023869
 20
468.752304503
 30
0.0
 11
295.0176023869
 21
464.3393316691
 31
0.0
  0
LINE
  5
540
  8
0
  6
CONTINUOUS
 62
     7
 10
345.017603132
 20
476.3393313077
 30
0.0
 11
345.017603132
 21
471.9263589394
 31
0.0
  0
LINE
  5
541
  8
0
  6
CONTINUOUS
 62
     7
 10
295.0176023869
 20
476.3393313077
 30
0.0
 11
295.0176023869
 21
471.9263589394
 31
0.0
  0
DIMENSION
  5
542
  8
0
  6
CONTINUOUS
 62
   154
  2
_D_31
 10
345.0176023869
 20
410.5609291725
 30
0.0
 11
319.8875618847
 21
410.5609291725
 31
0.0
 70
   160
  1
<>
  3
SLDDIMSTYLE7
 13
295.0176023869
 23
424.8393309518
 33
0.0
 14
345.0176023869
 24
424.8393309518
 34
0.0
  0
ENDSEC
  0
EOF
