  0
SECTION
  2
HEADER
  9
$ACADVER
  1
AC1009
  9
$DWGCODEPAGE
  3
ansi_1252
  9
$INSBASE
 10
0.0
 20
0.0
 30
0.0
  9
$EXTMIN
 10
0.0
 20
0.0
 30
0.0
  9
$EXTMAX
 10
594.0
 20
420.0
 30
0.0
  9
$LIMMIN
 10
0.0
 20
0.0
  9
$LIMMAX
 10
594.0
 20
420.0
  9
$ORTHOMODE
 70
     0
  9
$REGENMODE
 70
     1
  9
$FILLMODE
 70
     1
  9
$QTEXTMODE
 70
     0
  9
$MIRRTEXT
 70
     1
  9
$DRAGMODE
 70
     2
  9
$LTSCALE
 40
2.0
  9
$OSMODE
 70
    37
  9
$ATTMODE
 70
     1
  9
$TEXTSIZE
 40
7.0
  9
$TRACEWID
 40
1.0
  9
$TEXTSTYLE
  7
STANDARD
  9
$CLAYER
  8
0
  9
$CELTYPE
  6
BYLAYER
  9
$CECOLOR
 62
   256
  9
$DIMSCALE
 40
1.0
  9
$DIMASZ
 40
6.604
  9
$DIMEXO
 40
2.0
  9
$DIMDLI
 40
3.75
  9
$DIMRND
 40
0.0
  9
$DIMDLE
 40
0.0
  9
$DIMEXE
 40
2.0
  9
$DIMTP
 40
0.0
  9
$DIMTM
 40
0.0
  9
$DIMTXT
 40
7.0
  9
$DIMCEN
 40
2.5
  9
$DIMTSZ
 40
0.0
  9
$DIMTOL
 70
     0
  9
$DIMLIM
 70
     0
  9
$DIMTIH
 70
     1
  9
$DIMTOH
 70
     1
  9
$DIMSE1
 70
     0
  9
$DIMSE2
 70
     0
  9
$DIMTAD
 70
     1
  9
$DIMZIN
 70
     0
  9
$DIMBLK
  1

  9
$DIMASO
 70
     1
  9
$DIMSHO
 70
     1
  9
$DIMPOST
  1

  9
$DIMAPOST
  1

  9
$DIMALT
 70
     0
  9
$DIMALTD
 70
     3
  9
$DIMALTF
 40
0.0393700787
  9
$DIMLFAC
 40
1.0
  9
$DIMTOFL
 70
     1
  9
$DIMTVP
 40
0.0
  9
$DIMTIX
 70
     0
  9
$DIMSOXD
 70
     0
  9
$DIMSAH
 70
     0
  9
$DIMBLK1
  1

  9
$DIMBLK2
  1

  9
$DIMSTYLE
  2
ISO-25
  9
$DIMCLRD
 70
     0
  9
$DIMCLRE
 70
     0
  9
$DIMCLRT
 70
     0
  9
$DIMTFAC
 40
1.0
  9
$DIMGAP
 40
3.048
  9
$LUNITS
 70
     2
  9
$LUPREC
 70
     2
  9
$SKETCHINC
 40
1.0
  9
$FILLETRAD
 40
10.0
  9
$AUNITS
 70
     0
  9
$AUPREC
 70
     2
  9
$MENU
  1
.
  9
$ELEVATION
 40
0.0
  9
$PELEVATION
 40
0.0
  9
$THICKNESS
 40
0.0
  9
$LIMCHECK
 70
     0
  9
$CHAMFERA
 40
0.0
  9
$CHAMFERB
 40
0.0
  9
$SKPOLY
 70
     0
  9
$TDCREATE
 40
2458309.318853565
  9
$TDUPDATE
 40
2458309.318870174
  9
$TDINDWG
 40
0.0000000116
  9
$TDUSRTIMER
 40
0.0000000116
  9
$USRTIMER
 70
     1
  9
$ANGBASE
 50
0.0
  9
$ANGDIR
 70
     0
  9
$PDMODE
 70
     0
  9
$PDSIZE
 40
-1.0
  9
$PLINEWID
 40
0.0
  9
$COORDS
 70
     1
  9
$SPLFRAME
 70
     0
  9
$SPLINETYPE
 70
     6
  9
$SPLINESEGS
 70
     8
  9
$ATTDIA
 70
     0
  9
$ATTREQ
 70
     1
  9
$HANDLING
 70
     1
  9
$HANDSEED
  5
72F
  9
$SURFTAB1
 70
     6
  9
$SURFTAB2
 70
     6
  9
$SURFTYPE
 70
     6
  9
$SURFU
 70
     6
  9
$SURFV
 70
     6
  9
$UCSNAME
  2

  9
$UCSORG
 10
0.0
 20
0.0
 30
0.0
  9
$UCSXDIR
 10
1.0
 20
0.0
 30
0.0
  9
$UCSYDIR
 10
0.0
 20
1.0
 30
0.0
  9
$PUCSNAME
  2

  9
$PUCSORG
 10
0.0
 20
0.0
 30
0.0
  9
$PUCSXDIR
 10
1.0
 20
0.0
 30
0.0
  9
$PUCSYDIR
 10
0.0
 20
1.0
 30
0.0
  9
$USERI1
 70
     0
  9
$USERI2
 70
     0
  9
$USERI3
 70
     0
  9
$USERI4
 70
     0
  9
$USERI5
 70
     0
  9
$USERR1
 40
0.0
  9
$USERR2
 40
0.0
  9
$USERR3
 40
0.0
  9
$USERR4
 40
0.0
  9
$USERR5
 40
0.0
  9
$WORLDVIEW
 70
     1
  9
$SHADEDGE
 70
     3
  9
$SHADEDIF
 70
    70
  9
$TILEMODE
 70
     1
  9
$MAXACTVP
 70
    64
  9
$PLIMCHECK
 70
     0
  9
$PEXTMIN
 10
1.0000000000E+20
 20
1.0000000000E+20
 30
1.0000000000E+20
  9
$PEXTMAX
 10
-1.0000000000E+20
 20
-1.0000000000E+20
 30
-1.0000000000E+20
  9
$PLIMMIN
 10
0.0
 20
0.0
  9
$PLIMMAX
 10
420.0
 20
297.0
  9
$UNITMODE
 70
     0
  9
$VISRETAIN
 70
     1
  9
$PLINEGEN
 70
     0
  9
$PSLTSCALE
 70
     1
  0
ENDSEC
  0
SECTION
  2
TABLES
  0
TABLE
  2
VPORT
 70
     1
  0
VPORT
  2
*ACTIVE
 70
     0
 10
0.0
 20
0.0
 11
1.0
 21
1.0
 12
297.0
 22
210.0
 13
0.0
 23
0.0
 14
10.0
 24
10.0
 15
10.0
 25
10.0
 16
0.0
 26
0.0
 36
1.0
 17
0.0
 27
0.0
 37
0.0
 40
420.0
 41
1.4142857143
 42
50.0
 43
0.0
 44
0.0
 50
0.0
 51
0.0
 71
     0
 72
  2000
 73
     1
 74
     3
 75
     0
 76
     0
 77
     0
 78
     0
  0
ENDTAB
  0
TABLE
  2
LTYPE
 70
     6
  0
LTYPE
  2
CONTINUOUS
 70
     0
  3
Solid line
 72
    65
 73
     0
 40
0.0
  0
LTYPE
  2
HIDDEN
 70
     0
  3
Hidden __ __ __ __ __ __ __ __ __ __ __ __ __ __
 72
    65
 73
     2
 40
1.905
 49
1.27
 49
-0.635
  0
LTYPE
  2
PHANTOM
 70
     0
  3
Phantom ______  __  __  ______  __  __  ______
 72
    65
 73
     6
 40
12.7
 49
6.35
 49
-1.27
 49
1.27
 49
-1.27
 49
1.27
 49
-1.27
  0
LTYPE
  2
CENTER
 70
     0
  3
Center ____ _ ____ _ ____ _ ____ _ ____ _ ____
 72
    65
 73
     4
 40
10.16
 49
6.35
 49
-1.27
 49
1.27
 49
-1.27
  0
LTYPE
  2
CENTERX2
 70
     0
  3
Center (2x) ________  __  ________  __  _____
 72
    65
 73
     4
 40
20.32
 49
12.7
 49
-2.54
 49
2.54
 49
-2.54
  0
LTYPE
  2
DOT2
 70
     0
  3
Dot (.5x) ........................................
 72
    65
 73
     2
 40
0.635
 49
0.0
 49
-0.635
  0
ENDTAB
  0
TABLE
  2
LAYER
 70
     1
  0
LAYER
  2
0
 70
     0
 62
     7
  6
CONTINUOUS
  0
ENDTAB
  0
TABLE
  2
STYLE
 70
     1
  0
STYLE
  2
STANDARD
 70
     0
 40
0.0
 41
1.0
 50
0.0
 71
     0
 42
7.0
  3
txt
  4

  0
ENDTAB
  0
TABLE
  2
VIEW
 70
     0
  0
ENDTAB
  0
TABLE
  2
UCS
 70
     0
  0
ENDTAB
  0
TABLE
  2
APPID
 70
     1
  0
APPID
  2
ACAD
 70
     0
  0
ENDTAB
  0
TABLE
  2
DIMSTYLE
 70
     6
  0
DIMSTYLE
  2
ISO-25
 70
     0
  3

  4

  5

  6

  7

 40
1.0
 41
2.5
 42
0.625
 43
3.75
 44
1.25
 45
0.0
 46
0.0
 47
0.0
 48
0.0
140
2.5
141
2.5
142
0.0
143
0.0393700787
144
1.0
145
0.0
146
1.0
147
0.625
 71
     0
 72
     0
 73
     0
 74
     0
 75
     0
 76
     0
 77
     1
 78
     8
170
     0
171
     3
172
     1
173
     0
174
     0
175
     0
176
     0
177
     0
178
     0
  0
DIMSTYLE
  2
SLDDIMSTYLE0
 70
     0
  3

  4

  5

  6

  7

 40
1.0
 41
6.604
 42
0.0625
 43
0.38
 44
0.0
 45
0.000000001
 46
0.0
 47
0.0
 48
0.0
140
7.0
141
0.09
142
0.0
143
25.4
144
1.0
145
0.0
146
1.0
147
1.75
 71
     0
 72
     0
 73
     0
 74
     0
 75
     0
 76
     0
 77
     1
 78
    12
170
     0
171
     2
172
     0
173
     1
174
     0
175
     0
176
     0
177
     0
178
     0
  0
DIMSTYLE
  2
SLDDIMSTYLE1
 70
     0
  3

  4

  5

  6

  7

 40
1.0
 41
6.604
 42
0.0625
 43
0.38
 44
0.0
 45
0.000000001
 46
0.0
 47
0.0
 48
0.0
140
7.0
141
0.09
142
0.0
143
25.4
144
1.0
145
0.0
146
1.0
147
1.75
 71
     0
 72
     0
 73
     0
 74
     0
 75
     0
 76
     0
 77
     1
 78
    12
170
     0
171
     2
172
     1
173
     1
174
     0
175
     0
176
     0
177
     0
178
     0
  0
DIMSTYLE
  2
SLDDIMSTYLE2
 70
     0
  3

  4

  5

  6

  7

 40
1.0
 41
6.604
 42
0.0625
 43
0.38
 44
0.0
 45
0.000000001
 46
0.0
 47
0.0
 48
0.0
140
7.0
141
0.09
142
0.0
143
25.4
144
1.0
145
0.0
146
1.0
147
1.75
 71
     0
 72
     0
 73
     0
 74
     0
 75
     0
 76
     0
 77
     1
 78
    12
170
     0
171
     2
172
     1
173
     1
174
     0
175
     0
176
     0
177
     0
178
     0
  0
DIMSTYLE
  2
SLDDIMSTYLE3
 70
     0
  3

  4

  5

  6

  7

 40
1.0
 41
6.604
 42
0.0625
 43
0.38
 44
0.0
 45
0.000000001
 46
0.0
 47
0.0
 48
0.0
140
7.0
141
0.09
142
0.0
143
25.4
144
1.0
145
0.0
146
1.0
147
1.75
 71
     0
 72
     0
 73
     0
 74
     0
 75
     0
 76
     0
 77
     1
 78
    12
170
     0
171
     2
172
     1
173
     1
174
     0
175
     0
176
     0
177
     0
178
     0
  0
DIMSTYLE
  2
SLDDIMSTYLE4
 70
     0
  3

  4

  5

  6

  7

 40
1.0
 41
6.604
 42
0.0625
 43
0.38
 44
0.0
 45
0.000000001
 46
0.0
 47
0.0
 48
0.0
140
7.0
141
0.0
142
0.0
143
25.4
144
1.0
145
0.0
146
1.0
147
1.75
 71
     0
 72
     0
 73
     0
 74
     0
 75
     0
 76
     0
 77
     1
 78
    12
170
     0
171
     2
172
     0
173
     1
174
     0
175
     0
176
     0
177
     0
178
     0
  0
ENDTAB
  0
ENDSEC
  0
SECTION
  2
BLOCKS
  0
BLOCK
  8
0
  2
$MODEL_SPACE
 70
     0
 10
0.0
 20
0.0
 30
0.0
  3
$MODEL_SPACE
  1

  0
ENDBLK
  5
21
  8
0
  0
BLOCK
 67
     1
  8
0
  2
$PAPER_SPACE
 70
     0
 10
0.0
 20
0.0
 30
0.0
  3
$PAPER_SPACE
  1

  0
ENDBLK
  5
1D
 67
     1
  8
0
  0
BLOCK
  8
0
  2
BLOCK2
 70
     0
 10
0.0
 20
0.0
 30
0.0
  3
BLOCK2
  1

  0
INSERT
  5
84
  8
0
  6
CONTINUOUS
 62
     7
  2
BLOCK1
 10
-258.8262632916
 20
-286.6552837897
 30
0.0
  0
ENDBLK
  5
75
  8
0
  0
BLOCK
  8
0
  2
BLOCK1
 70
     0
 10
0.0
 20
0.0
 30
0.0
  3
BLOCK1
  1

  0
CIRCLE
  5
79
  8
0
  6
CONTINUOUS
 62
     7
 10
288.153184033
 20
301.2034238004
 30
0.0
 40
5.999999999999986
  0
CIRCLE
  5
7A
  8
0
  6
CONTINUOUS
 62
     7
 10
288.153184033
 20
301.2034238004
 30
0.0
 40
2.999999999999974
  0
LINE
  5
7B
  8
0
  6
CENTERX2
 62
     7
 10
251.3831182155
 20
301.2034238004
 30
0.0
 11
300.9232498505
 21
301.2034238004
 31
0.0
  0
LINE
  5
7C
  8
0
  6
CONTINUOUS
 62
     7
 10
276.153184033
 20
307.3771474308
 30
0.0
 11
276.153184033
 21
295.0297001701
 31
0.0
  0
LINE
  5
7D
  8
0
  6
CONTINUOUS
 62
     7
 10
262.5140928444
 20
304.3771474308
 30
0.0
 11
262.5140928444
 21
298.0297001701
 31
0.0
  0
LINE
  5
7E
  8
0
  6
CONTINUOUS
 62
     7
 10
262.5140928444
 20
304.3771474308
 30
0.0
 11
276.153184033
 21
307.3771474308
 31
0.0
  0
LINE
  5
7F
  8
0
  6
CONTINUOUS
 62
     7
 10
262.5140928444
 20
298.0297001701
 30
0.0
 11
276.153184033
 21
295.0297001701
 31
0.0
  0
LINE
  5
80
  8
0
  6
CENTERX2
 62
     7
 10
288.153184033
 20
290.6552837897
 30
0.0
 11
288.153184033
 21
311.4183296725
 31
0.0
  0
ENDBLK
  5
78
  8
0
  0
BLOCK
  8
0
  2
PROJEKTIONSMETHODE_1
 70
     0
 10
0.0
 20
0.0
 30
0.0
  3
PROJEKTIONSMETHODE_1
  1

  0
INSERT
  5
85
  8
0
  6
CONTINUOUS
 62
     7
  2
BLOCK2
 10
7.4431450761
 20
-4.0
 30
0.0
  0
ENDBLK
  5
83
  8
0
  0
BLOCK
  8
0
  2
SW_NOTE_0
 70
     0
 10
0.0
 20
0.0
 30
0.0
  3
SW_NOTE_0
  1

  0
TEXT
  5
C9
  8
0
  6
CONTINUOUS
 62
     0
 10
0.0
 20
1.7663003096
 30
0.0
 40
5.0
  1
MATERIAL: 
 41
0.7
 11
0.0
 21
0.0
 31
0.0
 73
     1
  0
TEXT
  5
CA
  8
0
  6
CONTINUOUS
 62
     0
 10
37.4140627682
 20
1.8532013339
 30
0.0
 40
6.35
  1
EN AW-6060 (AlMgSi0,5)
 41
0.6681818182
 11
37.4140627682
 21
-0.3900000593
 31
0.0
 73
     1
  0
ENDBLK
  5
C8
  8
0
  0
BLOCK
  8
0
  2
SW_NOTE_1
 70
     0
 10
0.0
 20
0.0
 30
0.0
  3
SW_NOTE_1
  1

  0
TEXT
  5
D3
  8
0
  6
CONTINUOUS
 62
     0
 10
0.0
 20
1.4954675955
 30
0.0
 40
4.2333333333
  1
IF NOT OTHERWISE DEFINED:
 41
0.658
 11
0.0
 21
0.0
 31
0.0
 73
     1
  0
TEXT
  5
D4
  8
0
  6
CONTINUOUS
 62
     0
 10
0.0
 20
-4.1489767808
 30
0.0
 40
4.2333333333
  1
DIMENSIONS ARE IN MILLIMETERS
 41
0.6637931034
 11
0.0
 21
-5.6444443762
 31
0.0
 73
     1
  0
TEXT
  5
D5
  8
0
  6
CONTINUOUS
 62
     0
 10
0.0
 20
-9.793421157
 30
0.0
 40
4.2333333333
  1
SURFACE CONDITIONS:
 41
0.7
 11
0.0
 21
-11.2888887525
 31
0.0
 73
     1
  0
TEXT
  5
D6
  8
0
  6
CONTINUOUS
 62
     0
 10
0.0
 20
-21.0823099095
 30
0.0
 40
4.2333333333
  1
TOLERANCES: 
 41
0.7
 11
0.0
 21
-22.5777775049
 31
0.0
 73
     1
  0
TEXT
  5
D7
  8
0
  6
CONTINUOUS
 62
     0
 10
40.5959039927
 20
-21.0823099095
 30
0.0
 40
4.2333333333
  1
DIN ISO 2768-m
 41
0.65
 11
40.5959039927
 21
-22.5777775049
 31
0.0
 73
     1
  0
ENDBLK
  5
D2
  8
0
  0
BLOCK
  8
0
  2
_D
 70
     0
 10
0.0
 20
0.0
 30
0.0
  3
_D
  1

  0
SOLID
  5
18B
  8
0
  6
CONTINUOUS
 62
   150
 10
71.6762541806
 20
273.6370064121
 30
0.0
 11
78.2802541806
 21
272.6210064121
 31
0.0
 12
78.2802541806
 22
274.6530064121
 32
0.0
 13
78.2802541806
 23
274.6530064121
 33
0.0
  0
SOLID
  5
18C
  8
0
  6
CONTINUOUS
 62
   150
 10
301.6762541806
 20
273.6370064121
 30
0.0
 11
295.0722541806
 21
274.6530064121
 31
0.0
 12
295.0722541806
 22
272.6210064121
 32
0.0
 13
295.0722541806
 23
272.6210064121
 33
0.0
  0
LINE
  5
18D
  8
0
  6
CONTINUOUS
 62
   150
 10
71.6762541806
 20
300.2745819398
 30
0.0
 11
71.6762541806
 21
271.6370064121
 31
0.0
  0
LINE
  5
18E
  8
0
  6
CONTINUOUS
 62
   150
 10
301.6762541806
 20
300.2745819398
 30
0.0
 11
301.6762541806
 21
271.6370064121
 31
0.0
  0
LINE
  5
18F
  8
0
  6
CONTINUOUS
 62
   150
 10
71.6762541806
 20
273.6370064121
 30
0.0
 11
301.6762541806
 21
273.6370064121
 31
0.0
  0
TEXT
  5
190
  8
0
  6
CONTINUOUS
 62
   150
 10
178.9179208329
 20
276.1098264963
 30
0.0
 40
7.0
  1
230
 50
0.0
 41
0.7
 11
178.9179208329
 21
273.6370060628
 31
0.0
 73
     1
  0
ENDBLK
  5
18A
  8
0
  0
BLOCK
  8
0
  2
_D_1
 70
     0
 10
0.0
 20
0.0
 30
0.0
  3
_D_1
  1

  0
SOLID
  5
196
  8
0
  6
CONTINUOUS
 62
   150
 10
314.2213489393
 20
302.2745819398
 30
0.0
 11
313.2053489393
 21
295.6705819398
 31
0.0
 12
315.2373489393
 22
295.6705819398
 32
0.0
 13
315.2373489393
 23
295.6705819398
 33
0.0
  0
SOLID
  5
197
  8
0
  6
CONTINUOUS
 62
   150
 10
314.2213489393
 20
309.2157202322
 30
0.0
 11
315.2373489393
 21
315.8197202322
 31
0.0
 12
313.2053489393
 22
315.8197202322
 32
0.0
 13
313.2053489393
 23
315.8197202322
 33
0.0
  0
LINE
  5
198
  8
0
  6
CONTINUOUS
 62
   150
 10
303.6762541806
 20
302.2745819398
 30
0.0
 11
316.2213489393
 21
302.2745819398
 31
0.0
  0
LINE
  5
199
  8
0
  6
CONTINUOUS
 62
   150
 10
303.6762541806
 20
309.2157202322
 30
0.0
 11
316.2213489393
 21
309.2157202322
 31
0.0
  0
LINE
  5
19A
  8
0
  6
CONTINUOUS
 62
   150
 10
314.2213489393
 20
302.2745819398
 30
0.0
 11
314.2213489393
 21
289.6394853799
 31
0.0
  0
LINE
  5
19B
  8
0
  6
CONTINUOUS
 62
   150
 10
314.2213489393
 20
302.2745819398
 30
0.0
 11
314.2213489393
 21
309.2157202322
 31
0.0
  0
LINE
  5
19C
  8
0
  6
CONTINUOUS
 62
   150
 10
314.2213489393
 20
309.2157202322
 30
0.0
 11
314.2213489393
 21
321.9157202322
 31
0.0
  0
TEXT
  5
19D
  8
0
  6
CONTINUOUS
 62
   150
 10
311.7485288551
 20
289.6394853799
 30
0.0
 40
7.0
  1
7
 50
90.0
 41
0.7
 11
314.2213492885
 21
289.6394853799
 31
0.0
 73
     1
  0
ENDBLK
  5
195
  8
0
  0
BLOCK
  8
0
  2
_D_2
 70
     0
 10
0.0
 20
0.0
 30
0.0
  3
_D_2
  1

  0
SOLID
  5
1A3
  8
0
  6
CONTINUOUS
 62
   150
 10
325.4287565511
 20
309.0745819398
 30
0.0
 11
324.4127565511
 21
302.4705819398
 31
0.0
 12
326.4447565511
 22
302.4705819398
 32
0.0
 13
326.4447565511
 23
302.4705819398
 33
0.0
  0
SOLID
  5
1A4
  8
0
  6
CONTINUOUS
 62
   150
 10
325.4287565511
 20
334.0745819398
 30
0.0
 11
326.4447565511
 21
340.6785819398
 31
0.0
 12
324.4127565511
 22
340.6785819398
 32
0.0
 13
324.4127565511
 23
340.6785819398
 33
0.0
  0
LINE
  5
1A5
  8
0
  6
CONTINUOUS
 62
   150
 10
278.9323823639
 20
309.0745819398
 30
0.0
 11
327.4287565511
 21
309.0745819398
 31
0.0
  0
LINE
  5
1A6
  8
0
  6
CONTINUOUS
 62
   150
 10
280.6762541806
 20
334.0745819398
 30
0.0
 11
327.4287565511
 21
334.0745819398
 31
0.0
  0
LINE
  5
1A7
  8
0
  6
CONTINUOUS
 62
   150
 10
325.4287565511
 20
309.0745819398
 30
0.0
 11
325.4287565511
 21
296.3745819398
 31
0.0
  0
LINE
  5
1A8
  8
0
  6
CONTINUOUS
 62
   150
 10
325.4287565511
 20
309.0745819398
 30
0.0
 11
325.4287565511
 21
334.0745819398
 31
0.0
  0
LINE
  5
1A9
  8
0
  6
CONTINUOUS
 62
   150
 10
325.4287565511
 20
334.0745819398
 30
0.0
 11
325.4287565511
 21
346.7745819398
 31
0.0
  0
TEXT
  5
1AA
  8
0
  6
CONTINUOUS
 62
   150
 10
322.9559364669
 20
316.4023595528
 30
0.0
 40
7.0
  1
25
 50
90.0
 41
0.7
 11
325.4287569003
 21
316.4023595528
 31
0.0
 73
     1
  0
ENDBLK
  5
1A2
  8
0
  0
BLOCK
  8
0
  2
_D_3
 70
     0
 10
0.0
 20
0.0
 30
0.0
  3
_D_3
  1

  0
SOLID
  5
1B0
  8
0
  6
CONTINUOUS
 62
   150
 10
85.8201373329
 20
344.0567395071
 30
0.0
 11
79.2161373329
 21
345.0727395071
 31
0.0
 12
79.2161373329
 22
343.0407395071
 32
0.0
 13
79.2161373329
 23
343.0407395071
 33
0.0
  0
SOLID
  5
1B1
  8
0
  6
CONTINUOUS
 62
   150
 10
87.0201146617
 20
344.0567395071
 30
0.0
 11
93.6241146617
 21
343.0407395071
 31
0.0
 12
93.6241146617
 22
345.0727395071
 32
0.0
 13
93.6241146617
 23
345.0727395071
 33
0.0
  0
LINE
  5
1B2
  8
0
  6
CONTINUOUS
 62
   150
 10
85.8201373329
 20
335.478270116
 30
0.0
 11
85.8201373329
 21
346.0567395071
 31
0.0
  0
LINE
  5
1B3
  8
0
  6
CONTINUOUS
 62
   150
 10
87.0201146617
 20
335.478270116
 30
0.0
 11
87.0201146617
 21
346.0567395071
 31
0.0
  0
LINE
  5
1B4
  8
0
  6
CONTINUOUS
 62
   150
 10
85.8201373329
 20
344.0567395071
 30
0.0
 11
64.3056503483
 21
344.0567395071
 31
0.0
  0
LINE
  5
1B5
  8
0
  6
CONTINUOUS
 62
   150
 10
85.8201373329
 20
344.0567395071
 30
0.0
 11
87.0201146617
 21
344.0567395071
 31
0.0
  0
LINE
  5
1B6
  8
0
  6
CONTINUOUS
 62
   150
 10
87.0201146617
 20
344.0567395071
 30
0.0
 11
99.7201146617
 21
344.0567395071
 31
0.0
  0
TEXT
  5
1B7
  8
0
  6
CONTINUOUS
 62
   150
 10
64.3056503483
 20
346.5295595913
 30
0.0
 40
7.0
  1
1,2
 41
0.7
 11
64.3056503483
 21
344.0567391578
 31
0.0
 73
     1
  0
ENDBLK
  5
1AF
  8
0
  0
BLOCK
  8
0
  2
_D_4
 70
     0
 10
0.0
 20
0.0
 30
0.0
  3
_D_4
  1

  0
SOLID
  5
1BC
  8
0
  6
CONTINUOUS
 62
   150
 10
85.6762352879
 20
291.2808955743
 30
0.0
 11
79.0722352879
 21
292.2968955743
 31
0.0
 12
79.0722352879
 22
290.2648955743
 32
0.0
 13
79.0722352879
 23
290.2648955743
 33
0.0
  0
SOLID
  5
1BD
  8
0
  6
CONTINUOUS
 62
   150
 10
87.1640167067
 20
291.2808955743
 30
0.0
 11
93.7680167067
 21
290.2648955743
 31
0.0
 12
93.7680167067
 22
292.2968955743
 32
0.0
 13
93.7680167067
 23
292.2968955743
 33
0.0
  0
LINE
  5
1BE
  8
0
  6
CONTINUOUS
 62
   150
 10
85.6762352879
 20
308.0684349795
 30
0.0
 11
85.6762352879
 21
289.2808955743
 31
0.0
  0
LINE
  5
1BF
  8
0
  6
CONTINUOUS
 62
   150
 10
87.1640167067
 20
308.0684349795
 30
0.0
 11
87.1640167067
 21
289.2808955743
 31
0.0
  0
LINE
  5
1C0
  8
0
  6
CONTINUOUS
 62
   150
 10
85.6762352879
 20
291.2808955743
 30
0.0
 11
72.9762352879
 21
291.2808955743
 31
0.0
  0
LINE
  5
1C1
  8
0
  6
CONTINUOUS
 62
   150
 10
85.6762352879
 20
291.2808955743
 30
0.0
 11
87.1640167067
 21
291.2808955743
 31
0.0
  0
LINE
  5
1C2
  8
0
  6
CONTINUOUS
 62
   150
 10
87.1640167067
 20
291.2808955743
 30
0.0
 11
105.8093833885
 21
291.2808955743
 31
0.0
  0
TEXT
  5
1C3
  8
0
  6
CONTINUOUS
 62
   150
 10
92.8788281194
 20
293.7537156585
 30
0.0
 40
7.0
  1
1,5
 50
0.0
 41
0.7
 11
92.8788281194
 21
291.2808952251
 31
0.0
 73
     1
  0
ENDBLK
  5
1BB
  8
0
  0
BLOCK
  8
0
  2
_D_5
 70
     0
 10
0.0
 20
0.0
 30
0.0
  3
_D_5
  1

  0
SOLID
  5
1C8
  8
0
  6
CONTINUOUS
 62
   150
 10
86.4201259973
 20
354.0745819398
 30
0.0
 11
79.8161259973
 21
355.0905819398
 31
0.0
 12
79.8161259973
 22
353.0585819398
 32
0.0
 13
79.8161259973
 23
353.0585819398
 33
0.0
  0
SOLID
  5
1C9
  8
0
  6
CONTINUOUS
 62
   150
 10
94.4201259973
 20
354.0745819398
 30
0.0
 11
101.0241259973
 21
353.0585819398
 31
0.0
 12
101.0241259973
 22
355.0905819398
 32
0.0
 13
101.0241259973
 23
355.0905819398
 33
0.0
  0
LINE
  5
1CA
  8
0
  6
CONTINUOUS
 62
   150
 10
86.4201259973
 20
339.478270116
 30
0.0
 11
86.4201259973
 21
356.0745819398
 31
0.0
  0
LINE
  5
1CB
  8
0
  6
CONTINUOUS
 62
   150
 10
94.4201259973
 20
339.478270116
 30
0.0
 11
94.4201259973
 21
356.0745819398
 31
0.0
  0
LINE
  5
1CC
  8
0
  6
CONTINUOUS
 62
   150
 10
86.4201259973
 20
354.0745819398
 30
0.0
 11
73.7201259973
 21
354.0745819398
 31
0.0
  0
LINE
  5
1CD
  8
0
  6
CONTINUOUS
 62
   150
 10
86.4201259973
 20
354.0745819398
 30
0.0
 11
94.4201259973
 21
354.0745819398
 31
0.0
  0
LINE
  5
1CE
  8
0
  6
CONTINUOUS
 62
   150
 10
94.4201259973
 20
354.0745819398
 30
0.0
 11
107.1201259973
 21
354.0745819398
 31
0.0
  0
TEXT
  5
1CF
  8
0
  6
CONTINUOUS
 62
   150
 10
87.8340148038
 20
356.547402024
 30
0.0
 40
7.0
  1
8
 41
0.7
 11
87.8340148038
 21
354.0745815906
 31
0.0
 73
     1
  0
ENDBLK
  5
1C7
  8
0
  0
BLOCK
  8
0
  2
_D_6
 70
     0
 10
0.0
 20
0.0
 30
0.0
  3
_D_6
  1

  0
SOLID
  5
1D5
  8
0
  6
CONTINUOUS
 62
   150
 10
85.3833609618
 20
309.3674751586
 30
0.0
 11
89.4415495165
 21
304.0593514172
 31
0.0
 12
90.8493930201
 22
305.5246161269
 32
0.0
 13
90.8493930201
 23
305.5246161269
 33
0.0
  0
LINE
  5
1D6
  8
0
  6
CONTINUOUS
 62
   150
 10
85.3833609618
 20
309.3674751586
 30
0.0
 11
71.33043233
 21
322.8696936653
 31
0.0
  0
LINE
  5
1D7
  8
0
  6
CONTINUOUS
 62
   150
 10
85.3833609618
 20
309.3674751586
 30
0.0
 11
94.5412653974
 21
300.5684532613
 31
0.0
  0
TEXT
  5
1D8
  8
0
  6
CONTINUOUS
 62
   150
 10
73.0789801801
 20
324.6182415155
 30
0.0
 40
7.0
  1
R1
 50
-45.0
 41
0.7
 11
71.330432083
 21
322.8696934184
 31
0.0
 73
     1
  0
ENDBLK
  5
1D4
  8
0
  0
BLOCK
  8
0
  2
_D_7
 70
     0
 10
0.0
 20
0.0
 30
0.0
  3
_D_7
  1

  0
SOLID
  5
1DD
  8
0
  6
CONTINUOUS
 62
   150
 10
86.4201259973
 20
315.397476782
 30
0.0
 11
93.0241259973
 21
314.381476782
 31
0.0
 12
93.0241259973
 22
316.413476782
 32
0.0
 13
93.0241259973
 23
316.413476782
 33
0.0
  0
SOLID
  5
1DE
  8
0
  6
CONTINUOUS
 62
   150
 10
71.6762541806
 20
315.397476782
 30
0.0
 11
65.0722541806
 21
316.413476782
 31
0.0
 12
65.0722541806
 22
314.381476782
 32
0.0
 13
65.0722541806
 23
314.381476782
 33
0.0
  0
LINE
  5
1DF
  8
0
  6
CONTINUOUS
 62
   150
 10
71.6762541806
 20
311.0745819398
 30
0.0
 11
71.6762541806
 21
317.397476782
 31
0.0
  0
LINE
  5
1E0
  8
0
  6
CONTINUOUS
 62
   150
 10
86.4201259973
 20
315.397476782
 30
0.0
 11
99.1201259973
 21
315.397476782
 31
0.0
  0
LINE
  5
1E1
  8
0
  6
CONTINUOUS
 62
   150
 10
86.4201259973
 20
315.397476782
 30
0.0
 11
71.6762541806
 21
315.397476782
 31
0.0
  0
LINE
  5
1E2
  8
0
  6
CONTINUOUS
 62
   150
 10
71.6762541806
 20
315.397476782
 30
0.0
 11
41.2282916192
 21
315.397476782
 31
0.0
  0
TEXT
  5
1E3
  8
0
  6
CONTINUOUS
 62
   150
 10
41.2282916192
 20
317.8702968662
 30
0.0
 40
7.0
  1
14,75
 50
0.0
 41
0.7
 11
41.2282916192
 21
315.3974764327
 31
0.0
 73
     1
  0
ENDBLK
  5
1DC
  8
0
  0
BLOCK
  8
0
  2
_D_8
 70
     0
 10
0.0
 20
0.0
 30
0.0
  3
_D_8
  1

  0
SOLID
  5
1FC
  8
0
  6
CONTINUOUS
 62
   150
 10
370.218729097
 20
285.878475661
 30
0.0
 11
376.822729097
 21
284.862475661
 31
0.0
 12
376.822729097
 22
286.894475661
 32
0.0
 13
376.822729097
 23
286.894475661
 33
0.0
  0
SOLID
  5
1FD
  8
0
  6
CONTINUOUS
 62
   150
 10
470.218729097
 20
285.878475661
 30
0.0
 11
463.614729097
 21
286.894475661
 31
0.0
 12
463.614729097
 22
284.862475661
 32
0.0
 13
463.614729097
 23
284.862475661
 33
0.0
  0
LINE
  5
1FE
  8
0
  6
CONTINUOUS
 62
   150
 10
370.218729097
 20
308.0684349795
 30
0.0
 11
370.218729097
 21
283.878475661
 31
0.0
  0
LINE
  5
1FF
  8
0
  6
CONTINUOUS
 62
   150
 10
470.218729097
 20
308.0684349795
 30
0.0
 11
470.218729097
 21
283.878475661
 31
0.0
  0
LINE
  5
200
  8
0
  6
CONTINUOUS
 62
   150
 10
370.218729097
 20
285.878475661
 30
0.0
 11
470.218729097
 21
285.878475661
 31
0.0
  0
TEXT
  5
201
  8
0
  6
CONTINUOUS
 62
   150
 10
412.4603957493
 20
288.3512957452
 30
115.0000003349
 40
7.0
  1
100
 41
0.7
 11
412.4603957493
 21
285.8784753117
 31
115.0000003349
 73
     1
  0
ENDBLK
  5
1FB
  8
0
  0
ENDSEC
  0
SECTION
  2
ENTITIES
  0
LINE
  5
87
  8
0
  6
CONTINUOUS
 62
     7
 10
209.6
 20
120.5
 30
0.0
 11
209.6
 21
10.0
 31
0.0
  0
LINE
  5
88
  8
0
  6
CONTINUOUS
 62
     7
 10
224.84
 20
86.5
 30
0.0
 11
224.84
 21
10.0
 31
0.0
  0
LINE
  5
89
  8
0
  6
CONTINUOUS
 62
     7
 10
275.64
 20
10.0
 30
0.0
 11
275.64
 21
86.5
 31
0.0
  0
LINE
  5
8A
  8
0
  6
CONTINUOUS
 62
     7
 10
316.28
 20
44.0
 30
0.0
 11
584.0
 21
44.0
 31
0.0
  0
LINE
  5
8B
  8
0
  6
CONTINUOUS
 62
     7
 10
584.0
 20
86.5
 30
0.0
 11
209.6
 21
86.5
 31
0.0
  0
LINE
  5
8C
  8
0
  6
CONTINUOUS
 62
     7
 10
209.6
 20
120.5
 30
0.0
 11
584.0
 21
120.5
 31
0.0
  0
LINE
  5
8D
  8
0
  6
CONTINUOUS
 62
     7
 10
316.28
 20
77.8895423413
 30
0.0
 11
209.6
 21
77.8895423413
 31
0.0
  0
LINE
  5
8E
  8
0
  6
CONTINUOUS
 62
     7
 10
316.28
 20
10.0
 30
0.0
 11
316.28
 21
120.5
 31
0.0
  0
LINE
  5
8F
  8
0
  6
CONTINUOUS
 62
     7
 10
402.64
 20
120.5
 30
0.0
 11
402.64
 21
10.0
 31
0.0
  0
LINE
  5
90
  8
0
  6
CONTINUOUS
 62
     7
 10
301.04
 20
86.5
 30
0.0
 11
301.04
 21
10.0
 31
0.0
  0
LINE
  5
91
  8
0
  6
CONTINUOUS
 62
     7
 10
340.1588962768
 20
44.0
 30
0.0
 11
340.1588962768
 21
86.5
 31
0.0
  0
LINE
  5
92
  8
0
  6
CONTINUOUS
 62
     7
 10
316.28
 20
27.0
 30
0.0
 11
209.6
 21
27.0
 31
0.0
  0
LINE
  5
93
  8
0
  6
CONTINUOUS
 62
     7
 10
367.3938514809
 20
120.5
 30
0.0
 11
367.3938514809
 21
44.0
 31
0.0
  0
LINE
  5
94
  8
0
  6
CONTINUOUS
 62
     7
 10
490.96
 20
10.0
 30
0.0
 11
490.96
 21
18.5
 31
0.0
  0
LINE
  5
95
  8
0
  6
CONTINUOUS
 62
     7
 10
506.56
 20
107.75
 30
0.0
 11
506.56
 21
120.5
 31
0.0
  0
LINE
  5
96
  8
0
  6
CONTINUOUS
 62
     7
 10
209.6
 20
18.46
 30
0.0
 11
316.28
 21
18.46
 31
0.0
  0
LINE
  5
97
  8
0
  6
CONTINUOUS
 62
     7
 10
553.36
 20
18.5
 30
0.0
 11
553.36
 21
44.0
 31
0.0
  0
LINE
  5
98
  8
0
  6
CONTINUOUS
 62
     7
 10
584.0
 20
107.75
 30
0.0
 11
402.64
 21
107.75
 31
0.0
  0
LINE
  5
99
  8
0
  6
CONTINUOUS
 62
     7
 10
584.0
 20
10.0
 30
0.0
 11
584.0
 21
120.5
 31
0.0
  0
LINE
  5
9A
  8
0
  6
CONTINUOUS
 62
     7
 10
209.6
 20
10.0
 30
0.0
 11
584.0
 21
10.0
 31
0.0
  0
LINE
  5
9B
  8
0
  6
CONTINUOUS
 62
     7
 10
316.28
 20
35.5
 30
0.0
 11
209.6
 21
35.5
 31
0.0
  0
LINE
  5
9C
  8
0
  6
CONTINUOUS
 62
     7
 10
316.28
 20
44.0
 30
0.0
 11
209.6
 21
44.0
 31
0.0
  0
LINE
  5
9D
  8
0
  6
CONTINUOUS
 62
     7
 10
402.64
 20
52.5
 30
0.0
 11
209.6
 21
52.5
 31
0.0
  0
LINE
  5
9E
  8
0
  6
CONTINUOUS
 62
     7
 10
402.64
 20
61.0
 30
0.0
 11
209.6
 21
61.0
 31
0.0
  0
LINE
  5
9F
  8
0
  6
CONTINUOUS
 62
     7
 10
402.64
 20
69.5
 30
0.0
 11
209.6
 21
69.5
 31
0.0
  0
LINE
  5
A0
  8
0
  6
CONTINUOUS
 62
     7
 10
402.64
 20
77.8895423413
 30
0.0
 11
316.28
 21
77.8895423413
 31
0.0
  0
LINE
  5
A1
  8
0
  6
CONTINUOUS
 62
     7
 10
584.0
 20
27.0
 30
0.0
 11
553.36
 21
27.0
 31
0.0
  0
LINE
  5
A2
  8
0
  6
CONTINUOUS
 62
     7
 10
402.64
 20
18.46
 30
0.0
 11
584.0
 21
18.46
 31
0.0
  0
LINE
  5
A3
  8
0
  6
CONTINUOUS
 62
     7
 10
574.0
 20
400.0
 30
0.0
 11
20.0
 21
400.0
 31
0.0
  0
LINE
  5
A4
  8
0
  6
CONTINUOUS
 62
     7
 10
584.0
 20
410.0
 30
0.0
 11
10.0
 21
410.0
 31
0.0
  0
LINE
  5
A5
  8
0
  6
CONTINUOUS
 62
     7
 10
20.0
 20
400.0
 30
0.0
 11
20.0
 21
20.0
 31
0.0
  0
LINE
  5
A6
  8
0
  6
CONTINUOUS
 62
     7
 10
10.0
 20
410.0
 30
0.0
 11
10.0
 21
10.0
 31
0.0
  0
LINE
  5
A7
  8
0
  6
CONTINUOUS
 62
     7
 10
10.0
 20
10.0
 30
0.0
 11
209.6
 21
10.0
 31
0.0
  0
LINE
  5
A8
  8
0
  6
CONTINUOUS
 62
     7
 10
20.0
 20
20.0
 30
0.0
 11
209.6
 21
20.0
 31
0.0
  0
LINE
  5
A9
  8
0
  6
CONTINUOUS
 62
     7
 10
197.0
 20
20.0
 30
0.0
 11
197.0
 21
10.0
 31
0.0
  0
LINE
  5
AA
  8
0
  6
CONTINUOUS
 62
     7
 10
20.0
 20
310.0
 30
0.0
 11
10.0
 21
310.0
 31
0.0
  0
LINE
  5
AB
  8
0
  6
CONTINUOUS
 62
     7
 10
97.0
 20
400.0
 30
0.0
 11
97.0
 21
410.0
 31
0.0
  0
LINE
  5
AC
  8
0
  6
CONTINUOUS
 62
     7
 10
197.0
 20
410.0
 30
0.0
 11
197.0
 21
400.0
 31
0.0
  0
LINE
  5
AD
  8
0
  6
CONTINUOUS
 62
     7
 10
297.0
 20
410.0
 30
0.0
 11
297.0
 21
400.0
 31
0.0
  0
LINE
  5
AE
  8
0
  6
CONTINUOUS
 62
     7
 10
574.0
 20
120.5
 30
0.0
 11
574.0
 21
400.0
 31
0.0
  0
LINE
  5
AF
  8
0
  6
CONTINUOUS
 62
     7
 10
584.0
 20
120.5
 30
0.0
 11
584.0
 21
410.0
 31
0.0
  0
LINE
  5
B0
  8
0
  6
CONTINUOUS
 62
     7
 10
584.0
 20
210.0
 30
0.0
 11
574.0
 21
210.0
 31
0.0
  0
LINE
  5
B1
  8
0
  6
CONTINUOUS
 62
     7
 10
397.0
 20
410.0
 30
0.0
 11
397.0
 21
400.0
 31
0.0
  0
LINE
  5
B2
  8
0
  6
CONTINUOUS
 62
     7
 10
497.0
 20
400.0
 30
0.0
 11
497.0
 21
410.0
 31
0.0
  0
LINE
  5
B3
  8
0
  6
CONTINUOUS
 62
     7
 10
574.0
 20
310.0
 30
0.0
 11
584.0
 21
310.0
 31
0.0
  0
INSERT
  5
B4
  8
0
  6
CONTINUOUS
 62
     7
  2
PROJEKTIONSMETHODE_1
 10
316.28
 20
91.121938092
 30
0.0
  0
TEXT
  5
B5
  8
0
  6
CONTINUOUS
 62
     7
 10
13.3333333333
 20
258.8696452004
 30
0.0
 40
3.7041666667
  1
B
 41
0.7
 11
13.3333333333
 21
257.5611110544
 31
0.0
 73
     1
  0
TEXT
  5
B6
  8
0
  6
CONTINUOUS
 62
     7
 10
13.3333333333
 20
358.8696452004
 30
0.0
 40
3.7041666667
  1
A
 41
0.7
 11
13.3333333333
 21
357.5611110544
 31
0.0
 73
     1
  0
TEXT
  5
B7
  8
0
  6
CONTINUOUS
 62
     7
 10
245.3333413333
 20
403.8696452004
 30
0.0
 40
3.7041666667
  1
3
 41
0.7
 11
245.3333413333
 21
402.5611110544
 31
0.0
 73
     1
  0
TEXT
  5
B8
  8
0
  6
CONTINUOUS
 62
     7
 10
145.3333413333
 20
403.8696452004
 30
0.0
 40
3.7041666667
  1
2
 41
0.7
 11
145.3333413333
 21
402.5611110544
 31
0.0
 73
     1
  0
TEXT
  5
B9
  8
0
  6
CONTINUOUS
 62
     7
 10
46.1666746667
 20
403.8696452004
 30
0.0
 40
3.7041666667
  1
1
 41
0.7
 11
46.1666746667
 21
402.5611110544
 31
0.0
 73
     1
  0
TEXT
  5
BA
  8
0
  6
CONTINUOUS
 62
     7
 10
345.3333413333
 20
403.8696452004
 30
0.0
 40
3.7041666667
  1
4
 41
0.7
 11
345.3333413333
 21
402.5611110544
 31
0.0
 73
     1
  0
TEXT
  5
BB
  8
0
  6
CONTINUOUS
 62
     7
 10
577.3333493333
 20
258.8696452004
 30
0.0
 40
3.7041666667
  1
B
 41
0.7
 11
577.3333493333
 21
257.5611110544
 31
0.0
 73
     1
  0
TEXT
  5
BC
  8
0
  6
CONTINUOUS
 62
     7
 10
577.3333493333
 20
358.8696452004
 30
0.0
 40
3.7041666667
  1
A
 41
0.7
 11
577.3333493333
 21
357.5611110544
 31
0.0
 73
     1
  0
TEXT
  5
BD
  8
0
  6
CONTINUOUS
 62
     7
 10
445.3333413333
 20
403.8696452004
 30
0.0
 40
3.7041666667
  1
5
 41
0.7
 11
445.3333413333
 21
402.5611110544
 31
0.0
 73
     1
  0
TEXT
  5
BE
  8
0
  6
CONTINUOUS
 62
     7
 10
545.3333413333
 20
403.8696452004
 30
0.0
 40
3.7041666667
  1
6
 41
0.7
 11
545.3333413333
 21
402.5611110544
 31
0.0
 73
     1
  0
TEXT
  5
BF
  8
0
  6
CONTINUOUS
 62
     7
 10
301.4974490636
 20
11.6586427104
 30
0.0
 40
4.0
  1
Name
 41
0.7
 11
301.4974490636
 21
10.2456024628
 31
0.0
 73
     1
  0
TEXT
  5
C0
  8
0
  6
CONTINUOUS
 62
     7
 10
405.594721075
 20
111.1671465673
 30
0.0
 40
5.0
  1
Scale: 1:2
 41
0.7
 11
405.594721075
 21
109.4008462577
 31
0.0
 73
     1
  0
TEXT
  5
C1
  8
0
  6
CONTINUOUS
 62
     7
 10
375.9517210828
 20
80.4799369748
 30
0.0
 40
4.0
  1
Name
 41
0.7
 11
375.9517210828
 21
79.0668967271
 31
0.0
 73
     1
  0
TEXT
  5
C2
  8
0
  6
CONTINUOUS
 62
     7
 10
555.359984
 20
37.7669651148
 30
0.0
 40
5.0
  1
Page
 41
0.7
 11
555.359984
 21
36.0006648052
 31
0.0
 73
     1
  0
TEXT
  5
C3
  8
0
  6
CONTINUOUS
 62
     7
 10
557.2228044925
 20
29.8869360306
 30
0.0
 40
4.0
  1
1 (A4)
 41
0.7
 11
557.2228044925
 21
28.473895783
 31
0.0
 73
     1
  0
TEXT
  5
C4
  8
0
  6
CONTINUOUS
 62
     7
 10
557.2228044925
 20
21.4327870454
 30
0.0
 40
4.0
  1
1 von 1
 41
0.6
 11
557.2228044925
 21
20.0197467977
 31
0.0
 73
     1
  0
TEXT
  5
C5
  8
0
  6
CONTINUOUS
 62
     7
 10
508.5422195915
 20
111.6151419011
 30
0.0
 40
5.0
  1
Weight: 
 41
0.7
 11
508.5422195915
 21
109.8488415915
 31
0.0
 73
     1
  0
INSERT
  5
CB
  8
0
  6
CONTINUOUS
 62
     7
  2
SW_NOTE_0
 10
405.8719748463
 20
95.3143091978
 30
0.0
  0
TEXT
  5
CC
  8
0
  6
CONTINUOUS
 62
     7
 10
405.6521285824
 20
77.7721380696
 30
0.0
 40
5.0
  1
Title:
 41
0.7
 11
405.6521285824
 21
76.00583776
 31
0.0
 73
     1
  0
TEXT
  5
CD
  8
0
  6
CONTINUOUS
 62
     7
 10
463.7646059195
 20
27.4167039089
 30
0.0
 40
7.0
  1
PR409
 41
0.7
 11
463.7646059195
 21
24.9438834755
 31
0.0
 73
     1
  0
TEXT
  5
CE
  8
0
  6
CONTINUOUS
 62
     7
 10
405.6521285824
 20
37.3463905159
 30
0.0
 40
5.0
  1
Drawing No.:
 41
0.7
 11
405.6521285824
 21
35.5800902063
 31
0.0
 73
     1
  0
TEXT
  5
CF
  8
0
  6
CONTINUOUS
 62
     7
 10
369.7567186813
 20
114.0970346934
 30
0.0
 40
4.0
  1
Surface
 41
0.7
 11
369.7567186813
 21
112.6839944457
 31
0.0
 73
     1
  0
INSERT
  5
D8
  8
0
  6
CONTINUOUS
 62
     7
  2
SW_NOTE_1
 10
213.2512041349
 20
113.1479165885
 30
0.0
  0
TEXT
  5
D9
  8
0
  6
CONTINUOUS
 62
     7
 10
369.6464979287
 20
71.9653704776
 30
0.0
 40
3.7041666667
  1
Sommerburg
 41
0.7
 11
369.6464979287
 21
70.6568363316
 31
0.0
 73
     1
  0
TEXT
  5
DA
  8
0
  6
CONTINUOUS
 62
     7
 10
317.8692104853
 20
114.0859236658
 30
0.0
 40
4.0
  1
Projectionsmethods
 41
0.7
 11
317.8692104853
 21
112.6728834181
 31
0.0
 73
     1
  0
TEXT
  5
DB
  8
0
  6
CONTINUOUS
 62
     7
 10
210.0352318007
 20
11.6586427104
 30
0.0
 40
4.0
  1
Agree
 41
0.7
 11
210.0352318007
 21
10.2456024628
 31
0.0
 73
     1
  0
TEXT
  5
DC
  8
0
  6
CONTINUOUS
 62
     7
 10
238.9275424799
 20
11.6586427104
 30
0.0
 40
4.0
  1
Revision
 41
0.7
 11
238.9275424799
 21
10.2456024628
 31
0.0
 73
     1
  0
TEXT
  5
DD
  8
0
  6
CONTINUOUS
 62
     7
 10
282.6943244378
 20
11.6586427104
 30
0.0
 40
4.0
  1
Date
 41
0.7
 11
282.6943244378
 21
10.2456024628
 31
0.0
 73
     1
  0
TEXT
  5
DE
  8
0
  6
CONTINUOUS
 62
     7
 10
316.7512894085
 20
72.0049922668
 30
0.0
 40
4.0
  1
drawn
 41
0.7
 11
316.7512894085
 21
70.5919520192
 31
0.0
 73
     1
  0
TEXT
  5
DF
  8
0
  6
CONTINUOUS
 62
     7
 10
316.8288196543
 20
63.8844121821
 30
0.0
 40
4.0
  1
checked
 41
0.7
 11
316.8288196543
 21
62.4713719344
 31
0.0
 73
     1
  0
TEXT
  5
E0
  8
0
  6
CONTINUOUS
 62
     7
 10
317.2595946889
 20
55.3844121821
 30
0.0
 40
4.0
  1
approved
 41
0.7
 11
317.2595946889
 21
53.9713719344
 31
0.0
 73
     1
  0
TEXT
  5
E1
  8
0
  6
CONTINUOUS
 62
     7
 10
345.5973552783
 20
80.4799369748
 30
0.0
 40
4.0
  1
Date
 41
0.7
 11
345.5973552783
 21
79.0668967271
 31
0.0
 73
     1
  0
TEXT
  5
E2
  8
0
  6
CONTINUOUS
 62
     7
 10
403.1730459882
 20
12.0253493661
 30
0.0
 40
4.0
  1
replaces:
 41
0.7
 11
403.1730459882
 21
10.6123091184
 31
0.0
 73
     1
  0
TEXT
  5
E3
  8
0
  6
CONTINUOUS
 62
     7
 10
491.4626870601
 20
12.0253493661
 30
0.0
 40
4.0
  1
replaced by:
 41
0.7
 11
491.4626870601
 21
10.6123091184
 31
0.0
 73
     1
  0
TEXT
  5
E4
  8
0
  6
CONTINUOUS
 62
     7
 10
472.8096243871
 20
61.0752590506
 30
0.0
 40
7.0
  1
Profil
 41
0.7
 11
472.8096243871
 21
58.6024386171
 31
0.0
 73
     1
  0
TEXT
  5
E5
  8
0
  6
CONTINUOUS
 62
     7
 10
341.2535865831
 20
71.9653704776
 30
0.0
 40
3.7041666667
  1
09.07.2018
 41
0.7
 11
341.2535865831
 21
70.6568363316
 31
0.0
 73
     1
  0
LINE
  5
E6
  8
0
  6
CONTINUOUS
 62
     7
 10
84.6762541806
 20
309.0745819398
 30
0.0
 11
71.6762541806
 21
309.0745819398
 31
0.0
  0
ARC
  5
E7
  8
0
  6
CONTINUOUS
 62
     7
 10
84.6762541806
 20
310.0745819398
 30
0.0
 40
1.0
 50
270.0
 51
359.647802902
  0
LINE
  5
E8
  8
0
  6
CONTINUOUS
 62
     7
 10
85.8201373329
 20
333.478270116
 30
0.0
 11
85.6762352879
 21
310.0684349795
 31
0.0
  0
ARC
  5
E9
  8
0
  6
CONTINUOUS
 62
     7
 10
86.4201259973
 20
333.4745819398
 30
0.0
 40
0.5999999999999995
 50
0.352197098
 51
179.647802902
  0
LINE
  5
EA
  8
0
  6
CONTINUOUS
 62
     7
 10
87.1640167067
 20
310.0684349795
 30
0.0
 11
87.0201146617
 21
333.478270116
 31
0.0
  0
ARC
  5
EB
  8
0
  6
CONTINUOUS
 62
     7
 10
88.163997814
 20
310.0745819398
 30
0.0
 40
1.0
 50
180.352197098
 51
270.0
  0
LINE
  5
EC
  8
0
  6
CONTINUOUS
 62
     7
 10
92.6762541806
 20
309.0745819398
 30
0.0
 11
88.163997814
 21
309.0745819398
 31
0.0
  0
ARC
  5
ED
  8
0
  6
CONTINUOUS
 62
     7
 10
92.6762541806
 20
310.0745819398
 30
0.0
 40
1.000000000000004
 50
270.0
 51
359.647802902
  0
LINE
  5
EE
  8
0
  6
CONTINUOUS
 62
     7
 10
93.8201373329
 20
333.478270116
 30
0.0
 11
93.6762352879
 21
310.0684349795
 31
0.0
  0
ARC
  5
EF
  8
0
  6
CONTINUOUS
 62
     7
 10
94.4201259973
 20
333.4745819398
 30
0.0
 40
0.6000000000000137
 50
0.352197098
 51
179.647802902
  0
LINE
  5
F0
  8
0
  6
CONTINUOUS
 62
     7
 10
95.1640167067
 20
310.0684349795
 30
0.0
 11
95.0201146617
 21
333.478270116
 31
0.0
  0
ARC
  5
F1
  8
0
  6
CONTINUOUS
 62
     7
 10
96.163997814
 20
310.0745819398
 30
0.0
 40
1.000000000000004
 50
180.352197098
 51
270.0
  0
LINE
  5
F2
  8
0
  6
CONTINUOUS
 62
     7
 10
100.6762541806
 20
309.0745819398
 30
0.0
 11
96.163997814
 21
309.0745819398
 31
0.0
  0
ARC
  5
F3
  8
0
  6
CONTINUOUS
 62
     7
 10
100.6762541806
 20
310.0745819398
 30
0.0
 40
1.000000000000004
 50
270.0
 51
359.647802902
  0
LINE
  5
F4
  8
0
  6
CONTINUOUS
 62
     7
 10
101.8201373329
 20
333.478270116
 30
0.0
 11
101.6762352879
 21
310.0684349795
 31
0.0
  0
ARC
  5
F5
  8
0
  6
CONTINUOUS
 62
     7
 10
102.4201259973
 20
333.4745819398
 30
0.0
 40
0.6000000000000137
 50
0.352197098
 51
179.647802902
  0
LINE
  5
F6
  8
0
  6
CONTINUOUS
 62
     7
 10
103.1640167067
 20
310.0684349795
 30
0.0
 11
103.0201146617
 21
333.478270116
 31
0.0
  0
ARC
  5
F7
  8
0
  6
CONTINUOUS
 62
     7
 10
104.163997814
 20
310.0745819398
 30
0.0
 40
1.000000000000004
 50
180.352197098
 51
270.0
  0
LINE
  5
F8
  8
0
  6
CONTINUOUS
 62
     7
 10
108.6762541806
 20
309.0745819398
 30
0.0
 11
104.163997814
 21
309.0745819398
 31
0.0
  0
ARC
  5
F9
  8
0
  6
CONTINUOUS
 62
     7
 10
108.6762541806
 20
310.0745819398
 30
0.0
 40
1.000000000000004
 50
270.0
 51
359.647802902
  0
LINE
  5
FA
  8
0
  6
CONTINUOUS
 62
     7
 10
109.8201373329
 20
333.478270116
 30
0.0
 11
109.6762352879
 21
310.0684349795
 31
0.0
  0
ARC
  5
FB
  8
0
  6
CONTINUOUS
 62
     7
 10
110.4201259973
 20
333.4745819398
 30
0.0
 40
0.5999999999999995
 50
0.352197098
 51
179.647802902
  0
LINE
  5
FC
  8
0
  6
CONTINUOUS
 62
     7
 10
111.1640167067
 20
310.0684349795
 30
0.0
 11
111.0201146617
 21
333.478270116
 31
0.0
  0
ARC
  5
FD
  8
0
  6
CONTINUOUS
 62
     7
 10
112.163997814
 20
310.0745819398
 30
0.0
 40
1.000000000000004
 50
180.352197098
 51
270.0
  0
LINE
  5
FE
  8
0
  6
CONTINUOUS
 62
     7
 10
116.6762541806
 20
309.0745819398
 30
0.0
 11
112.163997814
 21
309.0745819398
 31
0.0
  0
ARC
  5
FF
  8
0
  6
CONTINUOUS
 62
     7
 10
116.6762541806
 20
310.0745819398
 30
0.0
 40
1.000000000000004
 50
270.0
 51
359.647802902
  0
LINE
  5
100
  8
0
  6
CONTINUOUS
 62
     7
 10
117.8201373329
 20
333.478270116
 30
0.0
 11
117.6762352879
 21
310.0684349795
 31
0.0
  0
ARC
  5
101
  8
0
  6
CONTINUOUS
 62
     7
 10
118.4201259973
 20
333.4745819398
 30
0.0
 40
0.6000000000000134
 50
0.352197098
 51
179.647802902
  0
LINE
  5
102
  8
0
  6
CONTINUOUS
 62
     7
 10
119.1640167067
 20
310.0684349795
 30
0.0
 11
119.0201146617
 21
333.478270116
 31
0.0
  0
ARC
  5
103
  8
0
  6
CONTINUOUS
 62
     7
 10
120.163997814
 20
310.0745819398
 30
0.0
 40
1.0
 50
180.352197098
 51
270.0
  0
LINE
  5
104
  8
0
  6
CONTINUOUS
 62
     7
 10
124.6762541806
 20
309.0745819398
 30
0.0
 11
120.163997814
 21
309.0745819398
 31
0.0
  0
ARC
  5
105
  8
0
  6
CONTINUOUS
 62
     7
 10
124.6762541806
 20
310.0745819398
 30
0.0
 40
1.000000000000004
 50
270.0
 51
359.647802902
  0
LINE
  5
106
  8
0
  6
CONTINUOUS
 62
     7
 10
125.8201373329
 20
333.478270116
 30
0.0
 11
125.6762352879
 21
310.0684349795
 31
0.0
  0
ARC
  5
107
  8
0
  6
CONTINUOUS
 62
     7
 10
126.4201259973
 20
333.4745819398
 30
0.0
 40
0.6000000000000137
 50
0.352197098
 51
179.647802902
  0
LINE
  5
108
  8
0
  6
CONTINUOUS
 62
     7
 10
127.1640167067
 20
310.0684349795
 30
0.0
 11
127.0201146617
 21
333.478270116
 31
0.0
  0
ARC
  5
109
  8
0
  6
CONTINUOUS
 62
     7
 10
128.163997814
 20
310.0745819398
 30
0.0
 40
1.000000000000018
 50
180.352197098
 51
270.0
  0
LINE
  5
10A
  8
0
  6
CONTINUOUS
 62
     7
 10
132.6762541806
 20
309.0745819398
 30
0.0
 11
128.163997814
 21
309.0745819398
 31
0.0
  0
ARC
  5
10B
  8
0
  6
CONTINUOUS
 62
     7
 10
132.6762541806
 20
310.0745819398
 30
0.0
 40
1.0
 50
270.0
 51
359.647802902
  0
LINE
  5
10C
  8
0
  6
CONTINUOUS
 62
     7
 10
133.8201373329
 20
333.478270116
 30
0.0
 11
133.6762352879
 21
310.0684349795
 31
0.0
  0
ARC
  5
10D
  8
0
  6
CONTINUOUS
 62
     7
 10
134.4201259973
 20
333.4745819398
 30
0.0
 40
0.5999999999999995
 50
0.352197098
 51
179.647802902
  0
LINE
  5
10E
  8
0
  6
CONTINUOUS
 62
     7
 10
135.1640167067
 20
310.0684349795
 30
0.0
 11
135.0201146617
 21
333.478270116
 31
0.0
  0
ARC
  5
10F
  8
0
  6
CONTINUOUS
 62
     7
 10
136.163997814
 20
310.0745819398
 30
0.0
 40
1.000000000000046
 50
180.352197098
 51
270.0
  0
LINE
  5
110
  8
0
  6
CONTINUOUS
 62
     7
 10
140.6762541806
 20
309.0745819398
 30
0.0
 11
136.163997814
 21
309.0745819398
 31
0.0
  0
ARC
  5
111
  8
0
  6
CONTINUOUS
 62
     7
 10
140.6762541806
 20
310.0745819398
 30
0.0
 40
1.000000000000018
 50
270.0
 51
359.647802902
  0
LINE
  5
112
  8
0
  6
CONTINUOUS
 62
     7
 10
141.8201373329
 20
333.478270116
 30
0.0
 11
141.6762352879
 21
310.0684349795
 31
0.0
  0
ARC
  5
113
  8
0
  6
CONTINUOUS
 62
     7
 10
142.4201259973
 20
333.4745819398
 30
0.0
 40
0.600000000000028
 50
0.352197098
 51
179.647802902
  0
LINE
  5
114
  8
0
  6
CONTINUOUS
 62
     7
 10
143.1640167067
 20
310.0684349795
 30
0.0
 11
143.0201146617
 21
333.478270116
 31
0.0
  0
ARC
  5
115
  8
0
  6
CONTINUOUS
 62
     7
 10
144.163997814
 20
310.0745819398
 30
0.0
 40
1.0
 50
180.352197098
 51
270.0
  0
LINE
  5
116
  8
0
  6
CONTINUOUS
 62
     7
 10
148.6762541806
 20
309.0745819398
 30
0.0
 11
144.163997814
 21
309.0745819398
 31
0.0
  0
ARC
  5
117
  8
0
  6
CONTINUOUS
 62
     7
 10
148.6762541806
 20
310.0745819398
 30
0.0
 40
1.000000000000018
 50
270.0
 51
359.647802902
  0
LINE
  5
118
  8
0
  6
CONTINUOUS
 62
     7
 10
149.8201373329
 20
333.478270116
 30
0.0
 11
149.6762352879
 21
310.0684349795
 31
0.0
  0
ARC
  5
119
  8
0
  6
CONTINUOUS
 62
     7
 10
150.4201259973
 20
333.4745819398
 30
0.0
 40
0.600000000000028
 50
0.352197098
 51
179.647802902
  0
LINE
  5
11A
  8
0
  6
CONTINUOUS
 62
     7
 10
151.1640167067
 20
310.0684349795
 30
0.0
 11
151.0201146617
 21
333.478270116
 31
0.0
  0
ARC
  5
11B
  8
0
  6
CONTINUOUS
 62
     7
 10
152.163997814
 20
310.0745819398
 30
0.0
 40
1.0
 50
180.352197098
 51
270.0
  0
LINE
  5
11C
  8
0
  6
CONTINUOUS
 62
     7
 10
156.6762541806
 20
309.0745819398
 30
0.0
 11
152.163997814
 21
309.0745819398
 31
0.0
  0
ARC
  5
11D
  8
0
  6
CONTINUOUS
 62
     7
 10
156.6762541806
 20
310.0745819398
 30
0.0
 40
1.0
 50
270.0
 51
359.647802902
  0
LINE
  5
11E
  8
0
  6
CONTINUOUS
 62
     7
 10
157.8201373329
 20
333.478270116
 30
0.0
 11
157.6762352879
 21
310.0684349795
 31
0.0
  0
ARC
  5
11F
  8
0
  6
CONTINUOUS
 62
     7
 10
158.4201259973
 20
333.4745819398
 30
0.0
 40
0.5999999999999991
 50
0.352197098
 51
179.647802902
  0
LINE
  5
120
  8
0
  6
CONTINUOUS
 62
     7
 10
159.1640167067
 20
310.0684349795
 30
0.0
 11
159.0201146617
 21
333.478270116
 31
0.0
  0
ARC
  5
121
  8
0
  6
CONTINUOUS
 62
     7
 10
160.163997814
 20
310.0745819398
 30
0.0
 40
1.000000000000018
 50
180.352197098
 51
270.0
  0
LINE
  5
122
  8
0
  6
CONTINUOUS
 62
     7
 10
164.6762541806
 20
309.0745819398
 30
0.0
 11
160.163997814
 21
309.0745819398
 31
0.0
  0
ARC
  5
123
  8
0
  6
CONTINUOUS
 62
     7
 10
164.6762541806
 20
310.0745819398
 30
0.0
 40
1.0
 50
270.0
 51
359.647802902
  0
LINE
  5
124
  8
0
  6
CONTINUOUS
 62
     7
 10
165.8201373329
 20
333.478270116
 30
0.0
 11
165.6762352879
 21
310.0684349795
 31
0.0
  0
ARC
  5
125
  8
0
  6
CONTINUOUS
 62
     7
 10
166.4201259973
 20
333.4745819398
 30
0.0
 40
0.6000000000000275
 50
0.352197098
 51
179.647802902
  0
LINE
  5
126
  8
0
  6
CONTINUOUS
 62
     7
 10
167.1640167067
 20
310.0684349795
 30
0.0
 11
167.0201146617
 21
333.478270116
 31
0.0
  0
ARC
  5
127
  8
0
  6
CONTINUOUS
 62
     7
 10
168.163997814
 20
310.0745819398
 30
0.0
 40
1.0
 50
180.352197098
 51
270.0
  0
LINE
  5
128
  8
0
  6
CONTINUOUS
 62
     7
 10
172.6762541806
 20
309.0745819398
 30
0.0
 11
168.163997814
 21
309.0745819398
 31
0.0
  0
ARC
  5
129
  8
0
  6
CONTINUOUS
 62
     7
 10
172.6762541806
 20
310.0745819398
 30
0.0
 40
1.000000000000018
 50
270.0
 51
359.647802902
  0
LINE
  5
12A
  8
0
  6
CONTINUOUS
 62
     7
 10
173.8201373329
 20
333.478270116
 30
0.0
 11
173.6762352879
 21
310.0684349795
 31
0.0
  0
ARC
  5
12B
  8
0
  6
CONTINUOUS
 62
     7
 10
174.4201259973
 20
333.4745819398
 30
0.0
 40
0.5999999999999995
 50
0.352197098
 51
179.647802902
  0
LINE
  5
12C
  8
0
  6
CONTINUOUS
 62
     7
 10
175.1640167067
 20
310.0684349795
 30
0.0
 11
175.0201146617
 21
333.478270116
 31
0.0
  0
ARC
  5
12D
  8
0
  6
CONTINUOUS
 62
     7
 10
176.163997814
 20
310.0745819398
 30
0.0
 40
1.0
 50
180.352197098
 51
270.0
  0
LINE
  5
12E
  8
0
  6
CONTINUOUS
 62
     7
 10
180.6762541806
 20
309.0745819398
 30
0.0
 11
176.163997814
 21
309.0745819398
 31
0.0
  0
ARC
  5
12F
  8
0
  6
CONTINUOUS
 62
     7
 10
180.6762541806
 20
310.0745819398
 30
0.0
 40
1.000000000000018
 50
270.0
 51
359.647802902
  0
LINE
  5
130
  8
0
  6
CONTINUOUS
 62
     7
 10
181.8201373329
 20
333.478270116
 30
0.0
 11
181.6762352879
 21
310.0684349795
 31
0.0
  0
ARC
  5
131
  8
0
  6
CONTINUOUS
 62
     7
 10
182.4201259973
 20
333.4745819398
 30
0.0
 40
0.5999999999999991
 50
0.352197098
 51
179.647802902
  0
LINE
  5
132
  8
0
  6
CONTINUOUS
 62
     7
 10
183.1640167067
 20
310.0684349795
 30
0.0
 11
183.0201146617
 21
333.478270116
 31
0.0
  0
ARC
  5
133
  8
0
  6
CONTINUOUS
 62
     7
 10
184.163997814
 20
310.0745819398
 30
0.0
 40
1.0
 50
180.352197098
 51
270.0
  0
LINE
  5
134
  8
0
  6
CONTINUOUS
 62
     7
 10
188.6762541806
 20
309.0745819398
 30
0.0
 11
184.163997814
 21
309.0745819398
 31
0.0
  0
ARC
  5
135
  8
0
  6
CONTINUOUS
 62
     7
 10
188.6762541806
 20
310.0745819398
 30
0.0
 40
1.0
 50
270.0
 51
359.647802902
  0
LINE
  5
136
  8
0
  6
CONTINUOUS
 62
     7
 10
189.8201373329
 20
333.478270116
 30
0.0
 11
189.6762352879
 21
310.0684349795
 31
0.0
  0
ARC
  5
137
  8
0
  6
CONTINUOUS
 62
     7
 10
190.4201259973
 20
333.4745819398
 30
0.0
 40
0.5999999999999991
 50
0.352197098
 51
179.647802902
  0
LINE
  5
138
  8
0
  6
CONTINUOUS
 62
     7
 10
191.1640167067
 20
310.0684349795
 30
0.0
 11
191.0201146617
 21
333.478270116
 31
0.0
  0
ARC
  5
139
  8
0
  6
CONTINUOUS
 62
     7
 10
192.163997814
 20
310.0745819398
 30
0.0
 40
1.000000000000018
 50
180.352197098
 51
270.0
  0
LINE
  5
13A
  8
0
  6
CONTINUOUS
 62
     7
 10
196.6762541806
 20
309.0745819398
 30
0.0
 11
192.163997814
 21
309.0745819398
 31
0.0
  0
ARC
  5
13B
  8
0
  6
CONTINUOUS
 62
     7
 10
196.6762541806
 20
310.0745819398
 30
0.0
 40
1.0
 50
270.0
 51
359.647802902
  0
LINE
  5
13C
  8
0
  6
CONTINUOUS
 62
     7
 10
197.8201373329
 20
333.478270116
 30
0.0
 11
197.6762352879
 21
310.0684349795
 31
0.0
  0
ARC
  5
13D
  8
0
  6
CONTINUOUS
 62
     7
 10
198.4201259973
 20
333.4745819398
 30
0.0
 40
0.6000000000000275
 50
0.352197098
 51
179.647802902
  0
LINE
  5
13E
  8
0
  6
CONTINUOUS
 62
     7
 10
199.1640167067
 20
310.0684349795
 30
0.0
 11
199.0201146617
 21
333.478270116
 31
0.0
  0
ARC
  5
13F
  8
0
  6
CONTINUOUS
 62
     7
 10
200.163997814
 20
310.0745819398
 30
0.0
 40
0.9999999999999609
 50
180.352197098
 51
270.0
  0
LINE
  5
140
  8
0
  6
CONTINUOUS
 62
     7
 10
204.6762541806
 20
309.0745819398
 30
0.0
 11
200.163997814
 21
309.0745819398
 31
0.0
  0
ARC
  5
141
  8
0
  6
CONTINUOUS
 62
     7
 10
204.6762541806
 20
310.0745819398
 30
0.0
 40
0.9999999999999893
 50
270.0
 51
359.647802902
  0
LINE
  5
142
  8
0
  6
CONTINUOUS
 62
     7
 10
205.8201373329
 20
333.478270116
 30
0.0
 11
205.6762352879
 21
310.0684349795
 31
0.0
  0
ARC
  5
143
  8
0
  6
CONTINUOUS
 62
     7
 10
206.4201259973
 20
333.4745819398
 30
0.0
 40
0.6000000000000275
 50
0.352197098
 51
179.647802902
  0
LINE
  5
144
  8
0
  6
CONTINUOUS
 62
     7
 10
207.1640167067
 20
310.0684349795
 30
0.0
 11
207.0201146617
 21
333.478270116
 31
0.0
  0
ARC
  5
145
  8
0
  6
CONTINUOUS
 62
     7
 10
208.163997814
 20
310.0745819398
 30
0.0
 40
0.9999999999999432
 50
180.352197098
 51
270.0
  0
LINE
  5
146
  8
0
  6
CONTINUOUS
 62
     7
 10
212.6762541806
 20
309.0745819398
 30
0.0
 11
208.163997814
 21
309.0745819398
 31
0.0
  0
ARC
  5
147
  8
0
  6
CONTINUOUS
 62
     7
 10
212.6762541806
 20
310.0745819398
 30
0.0
 40
1.0
 50
270.0
 51
359.647802902
  0
LINE
  5
148
  8
0
  6
CONTINUOUS
 62
     7
 10
213.8201373329
 20
333.478270116
 30
0.0
 11
213.6762352879
 21
310.0684349795
 31
0.0
  0
ARC
  5
149
  8
0
  6
CONTINUOUS
 62
     7
 10
214.4201259973
 20
333.4745819398
 30
0.0
 40
0.5999999999999995
 50
0.352197098
 51
179.647802902
  0
LINE
  5
14A
  8
0
  6
CONTINUOUS
 62
     7
 10
215.1640167067
 20
310.0684349795
 30
0.0
 11
215.0201146617
 21
333.478270116
 31
0.0
  0
ARC
  5
14B
  8
0
  6
CONTINUOUS
 62
     7
 10
216.163997814
 20
310.0745819398
 30
0.0
 40
1.0
 50
180.352197098
 51
270.0
  0
LINE
  5
14C
  8
0
  6
CONTINUOUS
 62
     7
 10
220.6762541806
 20
309.0745819398
 30
0.0
 11
216.163997814
 21
309.0745819398
 31
0.0
  0
ARC
  5
14D
  8
0
  6
CONTINUOUS
 62
     7
 10
220.6762541806
 20
310.0745819398
 30
0.0
 40
1.0
 50
270.0
 51
359.647802902
  0
LINE
  5
14E
  8
0
  6
CONTINUOUS
 62
     7
 10
221.8201373329
 20
333.478270116
 30
0.0
 11
221.6762352879
 21
310.0684349795
 31
0.0
  0
ARC
  5
14F
  8
0
  6
CONTINUOUS
 62
     7
 10
222.4201259973
 20
333.4745819398
 30
0.0
 40
0.5999999999999991
 50
0.352197098
 51
179.647802902
  0
LINE
  5
150
  8
0
  6
CONTINUOUS
 62
     7
 10
223.1640167067
 20
310.0684349795
 30
0.0
 11
223.0201146617
 21
333.478270116
 31
0.0
  0
ARC
  5
151
  8
0
  6
CONTINUOUS
 62
     7
 10
224.163997814
 20
310.0745819398
 30
0.0
 40
0.9999999999999609
 50
180.352197098
 51
270.0
  0
LINE
  5
152
  8
0
  6
CONTINUOUS
 62
     7
 10
228.6762541806
 20
309.0745819398
 30
0.0
 11
224.163997814
 21
309.0745819398
 31
0.0
  0
ARC
  5
153
  8
0
  6
CONTINUOUS
 62
     7
 10
228.6762541806
 20
310.0745819398
 30
0.0
 40
0.9999999999999609
 50
270.0
 51
359.647802902
  0
LINE
  5
154
  8
0
  6
CONTINUOUS
 62
     7
 10
229.8201373329
 20
333.478270116
 30
0.0
 11
229.6762352879
 21
310.0684349795
 31
0.0
  0
ARC
  5
155
  8
0
  6
CONTINUOUS
 62
     7
 10
230.4201259973
 20
333.4745819398
 30
0.0
 40
0.5999999999999991
 50
0.352197098
 51
179.647802902
  0
LINE
  5
156
  8
0
  6
CONTINUOUS
 62
     7
 10
231.1640167067
 20
310.0684349795
 30
0.0
 11
231.0201146617
 21
333.478270116
 31
0.0
  0
ARC
  5
157
  8
0
  6
CONTINUOUS
 62
     7
 10
232.163997814
 20
310.0745819398
 30
0.0
 40
0.9999999999999609
 50
180.352197098
 51
270.0
  0
LINE
  5
158
  8
0
  6
CONTINUOUS
 62
     7
 10
236.6762541806
 20
309.0745819398
 30
0.0
 11
232.163997814
 21
309.0745819398
 31
0.0
  0
ARC
  5
159
  8
0
  6
CONTINUOUS
 62
     7
 10
236.6762541806
 20
310.0745819398
 30
0.0
 40
1.0
 50
270.0
 51
359.647802902
  0
LINE
  5
15A
  8
0
  6
CONTINUOUS
 62
     7
 10
237.8201373329
 20
333.478270116
 30
0.0
 11
237.6762352879
 21
310.0684349795
 31
0.0
  0
ARC
  5
15B
  8
0
  6
CONTINUOUS
 62
     7
 10
238.4201259973
 20
333.4745819398
 30
0.0
 40
0.600000000000028
 50
0.352197098
 51
179.647802902
  0
LINE
  5
15C
  8
0
  6
CONTINUOUS
 62
     7
 10
239.1640167067
 20
310.0684349795
 30
0.0
 11
239.0201146617
 21
333.478270116
 31
0.0
  0
ARC
  5
15D
  8
0
  6
CONTINUOUS
 62
     7
 10
240.163997814
 20
310.0745819398
 30
0.0
 40
1.0
 50
180.352197098
 51
270.0
  0
LINE
  5
15E
  8
0
  6
CONTINUOUS
 62
     7
 10
244.6762541806
 20
309.0745819398
 30
0.0
 11
240.163997814
 21
309.0745819398
 31
0.0
  0
ARC
  5
15F
  8
0
  6
CONTINUOUS
 62
     7
 10
244.6762541806
 20
310.0745819398
 30
0.0
 40
1.0
 50
270.0
 51
359.647802902
  0
LINE
  5
160
  8
0
  6
CONTINUOUS
 62
     7
 10
245.8201373329
 20
333.478270116
 30
0.0
 11
245.6762352879
 21
310.0684349795
 31
0.0
  0
ARC
  5
161
  8
0
  6
CONTINUOUS
 62
     7
 10
246.4201259973
 20
333.4745819398
 30
0.0
 40
0.5999999999999995
 50
0.352197098
 51
179.647802902
  0
LINE
  5
162
  8
0
  6
CONTINUOUS
 62
     7
 10
247.1640167067
 20
310.0684349795
 30
0.0
 11
247.0201146617
 21
333.478270116
 31
0.0
  0
ARC
  5
163
  8
0
  6
CONTINUOUS
 62
     7
 10
248.163997814
 20
310.0745819398
 30
0.0
 40
0.9999999999999432
 50
180.352197098
 51
270.0
  0
LINE
  5
164
  8
0
  6
CONTINUOUS
 62
     7
 10
252.6762541806
 20
309.0745819398
 30
0.0
 11
248.163997814
 21
309.0745819398
 31
0.0
  0
ARC
  5
165
  8
0
  6
CONTINUOUS
 62
     7
 10
252.6762541806
 20
310.0745819398
 30
0.0
 40
1.0
 50
270.0
 51
359.647802902
  0
LINE
  5
166
  8
0
  6
CONTINUOUS
 62
     7
 10
253.8201373329
 20
333.478270116
 30
0.0
 11
253.6762352879
 21
310.0684349795
 31
0.0
  0
ARC
  5
167
  8
0
  6
CONTINUOUS
 62
     7
 10
254.4201259973
 20
333.4745819398
 30
0.0
 40
0.6000000000000275
 50
0.352197098
 51
179.647802902
  0
LINE
  5
168
  8
0
  6
CONTINUOUS
 62
     7
 10
255.1640167067
 20
310.0684349795
 30
0.0
 11
255.0201146617
 21
333.478270116
 31
0.0
  0
ARC
  5
169
  8
0
  6
CONTINUOUS
 62
     7
 10
256.163997814
 20
310.0745819398
 30
0.0
 40
1.000000000000018
 50
180.352197098
 51
270.0
  0
LINE
  5
16A
  8
0
  6
CONTINUOUS
 62
     7
 10
260.6762541806
 20
309.0745819398
 30
0.0
 11
256.163997814
 21
309.0745819398
 31
0.0
  0
ARC
  5
16B
  8
0
  6
CONTINUOUS
 62
     7
 10
260.6762541806
 20
310.0745819398
 30
0.0
 40
1.000000000000018
 50
270.0
 51
359.647802902
  0
LINE
  5
16C
  8
0
  6
CONTINUOUS
 62
     7
 10
261.8201373329
 20
333.478270116
 30
0.0
 11
261.6762352879
 21
310.0684349795
 31
0.0
  0
ARC
  5
16D
  8
0
  6
CONTINUOUS
 62
     7
 10
262.4201259973
 20
333.4745819398
 30
0.0
 40
0.5999999999999991
 50
0.352197098
 51
179.647802902
  0
LINE
  5
16E
  8
0
  6
CONTINUOUS
 62
     7
 10
263.1640167067
 20
310.0684349795
 30
0.0
 11
263.0201146617
 21
333.478270116
 31
0.0
  0
ARC
  5
16F
  8
0
  6
CONTINUOUS
 62
     7
 10
264.163997814
 20
310.0745819398
 30
0.0
 40
0.9999999999999609
 50
180.352197098
 51
270.0
  0
LINE
  5
170
  8
0
  6
CONTINUOUS
 62
     7
 10
268.6762541806
 20
309.0745819398
 30
0.0
 11
264.163997814
 21
309.0745819398
 31
0.0
  0
ARC
  5
171
  8
0
  6
CONTINUOUS
 62
     7
 10
268.9327362966
 20
310.0411309164
 30
0.0
 40
0.9999999999999906
 50
255.1385747533
 51
1.564602027
  0
LINE
  5
172
  8
0
  6
CONTINUOUS
 62
     7
 10
270.0762655162
 20
333.478270116
 30
0.0
 11
269.9323634712
 21
310.0684349795
 31
0.0
  0
ARC
  5
173
  8
0
  6
CONTINUOUS
 62
     7
 10
270.6762541806
 20
333.4745819398
 30
0.0
 40
0.5999999999999998
 50
0.352197098
 51
179.647802902
  0
LINE
  5
174
  8
0
  6
CONTINUOUS
 62
     7
 10
271.42014489
 20
310.0684349795
 30
0.0
 11
271.276242845
 21
333.478270116
 31
0.0
  0
ARC
  5
175
  8
0
  6
CONTINUOUS
 62
     7
 10
272.4201259973
 20
310.0745819398
 30
0.0
 40
1.0
 50
180.352197098
 51
270.0
  0
LINE
  5
176
  8
0
  6
CONTINUOUS
 62
     7
 10
276.9323823639
 20
309.0745819398
 30
0.0
 11
272.4201259973
 21
309.0745819398
 31
0.0
  0
ARC
  5
177
  8
0
  6
CONTINUOUS
 62
     7
 10
276.9323823639
 20
310.0745819398
 30
0.0
 40
0.9999999999999432
 50
270.0
 51
359.647802902
  0
LINE
  5
178
  8
0
  6
CONTINUOUS
 62
     7
 10
278.0762655162
 20
333.478270116
 30
0.0
 11
277.9323634712
 21
310.0684349795
 31
0.0
  0
ARC
  5
179
  8
0
  6
CONTINUOUS
 62
     7
 10
278.6762541806
 20
333.4745819398
 30
0.0
 40
0.5999999999999998
 50
0.352197098
 51
179.647802902
  0
LINE
  5
17A
  8
0
  6
CONTINUOUS
 62
     7
 10
279.42014489
 20
310.0684349795
 30
0.0
 11
279.276242845
 21
333.478270116
 31
0.0
  0
ARC
  5
17B
  8
0
  6
CONTINUOUS
 62
     7
 10
280.4201259973
 20
310.0745819398
 30
0.0
 40
0.9999999999999432
 50
180.352197098
 51
270.0
  0
LINE
  5
17C
  8
0
  6
CONTINUOUS
 62
     7
 10
284.9323823639
 20
309.0745819398
 30
0.0
 11
280.4201259973
 21
309.0745819398
 31
0.0
  0
ARC
  5
17D
  8
0
  6
CONTINUOUS
 62
     7
 10
284.9323823639
 20
310.0745819398
 30
0.0
 40
1.000000000000057
 50
270.0
 51
359.647802902
  0
LINE
  5
17E
  8
0
  6
CONTINUOUS
 62
     7
 10
286.0762655162
 20
333.478270116
 30
0.0
 11
285.9323634712
 21
310.0684349795
 31
0.0
  0
ARC
  5
17F
  8
0
  6
CONTINUOUS
 62
     7
 10
286.6762541806
 20
333.4745819398
 30
0.0
 40
0.5999999999999998
 50
0.352197098
 51
179.647802902
  0
LINE
  5
180
  8
0
  6
CONTINUOUS
 62
     7
 10
287.42014489
 20
310.0684349795
 30
0.0
 11
287.276242845
 21
333.478270116
 31
0.0
  0
ARC
  5
181
  8
0
  6
CONTINUOUS
 62
     7
 10
288.4138249145
 20
310.180684741
 30
0.0
 40
0.9999999999999973
 50
186.4450207719
 51
285.2113561868
  0
LINE
  5
182
  8
0
  6
CONTINUOUS
 62
     7
 10
301.6762541806
 20
309.2157202322
 30
0.0
 11
288.676205357
 21
309.2157202322
 31
0.0
  0
LINE
  5
183
  8
0
  6
CONTINUOUS
 62
     7
 10
301.6762541806
 20
302.2745819398
 30
0.0
 11
301.6762541806
 21
309.2157202322
 31
0.0
  0
LINE
  5
184
  8
0
  6
CONTINUOUS
 62
     7
 10
71.6762541806
 20
302.2745819398
 30
0.0
 11
301.6762541806
 21
302.2745819398
 31
0.0
  0
LINE
  5
185
  8
0
  6
CONTINUOUS
 62
     7
 10
71.6762541806
 20
309.0745819398
 30
0.0
 11
71.6762541806
 21
302.2745819398
 31
0.0
  0
DIMENSION
  5
186
  8
0
  6
CONTINUOUS
 62
   150
  2
_D
 10
301.6762541806
 20
273.6370064121
 30
0.0
 11
186.6762541806
 21
273.6370064121
 31
0.0
 70
   160
  1
<>
  3
SLDDIMSTYLE0
 13
71.6762541806
 23
302.2745819398
 33
0.0
 14
301.6762541806
 24
302.2745819398
 34
0.0
 50
0.0
  0
DIMENSION
  5
191
  8
0
  6
CONTINUOUS
 62
   150
  2
_D_1
 10
314.2213489393
 20
309.2157202322
 30
0.0
 11
314.2213489393
 21
292.2255965734
 31
0.0
 70
   160
  1
<>
  3
SLDDIMSTYLE1
 13
301.6762541806
 23
302.2745819398
 33
0.0
 14
301.6762541806
 24
309.2157202322
 34
0.0
 50
90.0
  0
DIMENSION
  5
19E
  8
0
  6
CONTINUOUS
 62
   150
  2
_D_2
 10
325.4287565511
 20
334.0745819398
 30
0.0
 11
325.4287565511
 21
321.5745819398
 31
0.0
 70
   160
  1
<>
  3
SLDDIMSTYLE2
 13
276.9323823639
 23
309.0745819398
 33
0.0
 14
278.6762541806
 24
334.0745819398
 34
0.0
 50
90.0
  0
DIMENSION
  5
1AB
  8
0
  6
CONTINUOUS
 62
   150
  2
_D_3
 10
87.0201146617
 20
344.0567395071
 30
0.0
 11
70.7709279829
 21
344.0567395071
 31
0.0
 70
   160
  1
<>
  3
SLDDIMSTYLE3
 13
85.8201373329
 23
333.478270116
 33
0.0
 14
87.0201146617
 24
333.478270116
 34
0.0
  0
DIMENSION
  5
1B8
  8
0
  6
CONTINUOUS
 62
   150
  2
_D_4
 10
87.1640167067
 20
291.2808955743
 30
0.0
 11
99.344105754
 21
291.2808955743
 31
0.0
 70
   160
  1
<>
  3
SLDDIMSTYLE3
 13
85.6762352879
 23
310.0684349795
 33
0.0
 14
87.1640167067
 24
310.0684349795
 34
0.0
  0
DIMENSION
  5
1C4
  8
0
  6
CONTINUOUS
 62
   150
  2
_D_5
 10
94.4201259973
 20
354.0745819398
 30
0.0
 11
90.4201259973
 21
354.0745819398
 31
0.0
 70
   160
  1
<>
  3
SLDDIMSTYLE2
 13
86.4201259973
 23
337.478270116
 33
0.0
 14
94.4201259973
 24
337.478270116
 34
0.0
  0
DIMENSION
  5
1D0
  8
0
  6
CONTINUOUS
 62
   150
  2
_D_6
 10
84.6762541806
 20
310.0745819398
 30
0.0
 11
74.7421924193
 21
320.0086837011
 31
0.0
 70
   164
  1
<>
  3
SLDDIMSTYLE4
 15
85.3833609618
 25
309.3674751586
 35
0.0
 40
0.0
  0
DIMENSION
  5
1D9
  8
0
  6
CONTINUOUS
 62
   150
  2
_D_7
 10
71.6762541806
 20
315.397476782
 30
0.0
 11
52.8657921064
 21
315.397476782
 31
0.0
 70
   160
  1
<>
  3
SLDDIMSTYLE2
 13
86.4201259973
 23
306.0684349795
 33
0.0
 14
71.6762541806
 24
309.0745819398
 34
0.0
  0
LINE
  5
1E4
  8
0
  6
CENTERX2
 62
   150
 10
86.4201259973
 20
306.0684349795
 30
0.0
 11
86.4201259973
 21
337.478270116
 31
0.0
  0
LINE
  5
1E5
  8
0
  6
CENTERX2
 62
   150
 10
94.4201259973
 20
306.0684349795
 30
0.0
 11
94.4201259973
 21
337.478270116
 31
0.0
  0
LINE
  5
1E6
  8
0
  6
CONTINUOUS
 62
     7
 10
470.218729097
 20
334.0745819398
 30
0.0
 11
370.218729097
 21
334.0745819398
 31
0.0
  0
LINE
  5
1E7
  8
0
  6
CONTINUOUS
 62
     7
 10
470.218729097
 20
309.0745819398
 30
0.0
 11
370.218729097
 21
309.0745819398
 31
0.0
  0
LINE
  5
1E8
  8
0
  6
CONTINUOUS
 62
     7
 10
470.218729097
 20
309.0745819398
 30
0.0
 11
470.218729097
 21
302.2745819398
 31
0.0
  0
LINE
  5
1E9
  8
0
  6
CONTINUOUS
 62
     7
 10
470.218729097
 20
302.2745819398
 30
0.0
 11
370.218729097
 21
302.2745819398
 31
0.0
  0
LINE
  5
1EA
  8
0
  6
CONTINUOUS
 62
     7
 10
370.218729097
 20
309.0745819398
 30
0.0
 11
370.218729097
 21
302.2745819398
 31
0.0
  0
LINE
  5
1EB
  8
0
  6
CONTINUOUS
 62
     7
 10
470.218729097
 20
310.0684349795
 30
0.0
 11
370.218729097
 21
310.0684349795
 31
0.0
  0
LINE
  5
1EC
  8
0
  6
CONTINUOUS
 62
     7
 10
470.218729097
 20
310.0684349795
 30
0.0
 11
470.218729097
 21
309.0745819398
 31
0.0
  0
LINE
  5
1ED
  8
0
  6
CONTINUOUS
 62
     7
 10
370.218729097
 20
310.0684349795
 30
0.0
 11
370.218729097
 21
309.0745819398
 31
0.0
  0
LINE
  5
1EE
  8
0
  6
CONTINUOUS
 62
     7
 10
470.218729097
 20
333.478270116
 30
0.0
 11
370.218729097
 21
333.478270116
 31
0.0
  0
LINE
  5
1EF
  8
0
  6
CONTINUOUS
 62
     7
 10
470.218729097
 20
333.478270116
 30
0.0
 11
470.218729097
 21
310.0684349795
 31
0.0
  0
LINE
  5
1F0
  8
0
  6
CONTINUOUS
 62
     7
 10
370.218729097
 20
333.478270116
 30
0.0
 11
370.218729097
 21
310.0684349795
 31
0.0
  0
LINE
  5
1F1
  8
0
  6
CONTINUOUS
 62
     7
 10
470.218729097
 20
334.0745819398
 30
0.0
 11
470.218729097
 21
333.478270116
 31
0.0
  0
LINE
  5
1F2
  8
0
  6
CONTINUOUS
 62
     7
 10
370.218729097
 20
334.0745819398
 30
0.0
 11
370.218729097
 21
333.478270116
 31
0.0
  0
LINE
  5
1F3
  8
0
  6
HIDDEN
 62
     7
 10
470.218729097
 20
333.478270116
 30
0.0
 11
370.218729097
 21
333.478270116
 31
0.0
  0
LINE
  5
1F4
  8
0
  6
HIDDEN
 62
     7
 10
470.218729097
 20
310.0684349795
 30
0.0
 11
370.218729097
 21
310.0684349795
 31
0.0
  0
LINE
  5
1F5
  8
0
  6
HIDDEN
 62
     7
 10
470.218729097
 20
309.2157202322
 30
0.0
 11
370.218729097
 21
309.2157202322
 31
0.0
  0
LINE
  5
1F6
  8
0
  6
HIDDEN
 62
     7
 10
370.218729097
 20
309.0411309164
 30
0.0
 11
470.218729097
 21
309.0411309164
 31
0.0
  0
LINE
  5
1F7
  8
0
  6
HIDDEN
 62
     7
 10
370.218729097
 20
309.180684741
 30
0.0
 11
470.218729097
 21
309.180684741
 31
0.0
  0
DIMENSION
  5
1F8
  8
0
  6
CONTINUOUS
 62
   150
  2
_D_8
 10
470.218729097
 20
285.878475661
 30
0.0
 11
420.218729097
 21
285.878475661
 31
0.0
 70
   160
  1
<>
  3
SLDDIMSTYLE0
 13
370.218729097
 23
310.0684349795
 33
0.0
 14
470.218729097
 24
310.0684349795
 34
0.0
  0
LINE
  5
202
  8
0
  6
CONTINUOUS
 62
     7
 10
561.157046775
 20
155.3681718158
 30
0.0
 11
532.8727755276
 21
139.0400095794
 31
0.0
  0
LINE
  5
203
  8
0
  6
CONTINUOUS
 62
     7
 10
558.8943050752
 20
156.6744247947
 30
0.0
 11
530.6100338278
 21
140.3462625583
 31
0.0
  0
LINE
  5
204
  8
0
  6
CONTINUOUS
 62
     7
 10
556.6315633754
 20
157.9806777736
 30
0.0
 11
528.347292128
 21
141.6525155372
 31
0.0
  0
LINE
  5
205
  8
0
  6
CONTINUOUS
 62
     7
 10
554.2963776855
 20
159.3287517779
 30
0.0
 11
526.0121064381
 21
143.0005895414
 31
0.0
  0
LINE
  5
206
  8
0
  6
CONTINUOUS
 62
     7
 10
552.0336359857
 20
160.6350047568
 30
0.0
 11
523.7493647383
 21
144.3068425203
 31
0.0
  0
LINE
  5
207
  8
0
  6
CONTINUOUS
 62
     7
 10
549.7708942859
 20
161.9412577357
 30
0.0
 11
521.4866230385
 21
145.6130954992
 31
0.0
  0
LINE
  5
208
  8
0
  6
CONTINUOUS
 62
     7
 10
547.5081525861
 20
163.2475107146
 30
0.0
 11
519.2238813387
 21
146.9193484782
 31
0.0
  0
LINE
  5
209
  8
0
  6
CONTINUOUS
 62
     7
 10
545.2454108863
 20
164.5537636935
 30
0.0
 11
516.9611396389
 21
148.2256014571
 31
0.0
  0
LINE
  5
20A
  8
0
  6
CONTINUOUS
 62
     7
 10
542.9826691865
 20
165.8600166724
 30
0.0
 11
514.6983979391
 21
149.531854436
 31
0.0
  0
LINE
  5
20B
  8
0
  6
CONTINUOUS
 62
     7
 10
540.7199274867
 20
167.1662696514
 30
0.0
 11
512.4356562393
 21
150.8381074149
 31
0.0
  0
LINE
  5
20C
  8
0
  6
CONTINUOUS
 62
     7
 10
538.4571857869
 20
168.4725226303
 30
0.0
 11
510.1729145395
 21
152.1443603938
 31
0.0
  0
LINE
  5
20D
  8
0
  6
CONTINUOUS
 62
     7
 10
536.1944440871
 20
169.7787756092
 30
0.0
 11
507.9101728397
 21
153.4506133727
 31
0.0
  0
LINE
  5
20E
  8
0
  6
CONTINUOUS
 62
     7
 10
533.9317023873
 20
171.0850285881
 30
0.0
 11
505.6474311399
 21
154.7568663517
 31
0.0
  0
LINE
  5
20F
  8
0
  6
CONTINUOUS
 62
     7
 10
531.6689606876
 20
172.391281567
 30
0.0
 11
503.3846894401
 21
156.0631193306
 31
0.0
  0
LINE
  5
210
  8
0
  6
CONTINUOUS
 62
     7
 10
529.4062189878
 20
173.6975345459
 30
0.0
 11
501.1219477403
 21
157.3693723095
 31
0.0
  0
LINE
  5
211
  8
0
  6
CONTINUOUS
 62
     7
 10
527.143477288
 20
175.0037875249
 30
0.0
 11
498.8592060405
 21
158.6756252884
 31
0.0
  0
LINE
  5
212
  8
0
  6
CONTINUOUS
 62
     7
 10
524.8807355882
 20
176.3100405038
 30
0.0
 11
496.5964643407
 21
159.9818782673
 31
0.0
  0
LINE
  5
213
  8
0
  6
CONTINUOUS
 62
     7
 10
522.6179938884
 20
177.6162934827
 30
0.0
 11
494.3337226409
 21
161.2881312462
 31
0.0
  0
LINE
  5
214
  8
0
  6
CONTINUOUS
 62
     7
 10
520.3552521886
 20
178.9225464616
 30
0.0
 11
492.0709809411
 21
162.5943842252
 31
0.0
  0
LINE
  5
215
  8
0
  6
CONTINUOUS
 62
     7
 10
518.0925104888
 20
180.2287994405
 30
0.0
 11
489.8082392413
 21
163.9006372041
 31
0.0
  0
LINE
  5
216
  8
0
  6
CONTINUOUS
 62
     7
 10
515.829768789
 20
181.5350524194
 30
0.0
 11
487.5454975415
 21
165.206890183
 31
0.0
  0
LINE
  5
217
  8
0
  6
CONTINUOUS
 62
     7
 10
513.5670270892
 20
182.8413053984
 30
0.0
 11
485.2827558417
 21
166.5131431619
 31
0.0
  0
LINE
  5
218
  8
0
  6
CONTINUOUS
 62
     7
 10
511.3042853894
 20
184.1475583773
 30
0.0
 11
483.0200141419
 21
167.8193961408
 31
0.0
  0
LINE
  5
219
  8
0
  6
CONTINUOUS
 62
     7
 10
509.0415436896
 20
185.4538113562
 30
0.0
 11
480.7572724421
 21
169.1256491197
 31
0.0
  0
LINE
  5
21A
  8
0
  6
CONTINUOUS
 62
     7
 10
506.7788019898
 20
186.7600643351
 30
0.0
 11
478.4945307423
 21
170.4319020987
 31
0.0
  0
LINE
  5
21B
  8
0
  6
CONTINUOUS
 62
     7
 10
504.51606029
 20
188.066317314
 30
0.0
 11
476.2317890425
 21
171.7381550776
 31
0.0
  0
LINE
  5
21C
  8
0
  6
CONTINUOUS
 62
     7
 10
475.8585378556
 20
163.845607246
 30
0.0
 11
472.1815825934
 21
165.9682683368
 31
0.0
  0
ARC
  5
21D
  8
0
  6
CONTINUOUS
 62
     7
 10
475.9689721622
 20
163.9805928451
 30
0.0
 40
0.1744042661057553
 50
230.7127432512
 51
8.688021824
  0
LINE
  5
21E
  8
0
  6
CONTINUOUS
 62
     7
 10
476.1820768692
 20
171.6294750917
 30
0.0
 11
476.1413752244
 21
164.0069373357
 31
0.0
  0
POLYLINE
  5
21F
  8
0
  6
CONTINUOUS
 62
     7
 66
     1
 10
0.0
 20
0.0
 30
0.0
 70
   128
  0
VERTEX
  5
537
  8
0
  6
CONTINUOUS
 62
     7
 10
476.5214817117
 20
171.4335408466
 30
0.0
  0
VERTEX
  5
538
  8
0
  6
CONTINUOUS
 62
     7
 10
476.5082657752
 20
171.5157939167
 30
0.0
  0
VERTEX
  5
539
  8
0
  6
CONTINUOUS
 62
     7
 10
476.4714099043
 20
171.6002388826
 30
0.0
  0
VERTEX
  5
53A
  8
0
  6
CONTINUOUS
 62
     7
 10
476.4164818026
 20
171.6741189016
 30
0.0
  0
VERTEX
  5
53B
  8
0
  6
CONTINUOUS
 62
     7
 10
476.3517792904
 20
171.7262731454
 30
0.0
  0
VERTEX
  5
53C
  8
0
  6
CONTINUOUS
 62
     7
 10
476.2870767783
 20
171.7488228321
 30
0.0
  0
VERTEX
  5
53D
  8
0
  6
CONTINUOUS
 62
     7
 10
476.2321486766
 20
171.7383614493
 30
0.0
  0
VERTEX
  5
53E
  8
0
  6
CONTINUOUS
 62
     7
 10
476.1952928057
 20
171.6964693662
 30
0.0
  0
VERTEX
  5
53F
  8
0
  6
CONTINUOUS
 62
     7
 10
476.1820768692
 20
171.6294750917
 30
0.0
  0
SEQEND
  5
6FA
  8
0
  6
CONTINUOUS
 62
     7
  0
LINE
  5
220
  8
0
  6
CONTINUOUS
 62
     7
 10
476.5621833565
 20
163.7640099719
 30
0.0
 11
476.5214817117
 21
171.4335408466
 31
0.0
  0
ARC
  5
221
  8
0
  6
CONTINUOUS
 62
     7
 10
477.1767220094
 20
163.7943429369
 30
0.0
 40
0.6152867987497787
 50
182.8257645522
 51
237.3775881597
  0
LINE
  5
222
  8
0
  6
CONTINUOUS
 62
     7
 10
478.1212795554
 20
162.5393542671
 30
0.0
 11
476.8450207253
 21
163.2761228072
 31
0.0
  0
ARC
  5
223
  8
0
  6
CONTINUOUS
 62
     7
 10
478.231713862
 20
162.6743398662
 30
0.0
 40
0.1744042661057253
 50
230.7127432512
 51
8.688021824
  0
LINE
  5
224
  8
0
  6
CONTINUOUS
 62
     7
 10
478.444818569
 20
170.3232221127
 30
0.0
 11
478.4041169242
 21
162.7006843568
 31
0.0
  0
POLYLINE
  5
225
  8
0
  6
CONTINUOUS
 62
     7
 66
     1
 10
0.0
 20
0.0
 30
0.0
 70
   128
  0
VERTEX
  5
540
  8
0
  6
CONTINUOUS
 62
     7
 10
478.7842234115
 20
170.1272878677
 30
0.0
  0
VERTEX
  5
541
  8
0
  6
CONTINUOUS
 62
     7
 10
478.771007475
 20
170.2095409378
 30
0.0
  0
VERTEX
  5
542
  8
0
  6
CONTINUOUS
 62
     7
 10
478.7341516041
 20
170.2939859036
 30
0.0
  0
VERTEX
  5
543
  8
0
  6
CONTINUOUS
 62
     7
 10
478.6792235024
 20
170.3678659227
 30
0.0
  0
VERTEX
  5
544
  8
0
  6
CONTINUOUS
 62
     7
 10
478.6145209902
 20
170.4200201665
 30
0.0
  0
VERTEX
  5
545
  8
0
  6
CONTINUOUS
 62
     7
 10
478.549818478
 20
170.4425698531
 30
0.0
  0
VERTEX
  5
546
  8
0
  6
CONTINUOUS
 62
     7
 10
478.4948903764
 20
170.4321084704
 30
0.0
  0
VERTEX
  5
547
  8
0
  6
CONTINUOUS
 62
     7
 10
478.4580345055
 20
170.3902163873
 30
0.0
  0
VERTEX
  5
548
  8
0
  6
CONTINUOUS
 62
     7
 10
478.444818569
 20
170.3232221127
 30
0.0
  0
SEQEND
  5
6FB
  8
0
  6
CONTINUOUS
 62
     7
  0
LINE
  5
226
  8
0
  6
CONTINUOUS
 62
     7
 10
478.8249250563
 20
162.457756993
 30
0.0
 11
478.7842234115
 21
170.1272878677
 31
0.0
  0
ARC
  5
227
  8
0
  6
CONTINUOUS
 62
     7
 10
479.4394637092
 20
162.4880899579
 30
0.0
 40
0.6152867987496657
 50
182.8257645522
 51
237.3775881597
  0
LINE
  5
228
  8
0
  6
CONTINUOUS
 62
     7
 10
480.3840212552
 20
161.2331012882
 30
0.0
 11
479.1077624251
 21
161.9698698282
 31
0.0
  0
ARC
  5
229
  8
0
  6
CONTINUOUS
 62
     7
 10
480.4944555618
 20
161.3680868873
 30
0.0
 40
0.1744042661057033
 50
230.7127432512
 51
8.688021824
  0
LINE
  5
22A
  8
0
  6
CONTINUOUS
 62
     7
 10
480.7075602688
 20
169.0169691338
 30
0.0
 11
480.666858624
 21
161.3944313778
 31
0.0
  0
POLYLINE
  5
22B
  8
0
  6
CONTINUOUS
 62
     7
 66
     1
 10
0.0
 20
0.0
 30
0.0
 70
   128
  0
VERTEX
  5
549
  8
0
  6
CONTINUOUS
 62
     7
 10
481.0469651113
 20
168.8210348888
 30
0.0
  0
VERTEX
  5
54A
  8
0
  6
CONTINUOUS
 62
     7
 10
481.0337491748
 20
168.9032879589
 30
0.0
  0
VERTEX
  5
54B
  8
0
  6
CONTINUOUS
 62
     7
 10
480.9968933039
 20
168.9877329247
 30
0.0
  0
VERTEX
  5
54C
  8
0
  6
CONTINUOUS
 62
     7
 10
480.9419652022
 20
169.0616129438
 30
0.0
  0
VERTEX
  5
54D
  8
0
  6
CONTINUOUS
 62
     7
 10
480.87726269
 20
169.1137671876
 30
0.0
  0
VERTEX
  5
54E
  8
0
  6
CONTINUOUS
 62
     7
 10
480.8125601778
 20
169.1363168742
 30
0.0
  0
VERTEX
  5
54F
  8
0
  6
CONTINUOUS
 62
     7
 10
480.7576320762
 20
169.1258554915
 30
0.0
  0
VERTEX
  5
550
  8
0
  6
CONTINUOUS
 62
     7
 10
480.7207762053
 20
169.0839634084
 30
0.0
  0
VERTEX
  5
551
  8
0
  6
CONTINUOUS
 62
     7
 10
480.7075602688
 20
169.0169691338
 30
0.0
  0
SEQEND
  5
6FC
  8
0
  6
CONTINUOUS
 62
     7
  0
LINE
  5
22C
  8
0
  6
CONTINUOUS
 62
     7
 10
481.0876667561
 20
161.151504014
 30
0.0
 11
481.0469651113
 21
168.8210348888
 31
0.0
  0
ARC
  5
22D
  8
0
  6
CONTINUOUS
 62
     7
 10
481.702205409
 20
161.181836979
 30
0.0
 40
0.6152867987497681
 50
182.8257645522
 51
237.3775881597
  0
LINE
  5
22E
  8
0
  6
CONTINUOUS
 62
     7
 10
482.646762955
 20
159.9268483093
 30
0.0
 11
481.3705041249
 21
160.6636168493
 31
0.0
  0
ARC
  5
22F
  8
0
  6
CONTINUOUS
 62
     7
 10
482.7571972616
 20
160.0618339083
 30
0.0
 40
0.1744042661057193
 50
230.7127432512
 51
8.688021824
  0
LINE
  5
230
  8
0
  6
CONTINUOUS
 62
     7
 10
482.9703019686
 20
167.7107161549
 30
0.0
 11
482.9296003238
 21
160.0881783989
 31
0.0
  0
POLYLINE
  5
231
  8
0
  6
CONTINUOUS
 62
     7
 66
     1
 10
0.0
 20
0.0
 30
0.0
 70
   128
  0
VERTEX
  5
552
  8
0
  6
CONTINUOUS
 62
     7
 10
483.3097068111
 20
167.5147819099
 30
0.0
  0
VERTEX
  5
553
  8
0
  6
CONTINUOUS
 62
     7
 10
483.2964908746
 20
167.5970349799
 30
0.0
  0
VERTEX
  5
554
  8
0
  6
CONTINUOUS
 62
     7
 10
483.2596350037
 20
167.6814799458
 30
0.0
  0
VERTEX
  5
555
  8
0
  6
CONTINUOUS
 62
     7
 10
483.204706902
 20
167.7553599649
 30
0.0
  0
VERTEX
  5
556
  8
0
  6
CONTINUOUS
 62
     7
 10
483.1400043898
 20
167.8075142087
 30
0.0
  0
VERTEX
  5
557
  8
0
  6
CONTINUOUS
 62
     7
 10
483.0753018776
 20
167.8300638953
 30
0.0
  0
VERTEX
  5
558
  8
0
  6
CONTINUOUS
 62
     7
 10
483.020373776
 20
167.8196025125
 30
0.0
  0
VERTEX
  5
559
  8
0
  6
CONTINUOUS
 62
     7
 10
482.9835179051
 20
167.7777104295
 30
0.0
  0
VERTEX
  5
55A
  8
0
  6
CONTINUOUS
 62
     7
 10
482.9703019686
 20
167.7107161549
 30
0.0
  0
SEQEND
  5
6FD
  8
0
  6
CONTINUOUS
 62
     7
  0
LINE
  5
232
  8
0
  6
CONTINUOUS
 62
     7
 10
483.3504084559
 20
159.8452510351
 30
0.0
 11
483.3097068111
 21
167.5147819099
 31
0.0
  0
ARC
  5
233
  8
0
  6
CONTINUOUS
 62
     7
 10
483.9649471088
 20
159.8755840001
 30
0.0
 40
0.6152867987495811
 50
182.8257645522
 51
237.3775881597
  0
LINE
  5
234
  8
0
  6
CONTINUOUS
 62
     7
 10
484.9095046548
 20
158.6205953304
 30
0.0
 11
483.6332458247
 21
159.3573638704
 31
0.0
  0
ARC
  5
235
  8
0
  6
CONTINUOUS
 62
     7
 10
485.0199389614
 20
158.7555809294
 30
0.0
 40
0.1744042661056233
 50
230.7127432512
 51
8.688021824
  0
LINE
  5
236
  8
0
  6
CONTINUOUS
 62
     7
 10
485.2330436683
 20
166.404463176
 30
0.0
 11
485.1923420236
 21
158.78192542
 31
0.0
  0
POLYLINE
  5
237
  8
0
  6
CONTINUOUS
 62
     7
 66
     1
 10
0.0
 20
0.0
 30
0.0
 70
   128
  0
VERTEX
  5
55B
  8
0
  6
CONTINUOUS
 62
     7
 10
485.5724485109
 20
166.208528931
 30
0.0
  0
VERTEX
  5
55C
  8
0
  6
CONTINUOUS
 62
     7
 10
485.5592325744
 20
166.290782001
 30
0.0
  0
VERTEX
  5
55D
  8
0
  6
CONTINUOUS
 62
     7
 10
485.5223767035
 20
166.3752269669
 30
0.0
  0
VERTEX
  5
55E
  8
0
  6
CONTINUOUS
 62
     7
 10
485.4674486018
 20
166.4491069859
 30
0.0
  0
VERTEX
  5
55F
  8
0
  6
CONTINUOUS
 62
     7
 10
485.4027460896
 20
166.5012612298
 30
0.0
  0
VERTEX
  5
560
  8
0
  6
CONTINUOUS
 62
     7
 10
485.3380435774
 20
166.5238109164
 30
0.0
  0
VERTEX
  5
561
  8
0
  6
CONTINUOUS
 62
     7
 10
485.2831154758
 20
166.5133495336
 30
0.0
  0
VERTEX
  5
562
  8
0
  6
CONTINUOUS
 62
     7
 10
485.2462596049
 20
166.4714574506
 30
0.0
  0
VERTEX
  5
563
  8
0
  6
CONTINUOUS
 62
     7
 10
485.2330436683
 20
166.404463176
 30
0.0
  0
SEQEND
  5
6FE
  8
0
  6
CONTINUOUS
 62
     7
  0
LINE
  5
238
  8
0
  6
CONTINUOUS
 62
     7
 10
485.6131501557
 20
158.5389980562
 30
0.0
 11
485.5724485109
 21
166.208528931
 31
0.0
  0
ARC
  5
239
  8
0
  6
CONTINUOUS
 62
     7
 10
486.2276888086
 20
158.5693310212
 30
0.0
 40
0.6152867987496408
 50
182.8257645522
 51
237.3775881597
  0
LINE
  5
23A
  8
0
  6
CONTINUOUS
 62
     7
 10
487.1722463546
 20
157.3143423514
 30
0.0
 11
485.8959875245
 21
158.0511108915
 31
0.0
  0
ARC
  5
23B
  8
0
  6
CONTINUOUS
 62
     7
 10
487.2826806612
 20
157.4493279505
 30
0.0
 40
0.1744042661057193
 50
230.7127432512
 51
8.688021824
  0
LINE
  5
23C
  8
0
  6
CONTINUOUS
 62
     7
 10
487.4957853681
 20
165.0982101971
 30
0.0
 11
487.4550837234
 21
157.4756724411
 31
0.0
  0
POLYLINE
  5
23D
  8
0
  6
CONTINUOUS
 62
     7
 66
     1
 10
0.0
 20
0.0
 30
0.0
 70
   128
  0
VERTEX
  5
564
  8
0
  6
CONTINUOUS
 62
     7
 10
487.8351902107
 20
164.902275952
 30
0.0
  0
VERTEX
  5
565
  8
0
  6
CONTINUOUS
 62
     7
 10
487.8219742742
 20
164.9845290221
 30
0.0
  0
VERTEX
  5
566
  8
0
  6
CONTINUOUS
 62
     7
 10
487.7851184033
 20
165.068973988
 30
0.0
  0
VERTEX
  5
567
  8
0
  6
CONTINUOUS
 62
     7
 10
487.7301903016
 20
165.142854007
 30
0.0
  0
VERTEX
  5
568
  8
0
  6
CONTINUOUS
 62
     7
 10
487.6654877894
 20
165.1950082509
 30
0.0
  0
VERTEX
  5
569
  8
0
  6
CONTINUOUS
 62
     7
 10
487.6007852772
 20
165.2175579375
 30
0.0
  0
VERTEX
  5
56A
  8
0
  6
CONTINUOUS
 62
     7
 10
487.5458571756
 20
165.2070965547
 30
0.0
  0
VERTEX
  5
56B
  8
0
  6
CONTINUOUS
 62
     7
 10
487.5090013047
 20
165.1652044716
 30
0.0
  0
VERTEX
  5
56C
  8
0
  6
CONTINUOUS
 62
     7
 10
487.4957853681
 20
165.0982101971
 30
0.0
  0
SEQEND
  5
6FF
  8
0
  6
CONTINUOUS
 62
     7
  0
LINE
  5
23E
  8
0
  6
CONTINUOUS
 62
     7
 10
487.8758918555
 20
157.2327450773
 30
0.0
 11
487.8351902107
 21
164.902275952
 31
0.0
  0
ARC
  5
23F
  8
0
  6
CONTINUOUS
 62
     7
 10
488.4904305084
 20
157.2630780423
 30
0.0
 40
0.6152867987496421
 50
182.8257645522
 51
237.3775881597
  0
LINE
  5
240
  8
0
  6
CONTINUOUS
 62
     7
 10
489.4349880544
 20
156.0080893725
 30
0.0
 11
488.1587292243
 21
156.7448579126
 31
0.0
  0
ARC
  5
241
  8
0
  6
CONTINUOUS
 62
     7
 10
489.545422361
 20
156.1430749716
 30
0.0
 40
0.1744042661057236
 50
230.7127432512
 51
8.688021824
  0
LINE
  5
242
  8
0
  6
CONTINUOUS
 62
     7
 10
489.7585270679
 20
163.7919572182
 30
0.0
 11
489.7178254232
 21
156.1694194622
 31
0.0
  0
POLYLINE
  5
243
  8
0
  6
CONTINUOUS
 62
     7
 66
     1
 10
0.0
 20
0.0
 30
0.0
 70
   128
  0
VERTEX
  5
56D
  8
0
  6
CONTINUOUS
 62
     7
 10
490.0979319105
 20
163.5960229731
 30
0.0
  0
VERTEX
  5
56E
  8
0
  6
CONTINUOUS
 62
     7
 10
490.084715974
 20
163.6782760432
 30
0.0
  0
VERTEX
  5
56F
  8
0
  6
CONTINUOUS
 62
     7
 10
490.0478601031
 20
163.7627210091
 30
0.0
  0
VERTEX
  5
570
  8
0
  6
CONTINUOUS
 62
     7
 10
489.9929320014
 20
163.8366010281
 30
0.0
  0
VERTEX
  5
571
  8
0
  6
CONTINUOUS
 62
     7
 10
489.9282294892
 20
163.888755272
 30
0.0
  0
VERTEX
  5
572
  8
0
  6
CONTINUOUS
 62
     7
 10
489.863526977
 20
163.9113049586
 30
0.0
  0
VERTEX
  5
573
  8
0
  6
CONTINUOUS
 62
     7
 10
489.8085988754
 20
163.9008435758
 30
0.0
  0
VERTEX
  5
574
  8
0
  6
CONTINUOUS
 62
     7
 10
489.7717430045
 20
163.8589514927
 30
0.0
  0
VERTEX
  5
575
  8
0
  6
CONTINUOUS
 62
     7
 10
489.7585270679
 20
163.7919572182
 30
0.0
  0
SEQEND
  5
700
  8
0
  6
CONTINUOUS
 62
     7
  0
LINE
  5
244
  8
0
  6
CONTINUOUS
 62
     7
 10
490.1386335553
 20
155.9264920984
 30
0.0
 11
490.0979319105
 21
163.5960229731
 31
0.0
  0
ARC
  5
245
  8
0
  6
CONTINUOUS
 62
     7
 10
490.7531722082
 20
155.9568250634
 30
0.0
 40
0.6152867987496975
 50
182.8257645522
 51
237.3775881597
  0
LINE
  5
246
  8
0
  6
CONTINUOUS
 62
     7
 10
491.6977297542
 20
154.7018363936
 30
0.0
 11
490.4214709241
 21
155.4386049337
 31
0.0
  0
ARC
  5
247
  8
0
  6
CONTINUOUS
 62
     7
 10
491.8081640608
 20
154.8368219927
 30
0.0
 40
0.1744042661057193
 50
230.7127432512
 51
8.688021824
  0
LINE
  5
248
  8
0
  6
CONTINUOUS
 62
     7
 10
492.0212687677
 20
162.4857042392
 30
0.0
 11
491.980567123
 21
154.8631664833
 31
0.0
  0
POLYLINE
  5
249
  8
0
  6
CONTINUOUS
 62
     7
 66
     1
 10
0.0
 20
0.0
 30
0.0
 70
   128
  0
VERTEX
  5
576
  8
0
  6
CONTINUOUS
 62
     7
 10
492.3606736103
 20
162.2897699942
 30
0.0
  0
VERTEX
  5
577
  8
0
  6
CONTINUOUS
 62
     7
 10
492.3474576738
 20
162.3720230643
 30
0.0
  0
VERTEX
  5
578
  8
0
  6
CONTINUOUS
 62
     7
 10
492.3106018029
 20
162.4564680301
 30
0.0
  0
VERTEX
  5
579
  8
0
  6
CONTINUOUS
 62
     7
 10
492.2556737012
 20
162.5303480492
 30
0.0
  0
VERTEX
  5
57A
  8
0
  6
CONTINUOUS
 62
     7
 10
492.190971189
 20
162.582502293
 30
0.0
  0
VERTEX
  5
57B
  8
0
  6
CONTINUOUS
 62
     7
 10
492.1262686768
 20
162.6050519796
 30
0.0
  0
VERTEX
  5
57C
  8
0
  6
CONTINUOUS
 62
     7
 10
492.0713405752
 20
162.5945905969
 30
0.0
  0
VERTEX
  5
57D
  8
0
  6
CONTINUOUS
 62
     7
 10
492.0344847043
 20
162.5526985138
 30
0.0
  0
VERTEX
  5
57E
  8
0
  6
CONTINUOUS
 62
     7
 10
492.0212687677
 20
162.4857042392
 30
0.0
  0
SEQEND
  5
701
  8
0
  6
CONTINUOUS
 62
     7
  0
LINE
  5
24A
  8
0
  6
CONTINUOUS
 62
     7
 10
492.4013752551
 20
154.6202391195
 30
0.0
 11
492.3606736103
 21
162.2897699942
 31
0.0
  0
ARC
  5
24B
  8
0
  6
CONTINUOUS
 62
     7
 10
493.015913908
 20
154.6505720844
 30
0.0
 40
0.6152867987495798
 50
182.8257645522
 51
237.3775881597
  0
LINE
  5
24C
  8
0
  6
CONTINUOUS
 62
     7
 10
493.960471454
 20
153.3955834147
 30
0.0
 11
492.6842126239
 21
154.1323519548
 31
0.0
  0
ARC
  5
24D
  8
0
  6
CONTINUOUS
 62
     7
 10
494.0709057606
 20
153.5305690138
 30
0.0
 40
0.1744042661057033
 50
230.7127432512
 51
8.688021824
  0
LINE
  5
24E
  8
0
  6
CONTINUOUS
 62
     7
 10
494.2840104675
 20
161.1794512603
 30
0.0
 11
494.2433088228
 21
153.5569135043
 31
0.0
  0
POLYLINE
  5
24F
  8
0
  6
CONTINUOUS
 62
     7
 66
     1
 10
0.0
 20
0.0
 30
0.0
 70
   128
  0
VERTEX
  5
57F
  8
0
  6
CONTINUOUS
 62
     7
 10
494.6234153101
 20
160.9835170153
 30
0.0
  0
VERTEX
  5
580
  8
0
  6
CONTINUOUS
 62
     7
 10
494.6101993736
 20
161.0657700854
 30
0.0
  0
VERTEX
  5
581
  8
0
  6
CONTINUOUS
 62
     7
 10
494.5733435027
 20
161.1502150512
 30
0.0
  0
VERTEX
  5
582
  8
0
  6
CONTINUOUS
 62
     7
 10
494.518415401
 20
161.2240950703
 30
0.0
  0
VERTEX
  5
583
  8
0
  6
CONTINUOUS
 62
     7
 10
494.4537128888
 20
161.2762493141
 30
0.0
  0
VERTEX
  5
584
  8
0
  6
CONTINUOUS
 62
     7
 10
494.3890103766
 20
161.2987990007
 30
0.0
  0
VERTEX
  5
585
  8
0
  6
CONTINUOUS
 62
     7
 10
494.334082275
 20
161.288337618
 30
0.0
  0
VERTEX
  5
586
  8
0
  6
CONTINUOUS
 62
     7
 10
494.2972264041
 20
161.2464455349
 30
0.0
  0
VERTEX
  5
587
  8
0
  6
CONTINUOUS
 62
     7
 10
494.2840104675
 20
161.1794512603
 30
0.0
  0
SEQEND
  5
702
  8
0
  6
CONTINUOUS
 62
     7
  0
LINE
  5
250
  8
0
  6
CONTINUOUS
 62
     7
 10
494.6641169549
 20
153.3139861405
 30
0.0
 11
494.6234153101
 21
160.9835170153
 31
0.0
  0
ARC
  5
251
  8
0
  6
CONTINUOUS
 62
     7
 10
495.2786556078
 20
153.3443191055
 30
0.0
 40
0.6152867987495738
 50
182.8257645522
 51
237.3775881597
  0
LINE
  5
252
  8
0
  6
CONTINUOUS
 62
     7
 10
496.2232131538
 20
152.0893304358
 30
0.0
 11
494.9469543237
 21
152.8260989758
 31
0.0
  0
ARC
  5
253
  8
0
  6
CONTINUOUS
 62
     7
 10
496.3336474604
 20
152.2243160348
 30
0.0
 40
0.1744042661056717
 50
230.7127432512
 51
8.688021824
  0
LINE
  5
254
  8
0
  6
CONTINUOUS
 62
     7
 10
496.5467521673
 20
159.8731982814
 30
0.0
 11
496.5060505226
 21
152.2506605254
 31
0.0
  0
POLYLINE
  5
255
  8
0
  6
CONTINUOUS
 62
     7
 66
     1
 10
0.0
 20
0.0
 30
0.0
 70
   128
  0
VERTEX
  5
588
  8
0
  6
CONTINUOUS
 62
     7
 10
496.8861570099
 20
159.6772640364
 30
0.0
  0
VERTEX
  5
589
  8
0
  6
CONTINUOUS
 62
     7
 10
496.8729410734
 20
159.7595171065
 30
0.0
  0
VERTEX
  5
58A
  8
0
  6
CONTINUOUS
 62
     7
 10
496.8360852025
 20
159.8439620723
 30
0.0
  0
VERTEX
  5
58B
  8
0
  6
CONTINUOUS
 62
     7
 10
496.7811571008
 20
159.9178420914
 30
0.0
  0
VERTEX
  5
58C
  8
0
  6
CONTINUOUS
 62
     7
 10
496.7164545886
 20
159.9699963352
 30
0.0
  0
VERTEX
  5
58D
  8
0
  6
CONTINUOUS
 62
     7
 10
496.6517520764
 20
159.9925460218
 30
0.0
  0
VERTEX
  5
58E
  8
0
  6
CONTINUOUS
 62
     7
 10
496.5968239748
 20
159.982084639
 30
0.0
  0
VERTEX
  5
58F
  8
0
  6
CONTINUOUS
 62
     7
 10
496.5599681038
 20
159.940192556
 30
0.0
  0
VERTEX
  5
590
  8
0
  6
CONTINUOUS
 62
     7
 10
496.5467521673
 20
159.8731982814
 30
0.0
  0
SEQEND
  5
703
  8
0
  6
CONTINUOUS
 62
     7
  0
LINE
  5
256
  8
0
  6
CONTINUOUS
 62
     7
 10
496.9268586547
 20
152.0077331616
 30
0.0
 11
496.8861570099
 21
159.6772640364
 31
0.0
  0
ARC
  5
257
  8
0
  6
CONTINUOUS
 62
     7
 10
497.5413973076
 20
152.0380661266
 30
0.0
 40
0.6152867987496523
 50
182.8257645522
 51
237.3775881597
  0
LINE
  5
258
  8
0
  6
CONTINUOUS
 62
     7
 10
498.4859548536
 20
150.7830774569
 30
0.0
 11
497.2096960235
 21
151.5198459969
 31
0.0
  0
ARC
  5
259
  8
0
  6
CONTINUOUS
 62
     7
 10
498.5963891602
 20
150.9180630559
 30
0.0
 40
0.1744042661056717
 50
230.7127432512
 51
8.688021824
  0
LINE
  5
25A
  8
0
  6
CONTINUOUS
 62
     7
 10
498.8094938671
 20
158.5669453025
 30
0.0
 11
498.7687922224
 21
150.9444075465
 31
0.0
  0
POLYLINE
  5
25B
  8
0
  6
CONTINUOUS
 62
     7
 66
     1
 10
0.0
 20
0.0
 30
0.0
 70
   128
  0
VERTEX
  5
591
  8
0
  6
CONTINUOUS
 62
     7
 10
499.1488987097
 20
158.3710110575
 30
0.0
  0
VERTEX
  5
592
  8
0
  6
CONTINUOUS
 62
     7
 10
499.1356827732
 20
158.4532641275
 30
0.0
  0
VERTEX
  5
593
  8
0
  6
CONTINUOUS
 62
     7
 10
499.0988269023
 20
158.5377090934
 30
0.0
  0
VERTEX
  5
594
  8
0
  6
CONTINUOUS
 62
     7
 10
499.0438988006
 20
158.6115891124
 30
0.0
  0
VERTEX
  5
595
  8
0
  6
CONTINUOUS
 62
     7
 10
498.9791962884
 20
158.6637433563
 30
0.0
  0
VERTEX
  5
596
  8
0
  6
CONTINUOUS
 62
     7
 10
498.9144937762
 20
158.6862930429
 30
0.0
  0
VERTEX
  5
597
  8
0
  6
CONTINUOUS
 62
     7
 10
498.8595656746
 20
158.6758316601
 30
0.0
  0
VERTEX
  5
598
  8
0
  6
CONTINUOUS
 62
     7
 10
498.8227098036
 20
158.6339395771
 30
0.0
  0
VERTEX
  5
599
  8
0
  6
CONTINUOUS
 62
     7
 10
498.8094938671
 20
158.5669453025
 30
0.0
  0
SEQEND
  5
704
  8
0
  6
CONTINUOUS
 62
     7
  0
LINE
  5
25C
  8
0
  6
CONTINUOUS
 62
     7
 10
499.1896003545
 20
150.7014801827
 30
0.0
 11
499.1488987097
 21
158.3710110575
 31
0.0
  0
ARC
  5
25D
  8
0
  6
CONTINUOUS
 62
     7
 10
499.8041390074
 20
150.7318131477
 30
0.0
 40
0.615286798749567
 50
182.8257645522
 51
237.3775881597
  0
LINE
  5
25E
  8
0
  6
CONTINUOUS
 62
     7
 10
500.7486965534
 20
149.4768244779
 30
0.0
 11
499.4724377233
 21
150.213593018
 31
0.0
  0
ARC
  5
25F
  8
0
  6
CONTINUOUS
 62
     7
 10
500.85913086
 20
149.611810077
 30
0.0
 40
0.1744042661057236
 50
230.7127432512
 51
8.688021824
  0
LINE
  5
260
  8
0
  6
CONTINUOUS
 62
     7
 10
501.0722355669
 20
157.2606923236
 30
0.0
 11
501.0315339222
 21
149.6381545676
 31
0.0
  0
POLYLINE
  5
261
  8
0
  6
CONTINUOUS
 62
     7
 66
     1
 10
0.0
 20
0.0
 30
0.0
 70
   128
  0
VERTEX
  5
59A
  8
0
  6
CONTINUOUS
 62
     7
 10
501.4116404095
 20
157.0647580785
 30
0.0
  0
VERTEX
  5
59B
  8
0
  6
CONTINUOUS
 62
     7
 10
501.398424473
 20
157.1470111486
 30
0.0
  0
VERTEX
  5
59C
  8
0
  6
CONTINUOUS
 62
     7
 10
501.3615686021
 20
157.2314561145
 30
0.0
  0
VERTEX
  5
59D
  8
0
  6
CONTINUOUS
 62
     7
 10
501.3066405004
 20
157.3053361335
 30
0.0
  0
VERTEX
  5
59E
  8
0
  6
CONTINUOUS
 62
     7
 10
501.2419379882
 20
157.3574903774
 30
0.0
  0
VERTEX
  5
59F
  8
0
  6
CONTINUOUS
 62
     7
 10
501.177235476
 20
157.380040064
 30
0.0
  0
VERTEX
  5
5A0
  8
0
  6
CONTINUOUS
 62
     7
 10
501.1223073744
 20
157.3695786812
 30
0.0
  0
VERTEX
  5
5A1
  8
0
  6
CONTINUOUS
 62
     7
 10
501.0854515034
 20
157.3276865981
 30
0.0
  0
VERTEX
  5
5A2
  8
0
  6
CONTINUOUS
 62
     7
 10
501.0722355669
 20
157.2606923236
 30
0.0
  0
SEQEND
  5
705
  8
0
  6
CONTINUOUS
 62
     7
  0
LINE
  5
262
  8
0
  6
CONTINUOUS
 62
     7
 10
501.4523420543
 20
149.3952272038
 30
0.0
 11
501.4116404095
 21
157.0647580785
 31
0.0
  0
ARC
  5
263
  8
0
  6
CONTINUOUS
 62
     7
 10
502.0668807072
 20
149.4255601688
 30
0.0
 40
0.6152867987495826
 50
182.8257645522
 51
237.3775881597
  0
LINE
  5
264
  8
0
  6
CONTINUOUS
 62
     7
 10
503.0114382532
 20
148.170571499
 30
0.0
 11
501.7351794231
 21
148.9073400391
 31
0.0
  0
ARC
  5
265
  8
0
  6
CONTINUOUS
 62
     7
 10
503.1218725598
 20
148.3055570981
 30
0.0
 40
0.1744042661056717
 50
230.7127432512
 51
8.688021824
  0
LINE
  5
266
  8
0
  6
CONTINUOUS
 62
     7
 10
503.3349772667
 20
155.9544393447
 30
0.0
 11
503.294275622
 21
148.3319015887
 31
0.0
  0
POLYLINE
  5
267
  8
0
  6
CONTINUOUS
 62
     7
 66
     1
 10
0.0
 20
0.0
 30
0.0
 70
   128
  0
VERTEX
  5
5A3
  8
0
  6
CONTINUOUS
 62
     7
 10
503.6743821093
 20
155.7585050996
 30
0.0
  0
VERTEX
  5
5A4
  8
0
  6
CONTINUOUS
 62
     7
 10
503.6611661728
 20
155.8407581697
 30
0.0
  0
VERTEX
  5
5A5
  8
0
  6
CONTINUOUS
 62
     7
 10
503.6243103019
 20
155.9252031356
 30
0.0
  0
VERTEX
  5
5A6
  8
0
  6
CONTINUOUS
 62
     7
 10
503.5693822002
 20
155.9990831546
 30
0.0
  0
VERTEX
  5
5A7
  8
0
  6
CONTINUOUS
 62
     7
 10
503.504679688
 20
156.0512373985
 30
0.0
  0
VERTEX
  5
5A8
  8
0
  6
CONTINUOUS
 62
     7
 10
503.4399771758
 20
156.0737870851
 30
0.0
  0
VERTEX
  5
5A9
  8
0
  6
CONTINUOUS
 62
     7
 10
503.3850490741
 20
156.0633257023
 30
0.0
  0
VERTEX
  5
5AA
  8
0
  6
CONTINUOUS
 62
     7
 10
503.3481932032
 20
156.0214336192
 30
0.0
  0
VERTEX
  5
5AB
  8
0
  6
CONTINUOUS
 62
     7
 10
503.3349772667
 20
155.9544393447
 30
0.0
  0
SEQEND
  5
706
  8
0
  6
CONTINUOUS
 62
     7
  0
LINE
  5
268
  8
0
  6
CONTINUOUS
 62
     7
 10
503.715083754
 20
148.0889742249
 30
0.0
 11
503.6743821093
 21
155.7585050996
 31
0.0
  0
ARC
  5
269
  8
0
  6
CONTINUOUS
 62
     7
 10
504.329622407
 20
148.1193071899
 30
0.0
 40
0.6152867987500508
 50
182.8257645522
 51
237.3775881597
  0
LINE
  5
26A
  8
0
  6
CONTINUOUS
 62
     7
 10
505.274179953
 20
146.8643185201
 30
0.0
 11
503.9979211228
 21
147.6010870602
 31
0.0
  0
ARC
  5
26B
  8
0
  6
CONTINUOUS
 62
     7
 10
505.3846142596
 20
146.9993041192
 30
0.0
 40
0.1744042661057712
 50
230.7127432512
 51
8.6880218239
  0
LINE
  5
26C
  8
0
  6
CONTINUOUS
 62
     7
 10
505.5977189665
 20
154.6481863657
 30
0.0
 11
505.5570173218
 21
147.0256486098
 31
0.0
  0
POLYLINE
  5
26D
  8
0
  6
CONTINUOUS
 62
     7
 66
     1
 10
0.0
 20
0.0
 30
0.0
 70
   128
  0
VERTEX
  5
5AC
  8
0
  6
CONTINUOUS
 62
     7
 10
505.9371238091
 20
154.4522521207
 30
0.0
  0
VERTEX
  5
5AD
  8
0
  6
CONTINUOUS
 62
     7
 10
505.9239078726
 20
154.5345051908
 30
0.0
  0
VERTEX
  5
5AE
  8
0
  6
CONTINUOUS
 62
     7
 10
505.8870520017
 20
154.6189501566
 30
0.0
  0
VERTEX
  5
5AF
  8
0
  6
CONTINUOUS
 62
     7
 10
505.8321239
 20
154.6928301757
 30
0.0
  0
VERTEX
  5
5B0
  8
0
  6
CONTINUOUS
 62
     7
 10
505.7674213878
 20
154.7449844195
 30
0.0
  0
VERTEX
  5
5B1
  8
0
  6
CONTINUOUS
 62
     7
 10
505.7027188756
 20
154.7675341062
 30
0.0
  0
VERTEX
  5
5B2
  8
0
  6
CONTINUOUS
 62
     7
 10
505.6477907739
 20
154.7570727234
 30
0.0
  0
VERTEX
  5
5B3
  8
0
  6
CONTINUOUS
 62
     7
 10
505.610934903
 20
154.7151806403
 30
0.0
  0
VERTEX
  5
5B4
  8
0
  6
CONTINUOUS
 62
     7
 10
505.5977189665
 20
154.6481863657
 30
0.0
  0
SEQEND
  5
707
  8
0
  6
CONTINUOUS
 62
     7
  0
LINE
  5
26E
  8
0
  6
CONTINUOUS
 62
     7
 10
505.9778254538
 20
146.782721246
 30
0.0
 11
505.9371238091
 21
154.4522521207
 31
0.0
  0
ARC
  5
26F
  8
0
  6
CONTINUOUS
 62
     7
 10
506.5923641068
 20
146.8130542109
 30
0.0
 40
0.6152867987498153
 50
182.8257645522
 51
237.3775881597
  0
LINE
  5
270
  8
0
  6
CONTINUOUS
 62
     7
 10
507.5369216528
 20
145.5580655412
 30
0.0
 11
506.2606628226
 21
146.2948340813
 31
0.0
  0
ARC
  5
271
  8
0
  6
CONTINUOUS
 62
     7
 10
507.6473559594
 20
145.6930511403
 30
0.0
 40
0.1744042661056674
 50
230.7127432512
 51
8.688021824
  0
LINE
  5
272
  8
0
  6
CONTINUOUS
 62
     7
 10
507.8604606663
 20
153.3419333868
 30
0.0
 11
507.8197590216
 21
145.7193956308
 31
0.0
  0
POLYLINE
  5
273
  8
0
  6
CONTINUOUS
 62
     7
 66
     1
 10
0.0
 20
0.0
 30
0.0
 70
   128
  0
VERTEX
  5
5B5
  8
0
  6
CONTINUOUS
 62
     7
 10
508.1998655089
 20
153.1459991418
 30
0.0
  0
VERTEX
  5
5B6
  8
0
  6
CONTINUOUS
 62
     7
 10
508.1866495724
 20
153.2282522119
 30
0.0
  0
VERTEX
  5
5B7
  8
0
  6
CONTINUOUS
 62
     7
 10
508.1497937015
 20
153.3126971777
 30
0.0
  0
VERTEX
  5
5B8
  8
0
  6
CONTINUOUS
 62
     7
 10
508.0948655998
 20
153.3865771968
 30
0.0
  0
VERTEX
  5
5B9
  8
0
  6
CONTINUOUS
 62
     7
 10
508.0301630876
 20
153.4387314406
 30
0.0
  0
VERTEX
  5
5BA
  8
0
  6
CONTINUOUS
 62
     7
 10
507.9654605754
 20
153.4612811272
 30
0.0
  0
VERTEX
  5
5BB
  8
0
  6
CONTINUOUS
 62
     7
 10
507.9105324737
 20
153.4508197445
 30
0.0
  0
VERTEX
  5
5BC
  8
0
  6
CONTINUOUS
 62
     7
 10
507.8736766028
 20
153.4089276614
 30
0.0
  0
VERTEX
  5
5BD
  8
0
  6
CONTINUOUS
 62
     7
 10
507.8604606663
 20
153.3419333868
 30
0.0
  0
SEQEND
  5
708
  8
0
  6
CONTINUOUS
 62
     7
  0
LINE
  5
274
  8
0
  6
CONTINUOUS
 62
     7
 10
508.2405671536
 20
145.476468267
 30
0.0
 11
508.1998655089
 21
153.1459991418
 31
0.0
  0
ARC
  5
275
  8
0
  6
CONTINUOUS
 62
     7
 10
508.8551058066
 20
145.506801232
 30
0.0
 40
0.6152867987497241
 50
182.8257645522
 51
237.3775881597
  0
LINE
  5
276
  8
0
  6
CONTINUOUS
 62
     7
 10
509.7996633526
 20
144.2518125623
 30
0.0
 11
508.5234045224
 21
144.9885811023
 31
0.0
  0
ARC
  5
277
  8
0
  6
CONTINUOUS
 62
     7
 10
509.9100976592
 20
144.3867981614
 30
0.0
 40
0.1744042661057193
 50
230.7127432512
 51
8.688021824
  0
LINE
  5
278
  8
0
  6
CONTINUOUS
 62
     7
 10
510.1232023661
 20
152.0356804079
 30
0.0
 11
510.0825007214
 21
144.4131426519
 31
0.0
  0
POLYLINE
  5
279
  8
0
  6
CONTINUOUS
 62
     7
 66
     1
 10
0.0
 20
0.0
 30
0.0
 70
   128
  0
VERTEX
  5
5BE
  8
0
  6
CONTINUOUS
 62
     7
 10
510.4626072087
 20
151.8397461629
 30
0.0
  0
VERTEX
  5
5BF
  8
0
  6
CONTINUOUS
 62
     7
 10
510.4493912722
 20
151.921999233
 30
0.0
  0
VERTEX
  5
5C0
  8
0
  6
CONTINUOUS
 62
     7
 10
510.4125354013
 20
152.0064441988
 30
0.0
  0
VERTEX
  5
5C1
  8
0
  6
CONTINUOUS
 62
     7
 10
510.3576072996
 20
152.0803242179
 30
0.0
  0
VERTEX
  5
5C2
  8
0
  6
CONTINUOUS
 62
     7
 10
510.2929047874
 20
152.1324784617
 30
0.0
  0
VERTEX
  5
5C3
  8
0
  6
CONTINUOUS
 62
     7
 10
510.2282022752
 20
152.1550281483
 30
0.0
  0
VERTEX
  5
5C4
  8
0
  6
CONTINUOUS
 62
     7
 10
510.1732741735
 20
152.1445667655
 30
0.0
  0
VERTEX
  5
5C5
  8
0
  6
CONTINUOUS
 62
     7
 10
510.1364183026
 20
152.1026746825
 30
0.0
  0
VERTEX
  5
5C6
  8
0
  6
CONTINUOUS
 62
     7
 10
510.1232023661
 20
152.0356804079
 30
0.0
  0
SEQEND
  5
709
  8
0
  6
CONTINUOUS
 62
     7
  0
LINE
  5
27A
  8
0
  6
CONTINUOUS
 62
     7
 10
510.5033088534
 20
144.1702152881
 30
0.0
 11
510.4626072087
 21
151.8397461629
 31
0.0
  0
ARC
  5
27B
  8
0
  6
CONTINUOUS
 62
     7
 10
511.1178475064
 20
144.2005482531
 30
0.0
 40
0.6152867987498706
 50
182.8257645522
 51
237.3775881597
  0
LINE
  5
27C
  8
0
  6
CONTINUOUS
 62
     7
 10
512.0624050524
 20
142.9455595834
 30
0.0
 11
510.7861462222
 21
143.6823281234
 31
0.0
  0
ARC
  5
27D
  8
0
  6
CONTINUOUS
 62
     7
 10
512.172839359
 20
143.0805451824
 30
0.0
 40
0.1744042661057236
 50
230.7127432512
 51
8.688021824
  0
LINE
  5
27E
  8
0
  6
CONTINUOUS
 62
     7
 10
512.3859440659
 20
150.729427429
 30
0.0
 11
512.3452424212
 21
143.106889673
 31
0.0
  0
POLYLINE
  5
27F
  8
0
  6
CONTINUOUS
 62
     7
 66
     1
 10
0.0
 20
0.0
 30
0.0
 70
   128
  0
VERTEX
  5
5C7
  8
0
  6
CONTINUOUS
 62
     7
 10
512.7253489085
 20
150.533493184
 30
0.0
  0
VERTEX
  5
5C8
  8
0
  6
CONTINUOUS
 62
     7
 10
512.712132972
 20
150.615746254
 30
0.0
  0
VERTEX
  5
5C9
  8
0
  6
CONTINUOUS
 62
     7
 10
512.6752771011
 20
150.7001912199
 30
0.0
  0
VERTEX
  5
5CA
  8
0
  6
CONTINUOUS
 62
     7
 10
512.6203489994
 20
150.7740712389
 30
0.0
  0
VERTEX
  5
5CB
  8
0
  6
CONTINUOUS
 62
     7
 10
512.5556464872
 20
150.8262254828
 30
0.0
  0
VERTEX
  5
5CC
  8
0
  6
CONTINUOUS
 62
     7
 10
512.490943975
 20
150.8487751694
 30
0.0
  0
VERTEX
  5
5CD
  8
0
  6
CONTINUOUS
 62
     7
 10
512.4360158733
 20
150.8383137866
 30
0.0
  0
VERTEX
  5
5CE
  8
0
  6
CONTINUOUS
 62
     7
 10
512.3991600024
 20
150.7964217036
 30
0.0
  0
VERTEX
  5
5CF
  8
0
  6
CONTINUOUS
 62
     7
 10
512.3859440659
 20
150.729427429
 30
0.0
  0
SEQEND
  5
70A
  8
0
  6
CONTINUOUS
 62
     7
  0
LINE
  5
280
  8
0
  6
CONTINUOUS
 62
     7
 10
512.7660505532
 20
142.8639623092
 30
0.0
 11
512.7253489085
 21
150.533493184
 31
0.0
  0
ARC
  5
281
  8
0
  6
CONTINUOUS
 62
     7
 10
513.3805892062
 20
142.8942952742
 30
0.0
 40
0.6152867987493726
 50
182.8257645522
 51
237.3775881597
  0
LINE
  5
282
  8
0
  6
CONTINUOUS
 62
     7
 10
514.3251467521
 20
141.6393066044
 30
0.0
 11
513.048887922
 21
142.3760751445
 31
0.0
  0
ARC
  5
283
  8
0
  6
CONTINUOUS
 62
     7
 10
514.4355810588
 20
141.7742922035
 30
0.0
 40
0.1744042661058188
 50
230.7127432512
 51
8.6880218239
  0
LINE
  5
284
  8
0
  6
CONTINUOUS
 62
     7
 10
514.6486857657
 20
149.4231744501
 30
0.0
 11
514.6079841209
 21
141.8006366941
 31
0.0
  0
POLYLINE
  5
285
  8
0
  6
CONTINUOUS
 62
     7
 66
     1
 10
0.0
 20
0.0
 30
0.0
 70
   128
  0
VERTEX
  5
5D0
  8
0
  6
CONTINUOUS
 62
     7
 10
514.9880906083
 20
149.227240205
 30
0.0
  0
VERTEX
  5
5D1
  8
0
  6
CONTINUOUS
 62
     7
 10
514.9748746718
 20
149.3094932751
 30
0.0
  0
VERTEX
  5
5D2
  8
0
  6
CONTINUOUS
 62
     7
 10
514.9380188008
 20
149.393938241
 30
0.0
  0
VERTEX
  5
5D3
  8
0
  6
CONTINUOUS
 62
     7
 10
514.8830906992
 20
149.46781826
 30
0.0
  0
VERTEX
  5
5D4
  8
0
  6
CONTINUOUS
 62
     7
 10
514.818388187
 20
149.5199725039
 30
0.0
  0
VERTEX
  5
5D5
  8
0
  6
CONTINUOUS
 62
     7
 10
514.7536856748
 20
149.5425221905
 30
0.0
  0
VERTEX
  5
5D6
  8
0
  6
CONTINUOUS
 62
     7
 10
514.6987575731
 20
149.5320608077
 30
0.0
  0
VERTEX
  5
5D7
  8
0
  6
CONTINUOUS
 62
     7
 10
514.6619017022
 20
149.4901687246
 30
0.0
  0
VERTEX
  5
5D8
  8
0
  6
CONTINUOUS
 62
     7
 10
514.6486857657
 20
149.4231744501
 30
0.0
  0
SEQEND
  5
70B
  8
0
  6
CONTINUOUS
 62
     7
  0
LINE
  5
286
  8
0
  6
CONTINUOUS
 62
     7
 10
515.028792253
 20
141.5577093303
 30
0.0
 11
514.9880906083
 21
149.227240205
 31
0.0
  0
ARC
  5
287
  8
0
  6
CONTINUOUS
 62
     7
 10
515.643330906
 20
141.5880422953
 30
0.0
 40
0.6152867987499319
 50
182.8257645522
 51
237.3775881596
  0
LINE
  5
288
  8
0
  6
CONTINUOUS
 62
     7
 10
516.5878884519
 20
140.3330536255
 30
0.0
 11
515.3116296218
 21
141.0698221656
 31
0.0
  0
ARC
  5
289
  8
0
  6
CONTINUOUS
 62
     7
 10
516.6983227586
 20
140.4680392246
 30
0.0
 40
0.1744042661057193
 50
230.7127432512
 51
8.688021824
  0
LINE
  5
28A
  8
0
  6
CONTINUOUS
 62
     7
 10
516.9114274655
 20
148.1169214712
 30
0.0
 11
516.8707258207
 21
140.4943837152
 31
0.0
  0
POLYLINE
  5
28B
  8
0
  6
CONTINUOUS
 62
     7
 66
     1
 10
0.0
 20
0.0
 30
0.0
 70
   128
  0
VERTEX
  5
5D9
  8
0
  6
CONTINUOUS
 62
     7
 10
517.2508323081
 20
147.9209872261
 30
0.0
  0
VERTEX
  5
5DA
  8
0
  6
CONTINUOUS
 62
     7
 10
517.2376163716
 20
148.0032402962
 30
0.0
  0
VERTEX
  5
5DB
  8
0
  6
CONTINUOUS
 62
     7
 10
517.2007605006
 20
148.0876852621
 30
0.0
  0
VERTEX
  5
5DC
  8
0
  6
CONTINUOUS
 62
     7
 10
517.145832399
 20
148.1615652811
 30
0.0
  0
VERTEX
  5
5DD
  8
0
  6
CONTINUOUS
 62
     7
 10
517.0811298868
 20
148.213719525
 30
0.0
  0
VERTEX
  5
5DE
  8
0
  6
CONTINUOUS
 62
     7
 10
517.0164273746
 20
148.2362692116
 30
0.0
  0
VERTEX
  5
5DF
  8
0
  6
CONTINUOUS
 62
     7
 10
516.9614992729
 20
148.2258078288
 30
0.0
  0
VERTEX
  5
5E0
  8
0
  6
CONTINUOUS
 62
     7
 10
516.924643402
 20
148.1839157457
 30
0.0
  0
VERTEX
  5
5E1
  8
0
  6
CONTINUOUS
 62
     7
 10
516.9114274655
 20
148.1169214712
 30
0.0
  0
SEQEND
  5
70C
  8
0
  6
CONTINUOUS
 62
     7
  0
LINE
  5
28C
  8
0
  6
CONTINUOUS
 62
     7
 10
517.2915339528
 20
140.2514563514
 30
0.0
 11
517.2508323081
 21
147.9209872261
 31
0.0
  0
ARC
  5
28D
  8
0
  6
CONTINUOUS
 62
     7
 10
517.9060726058
 20
140.2817893164
 30
0.0
 40
0.6152867987495058
 50
182.8257645522
 51
237.3775881597
  0
LINE
  5
28E
  8
0
  6
CONTINUOUS
 62
     7
 10
518.8506301517
 20
139.0268006466
 30
0.0
 11
517.5743713216
 21
139.7635691867
 31
0.0
  0
ARC
  5
28F
  8
0
  6
CONTINUOUS
 62
     7
 10
518.9610644584
 20
139.1617862457
 30
0.0
 40
0.1744042661058273
 50
230.7127432512
 51
8.6880218239
  0
LINE
  5
290
  8
0
  6
CONTINUOUS
 62
     7
 10
519.1741691653
 20
146.8106684922
 30
0.0
 11
519.1334675205
 21
139.1881307363
 31
0.0
  0
POLYLINE
  5
291
  8
0
  6
CONTINUOUS
 62
     7
 66
     1
 10
0.0
 20
0.0
 30
0.0
 70
   128
  0
VERTEX
  5
5E2
  8
0
  6
CONTINUOUS
 62
     7
 10
519.5135740079
 20
146.6147342472
 30
0.0
  0
VERTEX
  5
5E3
  8
0
  6
CONTINUOUS
 62
     7
 10
519.5003580714
 20
146.6969873173
 30
0.0
  0
VERTEX
  5
5E4
  8
0
  6
CONTINUOUS
 62
     7
 10
519.4635022004
 20
146.7814322831
 30
0.0
  0
VERTEX
  5
5E5
  8
0
  6
CONTINUOUS
 62
     7
 10
519.4085740988
 20
146.8553123022
 30
0.0
  0
VERTEX
  5
5E6
  8
0
  6
CONTINUOUS
 62
     7
 10
519.3438715866
 20
146.907466546
 30
0.0
  0
VERTEX
  5
5E7
  8
0
  6
CONTINUOUS
 62
     7
 10
519.2791690744
 20
146.9300162327
 30
0.0
  0
VERTEX
  5
5E8
  8
0
  6
CONTINUOUS
 62
     7
 10
519.2242409727
 20
146.9195548499
 30
0.0
  0
VERTEX
  5
5E9
  8
0
  6
CONTINUOUS
 62
     7
 10
519.1873851018
 20
146.8776627668
 30
0.0
  0
VERTEX
  5
5EA
  8
0
  6
CONTINUOUS
 62
     7
 10
519.1741691653
 20
146.8106684922
 30
0.0
  0
SEQEND
  5
70D
  8
0
  6
CONTINUOUS
 62
     7
  0
LINE
  5
292
  8
0
  6
CONTINUOUS
 62
     7
 10
519.5542756526
 20
138.9452033725
 30
0.0
 11
519.5135740079
 21
146.6147342472
 31
0.0
  0
ARC
  5
293
  8
0
  6
CONTINUOUS
 62
     7
 10
520.1688143056
 20
138.9755363374
 30
0.0
 40
0.6152867987496905
 50
182.8257645522
 51
237.3775881596
  0
LINE
  5
294
  8
0
  6
CONTINUOUS
 62
     7
 10
521.1133718515
 20
137.7205476677
 30
0.0
 11
519.8371130214
 21
138.4573162078
 31
0.0
  0
ARC
  5
295
  8
0
  6
CONTINUOUS
 62
     7
 10
521.2238061582
 20
137.8555332668
 30
0.0
 40
0.1744042661057279
 50
230.7127432512
 51
8.688021824
  0
LINE
  5
296
  8
0
  6
CONTINUOUS
 62
     7
 10
521.4369108651
 20
145.5044155133
 30
0.0
 11
521.3962092203
 21
137.8818777573
 31
0.0
  0
POLYLINE
  5
297
  8
0
  6
CONTINUOUS
 62
     7
 66
     1
 10
0.0
 20
0.0
 30
0.0
 70
   128
  0
VERTEX
  5
5EB
  8
0
  6
CONTINUOUS
 62
     7
 10
521.7763157077
 20
145.3084812683
 30
0.0
  0
VERTEX
  5
5EC
  8
0
  6
CONTINUOUS
 62
     7
 10
521.7630997711
 20
145.3907343384
 30
0.0
  0
VERTEX
  5
5ED
  8
0
  6
CONTINUOUS
 62
     7
 10
521.7262439002
 20
145.4751793042
 30
0.0
  0
VERTEX
  5
5EE
  8
0
  6
CONTINUOUS
 62
     7
 10
521.6713157986
 20
145.5490593233
 30
0.0
  0
VERTEX
  5
5EF
  8
0
  6
CONTINUOUS
 62
     7
 10
521.6066132864
 20
145.6012135671
 30
0.0
  0
VERTEX
  5
5F0
  8
0
  6
CONTINUOUS
 62
     7
 10
521.5419107742
 20
145.6237632537
 30
0.0
  0
VERTEX
  5
5F1
  8
0
  6
CONTINUOUS
 62
     7
 10
521.4869826725
 20
145.613301871
 30
0.0
  0
VERTEX
  5
5F2
  8
0
  6
CONTINUOUS
 62
     7
 10
521.4501268016
 20
145.5714097879
 30
0.0
  0
VERTEX
  5
5F3
  8
0
  6
CONTINUOUS
 62
     7
 10
521.4369108651
 20
145.5044155133
 30
0.0
  0
SEQEND
  5
70E
  8
0
  6
CONTINUOUS
 62
     7
  0
LINE
  5
298
  8
0
  6
CONTINUOUS
 62
     7
 10
521.8170173524
 20
137.6389503936
 30
0.0
 11
521.7763157077
 21
145.3084812683
 31
0.0
  0
ARC
  5
299
  8
0
  6
CONTINUOUS
 62
     7
 10
522.4315560054
 20
137.6692833585
 30
0.0
 40
0.6152867987495826
 50
182.8257645522
 51
237.3775881597
  0
LINE
  5
29A
  8
0
  6
CONTINUOUS
 62
     7
 10
523.3761135513
 20
136.4142946888
 30
0.0
 11
522.0998547212
 21
137.1510632288
 31
0.0
  0
ARC
  5
29B
  8
0
  6
CONTINUOUS
 62
     7
 10
523.4865478579
 20
136.5492802879
 30
0.0
 40
0.1744042661057279
 50
230.7127432512
 51
8.688021824
  0
LINE
  5
29C
  8
0
  6
CONTINUOUS
 62
     7
 10
523.6996525649
 20
144.1981625344
 30
0.0
 11
523.6589509201
 21
136.5756247784
 31
0.0
  0
POLYLINE
  5
29D
  8
0
  6
CONTINUOUS
 62
     7
 66
     1
 10
0.0
 20
0.0
 30
0.0
 70
   128
  0
VERTEX
  5
5F4
  8
0
  6
CONTINUOUS
 62
     7
 10
524.0390574075
 20
144.0022282894
 30
0.0
  0
VERTEX
  5
5F5
  8
0
  6
CONTINUOUS
 62
     7
 10
524.0258414709
 20
144.0844813595
 30
0.0
  0
VERTEX
  5
5F6
  8
0
  6
CONTINUOUS
 62
     7
 10
523.9889856
 20
144.1689263253
 30
0.0
  0
VERTEX
  5
5F7
  8
0
  6
CONTINUOUS
 62
     7
 10
523.9340574984
 20
144.2428063444
 30
0.0
  0
VERTEX
  5
5F8
  8
0
  6
CONTINUOUS
 62
     7
 10
523.8693549862
 20
144.2949605882
 30
0.0
  0
VERTEX
  5
5F9
  8
0
  6
CONTINUOUS
 62
     7
 10
523.804652474
 20
144.3175102748
 30
0.0
  0
VERTEX
  5
5FA
  8
0
  6
CONTINUOUS
 62
     7
 10
523.7497243723
 20
144.3070488921
 30
0.0
  0
VERTEX
  5
5FB
  8
0
  6
CONTINUOUS
 62
     7
 10
523.7128685014
 20
144.265156809
 30
0.0
  0
VERTEX
  5
5FC
  8
0
  6
CONTINUOUS
 62
     7
 10
523.6996525649
 20
144.1981625344
 30
0.0
  0
SEQEND
  5
70F
  8
0
  6
CONTINUOUS
 62
     7
  0
LINE
  5
29E
  8
0
  6
CONTINUOUS
 62
     7
 10
524.0797590522
 20
136.3326974146
 30
0.0
 11
524.0390574075
 21
144.0022282894
 31
0.0
  0
ARC
  5
29F
  8
0
  6
CONTINUOUS
 62
     7
 10
524.6942977052
 20
136.3630303796
 30
0.0
 40
0.6152867987503914
 50
182.8257645522
 51
237.3775881596
  0
LINE
  5
2A0
  8
0
  6
CONTINUOUS
 62
     7
 10
525.6388552511
 20
135.1080417099
 30
0.0
 11
524.362596421
 21
135.8448102499
 31
0.0
  0
ARC
  5
2A1
  8
0
  6
CONTINUOUS
 62
     7
 10
525.7492895577
 20
135.2430273089
 30
0.0
 40
0.1744042661057236
 50
230.7127432513
 51
8.688021824
  0
LINE
  5
2A2
  8
0
  6
CONTINUOUS
 62
     7
 10
525.9623942647
 20
142.8919095555
 30
0.0
 11
525.9216926199
 21
135.2693717995
 31
0.0
  0
POLYLINE
  5
2A3
  8
0
  6
CONTINUOUS
 62
     7
 66
     1
 10
0.0
 20
0.0
 30
0.0
 70
   128
  0
VERTEX
  5
5FD
  8
0
  6
CONTINUOUS
 62
     7
 10
526.3017991073
 20
142.6959753105
 30
0.0
  0
VERTEX
  5
5FE
  8
0
  6
CONTINUOUS
 62
     7
 10
526.2885831707
 20
142.7782283805
 30
0.0
  0
VERTEX
  5
5FF
  8
0
  6
CONTINUOUS
 62
     7
 10
526.2517272998
 20
142.8626733464
 30
0.0
  0
VERTEX
  5
600
  8
0
  6
CONTINUOUS
 62
     7
 10
526.1967991982
 20
142.9365533654
 30
0.0
  0
VERTEX
  5
601
  8
0
  6
CONTINUOUS
 62
     7
 10
526.132096686
 20
142.9887076093
 30
0.0
  0
VERTEX
  5
602
  8
0
  6
CONTINUOUS
 62
     7
 10
526.0673941738
 20
143.0112572959
 30
0.0
  0
VERTEX
  5
603
  8
0
  6
CONTINUOUS
 62
     7
 10
526.0124660721
 20
143.0007959131
 30
0.0
  0
VERTEX
  5
604
  8
0
  6
CONTINUOUS
 62
     7
 10
525.9756102012
 20
142.9589038301
 30
0.0
  0
VERTEX
  5
605
  8
0
  6
CONTINUOUS
 62
     7
 10
525.9623942647
 20
142.8919095555
 30
0.0
  0
SEQEND
  5
710
  8
0
  6
CONTINUOUS
 62
     7
  0
LINE
  5
2A4
  8
0
  6
CONTINUOUS
 62
     7
 10
526.342500752
 20
135.0264444357
 30
0.0
 11
526.3017991073
 21
142.6959753105
 31
0.0
  0
ARC
  5
2A5
  8
0
  6
CONTINUOUS
 62
     7
 10
526.957039405
 20
135.0567774007
 30
0.0
 40
0.6152867987495058
 50
182.8257645522
 51
237.3775881597
  0
LINE
  5
2A6
  8
0
  6
CONTINUOUS
 62
     7
 10
527.9015969509
 20
133.8017887309
 30
0.0
 11
526.6253381208
 21
134.538557271
 31
0.0
  0
POLYLINE
  5
2A7
  8
0
  6
CONTINUOUS
 62
     7
 66
     1
 10
0.0
 20
0.0
 30
0.0
 70
   128
  0
VERTEX
  5
606
  8
0
  6
CONTINUOUS
 62
     7
 10
528.2568783098
 20
133.9212977953
 30
0.0
  0
VERTEX
  5
607
  8
0
  6
CONTINUOUS
 62
     7
 10
528.2510683286
 20
133.8492844919
 30
0.0
  0
VERTEX
  5
608
  8
0
  6
CONTINUOUS
 62
     7
 10
528.2303961079
 20
133.7894172075
 30
0.0
  0
VERTEX
  5
609
  8
0
  6
CONTINUOUS
 62
     7
 10
528.1959710924
 20
133.7449089225
 30
0.0
  0
VERTEX
  5
60A
  8
0
  6
CONTINUOUS
 62
     7
 10
528.1496408171
 20
133.7181483247
 30
0.0
  0
VERTEX
  5
60B
  8
0
  6
CONTINUOUS
 62
     7
 10
528.093891753
 20
133.710571612
 30
0.0
  0
VERTEX
  5
60C
  8
0
  6
CONTINUOUS
 62
     7
 10
528.0317158621
 20
133.7225854144
 30
0.0
  0
VERTEX
  5
60D
  8
0
  6
CONTINUOUS
 62
     7
 10
527.9664500241
 20
133.7535449705
 30
0.0
  0
VERTEX
  5
60E
  8
0
  6
CONTINUOUS
 62
     7
 10
527.9015969509
 20
133.8017887309
 30
0.0
  0
SEQEND
  5
711
  8
0
  6
CONTINUOUS
 62
     7
  0
LINE
  5
2A8
  8
0
  6
CONTINUOUS
 62
     7
 10
528.2975799546
 20
141.5438355513
 30
0.0
 11
528.2568783098
 21
133.9212977953
 31
0.0
  0
POLYLINE
  5
2A9
  8
0
  6
CONTINUOUS
 62
     7
 66
     1
 10
0.0
 20
0.0
 30
0.0
 70
   128
  0
VERTEX
  5
60F
  8
0
  6
CONTINUOUS
 62
     7
 10
528.6369847972
 20
141.3479013062
 30
0.0
  0
VERTEX
  5
610
  8
0
  6
CONTINUOUS
 62
     7
 10
528.6237688606
 20
141.4301543763
 30
0.0
  0
VERTEX
  5
611
  8
0
  6
CONTINUOUS
 62
     7
 10
528.5869129897
 20
141.5145993422
 30
0.0
  0
VERTEX
  5
612
  8
0
  6
CONTINUOUS
 62
     7
 10
528.5319848881
 20
141.5884793612
 30
0.0
  0
VERTEX
  5
613
  8
0
  6
CONTINUOUS
 62
     7
 10
528.4672823759
 20
141.6406336051
 30
0.0
  0
VERTEX
  5
614
  8
0
  6
CONTINUOUS
 62
     7
 10
528.4025798637
 20
141.6631832917
 30
0.0
  0
VERTEX
  5
615
  8
0
  6
CONTINUOUS
 62
     7
 10
528.347651762
 20
141.6527219089
 30
0.0
  0
VERTEX
  5
616
  8
0
  6
CONTINUOUS
 62
     7
 10
528.3107958911
 20
141.6108298258
 30
0.0
  0
VERTEX
  5
617
  8
0
  6
CONTINUOUS
 62
     7
 10
528.2975799546
 20
141.5438355513
 30
0.0
  0
SEQEND
  5
712
  8
0
  6
CONTINUOUS
 62
     7
  0
LINE
  5
2AA
  8
0
  6
CONTINUOUS
 62
     7
 10
528.6776864419
 20
133.6783704315
 30
0.0
 11
528.6369847972
 21
141.3479013062
 31
0.0
  0
ARC
  5
2AB
  8
0
  6
CONTINUOUS
 62
     7
 10
529.2922250949
 20
133.7087033965
 30
0.0
 40
0.6152867987492306
 50
182.8257645522
 51
237.3775881597
  0
LINE
  5
2AC
  8
0
  6
CONTINUOUS
 62
     7
 10
530.2367826408
 20
132.4537147267
 30
0.0
 11
528.9605238107
 21
133.1904832668
 31
0.0
  0
ARC
  5
2AD
  8
0
  6
CONTINUOUS
 62
     7
 10
530.3472169474
 20
132.5887003258
 30
0.0
 40
0.1744042661056673
 50
230.7127432512
 51
8.688021824
  0
LINE
  5
2AE
  8
0
  6
CONTINUOUS
 62
     7
 10
530.5603216544
 20
140.2375825724
 30
0.0
 11
530.5196200096
 21
132.6150448164
 31
0.0
  0
POLYLINE
  5
2AF
  8
0
  6
CONTINUOUS
 62
     7
 66
     1
 10
0.0
 20
0.0
 30
0.0
 70
   128
  0
VERTEX
  5
618
  8
0
  6
CONTINUOUS
 62
     7
 10
530.899726497
 20
140.0416483273
 30
0.0
  0
VERTEX
  5
619
  8
0
  6
CONTINUOUS
 62
     7
 10
530.8865105604
 20
140.1239013974
 30
0.0
  0
VERTEX
  5
61A
  8
0
  6
CONTINUOUS
 62
     7
 10
530.8496546895
 20
140.2083463633
 30
0.0
  0
VERTEX
  5
61B
  8
0
  6
CONTINUOUS
 62
     7
 10
530.7947265879
 20
140.2822263823
 30
0.0
  0
VERTEX
  5
61C
  8
0
  6
CONTINUOUS
 62
     7
 10
530.7300240757
 20
140.3343806262
 30
0.0
  0
VERTEX
  5
61D
  8
0
  6
CONTINUOUS
 62
     7
 10
530.6653215635
 20
140.3569303128
 30
0.0
  0
VERTEX
  5
61E
  8
0
  6
CONTINUOUS
 62
     7
 10
530.6103934618
 20
140.34646893
 30
0.0
  0
VERTEX
  5
61F
  8
0
  6
CONTINUOUS
 62
     7
 10
530.5735375909
 20
140.3045768469
 30
0.0
  0
VERTEX
  5
620
  8
0
  6
CONTINUOUS
 62
     7
 10
530.5603216544
 20
140.2375825724
 30
0.0
  0
SEQEND
  5
713
  8
0
  6
CONTINUOUS
 62
     7
  0
LINE
  5
2B0
  8
0
  6
CONTINUOUS
 62
     7
 10
530.9404281417
 20
132.3721174526
 30
0.0
 11
530.899726497
 21
140.0416483273
 31
0.0
  0
ARC
  5
2B1
  8
0
  6
CONTINUOUS
 62
     7
 10
531.5549667947
 20
132.4024504176
 30
0.0
 40
0.6152867987496975
 50
182.8257645522
 51
237.3775881597
  0
LINE
  5
2B2
  8
0
  6
CONTINUOUS
 62
     7
 10
532.4995243406
 20
131.1474617478
 30
0.0
 11
531.2232655105
 21
131.8842302879
 31
0.0
  0
ARC
  5
2B3
  8
0
  6
CONTINUOUS
 62
     7
 10
532.6099586472
 20
131.2824473469
 30
0.0
 40
0.1744042661056673
 50
230.7127432512
 51
8.688021824
  0
LINE
  5
2B4
  8
0
  6
CONTINUOUS
 62
     7
 10
532.8230633542
 20
138.9313295934
 30
0.0
 11
532.7823617094
 21
131.3087918375
 31
0.0
  0
POLYLINE
  5
2B5
  8
0
  6
CONTINUOUS
 62
     7
 66
     1
 10
0.0
 20
0.0
 30
0.0
 70
   128
  0
VERTEX
  5
621
  8
0
  6
CONTINUOUS
 62
     7
 10
533.1624681968
 20
138.7353953484
 30
0.0
  0
VERTEX
  5
622
  8
0
  6
CONTINUOUS
 62
     7
 10
533.1492522602
 20
138.8176484185
 30
0.0
  0
VERTEX
  5
623
  8
0
  6
CONTINUOUS
 62
     7
 10
533.1123963893
 20
138.9020933843
 30
0.0
  0
VERTEX
  5
624
  8
0
  6
CONTINUOUS
 62
     7
 10
533.0574682877
 20
138.9759734034
 30
0.0
  0
VERTEX
  5
625
  8
0
  6
CONTINUOUS
 62
     7
 10
532.9927657755
 20
139.0281276472
 30
0.0
  0
VERTEX
  5
626
  8
0
  6
CONTINUOUS
 62
     7
 10
532.9280632633
 20
139.0506773339
 30
0.0
  0
VERTEX
  5
627
  8
0
  6
CONTINUOUS
 62
     7
 10
532.8731351616
 20
139.0402159511
 30
0.0
  0
VERTEX
  5
628
  8
0
  6
CONTINUOUS
 62
     7
 10
532.8362792907
 20
138.998323868
 30
0.0
  0
VERTEX
  5
629
  8
0
  6
CONTINUOUS
 62
     7
 10
532.8230633542
 20
138.9313295934
 30
0.0
  0
SEQEND
  5
714
  8
0
  6
CONTINUOUS
 62
     7
  0
LINE
  5
2B6
  8
0
  6
CONTINUOUS
 62
     7
 10
533.2031698415
 20
131.0658644737
 30
0.0
 11
533.1624681968
 21
138.7353953484
 31
0.0
  0
ARC
  5
2B7
  8
0
  6
CONTINUOUS
 62
     7
 10
533.7807332557
 20
131.1178628043
 30
0.0
 40
0.5798994083800756
 50
185.144498787
 51
247.4595727736
  0
LINE
  5
2B8
  8
0
  6
CONTINUOUS
 62
     7
 10
537.2354064626
 20
128.4595932632
 30
0.0
 11
533.558437391
 21
130.582262326
 31
0.0
  0
LINE
  5
2B9
  8
0
  6
CONTINUOUS
 62
     7
 10
537.2354064626
 20
126.1925041846
 30
0.0
 11
537.2354064626
 21
128.4595932632
 31
0.0
  0
LINE
  5
2BA
  8
0
  6
CONTINUOUS
 62
     7
 10
472.1815825934
 20
163.7472773284
 30
0.0
 11
537.2354064626
 21
126.1925041846
 31
0.0
  0
LINE
  5
2BB
  8
0
  6
CONTINUOUS
 62
     7
 10
472.1815825934
 20
165.9682683368
 30
0.0
 11
472.1815825934
 21
163.7472773284
 31
0.0
  0
LINE
  5
2BC
  8
0
  6
CONTINUOUS
 62
     7
 10
533.1624681968
 20
138.7353953484
 30
0.0
 11
561.4467394442
 21
155.0635575849
 31
0.0
  0
POLYLINE
  5
2BD
  8
0
  6
CONTINUOUS
 62
     7
 66
     1
 10
0.0
 20
0.0
 30
0.0
 70
   128
  0
VERTEX
  5
62A
  8
0
  6
CONTINUOUS
 62
     7
 10
561.4467394442
 20
155.0635575849
 30
0.0
  0
VERTEX
  5
62B
  8
0
  6
CONTINUOUS
 62
     7
 10
561.4335235077
 20
155.1458106549
 30
0.0
  0
VERTEX
  5
62C
  8
0
  6
CONTINUOUS
 62
     7
 10
561.3966676368
 20
155.2302556208
 30
0.0
  0
VERTEX
  5
62D
  8
0
  6
CONTINUOUS
 62
     7
 10
561.3417395351
 20
155.3041356398
 30
0.0
  0
VERTEX
  5
62E
  8
0
  6
CONTINUOUS
 62
     7
 10
561.2770370229
 20
155.3562898837
 30
0.0
  0
VERTEX
  5
62F
  8
0
  6
CONTINUOUS
 62
     7
 10
561.2123345107
 20
155.3788395703
 30
0.0
  0
VERTEX
  5
630
  8
0
  6
CONTINUOUS
 62
     7
 10
561.1574064091
 20
155.3683781875
 30
0.0
  0
VERTEX
  5
631
  8
0
  6
CONTINUOUS
 62
     7
 10
561.157046775
 20
155.3681718158
 30
0.0
  0
SEQEND
  5
715
  8
0
  6
CONTINUOUS
 62
     7
  0
LINE
  5
2BE
  8
0
  6
CONTINUOUS
 62
     7
 10
533.2031698415
 20
131.0658644737
 30
0.0
 11
561.487441089
 21
147.3940267101
 31
0.0
  0
LINE
  5
2BF
  8
0
  6
CONTINUOUS
 62
     7
 10
561.487441089
 20
147.3940267101
 30
0.0
 11
561.4467394442
 21
155.0635575849
 31
0.0
  0
LINE
  5
2C0
  8
0
  6
CONTINUOUS
 62
     7
 10
530.899726497
 20
140.0416483273
 30
0.0
 11
559.1839977444
 21
156.3698105638
 31
0.0
  0
POLYLINE
  5
2C1
  8
0
  6
CONTINUOUS
 62
     7
 66
     1
 10
0.0
 20
0.0
 30
0.0
 70
   128
  0
VERTEX
  5
632
  8
0
  6
CONTINUOUS
 62
     7
 10
559.1839977444
 20
156.3698105638
 30
0.0
  0
VERTEX
  5
633
  8
0
  6
CONTINUOUS
 62
     7
 10
559.1707818079
 20
156.4520636339
 30
0.0
  0
VERTEX
  5
634
  8
0
  6
CONTINUOUS
 62
     7
 10
559.133925937
 20
156.5365085997
 30
0.0
  0
VERTEX
  5
635
  8
0
  6
CONTINUOUS
 62
     7
 10
559.0789978353
 20
156.6103886188
 30
0.0
  0
VERTEX
  5
636
  8
0
  6
CONTINUOUS
 62
     7
 10
559.0142953231
 20
156.6625428626
 30
0.0
  0
VERTEX
  5
637
  8
0
  6
CONTINUOUS
 62
     7
 10
558.9495928109
 20
156.6850925492
 30
0.0
  0
VERTEX
  5
638
  8
0
  6
CONTINUOUS
 62
     7
 10
558.8946647093
 20
156.6746311665
 30
0.0
  0
VERTEX
  5
639
  8
0
  6
CONTINUOUS
 62
     7
 10
558.8943050752
 20
156.6744247947
 30
0.0
  0
SEQEND
  5
716
  8
0
  6
CONTINUOUS
 62
     7
  0
LINE
  5
2C2
  8
0
  6
CONTINUOUS
 62
     7
 10
559.1953233518
 20
154.2356929891
 30
0.0
 11
559.1839977444
 21
156.3698105638
 31
0.0
  0
LINE
  5
2C3
  8
0
  6
CONTINUOUS
 62
     7
 10
537.2354064626
 20
126.1925041846
 30
0.0
 11
565.5196777101
 21
142.520666421
 31
0.0
  0
LINE
  5
2C4
  8
0
  6
CONTINUOUS
 62
     7
 10
537.2354064626
 20
128.4595932632
 30
0.0
 11
565.5196777101
 21
144.7877554997
 31
0.0
  0
LINE
  5
2C5
  8
0
  6
CONTINUOUS
 62
     7
 10
565.5196777101
 20
142.520666421
 30
0.0
 11
565.5196777101
 21
144.7877554997
 31
0.0
  0
LINE
  5
2C6
  8
0
  6
CONTINUOUS
 62
     7
 10
533.558437391
 20
130.582262326
 30
0.0
 11
561.8427086385
 21
146.9104245624
 31
0.0
  0
LINE
  5
2C7
  8
0
  6
CONTINUOUS
 62
     7
 10
565.5196777101
 20
144.7877554997
 30
0.0
 11
561.8427086385
 21
146.9104245624
 31
0.0
  0
LINE
  5
2C8
  8
0
  6
CONTINUOUS
 62
     7
 10
528.6369847972
 20
141.3479013062
 30
0.0
 11
556.9212560446
 21
157.6760635427
 31
0.0
  0
POLYLINE
  5
2C9
  8
0
  6
CONTINUOUS
 62
     7
 66
     1
 10
0.0
 20
0.0
 30
0.0
 70
   128
  0
VERTEX
  5
63A
  8
0
  6
CONTINUOUS
 62
     7
 10
556.9212560446
 20
157.6760635427
 30
0.0
  0
VERTEX
  5
63B
  8
0
  6
CONTINUOUS
 62
     7
 10
556.9080401081
 20
157.7583166128
 30
0.0
  0
VERTEX
  5
63C
  8
0
  6
CONTINUOUS
 62
     7
 10
556.8711842372
 20
157.8427615786
 30
0.0
  0
VERTEX
  5
63D
  8
0
  6
CONTINUOUS
 62
     7
 10
556.8162561355
 20
157.9166415977
 30
0.0
  0
VERTEX
  5
63E
  8
0
  6
CONTINUOUS
 62
     7
 10
556.7515536233
 20
157.9687958415
 30
0.0
  0
VERTEX
  5
63F
  8
0
  6
CONTINUOUS
 62
     7
 10
556.6868511112
 20
157.9913455281
 30
0.0
  0
VERTEX
  5
640
  8
0
  6
CONTINUOUS
 62
     7
 10
556.6319230095
 20
157.9808841454
 30
0.0
  0
VERTEX
  5
641
  8
0
  6
CONTINUOUS
 62
     7
 10
556.6315633754
 20
157.9806777736
 30
0.0
  0
SEQEND
  5
717
  8
0
  6
CONTINUOUS
 62
     7
  0
LINE
  5
2CA
  8
0
  6
CONTINUOUS
 62
     7
 10
556.932581652
 20
155.541945968
 30
0.0
 11
556.9212560446
 21
157.6760635427
 31
0.0
  0
ARC
  5
2CB
  8
0
  6
CONTINUOUS
 62
     7
 10
562.0650045032
 20
147.4460250407
 30
0.0
 40
0.5798994083808532
 50
185.144498787
 51
247.4595727736
  0
LINE
  5
2CC
  8
0
  6
CONTINUOUS
 62
     7
 10
526.3017991073
 20
142.6959753105
 30
0.0
 11
554.5860703547
 21
159.0241375469
 31
0.0
  0
POLYLINE
  5
2CD
  8
0
  6
CONTINUOUS
 62
     7
 66
     1
 10
0.0
 20
0.0
 30
0.0
 70
   128
  0
VERTEX
  5
642
  8
0
  6
CONTINUOUS
 62
     7
 10
554.5860703547
 20
159.0241375469
 30
0.0
  0
VERTEX
  5
643
  8
0
  6
CONTINUOUS
 62
     7
 10
554.5728544182
 20
159.106390617
 30
0.0
  0
VERTEX
  5
644
  8
0
  6
CONTINUOUS
 62
     7
 10
554.5359985473
 20
159.1908355828
 30
0.0
  0
VERTEX
  5
645
  8
0
  6
CONTINUOUS
 62
     7
 10
554.4810704456
 20
159.2647156019
 30
0.0
  0
VERTEX
  5
646
  8
0
  6
CONTINUOUS
 62
     7
 10
554.4163679334
 20
159.3168698457
 30
0.0
  0
VERTEX
  5
647
  8
0
  6
CONTINUOUS
 62
     7
 10
554.3516654212
 20
159.3394195324
 30
0.0
  0
VERTEX
  5
648
  8
0
  6
CONTINUOUS
 62
     7
 10
554.2967373196
 20
159.3289581496
 30
0.0
  0
VERTEX
  5
649
  8
0
  6
CONTINUOUS
 62
     7
 10
554.2963776855
 20
159.3287517779
 30
0.0
  0
SEQEND
  5
718
  8
0
  6
CONTINUOUS
 62
     7
  0
LINE
  5
2CE
  8
0
  6
CONTINUOUS
 62
     7
 10
554.5978384887
 20
156.8066333867
 30
0.0
 11
554.5860703547
 21
159.0241375469
 31
0.0
  0
LINE
  5
2CF
  8
0
  6
CONTINUOUS
 62
     7
 10
524.0390574075
 20
144.0022282894
 30
0.0
 11
552.3233286549
 21
160.3303905258
 31
0.0
  0
POLYLINE
  5
2D0
  8
0
  6
CONTINUOUS
 62
     7
 66
     1
 10
0.0
 20
0.0
 30
0.0
 70
   128
  0
VERTEX
  5
64A
  8
0
  6
CONTINUOUS
 62
     7
 10
552.3233286549
 20
160.3303905258
 30
0.0
  0
VERTEX
  5
64B
  8
0
  6
CONTINUOUS
 62
     7
 10
552.3101127184
 20
160.4126435959
 30
0.0
  0
VERTEX
  5
64C
  8
0
  6
CONTINUOUS
 62
     7
 10
552.2732568475
 20
160.4970885618
 30
0.0
  0
VERTEX
  5
64D
  8
0
  6
CONTINUOUS
 62
     7
 10
552.2183287458
 20
160.5709685808
 30
0.0
  0
VERTEX
  5
64E
  8
0
  6
CONTINUOUS
 62
     7
 10
552.1536262336
 20
160.6231228247
 30
0.0
  0
VERTEX
  5
64F
  8
0
  6
CONTINUOUS
 62
     7
 10
552.0889237214
 20
160.6456725113
 30
0.0
  0
VERTEX
  5
650
  8
0
  6
CONTINUOUS
 62
     7
 10
552.0339956198
 20
160.6352111285
 30
0.0
  0
VERTEX
  5
651
  8
0
  6
CONTINUOUS
 62
     7
 10
552.0336359857
 20
160.6350047568
 30
0.0
  0
SEQEND
  5
719
  8
0
  6
CONTINUOUS
 62
     7
  0
LINE
  5
2D1
  8
0
  6
CONTINUOUS
 62
     7
 10
552.3346542623
 20
158.1962729511
 30
0.0
 11
552.3233286549
 21
160.3303905258
 31
0.0
  0
LINE
  5
2D2
  8
0
  6
CONTINUOUS
 62
     7
 10
521.7763157077
 20
145.3084812683
 30
0.0
 11
550.0605869551
 21
161.6366435047
 31
0.0
  0
POLYLINE
  5
2D3
  8
0
  6
CONTINUOUS
 62
     7
 66
     1
 10
0.0
 20
0.0
 30
0.0
 70
   128
  0
VERTEX
  5
652
  8
0
  6
CONTINUOUS
 62
     7
 10
550.0605869551
 20
161.6366435047
 30
0.0
  0
VERTEX
  5
653
  8
0
  6
CONTINUOUS
 62
     7
 10
550.0473710186
 20
161.7188965748
 30
0.0
  0
VERTEX
  5
654
  8
0
  6
CONTINUOUS
 62
     7
 10
550.0105151477
 20
161.8033415407
 30
0.0
  0
VERTEX
  5
655
  8
0
  6
CONTINUOUS
 62
     7
 10
549.955587046
 20
161.8772215597
 30
0.0
  0
VERTEX
  5
656
  8
0
  6
CONTINUOUS
 62
     7
 10
549.8908845338
 20
161.9293758036
 30
0.0
  0
VERTEX
  5
657
  8
0
  6
CONTINUOUS
 62
     7
 10
549.8261820217
 20
161.9519254902
 30
0.0
  0
VERTEX
  5
658
  8
0
  6
CONTINUOUS
 62
     7
 10
549.77125392
 20
161.9414641074
 30
0.0
  0
VERTEX
  5
659
  8
0
  6
CONTINUOUS
 62
     7
 10
549.7708942859
 20
161.9412577357
 30
0.0
  0
SEQEND
  5
71A
  8
0
  6
CONTINUOUS
 62
     7
  0
LINE
  5
2D4
  8
0
  6
CONTINUOUS
 62
     7
 10
550.0719125625
 20
159.50252593
 30
0.0
 11
550.0605869551
 21
161.6366435047
 31
0.0
  0
LINE
  5
2D5
  8
0
  6
CONTINUOUS
 62
     7
 10
527.9015969509
 20
133.8017887309
 30
0.0
 11
528.2573367458
 21
134.0071529432
 31
0.0
  0
LINE
  5
2D6
  8
0
  6
CONTINUOUS
 62
     7
 10
519.5135740079
 20
146.6147342472
 30
0.0
 11
547.7978452553
 21
162.9428964837
 31
0.0
  0
POLYLINE
  5
2D7
  8
0
  6
CONTINUOUS
 62
     7
 66
     1
 10
0.0
 20
0.0
 30
0.0
 70
   128
  0
VERTEX
  5
65A
  8
0
  6
CONTINUOUS
 62
     7
 10
547.7978452553
 20
162.9428964837
 30
0.0
  0
VERTEX
  5
65B
  8
0
  6
CONTINUOUS
 62
     7
 10
547.7846293188
 20
163.0251495537
 30
0.0
  0
VERTEX
  5
65C
  8
0
  6
CONTINUOUS
 62
     7
 10
547.7477734479
 20
163.1095945196
 30
0.0
  0
VERTEX
  5
65D
  8
0
  6
CONTINUOUS
 62
     7
 10
547.6928453462
 20
163.1834745386
 30
0.0
  0
VERTEX
  5
65E
  8
0
  6
CONTINUOUS
 62
     7
 10
547.628142834
 20
163.2356287825
 30
0.0
  0
VERTEX
  5
65F
  8
0
  6
CONTINUOUS
 62
     7
 10
547.5634403219
 20
163.2581784691
 30
0.0
  0
VERTEX
  5
660
  8
0
  6
CONTINUOUS
 62
     7
 10
547.5085122202
 20
163.2477170863
 30
0.0
  0
VERTEX
  5
661
  8
0
  6
CONTINUOUS
 62
     7
 10
547.5081525861
 20
163.2475107146
 30
0.0
  0
SEQEND
  5
71B
  8
0
  6
CONTINUOUS
 62
     7
  0
LINE
  5
2D8
  8
0
  6
CONTINUOUS
 62
     7
 10
547.8091708627
 20
160.808778909
 30
0.0
 11
547.7978452553
 21
162.9428964837
 31
0.0
  0
LINE
  5
2D9
  8
0
  6
CONTINUOUS
 62
     7
 10
517.2508323081
 20
147.9209872261
 30
0.0
 11
545.5351035555
 21
164.2491494626
 31
0.0
  0
POLYLINE
  5
2DA
  8
0
  6
CONTINUOUS
 62
     7
 66
     1
 10
0.0
 20
0.0
 30
0.0
 70
   128
  0
VERTEX
  5
662
  8
0
  6
CONTINUOUS
 62
     7
 10
545.5351035555
 20
164.2491494626
 30
0.0
  0
VERTEX
  5
663
  8
0
  6
CONTINUOUS
 62
     7
 10
545.521887619
 20
164.3314025327
 30
0.0
  0
VERTEX
  5
664
  8
0
  6
CONTINUOUS
 62
     7
 10
545.4850317481
 20
164.4158474985
 30
0.0
  0
VERTEX
  5
665
  8
0
  6
CONTINUOUS
 62
     7
 10
545.4301036464
 20
164.4897275176
 30
0.0
  0
VERTEX
  5
666
  8
0
  6
CONTINUOUS
 62
     7
 10
545.3654011342
 20
164.5418817614
 30
0.0
  0
VERTEX
  5
667
  8
0
  6
CONTINUOUS
 62
     7
 10
545.3006986221
 20
164.564431448
 30
0.0
  0
VERTEX
  5
668
  8
0
  6
CONTINUOUS
 62
     7
 10
545.2457705204
 20
164.5539700653
 30
0.0
  0
VERTEX
  5
669
  8
0
  6
CONTINUOUS
 62
     7
 10
545.2454108863
 20
164.5537636935
 30
0.0
  0
SEQEND
  5
71C
  8
0
  6
CONTINUOUS
 62
     7
  0
LINE
  5
2DB
  8
0
  6
CONTINUOUS
 62
     7
 10
545.5464291629
 20
162.1150318879
 30
0.0
 11
545.5351035555
 21
164.2491494626
 31
0.0
  0
LINE
  5
2DC
  8
0
  6
CONTINUOUS
 62
     7
 10
514.9880906083
 20
149.227240205
 30
0.0
 11
543.2723618557
 21
165.5554024415
 31
0.0
  0
POLYLINE
  5
2DD
  8
0
  6
CONTINUOUS
 62
     7
 66
     1
 10
0.0
 20
0.0
 30
0.0
 70
   128
  0
VERTEX
  5
66A
  8
0
  6
CONTINUOUS
 62
     7
 10
543.2723618557
 20
165.5554024415
 30
0.0
  0
VERTEX
  5
66B
  8
0
  6
CONTINUOUS
 62
     7
 10
543.2591459192
 20
165.6376555116
 30
0.0
  0
VERTEX
  5
66C
  8
0
  6
CONTINUOUS
 62
     7
 10
543.2222900483
 20
165.7221004774
 30
0.0
  0
VERTEX
  5
66D
  8
0
  6
CONTINUOUS
 62
     7
 10
543.1673619466
 20
165.7959804965
 30
0.0
  0
VERTEX
  5
66E
  8
0
  6
CONTINUOUS
 62
     7
 10
543.1026594345
 20
165.8481347403
 30
0.0
  0
VERTEX
  5
66F
  8
0
  6
CONTINUOUS
 62
     7
 10
543.0379569223
 20
165.8706844269
 30
0.0
  0
VERTEX
  5
670
  8
0
  6
CONTINUOUS
 62
     7
 10
542.9830288206
 20
165.8602230442
 30
0.0
  0
VERTEX
  5
671
  8
0
  6
CONTINUOUS
 62
     7
 10
542.9826691865
 20
165.8600166724
 30
0.0
  0
SEQEND
  5
71D
  8
0
  6
CONTINUOUS
 62
     7
  0
LINE
  5
2DE
  8
0
  6
CONTINUOUS
 62
     7
 10
543.2836874631
 20
163.4212848668
 30
0.0
 11
543.2723618557
 21
165.5554024415
 31
0.0
  0
LINE
  5
2DF
  8
0
  6
CONTINUOUS
 62
     7
 10
512.7253489085
 20
150.533493184
 30
0.0
 11
541.0096201559
 21
166.8616554204
 31
0.0
  0
POLYLINE
  5
2E0
  8
0
  6
CONTINUOUS
 62
     7
 66
     1
 10
0.0
 20
0.0
 30
0.0
 70
   128
  0
VERTEX
  5
672
  8
0
  6
CONTINUOUS
 62
     7
 10
541.0096201559
 20
166.8616554204
 30
0.0
  0
VERTEX
  5
673
  8
0
  6
CONTINUOUS
 62
     7
 10
540.9964042194
 20
166.9439084905
 30
0.0
  0
VERTEX
  5
674
  8
0
  6
CONTINUOUS
 62
     7
 10
540.9595483485
 20
167.0283534563
 30
0.0
  0
VERTEX
  5
675
  8
0
  6
CONTINUOUS
 62
     7
 10
540.9046202468
 20
167.1022334754
 30
0.0
  0
VERTEX
  5
676
  8
0
  6
CONTINUOUS
 62
     7
 10
540.8399177347
 20
167.1543877192
 30
0.0
  0
VERTEX
  5
677
  8
0
  6
CONTINUOUS
 62
     7
 10
540.7752152225
 20
167.1769374059
 30
0.0
  0
VERTEX
  5
678
  8
0
  6
CONTINUOUS
 62
     7
 10
540.7202871208
 20
167.1664760231
 30
0.0
  0
VERTEX
  5
679
  8
0
  6
CONTINUOUS
 62
     7
 10
540.7199274867
 20
167.1662696514
 30
0.0
  0
SEQEND
  5
71E
  8
0
  6
CONTINUOUS
 62
     7
  0
LINE
  5
2E1
  8
0
  6
CONTINUOUS
 62
     7
 10
541.0209457633
 20
164.7275378457
 30
0.0
 11
541.0096201559
 21
166.8616554204
 31
0.0
  0
LINE
  5
2E2
  8
0
  6
CONTINUOUS
 62
     7
 10
510.4626072087
 20
151.8397461629
 30
0.0
 11
538.7468784561
 21
168.1679083993
 31
0.0
  0
POLYLINE
  5
2E3
  8
0
  6
CONTINUOUS
 62
     7
 66
     1
 10
0.0
 20
0.0
 30
0.0
 70
   128
  0
VERTEX
  5
67A
  8
0
  6
CONTINUOUS
 62
     7
 10
538.7468784561
 20
168.1679083993
 30
0.0
  0
VERTEX
  5
67B
  8
0
  6
CONTINUOUS
 62
     7
 10
538.7336625196
 20
168.2501614694
 30
0.0
  0
VERTEX
  5
67C
  8
0
  6
CONTINUOUS
 62
     7
 10
538.6968066487
 20
168.3346064353
 30
0.0
  0
VERTEX
  5
67D
  8
0
  6
CONTINUOUS
 62
     7
 10
538.641878547
 20
168.4084864543
 30
0.0
  0
VERTEX
  5
67E
  8
0
  6
CONTINUOUS
 62
     7
 10
538.5771760349
 20
168.4606406982
 30
0.0
  0
VERTEX
  5
67F
  8
0
  6
CONTINUOUS
 62
     7
 10
538.5124735227
 20
168.4831903848
 30
0.0
  0
VERTEX
  5
680
  8
0
  6
CONTINUOUS
 62
     7
 10
538.457545421
 20
168.472729002
 30
0.0
  0
VERTEX
  5
681
  8
0
  6
CONTINUOUS
 62
     7
 10
538.4571857869
 20
168.4725226303
 30
0.0
  0
SEQEND
  5
71F
  8
0
  6
CONTINUOUS
 62
     7
  0
LINE
  5
2E4
  8
0
  6
CONTINUOUS
 62
     7
 10
538.7582040635
 20
166.0337908246
 30
0.0
 11
538.7468784561
 21
168.1679083993
 31
0.0
  0
LINE
  5
2E5
  8
0
  6
CONTINUOUS
 62
     7
 10
508.1998655089
 20
153.1459991418
 30
0.0
 11
536.4841367563
 21
169.4741613782
 31
0.0
  0
POLYLINE
  5
2E6
  8
0
  6
CONTINUOUS
 62
     7
 66
     1
 10
0.0
 20
0.0
 30
0.0
 70
   128
  0
VERTEX
  5
682
  8
0
  6
CONTINUOUS
 62
     7
 10
536.4841367563
 20
169.4741613782
 30
0.0
  0
VERTEX
  5
683
  8
0
  6
CONTINUOUS
 62
     7
 10
536.4709208198
 20
169.5564144483
 30
0.0
  0
VERTEX
  5
684
  8
0
  6
CONTINUOUS
 62
     7
 10
536.4340649489
 20
169.6408594142
 30
0.0
  0
VERTEX
  5
685
  8
0
  6
CONTINUOUS
 62
     7
 10
536.3791368473
 20
169.7147394332
 30
0.0
  0
VERTEX
  5
686
  8
0
  6
CONTINUOUS
 62
     7
 10
536.3144343351
 20
169.7668936771
 30
0.0
  0
VERTEX
  5
687
  8
0
  6
CONTINUOUS
 62
     7
 10
536.2497318229
 20
169.7894433637
 30
0.0
  0
VERTEX
  5
688
  8
0
  6
CONTINUOUS
 62
     7
 10
536.1948037212
 20
169.7789819809
 30
0.0
  0
VERTEX
  5
689
  8
0
  6
CONTINUOUS
 62
     7
 10
536.1944440871
 20
169.7787756092
 30
0.0
  0
SEQEND
  5
720
  8
0
  6
CONTINUOUS
 62
     7
  0
LINE
  5
2E7
  8
0
  6
CONTINUOUS
 62
     7
 10
536.4954623637
 20
167.3400438035
 30
0.0
 11
536.4841367563
 21
169.4741613782
 31
0.0
  0
LINE
  5
2E8
  8
0
  6
CONTINUOUS
 62
     7
 10
505.9371238091
 20
154.4522521207
 30
0.0
 11
534.2213950565
 21
170.7804143572
 31
0.0
  0
POLYLINE
  5
2E9
  8
0
  6
CONTINUOUS
 62
     7
 66
     1
 10
0.0
 20
0.0
 30
0.0
 70
   128
  0
VERTEX
  5
68A
  8
0
  6
CONTINUOUS
 62
     7
 10
534.2213950565
 20
170.7804143572
 30
0.0
  0
VERTEX
  5
68B
  8
0
  6
CONTINUOUS
 62
     7
 10
534.20817912
 20
170.8626674272
 30
0.0
  0
VERTEX
  5
68C
  8
0
  6
CONTINUOUS
 62
     7
 10
534.1713232491
 20
170.9471123931
 30
0.0
  0
VERTEX
  5
68D
  8
0
  6
CONTINUOUS
 62
     7
 10
534.1163951475
 20
171.0209924121
 30
0.0
  0
VERTEX
  5
68E
  8
0
  6
CONTINUOUS
 62
     7
 10
534.0516926353
 20
171.073146656
 30
0.0
  0
VERTEX
  5
68F
  8
0
  6
CONTINUOUS
 62
     7
 10
533.9869901231
 20
171.0956963426
 30
0.0
  0
VERTEX
  5
690
  8
0
  6
CONTINUOUS
 62
     7
 10
533.9320620214
 20
171.0852349598
 30
0.0
  0
VERTEX
  5
691
  8
0
  6
CONTINUOUS
 62
     7
 10
533.9317023873
 20
171.0850285881
 30
0.0
  0
SEQEND
  5
721
  8
0
  6
CONTINUOUS
 62
     7
  0
LINE
  5
2EA
  8
0
  6
CONTINUOUS
 62
     7
 10
534.2327206639
 20
168.6462967825
 30
0.0
 11
534.2213950565
 21
170.7804143572
 31
0.0
  0
LINE
  5
2EB
  8
0
  6
CONTINUOUS
 62
     7
 10
503.6743821093
 20
155.7585050996
 30
0.0
 11
531.9586533567
 21
172.0866673361
 31
0.0
  0
POLYLINE
  5
2EC
  8
0
  6
CONTINUOUS
 62
     7
 66
     1
 10
0.0
 20
0.0
 30
0.0
 70
   128
  0
VERTEX
  5
692
  8
0
  6
CONTINUOUS
 62
     7
 10
531.9586533567
 20
172.0866673361
 30
0.0
  0
VERTEX
  5
693
  8
0
  6
CONTINUOUS
 62
     7
 10
531.9454374202
 20
172.1689204062
 30
0.0
  0
VERTEX
  5
694
  8
0
  6
CONTINUOUS
 62
     7
 10
531.9085815493
 20
172.253365372
 30
0.0
  0
VERTEX
  5
695
  8
0
  6
CONTINUOUS
 62
     7
 10
531.8536534477
 20
172.3272453911
 30
0.0
  0
VERTEX
  5
696
  8
0
  6
CONTINUOUS
 62
     7
 10
531.7889509355
 20
172.3793996349
 30
0.0
  0
VERTEX
  5
697
  8
0
  6
CONTINUOUS
 62
     7
 10
531.7242484233
 20
172.4019493215
 30
0.0
  0
VERTEX
  5
698
  8
0
  6
CONTINUOUS
 62
     7
 10
531.6693203216
 20
172.3914879388
 30
0.0
  0
VERTEX
  5
699
  8
0
  6
CONTINUOUS
 62
     7
 10
531.6689606876
 20
172.391281567
 30
0.0
  0
SEQEND
  5
722
  8
0
  6
CONTINUOUS
 62
     7
  0
LINE
  5
2ED
  8
0
  6
CONTINUOUS
 62
     7
 10
531.9699789641
 20
169.9525497614
 30
0.0
 11
531.9586533567
 21
172.0866673361
 31
0.0
  0
LINE
  5
2EE
  8
0
  6
CONTINUOUS
 62
     7
 10
501.4116404095
 20
157.0647580785
 30
0.0
 11
529.695911657
 21
173.392920315
 31
0.0
  0
POLYLINE
  5
2EF
  8
0
  6
CONTINUOUS
 62
     7
 66
     1
 10
0.0
 20
0.0
 30
0.0
 70
   128
  0
VERTEX
  5
69A
  8
0
  6
CONTINUOUS
 62
     7
 10
529.695911657
 20
173.392920315
 30
0.0
  0
VERTEX
  5
69B
  8
0
  6
CONTINUOUS
 62
     7
 10
529.6826957204
 20
173.4751733851
 30
0.0
  0
VERTEX
  5
69C
  8
0
  6
CONTINUOUS
 62
     7
 10
529.6458398495
 20
173.5596183509
 30
0.0
  0
VERTEX
  5
69D
  8
0
  6
CONTINUOUS
 62
     7
 10
529.5909117479
 20
173.63349837
 30
0.0
  0
VERTEX
  5
69E
  8
0
  6
CONTINUOUS
 62
     7
 10
529.5262092357
 20
173.6856526138
 30
0.0
  0
VERTEX
  5
69F
  8
0
  6
CONTINUOUS
 62
     7
 10
529.4615067235
 20
173.7082023004
 30
0.0
  0
VERTEX
  5
6A0
  8
0
  6
CONTINUOUS
 62
     7
 10
529.4065786218
 20
173.6977409177
 30
0.0
  0
VERTEX
  5
6A1
  8
0
  6
CONTINUOUS
 62
     7
 10
529.4062189878
 20
173.6975345459
 30
0.0
  0
SEQEND
  5
723
  8
0
  6
CONTINUOUS
 62
     7
  0
LINE
  5
2F0
  8
0
  6
CONTINUOUS
 62
     7
 10
529.7072372643
 20
171.2588027403
 30
0.0
 11
529.695911657
 21
173.392920315
 31
0.0
  0
LINE
  5
2F1
  8
0
  6
CONTINUOUS
 62
     7
 10
499.1488987097
 20
158.3710110575
 30
0.0
 11
527.4331699572
 21
174.6991732939
 31
0.0
  0
POLYLINE
  5
2F2
  8
0
  6
CONTINUOUS
 62
     7
 66
     1
 10
0.0
 20
0.0
 30
0.0
 70
   128
  0
VERTEX
  5
6A2
  8
0
  6
CONTINUOUS
 62
     7
 10
527.4331699572
 20
174.6991732939
 30
0.0
  0
VERTEX
  5
6A3
  8
0
  6
CONTINUOUS
 62
     7
 10
527.4199540206
 20
174.781426364
 30
0.0
  0
VERTEX
  5
6A4
  8
0
  6
CONTINUOUS
 62
     7
 10
527.3830981497
 20
174.8658713298
 30
0.0
  0
VERTEX
  5
6A5
  8
0
  6
CONTINUOUS
 62
     7
 10
527.3281700481
 20
174.9397513489
 30
0.0
  0
VERTEX
  5
6A6
  8
0
  6
CONTINUOUS
 62
     7
 10
527.2634675359
 20
174.9919055927
 30
0.0
  0
VERTEX
  5
6A7
  8
0
  6
CONTINUOUS
 62
     7
 10
527.1987650237
 20
175.0144552794
 30
0.0
  0
VERTEX
  5
6A8
  8
0
  6
CONTINUOUS
 62
     7
 10
527.143836922
 20
175.0039938966
 30
0.0
  0
VERTEX
  5
6A9
  8
0
  6
CONTINUOUS
 62
     7
 10
527.143477288
 20
175.0037875249
 30
0.0
  0
SEQEND
  5
724
  8
0
  6
CONTINUOUS
 62
     7
  0
LINE
  5
2F3
  8
0
  6
CONTINUOUS
 62
     7
 10
527.4444955645
 20
172.5650557192
 30
0.0
 11
527.4331699572
 21
174.6991732939
 31
0.0
  0
LINE
  5
2F4
  8
0
  6
CONTINUOUS
 62
     7
 10
496.8861570099
 20
159.6772640364
 30
0.0
 11
525.1704282574
 21
176.0054262728
 31
0.0
  0
POLYLINE
  5
2F5
  8
0
  6
CONTINUOUS
 62
     7
 66
     1
 10
0.0
 20
0.0
 30
0.0
 70
   128
  0
VERTEX
  5
6AA
  8
0
  6
CONTINUOUS
 62
     7
 10
525.1704282574
 20
176.0054262728
 30
0.0
  0
VERTEX
  5
6AB
  8
0
  6
CONTINUOUS
 62
     7
 10
525.1572123208
 20
176.0876793429
 30
0.0
  0
VERTEX
  5
6AC
  8
0
  6
CONTINUOUS
 62
     7
 10
525.1203564499
 20
176.1721243088
 30
0.0
  0
VERTEX
  5
6AD
  8
0
  6
CONTINUOUS
 62
     7
 10
525.0654283483
 20
176.2460043278
 30
0.0
  0
VERTEX
  5
6AE
  8
0
  6
CONTINUOUS
 62
     7
 10
525.0007258361
 20
176.2981585717
 30
0.0
  0
VERTEX
  5
6AF
  8
0
  6
CONTINUOUS
 62
     7
 10
524.9360233239
 20
176.3207082583
 30
0.0
  0
VERTEX
  5
6B0
  8
0
  6
CONTINUOUS
 62
     7
 10
524.8810952222
 20
176.3102468755
 30
0.0
  0
VERTEX
  5
6B1
  8
0
  6
CONTINUOUS
 62
     7
 10
524.8807355882
 20
176.3100405038
 30
0.0
  0
SEQEND
  5
725
  8
0
  6
CONTINUOUS
 62
     7
  0
LINE
  5
2F6
  8
0
  6
CONTINUOUS
 62
     7
 10
525.1817538647
 20
173.8713086981
 30
0.0
 11
525.1704282574
 21
176.0054262728
 31
0.0
  0
LINE
  5
2F7
  8
0
  6
CONTINUOUS
 62
     7
 10
494.6234153101
 20
160.9835170153
 30
0.0
 11
522.9076865576
 21
177.3116792517
 31
0.0
  0
POLYLINE
  5
2F8
  8
0
  6
CONTINUOUS
 62
     7
 66
     1
 10
0.0
 20
0.0
 30
0.0
 70
   128
  0
VERTEX
  5
6B2
  8
0
  6
CONTINUOUS
 62
     7
 10
522.9076865576
 20
177.3116792517
 30
0.0
  0
VERTEX
  5
6B3
  8
0
  6
CONTINUOUS
 62
     7
 10
522.894470621
 20
177.3939323218
 30
0.0
  0
VERTEX
  5
6B4
  8
0
  6
CONTINUOUS
 62
     7
 10
522.8576147501
 20
177.4783772877
 30
0.0
  0
VERTEX
  5
6B5
  8
0
  6
CONTINUOUS
 62
     7
 10
522.8026866485
 20
177.5522573067
 30
0.0
  0
VERTEX
  5
6B6
  8
0
  6
CONTINUOUS
 62
     7
 10
522.7379841363
 20
177.6044115506
 30
0.0
  0
VERTEX
  5
6B7
  8
0
  6
CONTINUOUS
 62
     7
 10
522.6732816241
 20
177.6269612372
 30
0.0
  0
VERTEX
  5
6B8
  8
0
  6
CONTINUOUS
 62
     7
 10
522.6183535224
 20
177.6164998544
 30
0.0
  0
VERTEX
  5
6B9
  8
0
  6
CONTINUOUS
 62
     7
 10
522.6179938884
 20
177.6162934827
 30
0.0
  0
SEQEND
  5
726
  8
0
  6
CONTINUOUS
 62
     7
  0
LINE
  5
2F9
  8
0
  6
CONTINUOUS
 62
     7
 10
522.9190121649
 20
175.177561677
 30
0.0
 11
522.9076865576
 21
177.3116792517
 31
0.0
  0
LINE
  5
2FA
  8
0
  6
CONTINUOUS
 62
     7
 10
492.3606736103
 20
162.2897699942
 30
0.0
 11
520.6449448578
 21
178.6179322307
 31
0.0
  0
POLYLINE
  5
2FB
  8
0
  6
CONTINUOUS
 62
     7
 66
     1
 10
0.0
 20
0.0
 30
0.0
 70
   128
  0
VERTEX
  5
6BA
  8
0
  6
CONTINUOUS
 62
     7
 10
520.6449448578
 20
178.6179322307
 30
0.0
  0
VERTEX
  5
6BB
  8
0
  6
CONTINUOUS
 62
     7
 10
520.6317289213
 20
178.7001853007
 30
0.0
  0
VERTEX
  5
6BC
  8
0
  6
CONTINUOUS
 62
     7
 10
520.5948730503
 20
178.7846302666
 30
0.0
  0
VERTEX
  5
6BD
  8
0
  6
CONTINUOUS
 62
     7
 10
520.5399449487
 20
178.8585102856
 30
0.0
  0
VERTEX
  5
6BE
  8
0
  6
CONTINUOUS
 62
     7
 10
520.4752424365
 20
178.9106645295
 30
0.0
  0
VERTEX
  5
6BF
  8
0
  6
CONTINUOUS
 62
     7
 10
520.4105399243
 20
178.9332142161
 30
0.0
  0
VERTEX
  5
6C0
  8
0
  6
CONTINUOUS
 62
     7
 10
520.3556118226
 20
178.9227528333
 30
0.0
  0
VERTEX
  5
6C1
  8
0
  6
CONTINUOUS
 62
     7
 10
520.3552521886
 20
178.9225464616
 30
0.0
  0
SEQEND
  5
727
  8
0
  6
CONTINUOUS
 62
     7
  0
LINE
  5
2FC
  8
0
  6
CONTINUOUS
 62
     7
 10
520.6562704651
 20
176.483814656
 30
0.0
 11
520.6449448578
 21
178.6179322307
 31
0.0
  0
LINE
  5
2FD
  8
0
  6
CONTINUOUS
 62
     7
 10
490.0979319105
 20
163.5960229731
 30
0.0
 11
518.382203158
 21
179.9241852096
 31
0.0
  0
POLYLINE
  5
2FE
  8
0
  6
CONTINUOUS
 62
     7
 66
     1
 10
0.0
 20
0.0
 30
0.0
 70
   128
  0
VERTEX
  5
6C2
  8
0
  6
CONTINUOUS
 62
     7
 10
518.382203158
 20
179.9241852096
 30
0.0
  0
VERTEX
  5
6C3
  8
0
  6
CONTINUOUS
 62
     7
 10
518.3689872215
 20
180.0064382797
 30
0.0
  0
VERTEX
  5
6C4
  8
0
  6
CONTINUOUS
 62
     7
 10
518.3321313505
 20
180.0908832455
 30
0.0
  0
VERTEX
  5
6C5
  8
0
  6
CONTINUOUS
 62
     7
 10
518.2772032489
 20
180.1647632646
 30
0.0
  0
VERTEX
  5
6C6
  8
0
  6
CONTINUOUS
 62
     7
 10
518.2125007367
 20
180.2169175084
 30
0.0
  0
VERTEX
  5
6C7
  8
0
  6
CONTINUOUS
 62
     7
 10
518.1477982245
 20
180.239467195
 30
0.0
  0
VERTEX
  5
6C8
  8
0
  6
CONTINUOUS
 62
     7
 10
518.0928701228
 20
180.2290058123
 30
0.0
  0
VERTEX
  5
6C9
  8
0
  6
CONTINUOUS
 62
     7
 10
518.0925104888
 20
180.2287994405
 30
0.0
  0
SEQEND
  5
728
  8
0
  6
CONTINUOUS
 62
     7
  0
LINE
  5
2FF
  8
0
  6
CONTINUOUS
 62
     7
 10
518.3935287653
 20
177.7900676349
 30
0.0
 11
518.382203158
 21
179.9241852096
 31
0.0
  0
LINE
  5
300
  8
0
  6
CONTINUOUS
 62
     7
 10
487.8351902107
 20
164.902275952
 30
0.0
 11
516.1194614582
 21
181.2304381885
 31
0.0
  0
POLYLINE
  5
301
  8
0
  6
CONTINUOUS
 62
     7
 66
     1
 10
0.0
 20
0.0
 30
0.0
 70
   128
  0
VERTEX
  5
6CA
  8
0
  6
CONTINUOUS
 62
     7
 10
516.1194614582
 20
181.2304381885
 30
0.0
  0
VERTEX
  5
6CB
  8
0
  6
CONTINUOUS
 62
     7
 10
516.1062455217
 20
181.3126912586
 30
0.0
  0
VERTEX
  5
6CC
  8
0
  6
CONTINUOUS
 62
     7
 10
516.0693896507
 20
181.3971362244
 30
0.0
  0
VERTEX
  5
6CD
  8
0
  6
CONTINUOUS
 62
     7
 10
516.0144615491
 20
181.4710162435
 30
0.0
  0
VERTEX
  5
6CE
  8
0
  6
CONTINUOUS
 62
     7
 10
515.9497590369
 20
181.5231704873
 30
0.0
  0
VERTEX
  5
6CF
  8
0
  6
CONTINUOUS
 62
     7
 10
515.8850565247
 20
181.5457201739
 30
0.0
  0
VERTEX
  5
6D0
  8
0
  6
CONTINUOUS
 62
     7
 10
515.830128423
 20
181.5352587912
 30
0.0
  0
VERTEX
  5
6D1
  8
0
  6
CONTINUOUS
 62
     7
 10
515.829768789
 20
181.5350524194
 30
0.0
  0
SEQEND
  5
729
  8
0
  6
CONTINUOUS
 62
     7
  0
LINE
  5
302
  8
0
  6
CONTINUOUS
 62
     7
 10
516.1307870655
 20
179.0963206138
 30
0.0
 11
516.1194614582
 21
181.2304381885
 31
0.0
  0
LINE
  5
303
  8
0
  6
CONTINUOUS
 62
     7
 10
485.5724485109
 20
166.208528931
 30
0.0
 11
513.8567197584
 21
182.5366911674
 31
0.0
  0
POLYLINE
  5
304
  8
0
  6
CONTINUOUS
 62
     7
 66
     1
 10
0.0
 20
0.0
 30
0.0
 70
   128
  0
VERTEX
  5
6D2
  8
0
  6
CONTINUOUS
 62
     7
 10
513.8567197584
 20
182.5366911674
 30
0.0
  0
VERTEX
  5
6D3
  8
0
  6
CONTINUOUS
 62
     7
 10
513.8435038219
 20
182.6189442375
 30
0.0
  0
VERTEX
  5
6D4
  8
0
  6
CONTINUOUS
 62
     7
 10
513.806647951
 20
182.7033892033
 30
0.0
  0
VERTEX
  5
6D5
  8
0
  6
CONTINUOUS
 62
     7
 10
513.7517198493
 20
182.7772692224
 30
0.0
  0
VERTEX
  5
6D6
  8
0
  6
CONTINUOUS
 62
     7
 10
513.6870173371
 20
182.8294234662
 30
0.0
  0
VERTEX
  5
6D7
  8
0
  6
CONTINUOUS
 62
     7
 10
513.6223148249
 20
182.8519731529
 30
0.0
  0
VERTEX
  5
6D8
  8
0
  6
CONTINUOUS
 62
     7
 10
513.5673867232
 20
182.8415117701
 30
0.0
  0
VERTEX
  5
6D9
  8
0
  6
CONTINUOUS
 62
     7
 10
513.5670270892
 20
182.8413053984
 30
0.0
  0
SEQEND
  5
72A
  8
0
  6
CONTINUOUS
 62
     7
  0
LINE
  5
305
  8
0
  6
CONTINUOUS
 62
     7
 10
513.8680453657
 20
180.4025735927
 30
0.0
 11
513.8567197584
 21
182.5366911674
 31
0.0
  0
LINE
  5
306
  8
0
  6
CONTINUOUS
 62
     7
 10
483.3097068111
 20
167.5147819099
 30
0.0
 11
511.5939780586
 21
183.8429441463
 31
0.0
  0
POLYLINE
  5
307
  8
0
  6
CONTINUOUS
 62
     7
 66
     1
 10
0.0
 20
0.0
 30
0.0
 70
   128
  0
VERTEX
  5
6DA
  8
0
  6
CONTINUOUS
 62
     7
 10
511.5939780586
 20
183.8429441463
 30
0.0
  0
VERTEX
  5
6DB
  8
0
  6
CONTINUOUS
 62
     7
 10
511.5807621221
 20
183.9251972164
 30
0.0
  0
VERTEX
  5
6DC
  8
0
  6
CONTINUOUS
 62
     7
 10
511.5439062512
 20
184.0096421823
 30
0.0
  0
VERTEX
  5
6DD
  8
0
  6
CONTINUOUS
 62
     7
 10
511.4889781495
 20
184.0835222013
 30
0.0
  0
VERTEX
  5
6DE
  8
0
  6
CONTINUOUS
 62
     7
 10
511.4242756373
 20
184.1356764452
 30
0.0
  0
VERTEX
  5
6DF
  8
0
  6
CONTINUOUS
 62
     7
 10
511.3595731251
 20
184.1582261318
 30
0.0
  0
VERTEX
  5
6E0
  8
0
  6
CONTINUOUS
 62
     7
 10
511.3046450234
 20
184.147764749
 30
0.0
  0
VERTEX
  5
6E1
  8
0
  6
CONTINUOUS
 62
     7
 10
511.3042853894
 20
184.1475583773
 30
0.0
  0
SEQEND
  5
72B
  8
0
  6
CONTINUOUS
 62
     7
  0
LINE
  5
308
  8
0
  6
CONTINUOUS
 62
     7
 10
511.6053036659
 20
181.7088265716
 30
0.0
 11
511.5939780586
 21
183.8429441463
 31
0.0
  0
LINE
  5
309
  8
0
  6
CONTINUOUS
 62
     7
 10
481.0469651113
 20
168.8210348888
 30
0.0
 11
509.3312363588
 21
185.1491971252
 31
0.0
  0
POLYLINE
  5
30A
  8
0
  6
CONTINUOUS
 62
     7
 66
     1
 10
0.0
 20
0.0
 30
0.0
 70
   128
  0
VERTEX
  5
6E2
  8
0
  6
CONTINUOUS
 62
     7
 10
509.3312363588
 20
185.1491971252
 30
0.0
  0
VERTEX
  5
6E3
  8
0
  6
CONTINUOUS
 62
     7
 10
509.3180204223
 20
185.2314501953
 30
0.0
  0
VERTEX
  5
6E4
  8
0
  6
CONTINUOUS
 62
     7
 10
509.2811645514
 20
185.3158951612
 30
0.0
  0
VERTEX
  5
6E5
  8
0
  6
CONTINUOUS
 62
     7
 10
509.2262364497
 20
185.3897751802
 30
0.0
  0
VERTEX
  5
6E6
  8
0
  6
CONTINUOUS
 62
     7
 10
509.1615339375
 20
185.4419294241
 30
0.0
  0
VERTEX
  5
6E7
  8
0
  6
CONTINUOUS
 62
     7
 10
509.0968314253
 20
185.4644791107
 30
0.0
  0
VERTEX
  5
6E8
  8
0
  6
CONTINUOUS
 62
     7
 10
509.0419033236
 20
185.4540177279
 30
0.0
  0
VERTEX
  5
6E9
  8
0
  6
CONTINUOUS
 62
     7
 10
509.0415436896
 20
185.4538113562
 30
0.0
  0
SEQEND
  5
72C
  8
0
  6
CONTINUOUS
 62
     7
  0
LINE
  5
30B
  8
0
  6
CONTINUOUS
 62
     7
 10
509.3425619661
 20
183.0150795505
 30
0.0
 11
509.3312363588
 21
185.1491971252
 31
0.0
  0
LINE
  5
30C
  8
0
  6
CONTINUOUS
 62
     7
 10
478.7842234115
 20
170.1272878677
 30
0.0
 11
507.068494659
 21
186.4554501042
 31
0.0
  0
POLYLINE
  5
30D
  8
0
  6
CONTINUOUS
 62
     7
 66
     1
 10
0.0
 20
0.0
 30
0.0
 70
   128
  0
VERTEX
  5
6EA
  8
0
  6
CONTINUOUS
 62
     7
 10
507.068494659
 20
186.4554501042
 30
0.0
  0
VERTEX
  5
6EB
  8
0
  6
CONTINUOUS
 62
     7
 10
507.0552787225
 20
186.5377031742
 30
0.0
  0
VERTEX
  5
6EC
  8
0
  6
CONTINUOUS
 62
     7
 10
507.0184228516
 20
186.6221481401
 30
0.0
  0
VERTEX
  5
6ED
  8
0
  6
CONTINUOUS
 62
     7
 10
506.9634947499
 20
186.6960281591
 30
0.0
  0
VERTEX
  5
6EE
  8
0
  6
CONTINUOUS
 62
     7
 10
506.8987922377
 20
186.748182403
 30
0.0
  0
VERTEX
  5
6EF
  8
0
  6
CONTINUOUS
 62
     7
 10
506.8340897255
 20
186.7707320896
 30
0.0
  0
VERTEX
  5
6F0
  8
0
  6
CONTINUOUS
 62
     7
 10
506.7791616238
 20
186.7602707068
 30
0.0
  0
VERTEX
  5
6F1
  8
0
  6
CONTINUOUS
 62
     7
 10
506.7788019898
 20
186.7600643351
 30
0.0
  0
SEQEND
  5
72D
  8
0
  6
CONTINUOUS
 62
     7
  0
LINE
  5
30E
  8
0
  6
CONTINUOUS
 62
     7
 10
507.0798202664
 20
184.3213325294
 30
0.0
 11
507.068494659
 21
186.4554501042
 31
0.0
  0
LINE
  5
30F
  8
0
  6
CONTINUOUS
 62
     7
 10
476.5214817117
 20
171.4335408466
 30
0.0
 11
504.8057529592
 21
187.7617030831
 31
0.0
  0
POLYLINE
  5
310
  8
0
  6
CONTINUOUS
 62
     7
 66
     1
 10
0.0
 20
0.0
 30
0.0
 70
   128
  0
VERTEX
  5
6F2
  8
0
  6
CONTINUOUS
 62
     7
 10
504.8057529592
 20
187.7617030831
 30
0.0
  0
VERTEX
  5
6F3
  8
0
  6
CONTINUOUS
 62
     7
 10
504.7925370227
 20
187.8439561532
 30
0.0
  0
VERTEX
  5
6F4
  8
0
  6
CONTINUOUS
 62
     7
 10
504.7556811518
 20
187.928401119
 30
0.0
  0
VERTEX
  5
6F5
  8
0
  6
CONTINUOUS
 62
     7
 10
504.7007530501
 20
188.0022811381
 30
0.0
  0
VERTEX
  5
6F6
  8
0
  6
CONTINUOUS
 62
     7
 10
504.6360505379
 20
188.0544353819
 30
0.0
  0
VERTEX
  5
6F7
  8
0
  6
CONTINUOUS
 62
     7
 10
504.5713480257
 20
188.0769850685
 30
0.0
  0
VERTEX
  5
6F8
  8
0
  6
CONTINUOUS
 62
     7
 10
504.516419924
 20
188.0665236857
 30
0.0
  0
VERTEX
  5
6F9
  8
0
  6
CONTINUOUS
 62
     7
 10
504.51606029
 20
188.066317314
 30
0.0
  0
SEQEND
  5
72E
  8
0
  6
CONTINUOUS
 62
     7
  0
LINE
  5
311
  8
0
  6
CONTINUOUS
 62
     7
 10
504.8170785666
 20
185.6275855084
 30
0.0
 11
504.8057529592
 21
187.7617030831
 31
0.0
  0
LINE
  5
312
  8
0
  6
CONTINUOUS
 62
     7
 10
472.1815825934
 20
165.9682683368
 30
0.0
 11
476.1641242655
 21
168.2673407069
 31
0.0
  0
LINE
  5
313
  8
0
  6
CONTINUOUS
 62
     8
 10
530.9404281417
 20
132.3721174526
 30
0.0
 11
532.7937523837
 21
133.442018764
 31
0.0
  0
LINE
  5
314
  8
0
  6
CONTINUOUS
 62
     8
 10
528.6776864419
 20
133.6783704315
 30
0.0
 11
530.5310106839
 21
134.7482717429
 31
0.0
  0
LINE
  5
315
  8
0
  6
CONTINUOUS
 62
     8
 10
526.342500752
 20
135.0264444357
 30
0.0
 11
528.2687169839
 21
136.1384253972
 31
0.0
  0
LINE
  5
316
  8
0
  6
CONTINUOUS
 62
     8
 10
532.4995243406
 20
131.1474617478
 30
0.0
 11
532.7823721456
 21
131.31074631
 31
0.0
  0
LINE
  5
317
  8
0
  6
CONTINUOUS
 62
     8
 10
531.2232655105
 20
131.8842302879
 30
0.0
 11
532.7902646391
 21
132.7888396296
 31
0.0
  0
LINE
  5
318
  8
0
  6
CONTINUOUS
 62
     8
 10
524.0797590522
 20
136.3326974146
 30
0.0
 11
525.9330832942
 21
137.402598726
 31
0.0
  0
LINE
  5
319
  8
0
  6
CONTINUOUS
 62
     8
 10
530.2367826408
 20
132.4537147267
 30
0.0
 11
530.5196304458
 21
132.6169992889
 31
0.0
  0
LINE
  5
31A
  8
0
  6
CONTINUOUS
 62
     8
 10
528.9605238107
 20
133.1904832668
 30
0.0
 11
530.5275229393
 21
134.0950926085
 31
0.0
  0
LINE
  5
31B
  8
0
  6
CONTINUOUS
 62
     8
 10
521.8170173524
 20
137.6389503936
 30
0.0
 11
523.6703415944
 21
138.7088517049
 31
0.0
  0
LINE
  5
31C
  8
0
  6
CONTINUOUS
 62
     8
 10
526.6253381208
 20
134.538557271
 30
0.0
 11
528.2652292393
 21
135.4852462629
 31
0.0
  0
LINE
  5
31D
  8
0
  6
CONTINUOUS
 62
     8
 10
519.5542756526
 20
138.9452033725
 30
0.0
 11
521.4075998946
 21
140.0151046839
 31
0.0
  0
LINE
  5
31E
  8
0
  6
CONTINUOUS
 62
     8
 10
525.6388552511
 20
135.1080417099
 30
0.0
 11
525.9217030561
 21
135.2713262721
 31
0.0
  0
LINE
  5
31F
  8
0
  6
CONTINUOUS
 62
     8
 10
524.362596421
 20
135.8448102499
 30
0.0
 11
525.9295955496
 21
136.7494195917
 31
0.0
  0
LINE
  5
320
  8
0
  6
CONTINUOUS
 62
     8
 10
517.2915339528
 20
140.2514563514
 30
0.0
 11
519.1448581948
 21
141.3213576628
 31
0.0
  0
LINE
  5
321
  8
0
  6
CONTINUOUS
 62
     8
 10
523.3761135513
 20
136.4142946888
 30
0.0
 11
523.6589613563
 21
136.577579251
 31
0.0
  0
LINE
  5
322
  8
0
  6
CONTINUOUS
 62
     8
 10
522.0998547212
 20
137.1510632288
 30
0.0
 11
523.6668538498
 21
138.0556725706
 31
0.0
  0
LINE
  5
323
  8
0
  6
CONTINUOUS
 62
     8
 10
515.028792253
 20
141.5577093303
 30
0.0
 11
516.882116495
 21
142.6276106417
 31
0.0
  0
LINE
  5
324
  8
0
  6
CONTINUOUS
 62
     8
 10
521.1133718515
 20
137.7205476677
 30
0.0
 11
521.3962196565
 21
137.8838322299
 31
0.0
  0
LINE
  5
325
  8
0
  6
CONTINUOUS
 62
     8
 10
519.8371130214
 20
138.4573162078
 30
0.0
 11
521.40411215
 21
139.3619255495
 31
0.0
  0
LINE
  5
326
  8
0
  6
CONTINUOUS
 62
     8
 10
512.7660505532
 20
142.8639623092
 30
0.0
 11
514.6193747952
 21
143.9338636206
 31
0.0
  0
LINE
  5
327
  8
0
  6
CONTINUOUS
 62
     8
 10
518.8506301517
 20
139.0268006466
 30
0.0
 11
519.1334779567
 21
139.1900852088
 31
0.0
  0
LINE
  5
328
  8
0
  6
CONTINUOUS
 62
     8
 10
517.5743713216
 20
139.7635691867
 30
0.0
 11
519.1413704502
 21
140.6681785284
 31
0.0
  0
LINE
  5
329
  8
0
  6
CONTINUOUS
 62
     8
 10
510.5033088534
 20
144.1702152881
 30
0.0
 11
512.3566330954
 21
145.2401165995
 31
0.0
  0
LINE
  5
32A
  8
0
  6
CONTINUOUS
 62
     8
 10
516.5878884519
 20
140.3330536255
 30
0.0
 11
516.8707362569
 21
140.4963381877
 31
0.0
  0
LINE
  5
32B
  8
0
  6
CONTINUOUS
 62
     8
 10
515.3116296218
 20
141.0698221656
 30
0.0
 11
516.8786287504
 21
141.9744315073
 31
0.0
  0
LINE
  5
32C
  8
0
  6
CONTINUOUS
 62
     8
 10
508.2405671536
 20
145.476468267
 30
0.0
 11
510.0938913956
 21
146.5463695784
 31
0.0
  0
LINE
  5
32D
  8
0
  6
CONTINUOUS
 62
     8
 10
514.3251467521
 20
141.6393066044
 30
0.0
 11
514.6079945571
 21
141.8025911667
 31
0.0
  0
LINE
  5
32E
  8
0
  6
CONTINUOUS
 62
     8
 10
513.048887922
 20
142.3760751445
 30
0.0
 11
514.6158870506
 21
143.2806844863
 31
0.0
  0
LINE
  5
32F
  8
0
  6
CONTINUOUS
 62
     8
 10
505.9778254538
 20
146.782721246
 30
0.0
 11
507.8311496958
 21
147.8526225574
 31
0.0
  0
LINE
  5
330
  8
0
  6
CONTINUOUS
 62
     8
 10
512.0624050524
 20
142.9455595834
 30
0.0
 11
512.3452528573
 21
143.1088441456
 31
0.0
  0
LINE
  5
331
  8
0
  6
CONTINUOUS
 62
     8
 10
510.7861462222
 20
143.6823281234
 30
0.0
 11
512.3531453508
 21
144.5869374652
 31
0.0
  0
LINE
  5
332
  8
0
  6
CONTINUOUS
 62
     8
 10
503.715083754
 20
148.0889742249
 30
0.0
 11
505.568407996
 21
149.1588755363
 31
0.0
  0
LINE
  5
333
  8
0
  6
CONTINUOUS
 62
     8
 10
509.7996633526
 20
144.2518125623
 30
0.0
 11
510.0825111575
 21
144.4150971245
 31
0.0
  0
LINE
  5
334
  8
0
  6
CONTINUOUS
 62
     8
 10
508.5234045224
 20
144.9885811023
 30
0.0
 11
510.090403651
 21
145.8931904441
 31
0.0
  0
LINE
  5
335
  8
0
  6
CONTINUOUS
 62
     8
 10
501.4523420543
 20
149.3952272038
 30
0.0
 11
503.3056662962
 21
150.4651285152
 31
0.0
  0
LINE
  5
336
  8
0
  6
CONTINUOUS
 62
     8
 10
507.5369216528
 20
145.5580655412
 30
0.0
 11
507.8197694577
 21
145.7213501034
 31
0.0
  0
LINE
  5
337
  8
0
  6
CONTINUOUS
 62
     8
 10
506.2606628226
 20
146.2948340813
 30
0.0
 11
507.8276619512
 21
147.199443423
 31
0.0
  0
LINE
  5
338
  8
0
  6
CONTINUOUS
 62
     8
 10
499.1896003545
 20
150.7014801827
 30
0.0
 11
501.0429245964
 21
151.7713814941
 31
0.0
  0
LINE
  5
339
  8
0
  6
CONTINUOUS
 62
     8
 10
505.274179953
 20
146.8643185201
 30
0.0
 11
505.557027758
 21
147.0276030823
 31
0.0
  0
LINE
  5
33A
  8
0
  6
CONTINUOUS
 62
     8
 10
503.9979211228
 20
147.6010870602
 30
0.0
 11
505.5649202514
 21
148.5056964019
 31
0.0
  0
LINE
  5
33B
  8
0
  6
CONTINUOUS
 62
     8
 10
496.9268586547
 20
152.0077331616
 30
0.0
 11
498.7801828966
 21
153.077634473
 31
0.0
  0
LINE
  5
33C
  8
0
  6
CONTINUOUS
 62
     8
 10
503.0114382532
 20
148.170571499
 30
0.0
 11
503.2942860582
 21
148.3338560612
 31
0.0
  0
LINE
  5
33D
  8
0
  6
CONTINUOUS
 62
     8
 10
501.7351794231
 20
148.9073400391
 30
0.0
 11
503.3021785516
 21
149.8119493808
 31
0.0
  0
LINE
  5
33E
  8
0
  6
CONTINUOUS
 62
     8
 10
494.6641169549
 20
153.3139861405
 30
0.0
 11
496.5174411968
 21
154.3838874519
 31
0.0
  0
LINE
  5
33F
  8
0
  6
CONTINUOUS
 62
     8
 10
500.7486965534
 20
149.4768244779
 30
0.0
 11
501.0315443584
 21
149.6401090401
 31
0.0
  0
LINE
  5
340
  8
0
  6
CONTINUOUS
 62
     8
 10
499.4724377233
 20
150.213593018
 30
0.0
 11
501.0394368518
 21
151.1182023598
 31
0.0
  0
LINE
  5
341
  8
0
  6
CONTINUOUS
 62
     8
 10
492.4013752551
 20
154.6202391195
 30
0.0
 11
494.254699497
 21
155.6901404309
 31
0.0
  0
LINE
  5
342
  8
0
  6
CONTINUOUS
 62
     8
 10
498.4859548536
 20
150.7830774569
 30
0.0
 11
498.7688026586
 21
150.9463620191
 31
0.0
  0
LINE
  5
343
  8
0
  6
CONTINUOUS
 62
     8
 10
497.2096960235
 20
151.5198459969
 30
0.0
 11
498.776695152
 21
152.4244553387
 31
0.0
  0
LINE
  5
344
  8
0
  6
CONTINUOUS
 62
     8
 10
490.1386335553
 20
155.9264920984
 30
0.0
 11
491.9919577972
 21
156.9963934098
 31
0.0
  0
LINE
  5
345
  8
0
  6
CONTINUOUS
 62
     8
 10
496.2232131538
 20
152.0893304358
 30
0.0
 11
496.5060609588
 21
152.252614998
 31
0.0
  0
LINE
  5
346
  8
0
  6
CONTINUOUS
 62
     8
 10
494.9469543237
 20
152.8260989758
 30
0.0
 11
496.5139534522
 21
153.7307083176
 31
0.0
  0
LINE
  5
347
  8
0
  6
CONTINUOUS
 62
     8
 10
487.8758918555
 20
157.2327450773
 30
0.0
 11
489.7292160974
 21
158.3026463887
 31
0.0
  0
LINE
  5
348
  8
0
  6
CONTINUOUS
 62
     8
 10
493.960471454
 20
153.3955834147
 30
0.0
 11
494.243319259
 21
153.5588679769
 31
0.0
  0
LINE
  5
349
  8
0
  6
CONTINUOUS
 62
     8
 10
492.6842126239
 20
154.1323519548
 30
0.0
 11
494.2512117524
 21
155.0369612965
 31
0.0
  0
LINE
  5
34A
  8
0
  6
CONTINUOUS
 62
     8
 10
485.6131501557
 20
158.5389980562
 30
0.0
 11
487.4664743976
 21
159.6088993676
 31
0.0
  0
LINE
  5
34B
  8
0
  6
CONTINUOUS
 62
     8
 10
491.6977297542
 20
154.7018363936
 30
0.0
 11
491.9805775592
 21
154.8651209558
 31
0.0
  0
LINE
  5
34C
  8
0
  6
CONTINUOUS
 62
     8
 10
490.4214709241
 20
155.4386049337
 30
0.0
 11
491.9884700526
 21
156.3432142754
 31
0.0
  0
LINE
  5
34D
  8
0
  6
CONTINUOUS
 62
     8
 10
483.3504084559
 20
159.8452510351
 30
0.0
 11
485.2037326978
 21
160.9151523465
 31
0.0
  0
LINE
  5
34E
  8
0
  6
CONTINUOUS
 62
     8
 10
489.4349880544
 20
156.0080893725
 30
0.0
 11
489.7178358594
 21
156.1713739347
 31
0.0
  0
LINE
  5
34F
  8
0
  6
CONTINUOUS
 62
     8
 10
488.1587292243
 20
156.7448579126
 30
0.0
 11
489.7257283528
 21
157.6494672543
 31
0.0
  0
LINE
  5
350
  8
0
  6
CONTINUOUS
 62
     8
 10
481.0876667561
 20
161.151504014
 30
0.0
 11
482.940990998
 21
162.2214053254
 31
0.0
  0
LINE
  5
351
  8
0
  6
CONTINUOUS
 62
     8
 10
487.1722463546
 20
157.3143423514
 30
0.0
 11
487.4550941596
 21
157.4776269136
 31
0.0
  0
LINE
  5
352
  8
0
  6
CONTINUOUS
 62
     8
 10
485.8959875245
 20
158.0511108915
 30
0.0
 11
487.462986653
 21
158.9557202333
 31
0.0
  0
LINE
  5
353
  8
0
  6
CONTINUOUS
 62
     8
 10
478.8249250563
 20
162.457756993
 30
0.0
 11
480.6782492982
 21
163.5276583044
 31
0.0
  0
LINE
  5
354
  8
0
  6
CONTINUOUS
 62
     8
 10
484.9095046548
 20
158.6205953304
 30
0.0
 11
485.1923524598
 21
158.7838798926
 31
0.0
  0
LINE
  5
355
  8
0
  6
CONTINUOUS
 62
     8
 10
483.6332458247
 20
159.3573638704
 30
0.0
 11
485.2002449532
 21
160.2619732122
 31
0.0
  0
LINE
  5
356
  8
0
  6
CONTINUOUS
 62
     8
 10
476.5621833565
 20
163.7640099719
 30
0.0
 11
478.4155075985
 21
164.8339112833
 31
0.0
  0
LINE
  5
357
  8
0
  6
CONTINUOUS
 62
     8
 10
482.646762955
 20
159.9268483093
 30
0.0
 11
482.92961076
 21
160.0901328715
 31
0.0
  0
LINE
  5
358
  8
0
  6
CONTINUOUS
 62
     8
 10
481.3705041249
 20
160.6636168493
 30
0.0
 11
482.9375032534
 21
161.5682261911
 31
0.0
  0
LINE
  5
359
  8
0
  6
CONTINUOUS
 62
     8
 10
480.3840212552
 20
161.2331012882
 30
0.0
 11
480.6668690602
 21
161.3963858504
 31
0.0
  0
LINE
  5
35A
  8
0
  6
CONTINUOUS
 62
     8
 10
479.1077624251
 20
161.9698698282
 30
0.0
 11
480.6747615536
 21
162.87447917
 31
0.0
  0
LINE
  5
35B
  8
0
  6
CONTINUOUS
 62
     8
 10
478.1212795554
 20
162.5393542671
 30
0.0
 11
478.4041273604
 21
162.7026388293
 31
0.0
  0
LINE
  5
35C
  8
0
  6
CONTINUOUS
 62
     8
 10
476.8450207253
 20
163.2761228072
 30
0.0
 11
478.4120198538
 21
164.1807321489
 31
0.0
  0
LINE
  5
35D
  8
0
  6
CONTINUOUS
 62
     8
 10
475.8585378556
 20
163.845607246
 30
0.0
 11
476.1413856606
 21
164.0088918082
 31
0.0
  0
TEXT
  5
35E
  8
0
  6
CONTINUOUS
 62
     7
 10
470.5709222055
 20
126.9399140564
 30
0.0
 40
7.0
  1
 (1 : 5)
 41
0.56875
 11
470.5709222055
 21
124.467093623
 31
0.0
 73
     1
  0
LINE
  5
35F
  8
0
  6
CONTINUOUS
 62
     7
 10
255.0201146617
 20
146.1327967462
 30
0.0
 11
255.0201146617
 21
246.1327967462
 31
0.0
  0
LINE
  5
360
  8
0
  6
CONTINUOUS
 62
     7
 10
255.0201146617
 20
146.1327967462
 30
0.0
 11
253.8201373329
 21
146.1327967462
 31
0.0
  0
LINE
  5
361
  8
0
  6
CONTINUOUS
 62
     7
 10
253.8201373329
 20
146.1327967462
 30
0.0
 11
253.8201373329
 21
246.1327967462
 31
0.0
  0
LINE
  5
362
  8
0
  6
CONTINUOUS
 62
     7
 10
255.0201146617
 20
246.1327967462
 30
0.0
 11
253.8201373329
 21
246.1327967462
 31
0.0
  0
LINE
  5
363
  8
0
  6
CONTINUOUS
 62
     7
 10
239.0201146617
 20
146.1327967462
 30
0.0
 11
239.0201146617
 21
246.1327967462
 31
0.0
  0
LINE
  5
364
  8
0
  6
CONTINUOUS
 62
     7
 10
239.0201146617
 20
146.1327967462
 30
0.0
 11
237.8201373329
 21
146.1327967462
 31
0.0
  0
LINE
  5
365
  8
0
  6
CONTINUOUS
 62
     7
 10
237.8201373329
 20
146.1327967462
 30
0.0
 11
237.8201373329
 21
246.1327967462
 31
0.0
  0
LINE
  5
366
  8
0
  6
CONTINUOUS
 62
     7
 10
239.0201146617
 20
246.1327967462
 30
0.0
 11
237.8201373329
 21
246.1327967462
 31
0.0
  0
LINE
  5
367
  8
0
  6
CONTINUOUS
 62
     7
 10
247.0201146617
 20
146.1327967462
 30
0.0
 11
247.0201146617
 21
246.1327967462
 31
0.0
  0
LINE
  5
368
  8
0
  6
CONTINUOUS
 62
     7
 10
247.0201146617
 20
146.1327967462
 30
0.0
 11
245.8201373329
 21
146.1327967462
 31
0.0
  0
LINE
  5
369
  8
0
  6
CONTINUOUS
 62
     7
 10
245.8201373329
 20
146.1327967462
 30
0.0
 11
245.8201373329
 21
246.1327967462
 31
0.0
  0
LINE
  5
36A
  8
0
  6
CONTINUOUS
 62
     7
 10
247.0201146617
 20
246.1327967462
 30
0.0
 11
245.8201373329
 21
246.1327967462
 31
0.0
  0
LINE
  5
36B
  8
0
  6
CONTINUOUS
 62
     7
 10
263.0201146617
 20
146.1327967462
 30
0.0
 11
263.0201146617
 21
246.1327967462
 31
0.0
  0
LINE
  5
36C
  8
0
  6
CONTINUOUS
 62
     7
 10
263.0201146617
 20
146.1327967462
 30
0.0
 11
261.8201373329
 21
146.1327967462
 31
0.0
  0
LINE
  5
36D
  8
0
  6
CONTINUOUS
 62
     7
 10
261.8201373329
 20
146.1327967462
 30
0.0
 11
261.8201373329
 21
246.1327967462
 31
0.0
  0
LINE
  5
36E
  8
0
  6
CONTINUOUS
 62
     7
 10
263.0201146617
 20
246.1327967462
 30
0.0
 11
261.8201373329
 21
246.1327967462
 31
0.0
  0
LINE
  5
36F
  8
0
  6
CONTINUOUS
 62
     7
 10
183.0201146617
 20
146.1327967462
 30
0.0
 11
183.0201146617
 21
246.1327967462
 31
0.0
  0
LINE
  5
370
  8
0
  6
CONTINUOUS
 62
     7
 10
183.0201146617
 20
146.1327967462
 30
0.0
 11
181.8201373329
 21
146.1327967462
 31
0.0
  0
LINE
  5
371
  8
0
  6
CONTINUOUS
 62
     7
 10
181.8201373329
 20
146.1327967462
 30
0.0
 11
181.8201373329
 21
246.1327967462
 31
0.0
  0
LINE
  5
372
  8
0
  6
CONTINUOUS
 62
     7
 10
183.0201146617
 20
246.1327967462
 30
0.0
 11
181.8201373329
 21
246.1327967462
 31
0.0
  0
LINE
  5
373
  8
0
  6
CONTINUOUS
 62
     7
 10
231.0201146617
 20
146.1327967462
 30
0.0
 11
231.0201146617
 21
246.1327967462
 31
0.0
  0
LINE
  5
374
  8
0
  6
CONTINUOUS
 62
     7
 10
231.0201146617
 20
146.1327967462
 30
0.0
 11
229.8201373329
 21
146.1327967462
 31
0.0
  0
LINE
  5
375
  8
0
  6
CONTINUOUS
 62
     7
 10
229.8201373329
 20
146.1327967462
 30
0.0
 11
229.8201373329
 21
246.1327967462
 31
0.0
  0
LINE
  5
376
  8
0
  6
CONTINUOUS
 62
     7
 10
231.0201146617
 20
246.1327967462
 30
0.0
 11
229.8201373329
 21
246.1327967462
 31
0.0
  0
LINE
  5
377
  8
0
  6
CONTINUOUS
 62
     7
 10
223.0201146617
 20
146.1327967462
 30
0.0
 11
223.0201146617
 21
246.1327967462
 31
0.0
  0
LINE
  5
378
  8
0
  6
CONTINUOUS
 62
     7
 10
223.0201146617
 20
146.1327967462
 30
0.0
 11
221.8201373329
 21
146.1327967462
 31
0.0
  0
LINE
  5
379
  8
0
  6
CONTINUOUS
 62
     7
 10
221.8201373329
 20
146.1327967462
 30
0.0
 11
221.8201373329
 21
246.1327967462
 31
0.0
  0
LINE
  5
37A
  8
0
  6
CONTINUOUS
 62
     7
 10
223.0201146617
 20
246.1327967462
 30
0.0
 11
221.8201373329
 21
246.1327967462
 31
0.0
  0
LINE
  5
37B
  8
0
  6
CONTINUOUS
 62
     7
 10
215.0201146617
 20
146.1327967462
 30
0.0
 11
215.0201146617
 21
246.1327967462
 31
0.0
  0
LINE
  5
37C
  8
0
  6
CONTINUOUS
 62
     7
 10
215.0201146617
 20
146.1327967462
 30
0.0
 11
213.8201373329
 21
146.1327967462
 31
0.0
  0
LINE
  5
37D
  8
0
  6
CONTINUOUS
 62
     7
 10
213.8201373329
 20
146.1327967462
 30
0.0
 11
213.8201373329
 21
246.1327967462
 31
0.0
  0
LINE
  5
37E
  8
0
  6
CONTINUOUS
 62
     7
 10
215.0201146617
 20
246.1327967462
 30
0.0
 11
213.8201373329
 21
246.1327967462
 31
0.0
  0
LINE
  5
37F
  8
0
  6
CONTINUOUS
 62
     7
 10
175.0201146617
 20
146.1327967462
 30
0.0
 11
175.0201146617
 21
246.1327967462
 31
0.0
  0
LINE
  5
380
  8
0
  6
CONTINUOUS
 62
     7
 10
175.0201146617
 20
146.1327967462
 30
0.0
 11
173.8201373329
 21
146.1327967462
 31
0.0
  0
LINE
  5
381
  8
0
  6
CONTINUOUS
 62
     7
 10
173.8201373329
 20
146.1327967462
 30
0.0
 11
173.8201373329
 21
246.1327967462
 31
0.0
  0
LINE
  5
382
  8
0
  6
CONTINUOUS
 62
     7
 10
175.0201146617
 20
246.1327967462
 30
0.0
 11
173.8201373329
 21
246.1327967462
 31
0.0
  0
LINE
  5
383
  8
0
  6
CONTINUOUS
 62
     7
 10
167.0201146617
 20
146.1327967462
 30
0.0
 11
167.0201146617
 21
246.1327967462
 31
0.0
  0
LINE
  5
384
  8
0
  6
CONTINUOUS
 62
     7
 10
167.0201146617
 20
146.1327967462
 30
0.0
 11
165.8201373329
 21
146.1327967462
 31
0.0
  0
LINE
  5
385
  8
0
  6
CONTINUOUS
 62
     7
 10
165.8201373329
 20
146.1327967462
 30
0.0
 11
165.8201373329
 21
246.1327967462
 31
0.0
  0
LINE
  5
386
  8
0
  6
CONTINUOUS
 62
     7
 10
167.0201146617
 20
246.1327967462
 30
0.0
 11
165.8201373329
 21
246.1327967462
 31
0.0
  0
LINE
  5
387
  8
0
  6
CONTINUOUS
 62
     7
 10
207.0201146617
 20
146.1327967462
 30
0.0
 11
207.0201146617
 21
246.1327967462
 31
0.0
  0
LINE
  5
388
  8
0
  6
CONTINUOUS
 62
     7
 10
207.0201146617
 20
146.1327967462
 30
0.0
 11
205.8201373329
 21
146.1327967462
 31
0.0
  0
LINE
  5
389
  8
0
  6
CONTINUOUS
 62
     7
 10
205.8201373329
 20
146.1327967462
 30
0.0
 11
205.8201373329
 21
246.1327967462
 31
0.0
  0
LINE
  5
38A
  8
0
  6
CONTINUOUS
 62
     7
 10
207.0201146617
 20
246.1327967462
 30
0.0
 11
205.8201373329
 21
246.1327967462
 31
0.0
  0
LINE
  5
38B
  8
0
  6
CONTINUOUS
 62
     7
 10
199.0201146617
 20
146.1327967462
 30
0.0
 11
199.0201146617
 21
246.1327967462
 31
0.0
  0
LINE
  5
38C
  8
0
  6
CONTINUOUS
 62
     7
 10
199.0201146617
 20
146.1327967462
 30
0.0
 11
197.8201373329
 21
146.1327967462
 31
0.0
  0
LINE
  5
38D
  8
0
  6
CONTINUOUS
 62
     7
 10
197.8201373329
 20
146.1327967462
 30
0.0
 11
197.8201373329
 21
246.1327967462
 31
0.0
  0
LINE
  5
38E
  8
0
  6
CONTINUOUS
 62
     7
 10
199.0201146617
 20
246.1327967462
 30
0.0
 11
197.8201373329
 21
246.1327967462
 31
0.0
  0
LINE
  5
38F
  8
0
  6
CONTINUOUS
 62
     7
 10
159.0201146617
 20
146.1327967462
 30
0.0
 11
159.0201146617
 21
246.1327967462
 31
0.0
  0
LINE
  5
390
  8
0
  6
CONTINUOUS
 62
     7
 10
159.0201146617
 20
146.1327967462
 30
0.0
 11
157.8201373329
 21
146.1327967462
 31
0.0
  0
LINE
  5
391
  8
0
  6
CONTINUOUS
 62
     7
 10
157.8201373329
 20
146.1327967462
 30
0.0
 11
157.8201373329
 21
246.1327967462
 31
0.0
  0
LINE
  5
392
  8
0
  6
CONTINUOUS
 62
     7
 10
159.0201146617
 20
246.1327967462
 30
0.0
 11
157.8201373329
 21
246.1327967462
 31
0.0
  0
LINE
  5
393
  8
0
  6
CONTINUOUS
 62
     7
 10
151.0201146617
 20
146.1327967462
 30
0.0
 11
151.0201146617
 21
246.1327967462
 31
0.0
  0
LINE
  5
394
  8
0
  6
CONTINUOUS
 62
     7
 10
151.0201146617
 20
146.1327967462
 30
0.0
 11
149.8201373329
 21
146.1327967462
 31
0.0
  0
LINE
  5
395
  8
0
  6
CONTINUOUS
 62
     7
 10
149.8201373329
 20
146.1327967462
 30
0.0
 11
149.8201373329
 21
246.1327967462
 31
0.0
  0
LINE
  5
396
  8
0
  6
CONTINUOUS
 62
     7
 10
151.0201146617
 20
246.1327967462
 30
0.0
 11
149.8201373329
 21
246.1327967462
 31
0.0
  0
LINE
  5
397
  8
0
  6
CONTINUOUS
 62
     7
 10
191.0201146617
 20
146.1327967462
 30
0.0
 11
191.0201146617
 21
246.1327967462
 31
0.0
  0
LINE
  5
398
  8
0
  6
CONTINUOUS
 62
     7
 10
191.0201146617
 20
146.1327967462
 30
0.0
 11
189.8201373329
 21
146.1327967462
 31
0.0
  0
LINE
  5
399
  8
0
  6
CONTINUOUS
 62
     7
 10
189.8201373329
 20
146.1327967462
 30
0.0
 11
189.8201373329
 21
246.1327967462
 31
0.0
  0
LINE
  5
39A
  8
0
  6
CONTINUOUS
 62
     7
 10
191.0201146617
 20
246.1327967462
 30
0.0
 11
189.8201373329
 21
246.1327967462
 31
0.0
  0
LINE
  5
39B
  8
0
  6
CONTINUOUS
 62
     7
 10
135.0201146617
 20
146.1327967462
 30
0.0
 11
135.0201146617
 21
246.1327967462
 31
0.0
  0
LINE
  5
39C
  8
0
  6
CONTINUOUS
 62
     7
 10
135.0201146617
 20
146.1327967462
 30
0.0
 11
133.8201373329
 21
146.1327967462
 31
0.0
  0
LINE
  5
39D
  8
0
  6
CONTINUOUS
 62
     7
 10
133.8201373329
 20
146.1327967462
 30
0.0
 11
133.8201373329
 21
246.1327967462
 31
0.0
  0
LINE
  5
39E
  8
0
  6
CONTINUOUS
 62
     7
 10
135.0201146617
 20
246.1327967462
 30
0.0
 11
133.8201373329
 21
246.1327967462
 31
0.0
  0
LINE
  5
39F
  8
0
  6
CONTINUOUS
 62
     7
 10
127.0201146617
 20
146.1327967462
 30
0.0
 11
127.0201146617
 21
246.1327967462
 31
0.0
  0
LINE
  5
3A0
  8
0
  6
CONTINUOUS
 62
     7
 10
127.0201146617
 20
146.1327967462
 30
0.0
 11
125.8201373329
 21
146.1327967462
 31
0.0
  0
LINE
  5
3A1
  8
0
  6
CONTINUOUS
 62
     7
 10
125.8201373329
 20
146.1327967462
 30
0.0
 11
125.8201373329
 21
246.1327967462
 31
0.0
  0
LINE
  5
3A2
  8
0
  6
CONTINUOUS
 62
     7
 10
127.0201146617
 20
246.1327967462
 30
0.0
 11
125.8201373329
 21
246.1327967462
 31
0.0
  0
LINE
  5
3A3
  8
0
  6
CONTINUOUS
 62
     7
 10
143.0201146617
 20
146.1327967462
 30
0.0
 11
143.0201146617
 21
246.1327967462
 31
0.0
  0
LINE
  5
3A4
  8
0
  6
CONTINUOUS
 62
     7
 10
143.0201146617
 20
146.1327967462
 30
0.0
 11
141.8201373329
 21
146.1327967462
 31
0.0
  0
LINE
  5
3A5
  8
0
  6
CONTINUOUS
 62
     7
 10
141.8201373329
 20
146.1327967462
 30
0.0
 11
141.8201373329
 21
246.1327967462
 31
0.0
  0
LINE
  5
3A6
  8
0
  6
CONTINUOUS
 62
     7
 10
143.0201146617
 20
246.1327967462
 30
0.0
 11
141.8201373329
 21
246.1327967462
 31
0.0
  0
LINE
  5
3A7
  8
0
  6
CONTINUOUS
 62
     7
 10
119.0201146617
 20
146.1327967462
 30
0.0
 11
119.0201146617
 21
246.1327967462
 31
0.0
  0
LINE
  5
3A8
  8
0
  6
CONTINUOUS
 62
     7
 10
119.0201146617
 20
146.1327967462
 30
0.0
 11
117.8201373329
 21
146.1327967462
 31
0.0
  0
LINE
  5
3A9
  8
0
  6
CONTINUOUS
 62
     7
 10
117.8201373329
 20
146.1327967462
 30
0.0
 11
117.8201373329
 21
246.1327967462
 31
0.0
  0
LINE
  5
3AA
  8
0
  6
CONTINUOUS
 62
     7
 10
119.0201146617
 20
246.1327967462
 30
0.0
 11
117.8201373329
 21
246.1327967462
 31
0.0
  0
LINE
  5
3AB
  8
0
  6
CONTINUOUS
 62
     7
 10
111.0201146617
 20
146.1327967462
 30
0.0
 11
111.0201146617
 21
246.1327967462
 31
0.0
  0
LINE
  5
3AC
  8
0
  6
CONTINUOUS
 62
     7
 10
111.0201146617
 20
146.1327967462
 30
0.0
 11
109.8201373329
 21
146.1327967462
 31
0.0
  0
LINE
  5
3AD
  8
0
  6
CONTINUOUS
 62
     7
 10
109.8201373329
 20
146.1327967462
 30
0.0
 11
109.8201373329
 21
246.1327967462
 31
0.0
  0
LINE
  5
3AE
  8
0
  6
CONTINUOUS
 62
     7
 10
111.0201146617
 20
246.1327967462
 30
0.0
 11
109.8201373329
 21
246.1327967462
 31
0.0
  0
LINE
  5
3AF
  8
0
  6
CONTINUOUS
 62
     7
 10
95.0201146617
 20
146.1327967462
 30
0.0
 11
95.0201146617
 21
246.1327967462
 31
0.0
  0
LINE
  5
3B0
  8
0
  6
CONTINUOUS
 62
     7
 10
95.0201146617
 20
146.1327967462
 30
0.0
 11
93.8201373329
 21
146.1327967462
 31
0.0
  0
LINE
  5
3B1
  8
0
  6
CONTINUOUS
 62
     7
 10
93.8201373329
 20
146.1327967462
 30
0.0
 11
93.8201373329
 21
246.1327967462
 31
0.0
  0
LINE
  5
3B2
  8
0
  6
CONTINUOUS
 62
     7
 10
95.0201146617
 20
246.1327967462
 30
0.0
 11
93.8201373329
 21
246.1327967462
 31
0.0
  0
LINE
  5
3B3
  8
0
  6
CONTINUOUS
 62
     7
 10
103.0201146617
 20
146.1327967462
 30
0.0
 11
103.0201146617
 21
246.1327967462
 31
0.0
  0
LINE
  5
3B4
  8
0
  6
CONTINUOUS
 62
     7
 10
103.0201146617
 20
146.1327967462
 30
0.0
 11
101.8201373329
 21
146.1327967462
 31
0.0
  0
LINE
  5
3B5
  8
0
  6
CONTINUOUS
 62
     7
 10
101.8201373329
 20
146.1327967462
 30
0.0
 11
101.8201373329
 21
246.1327967462
 31
0.0
  0
LINE
  5
3B6
  8
0
  6
CONTINUOUS
 62
     7
 10
103.0201146617
 20
246.1327967462
 30
0.0
 11
101.8201373329
 21
246.1327967462
 31
0.0
  0
LINE
  5
3B7
  8
0
  6
CONTINUOUS
 62
     7
 10
87.0201146617
 20
146.1327967462
 30
0.0
 11
87.0201146617
 21
246.1327967462
 31
0.0
  0
LINE
  5
3B8
  8
0
  6
CONTINUOUS
 62
     7
 10
87.0201146617
 20
146.1327967462
 30
0.0
 11
85.8201373329
 21
146.1327967462
 31
0.0
  0
LINE
  5
3B9
  8
0
  6
CONTINUOUS
 62
     7
 10
85.8201373329
 20
146.1327967462
 30
0.0
 11
85.8201373329
 21
246.1327967462
 31
0.0
  0
LINE
  5
3BA
  8
0
  6
CONTINUOUS
 62
     7
 10
87.0201146617
 20
246.1327967462
 30
0.0
 11
85.8201373329
 21
246.1327967462
 31
0.0
  0
LINE
  5
3BB
  8
0
  6
CONTINUOUS
 62
     7
 10
271.276242845
 20
146.1327967462
 30
0.0
 11
271.276242845
 21
246.1327967462
 31
0.0
  0
LINE
  5
3BC
  8
0
  6
CONTINUOUS
 62
     7
 10
270.0762655162
 20
146.1327967462
 30
0.0
 11
270.0762655162
 21
246.1327967462
 31
0.0
  0
LINE
  5
3BD
  8
0
  6
CONTINUOUS
 62
     7
 10
271.276242845
 20
146.1327967462
 30
0.0
 11
270.0762655162
 21
146.1327967462
 31
0.0
  0
LINE
  5
3BE
  8
0
  6
CONTINUOUS
 62
     7
 10
271.276242845
 20
246.1327967462
 30
0.0
 11
270.0762655162
 21
246.1327967462
 31
0.0
  0
LINE
  5
3BF
  8
0
  6
CONTINUOUS
 62
     7
 10
287.276242845
 20
146.1327967462
 30
0.0
 11
287.276242845
 21
246.1327967462
 31
0.0
  0
LINE
  5
3C0
  8
0
  6
CONTINUOUS
 62
     7
 10
286.0762655162
 20
146.1327967462
 30
0.0
 11
286.0762655162
 21
246.1327967462
 31
0.0
  0
LINE
  5
3C1
  8
0
  6
CONTINUOUS
 62
     7
 10
287.276242845
 20
146.1327967462
 30
0.0
 11
286.0762655162
 21
146.1327967462
 31
0.0
  0
LINE
  5
3C2
  8
0
  6
CONTINUOUS
 62
     7
 10
287.276242845
 20
246.1327967462
 30
0.0
 11
286.0762655162
 21
246.1327967462
 31
0.0
  0
LINE
  5
3C3
  8
0
  6
CONTINUOUS
 62
     7
 10
279.276242845
 20
146.1327967462
 30
0.0
 11
279.276242845
 21
246.1327967462
 31
0.0
  0
LINE
  5
3C4
  8
0
  6
CONTINUOUS
 62
     7
 10
278.0762655162
 20
146.1327967462
 30
0.0
 11
278.0762655162
 21
246.1327967462
 31
0.0
  0
LINE
  5
3C5
  8
0
  6
CONTINUOUS
 62
     7
 10
279.276242845
 20
146.1327967462
 30
0.0
 11
278.0762655162
 21
146.1327967462
 31
0.0
  0
LINE
  5
3C6
  8
0
  6
CONTINUOUS
 62
     7
 10
279.276242845
 20
246.1327967462
 30
0.0
 11
278.0762655162
 21
246.1327967462
 31
0.0
  0
LINE
  5
3C7
  8
0
  6
CONTINUOUS
 62
     7
 10
253.6762352879
 20
146.1327967462
 30
0.0
 11
253.6762352879
 21
246.1327967462
 31
0.0
  0
LINE
  5
3C8
  8
0
  6
CONTINUOUS
 62
     7
 10
253.8201373329
 20
146.1327967462
 30
0.0
 11
253.6762352879
 21
146.1327967462
 31
0.0
  0
LINE
  5
3C9
  8
0
  6
CONTINUOUS
 62
     7
 10
253.8201373329
 20
246.1327967462
 30
0.0
 11
253.6762352879
 21
246.1327967462
 31
0.0
  0
LINE
  5
3CA
  8
0
  6
CONTINUOUS
 62
     7
 10
255.1640167067
 20
146.1327967462
 30
0.0
 11
255.1640167067
 21
246.1327967462
 31
0.0
  0
LINE
  5
3CB
  8
0
  6
CONTINUOUS
 62
     7
 10
255.1640167067
 20
146.1327967462
 30
0.0
 11
255.0201146617
 21
146.1327967462
 31
0.0
  0
LINE
  5
3CC
  8
0
  6
CONTINUOUS
 62
     7
 10
255.1640167067
 20
246.1327967462
 30
0.0
 11
255.0201146617
 21
246.1327967462
 31
0.0
  0
LINE
  5
3CD
  8
0
  6
CONTINUOUS
 62
     7
 10
245.6762352879
 20
146.1327967462
 30
0.0
 11
245.6762352879
 21
246.1327967462
 31
0.0
  0
LINE
  5
3CE
  8
0
  6
CONTINUOUS
 62
     7
 10
245.8201373329
 20
146.1327967462
 30
0.0
 11
245.6762352879
 21
146.1327967462
 31
0.0
  0
LINE
  5
3CF
  8
0
  6
CONTINUOUS
 62
     7
 10
245.8201373329
 20
246.1327967462
 30
0.0
 11
245.6762352879
 21
246.1327967462
 31
0.0
  0
LINE
  5
3D0
  8
0
  6
CONTINUOUS
 62
     7
 10
237.6762352879
 20
146.1327967462
 30
0.0
 11
237.6762352879
 21
246.1327967462
 31
0.0
  0
LINE
  5
3D1
  8
0
  6
CONTINUOUS
 62
     7
 10
237.8201373329
 20
146.1327967462
 30
0.0
 11
237.6762352879
 21
146.1327967462
 31
0.0
  0
LINE
  5
3D2
  8
0
  6
CONTINUOUS
 62
     7
 10
237.8201373329
 20
246.1327967462
 30
0.0
 11
237.6762352879
 21
246.1327967462
 31
0.0
  0
LINE
  5
3D3
  8
0
  6
CONTINUOUS
 62
     7
 10
247.1640167067
 20
146.1327967462
 30
0.0
 11
247.1640167067
 21
246.1327967462
 31
0.0
  0
LINE
  5
3D4
  8
0
  6
CONTINUOUS
 62
     7
 10
247.1640167067
 20
146.1327967462
 30
0.0
 11
247.0201146617
 21
146.1327967462
 31
0.0
  0
LINE
  5
3D5
  8
0
  6
CONTINUOUS
 62
     7
 10
247.1640167067
 20
246.1327967462
 30
0.0
 11
247.0201146617
 21
246.1327967462
 31
0.0
  0
LINE
  5
3D6
  8
0
  6
CONTINUOUS
 62
     7
 10
239.1640167067
 20
146.1327967462
 30
0.0
 11
239.1640167067
 21
246.1327967462
 31
0.0
  0
LINE
  5
3D7
  8
0
  6
CONTINUOUS
 62
     7
 10
239.1640167067
 20
146.1327967462
 30
0.0
 11
239.0201146617
 21
146.1327967462
 31
0.0
  0
LINE
  5
3D8
  8
0
  6
CONTINUOUS
 62
     7
 10
239.1640167067
 20
246.1327967462
 30
0.0
 11
239.0201146617
 21
246.1327967462
 31
0.0
  0
LINE
  5
3D9
  8
0
  6
CONTINUOUS
 62
     7
 10
263.1640167067
 20
146.1327967462
 30
0.0
 11
263.1640167067
 21
246.1327967462
 31
0.0
  0
LINE
  5
3DA
  8
0
  6
CONTINUOUS
 62
     7
 10
263.1640167067
 20
146.1327967462
 30
0.0
 11
263.0201146617
 21
146.1327967462
 31
0.0
  0
LINE
  5
3DB
  8
0
  6
CONTINUOUS
 62
     7
 10
263.1640167067
 20
246.1327967462
 30
0.0
 11
263.0201146617
 21
246.1327967462
 31
0.0
  0
LINE
  5
3DC
  8
0
  6
CONTINUOUS
 62
     7
 10
261.6762352879
 20
146.1327967462
 30
0.0
 11
261.6762352879
 21
246.1327967462
 31
0.0
  0
LINE
  5
3DD
  8
0
  6
CONTINUOUS
 62
     7
 10
261.8201373329
 20
146.1327967462
 30
0.0
 11
261.6762352879
 21
146.1327967462
 31
0.0
  0
LINE
  5
3DE
  8
0
  6
CONTINUOUS
 62
     7
 10
261.8201373329
 20
246.1327967462
 30
0.0
 11
261.6762352879
 21
246.1327967462
 31
0.0
  0
LINE
  5
3DF
  8
0
  6
CONTINUOUS
 62
     7
 10
183.1640167067
 20
146.1327967462
 30
0.0
 11
183.1640167067
 21
246.1327967462
 31
0.0
  0
LINE
  5
3E0
  8
0
  6
CONTINUOUS
 62
     7
 10
183.1640167067
 20
146.1327967462
 30
0.0
 11
183.0201146617
 21
146.1327967462
 31
0.0
  0
LINE
  5
3E1
  8
0
  6
CONTINUOUS
 62
     7
 10
183.1640167067
 20
246.1327967462
 30
0.0
 11
183.0201146617
 21
246.1327967462
 31
0.0
  0
LINE
  5
3E2
  8
0
  6
CONTINUOUS
 62
     7
 10
231.1640167067
 20
146.1327967462
 30
0.0
 11
231.1640167067
 21
246.1327967462
 31
0.0
  0
LINE
  5
3E3
  8
0
  6
CONTINUOUS
 62
     7
 10
231.1640167067
 20
146.1327967462
 30
0.0
 11
231.0201146617
 21
146.1327967462
 31
0.0
  0
LINE
  5
3E4
  8
0
  6
CONTINUOUS
 62
     7
 10
231.1640167067
 20
246.1327967462
 30
0.0
 11
231.0201146617
 21
246.1327967462
 31
0.0
  0
LINE
  5
3E5
  8
0
  6
CONTINUOUS
 62
     7
 10
221.6762352879
 20
146.1327967462
 30
0.0
 11
221.6762352879
 21
246.1327967462
 31
0.0
  0
LINE
  5
3E6
  8
0
  6
CONTINUOUS
 62
     7
 10
221.8201373329
 20
146.1327967462
 30
0.0
 11
221.6762352879
 21
146.1327967462
 31
0.0
  0
LINE
  5
3E7
  8
0
  6
CONTINUOUS
 62
     7
 10
221.8201373329
 20
246.1327967462
 30
0.0
 11
221.6762352879
 21
246.1327967462
 31
0.0
  0
LINE
  5
3E8
  8
0
  6
CONTINUOUS
 62
     7
 10
181.6762352879
 20
146.1327967462
 30
0.0
 11
181.6762352879
 21
246.1327967462
 31
0.0
  0
LINE
  5
3E9
  8
0
  6
CONTINUOUS
 62
     7
 10
181.8201373329
 20
146.1327967462
 30
0.0
 11
181.6762352879
 21
146.1327967462
 31
0.0
  0
LINE
  5
3EA
  8
0
  6
CONTINUOUS
 62
     7
 10
181.8201373329
 20
246.1327967462
 30
0.0
 11
181.6762352879
 21
246.1327967462
 31
0.0
  0
LINE
  5
3EB
  8
0
  6
CONTINUOUS
 62
     7
 10
229.6762352879
 20
146.1327967462
 30
0.0
 11
229.6762352879
 21
246.1327967462
 31
0.0
  0
LINE
  5
3EC
  8
0
  6
CONTINUOUS
 62
     7
 10
229.8201373329
 20
146.1327967462
 30
0.0
 11
229.6762352879
 21
146.1327967462
 31
0.0
  0
LINE
  5
3ED
  8
0
  6
CONTINUOUS
 62
     7
 10
229.8201373329
 20
246.1327967462
 30
0.0
 11
229.6762352879
 21
246.1327967462
 31
0.0
  0
LINE
  5
3EE
  8
0
  6
CONTINUOUS
 62
     7
 10
223.1640167067
 20
146.1327967462
 30
0.0
 11
223.1640167067
 21
246.1327967462
 31
0.0
  0
LINE
  5
3EF
  8
0
  6
CONTINUOUS
 62
     7
 10
223.1640167067
 20
146.1327967462
 30
0.0
 11
223.0201146617
 21
146.1327967462
 31
0.0
  0
LINE
  5
3F0
  8
0
  6
CONTINUOUS
 62
     7
 10
223.1640167067
 20
246.1327967462
 30
0.0
 11
223.0201146617
 21
246.1327967462
 31
0.0
  0
LINE
  5
3F1
  8
0
  6
CONTINUOUS
 62
     7
 10
213.6762352879
 20
146.1327967462
 30
0.0
 11
213.6762352879
 21
246.1327967462
 31
0.0
  0
LINE
  5
3F2
  8
0
  6
CONTINUOUS
 62
     7
 10
213.8201373329
 20
146.1327967462
 30
0.0
 11
213.6762352879
 21
146.1327967462
 31
0.0
  0
LINE
  5
3F3
  8
0
  6
CONTINUOUS
 62
     7
 10
213.8201373329
 20
246.1327967462
 30
0.0
 11
213.6762352879
 21
246.1327967462
 31
0.0
  0
LINE
  5
3F4
  8
0
  6
CONTINUOUS
 62
     7
 10
215.1640167067
 20
146.1327967462
 30
0.0
 11
215.1640167067
 21
246.1327967462
 31
0.0
  0
LINE
  5
3F5
  8
0
  6
CONTINUOUS
 62
     7
 10
215.1640167067
 20
146.1327967462
 30
0.0
 11
215.0201146617
 21
146.1327967462
 31
0.0
  0
LINE
  5
3F6
  8
0
  6
CONTINUOUS
 62
     7
 10
215.1640167067
 20
246.1327967462
 30
0.0
 11
215.0201146617
 21
246.1327967462
 31
0.0
  0
LINE
  5
3F7
  8
0
  6
CONTINUOUS
 62
     7
 10
175.1640167067
 20
146.1327967462
 30
0.0
 11
175.1640167067
 21
246.1327967462
 31
0.0
  0
LINE
  5
3F8
  8
0
  6
CONTINUOUS
 62
     7
 10
175.1640167067
 20
146.1327967462
 30
0.0
 11
175.0201146617
 21
146.1327967462
 31
0.0
  0
LINE
  5
3F9
  8
0
  6
CONTINUOUS
 62
     7
 10
175.1640167067
 20
246.1327967462
 30
0.0
 11
175.0201146617
 21
246.1327967462
 31
0.0
  0
LINE
  5
3FA
  8
0
  6
CONTINUOUS
 62
     7
 10
173.6762352879
 20
146.1327967462
 30
0.0
 11
173.6762352879
 21
246.1327967462
 31
0.0
  0
LINE
  5
3FB
  8
0
  6
CONTINUOUS
 62
     7
 10
173.8201373329
 20
146.1327967462
 30
0.0
 11
173.6762352879
 21
146.1327967462
 31
0.0
  0
LINE
  5
3FC
  8
0
  6
CONTINUOUS
 62
     7
 10
173.8201373329
 20
246.1327967462
 30
0.0
 11
173.6762352879
 21
246.1327967462
 31
0.0
  0
LINE
  5
3FD
  8
0
  6
CONTINUOUS
 62
     7
 10
167.1640167067
 20
146.1327967462
 30
0.0
 11
167.1640167067
 21
246.1327967462
 31
0.0
  0
LINE
  5
3FE
  8
0
  6
CONTINUOUS
 62
     7
 10
167.1640167067
 20
146.1327967462
 30
0.0
 11
167.0201146617
 21
146.1327967462
 31
0.0
  0
LINE
  5
3FF
  8
0
  6
CONTINUOUS
 62
     7
 10
167.1640167067
 20
246.1327967462
 30
0.0
 11
167.0201146617
 21
246.1327967462
 31
0.0
  0
LINE
  5
400
  8
0
  6
CONTINUOUS
 62
     7
 10
165.6762352879
 20
146.1327967462
 30
0.0
 11
165.6762352879
 21
246.1327967462
 31
0.0
  0
LINE
  5
401
  8
0
  6
CONTINUOUS
 62
     7
 10
165.8201373329
 20
146.1327967462
 30
0.0
 11
165.6762352879
 21
146.1327967462
 31
0.0
  0
LINE
  5
402
  8
0
  6
CONTINUOUS
 62
     7
 10
165.8201373329
 20
246.1327967462
 30
0.0
 11
165.6762352879
 21
246.1327967462
 31
0.0
  0
LINE
  5
403
  8
0
  6
CONTINUOUS
 62
     7
 10
205.6762352879
 20
146.1327967462
 30
0.0
 11
205.6762352879
 21
246.1327967462
 31
0.0
  0
LINE
  5
404
  8
0
  6
CONTINUOUS
 62
     7
 10
205.8201373329
 20
146.1327967462
 30
0.0
 11
205.6762352879
 21
146.1327967462
 31
0.0
  0
LINE
  5
405
  8
0
  6
CONTINUOUS
 62
     7
 10
205.8201373329
 20
246.1327967462
 30
0.0
 11
205.6762352879
 21
246.1327967462
 31
0.0
  0
LINE
  5
406
  8
0
  6
CONTINUOUS
 62
     7
 10
197.6762352879
 20
146.1327967462
 30
0.0
 11
197.6762352879
 21
246.1327967462
 31
0.0
  0
LINE
  5
407
  8
0
  6
CONTINUOUS
 62
     7
 10
197.8201373329
 20
146.1327967462
 30
0.0
 11
197.6762352879
 21
146.1327967462
 31
0.0
  0
LINE
  5
408
  8
0
  6
CONTINUOUS
 62
     7
 10
197.8201373329
 20
246.1327967462
 30
0.0
 11
197.6762352879
 21
246.1327967462
 31
0.0
  0
LINE
  5
409
  8
0
  6
CONTINUOUS
 62
     7
 10
199.1640167067
 20
146.1327967462
 30
0.0
 11
199.1640167067
 21
246.1327967462
 31
0.0
  0
LINE
  5
40A
  8
0
  6
CONTINUOUS
 62
     7
 10
199.1640167067
 20
146.1327967462
 30
0.0
 11
199.0201146617
 21
146.1327967462
 31
0.0
  0
LINE
  5
40B
  8
0
  6
CONTINUOUS
 62
     7
 10
199.1640167067
 20
246.1327967462
 30
0.0
 11
199.0201146617
 21
246.1327967462
 31
0.0
  0
LINE
  5
40C
  8
0
  6
CONTINUOUS
 62
     7
 10
207.1640167067
 20
146.1327967462
 30
0.0
 11
207.1640167067
 21
246.1327967462
 31
0.0
  0
LINE
  5
40D
  8
0
  6
CONTINUOUS
 62
     7
 10
207.1640167067
 20
146.1327967462
 30
0.0
 11
207.0201146617
 21
146.1327967462
 31
0.0
  0
LINE
  5
40E
  8
0
  6
CONTINUOUS
 62
     7
 10
207.1640167067
 20
246.1327967462
 30
0.0
 11
207.0201146617
 21
246.1327967462
 31
0.0
  0
LINE
  5
40F
  8
0
  6
CONTINUOUS
 62
     7
 10
157.6762352879
 20
146.1327967462
 30
0.0
 11
157.6762352879
 21
246.1327967462
 31
0.0
  0
LINE
  5
410
  8
0
  6
CONTINUOUS
 62
     7
 10
157.8201373329
 20
146.1327967462
 30
0.0
 11
157.6762352879
 21
146.1327967462
 31
0.0
  0
LINE
  5
411
  8
0
  6
CONTINUOUS
 62
     7
 10
157.8201373329
 20
246.1327967462
 30
0.0
 11
157.6762352879
 21
246.1327967462
 31
0.0
  0
LINE
  5
412
  8
0
  6
CONTINUOUS
 62
     7
 10
189.6762352879
 20
146.1327967462
 30
0.0
 11
189.6762352879
 21
246.1327967462
 31
0.0
  0
LINE
  5
413
  8
0
  6
CONTINUOUS
 62
     7
 10
189.8201373329
 20
146.1327967462
 30
0.0
 11
189.6762352879
 21
146.1327967462
 31
0.0
  0
LINE
  5
414
  8
0
  6
CONTINUOUS
 62
     7
 10
189.8201373329
 20
246.1327967462
 30
0.0
 11
189.6762352879
 21
246.1327967462
 31
0.0
  0
LINE
  5
415
  8
0
  6
CONTINUOUS
 62
     7
 10
191.1640167067
 20
146.1327967462
 30
0.0
 11
191.1640167067
 21
246.1327967462
 31
0.0
  0
LINE
  5
416
  8
0
  6
CONTINUOUS
 62
     7
 10
191.1640167067
 20
146.1327967462
 30
0.0
 11
191.0201146617
 21
146.1327967462
 31
0.0
  0
LINE
  5
417
  8
0
  6
CONTINUOUS
 62
     7
 10
191.1640167067
 20
246.1327967462
 30
0.0
 11
191.0201146617
 21
246.1327967462
 31
0.0
  0
LINE
  5
418
  8
0
  6
CONTINUOUS
 62
     7
 10
159.1640167067
 20
146.1327967462
 30
0.0
 11
159.1640167067
 21
246.1327967462
 31
0.0
  0
LINE
  5
419
  8
0
  6
CONTINUOUS
 62
     7
 10
159.1640167067
 20
146.1327967462
 30
0.0
 11
159.0201146617
 21
146.1327967462
 31
0.0
  0
LINE
  5
41A
  8
0
  6
CONTINUOUS
 62
     7
 10
159.1640167067
 20
246.1327967462
 30
0.0
 11
159.0201146617
 21
246.1327967462
 31
0.0
  0
LINE
  5
41B
  8
0
  6
CONTINUOUS
 62
     7
 10
151.1640167067
 20
146.1327967462
 30
0.0
 11
151.1640167067
 21
246.1327967462
 31
0.0
  0
LINE
  5
41C
  8
0
  6
CONTINUOUS
 62
     7
 10
151.1640167067
 20
146.1327967462
 30
0.0
 11
151.0201146617
 21
146.1327967462
 31
0.0
  0
LINE
  5
41D
  8
0
  6
CONTINUOUS
 62
     7
 10
151.1640167067
 20
246.1327967462
 30
0.0
 11
151.0201146617
 21
246.1327967462
 31
0.0
  0
LINE
  5
41E
  8
0
  6
CONTINUOUS
 62
     7
 10
149.6762352879
 20
146.1327967462
 30
0.0
 11
149.6762352879
 21
246.1327967462
 31
0.0
  0
LINE
  5
41F
  8
0
  6
CONTINUOUS
 62
     7
 10
149.8201373329
 20
146.1327967462
 30
0.0
 11
149.6762352879
 21
146.1327967462
 31
0.0
  0
LINE
  5
420
  8
0
  6
CONTINUOUS
 62
     7
 10
149.8201373329
 20
246.1327967462
 30
0.0
 11
149.6762352879
 21
246.1327967462
 31
0.0
  0
LINE
  5
421
  8
0
  6
CONTINUOUS
 62
     7
 10
135.1640167067
 20
146.1327967462
 30
0.0
 11
135.1640167067
 21
246.1327967462
 31
0.0
  0
LINE
  5
422
  8
0
  6
CONTINUOUS
 62
     7
 10
135.1640167067
 20
146.1327967462
 30
0.0
 11
135.0201146617
 21
146.1327967462
 31
0.0
  0
LINE
  5
423
  8
0
  6
CONTINUOUS
 62
     7
 10
135.1640167067
 20
246.1327967462
 30
0.0
 11
135.0201146617
 21
246.1327967462
 31
0.0
  0
LINE
  5
424
  8
0
  6
CONTINUOUS
 62
     7
 10
133.6762352879
 20
146.1327967462
 30
0.0
 11
133.6762352879
 21
246.1327967462
 31
0.0
  0
LINE
  5
425
  8
0
  6
CONTINUOUS
 62
     7
 10
133.8201373329
 20
146.1327967462
 30
0.0
 11
133.6762352879
 21
146.1327967462
 31
0.0
  0
LINE
  5
426
  8
0
  6
CONTINUOUS
 62
     7
 10
133.8201373329
 20
246.1327967462
 30
0.0
 11
133.6762352879
 21
246.1327967462
 31
0.0
  0
LINE
  5
427
  8
0
  6
CONTINUOUS
 62
     7
 10
125.6762352879
 20
146.1327967462
 30
0.0
 11
125.6762352879
 21
246.1327967462
 31
0.0
  0
LINE
  5
428
  8
0
  6
CONTINUOUS
 62
     7
 10
125.8201373329
 20
146.1327967462
 30
0.0
 11
125.6762352879
 21
146.1327967462
 31
0.0
  0
LINE
  5
429
  8
0
  6
CONTINUOUS
 62
     7
 10
125.8201373329
 20
246.1327967462
 30
0.0
 11
125.6762352879
 21
246.1327967462
 31
0.0
  0
LINE
  5
42A
  8
0
  6
CONTINUOUS
 62
     7
 10
143.1640167067
 20
146.1327967462
 30
0.0
 11
143.1640167067
 21
246.1327967462
 31
0.0
  0
LINE
  5
42B
  8
0
  6
CONTINUOUS
 62
     7
 10
143.1640167067
 20
146.1327967462
 30
0.0
 11
143.0201146617
 21
146.1327967462
 31
0.0
  0
LINE
  5
42C
  8
0
  6
CONTINUOUS
 62
     7
 10
143.1640167067
 20
246.1327967462
 30
0.0
 11
143.0201146617
 21
246.1327967462
 31
0.0
  0
LINE
  5
42D
  8
0
  6
CONTINUOUS
 62
     7
 10
141.6762352879
 20
146.1327967462
 30
0.0
 11
141.6762352879
 21
246.1327967462
 31
0.0
  0
LINE
  5
42E
  8
0
  6
CONTINUOUS
 62
     7
 10
141.8201373329
 20
146.1327967462
 30
0.0
 11
141.6762352879
 21
146.1327967462
 31
0.0
  0
LINE
  5
42F
  8
0
  6
CONTINUOUS
 62
     7
 10
141.8201373329
 20
246.1327967462
 30
0.0
 11
141.6762352879
 21
246.1327967462
 31
0.0
  0
LINE
  5
430
  8
0
  6
CONTINUOUS
 62
     7
 10
127.1640167067
 20
146.1327967462
 30
0.0
 11
127.1640167067
 21
246.1327967462
 31
0.0
  0
LINE
  5
431
  8
0
  6
CONTINUOUS
 62
     7
 10
127.1640167067
 20
146.1327967462
 30
0.0
 11
127.0201146617
 21
146.1327967462
 31
0.0
  0
LINE
  5
432
  8
0
  6
CONTINUOUS
 62
     7
 10
127.1640167067
 20
246.1327967462
 30
0.0
 11
127.0201146617
 21
246.1327967462
 31
0.0
  0
LINE
  5
433
  8
0
  6
CONTINUOUS
 62
     7
 10
117.6762352879
 20
146.1327967462
 30
0.0
 11
117.6762352879
 21
246.1327967462
 31
0.0
  0
LINE
  5
434
  8
0
  6
CONTINUOUS
 62
     7
 10
117.8201373329
 20
146.1327967462
 30
0.0
 11
117.6762352879
 21
146.1327967462
 31
0.0
  0
LINE
  5
435
  8
0
  6
CONTINUOUS
 62
     7
 10
117.8201373329
 20
246.1327967462
 30
0.0
 11
117.6762352879
 21
246.1327967462
 31
0.0
  0
LINE
  5
436
  8
0
  6
CONTINUOUS
 62
     7
 10
119.1640167067
 20
146.1327967462
 30
0.0
 11
119.1640167067
 21
246.1327967462
 31
0.0
  0
LINE
  5
437
  8
0
  6
CONTINUOUS
 62
     7
 10
119.1640167067
 20
146.1327967462
 30
0.0
 11
119.0201146617
 21
146.1327967462
 31
0.0
  0
LINE
  5
438
  8
0
  6
CONTINUOUS
 62
     7
 10
119.1640167067
 20
246.1327967462
 30
0.0
 11
119.0201146617
 21
246.1327967462
 31
0.0
  0
LINE
  5
439
  8
0
  6
CONTINUOUS
 62
     7
 10
111.1640167067
 20
146.1327967462
 30
0.0
 11
111.1640167067
 21
246.1327967462
 31
0.0
  0
LINE
  5
43A
  8
0
  6
CONTINUOUS
 62
     7
 10
111.1640167067
 20
146.1327967462
 30
0.0
 11
111.0201146617
 21
146.1327967462
 31
0.0
  0
LINE
  5
43B
  8
0
  6
CONTINUOUS
 62
     7
 10
111.1640167067
 20
246.1327967462
 30
0.0
 11
111.0201146617
 21
246.1327967462
 31
0.0
  0
LINE
  5
43C
  8
0
  6
CONTINUOUS
 62
     7
 10
109.6762352879
 20
146.1327967462
 30
0.0
 11
109.6762352879
 21
246.1327967462
 31
0.0
  0
LINE
  5
43D
  8
0
  6
CONTINUOUS
 62
     7
 10
109.8201373329
 20
146.1327967462
 30
0.0
 11
109.6762352879
 21
146.1327967462
 31
0.0
  0
LINE
  5
43E
  8
0
  6
CONTINUOUS
 62
     7
 10
109.8201373329
 20
246.1327967462
 30
0.0
 11
109.6762352879
 21
246.1327967462
 31
0.0
  0
LINE
  5
43F
  8
0
  6
CONTINUOUS
 62
     7
 10
95.1640167067
 20
146.1327967462
 30
0.0
 11
95.1640167067
 21
246.1327967462
 31
0.0
  0
LINE
  5
440
  8
0
  6
CONTINUOUS
 62
     7
 10
95.1640167067
 20
146.1327967462
 30
0.0
 11
95.0201146617
 21
146.1327967462
 31
0.0
  0
LINE
  5
441
  8
0
  6
CONTINUOUS
 62
     7
 10
95.1640167067
 20
246.1327967462
 30
0.0
 11
95.0201146617
 21
246.1327967462
 31
0.0
  0
LINE
  5
442
  8
0
  6
CONTINUOUS
 62
     7
 10
93.6762352879
 20
146.1327967462
 30
0.0
 11
93.6762352879
 21
246.1327967462
 31
0.0
  0
LINE
  5
443
  8
0
  6
CONTINUOUS
 62
     7
 10
93.8201373329
 20
146.1327967462
 30
0.0
 11
93.6762352879
 21
146.1327967462
 31
0.0
  0
LINE
  5
444
  8
0
  6
CONTINUOUS
 62
     7
 10
93.8201373329
 20
246.1327967462
 30
0.0
 11
93.6762352879
 21
246.1327967462
 31
0.0
  0
LINE
  5
445
  8
0
  6
CONTINUOUS
 62
     7
 10
103.1640167067
 20
146.1327967462
 30
0.0
 11
103.1640167067
 21
246.1327967462
 31
0.0
  0
LINE
  5
446
  8
0
  6
CONTINUOUS
 62
     7
 10
103.1640167067
 20
146.1327967462
 30
0.0
 11
103.0201146617
 21
146.1327967462
 31
0.0
  0
LINE
  5
447
  8
0
  6
CONTINUOUS
 62
     7
 10
103.1640167067
 20
246.1327967462
 30
0.0
 11
103.0201146617
 21
246.1327967462
 31
0.0
  0
LINE
  5
448
  8
0
  6
CONTINUOUS
 62
     7
 10
101.6762352879
 20
146.1327967462
 30
0.0
 11
101.6762352879
 21
246.1327967462
 31
0.0
  0
LINE
  5
449
  8
0
  6
CONTINUOUS
 62
     7
 10
101.8201373329
 20
146.1327967462
 30
0.0
 11
101.6762352879
 21
146.1327967462
 31
0.0
  0
LINE
  5
44A
  8
0
  6
CONTINUOUS
 62
     7
 10
101.8201373329
 20
246.1327967462
 30
0.0
 11
101.6762352879
 21
246.1327967462
 31
0.0
  0
LINE
  5
44B
  8
0
  6
CONTINUOUS
 62
     7
 10
85.6762352879
 20
146.1327967462
 30
0.0
 11
85.6762352879
 21
246.1327967462
 31
0.0
  0
LINE
  5
44C
  8
0
  6
CONTINUOUS
 62
     7
 10
85.8201373329
 20
146.1327967462
 30
0.0
 11
85.6762352879
 21
146.1327967462
 31
0.0
  0
LINE
  5
44D
  8
0
  6
CONTINUOUS
 62
     7
 10
85.8201373329
 20
246.1327967462
 30
0.0
 11
85.6762352879
 21
246.1327967462
 31
0.0
  0
LINE
  5
44E
  8
0
  6
CONTINUOUS
 62
     7
 10
87.1640167067
 20
146.1327967462
 30
0.0
 11
87.1640167067
 21
246.1327967462
 31
0.0
  0
LINE
  5
44F
  8
0
  6
CONTINUOUS
 62
     7
 10
87.1640167067
 20
146.1327967462
 30
0.0
 11
87.0201146617
 21
146.1327967462
 31
0.0
  0
LINE
  5
450
  8
0
  6
CONTINUOUS
 62
     7
 10
87.1640167067
 20
246.1327967462
 30
0.0
 11
87.0201146617
 21
246.1327967462
 31
0.0
  0
LINE
  5
451
  8
0
  6
CONTINUOUS
 62
     7
 10
285.9323634712
 20
146.1327967462
 30
0.0
 11
285.9323634712
 21
246.1327967462
 31
0.0
  0
LINE
  5
452
  8
0
  6
CONTINUOUS
 62
     7
 10
286.0762655162
 20
146.1327967462
 30
0.0
 11
285.9323634712
 21
146.1327967462
 31
0.0
  0
LINE
  5
453
  8
0
  6
CONTINUOUS
 62
     7
 10
286.0762655162
 20
246.1327967462
 30
0.0
 11
285.9323634712
 21
246.1327967462
 31
0.0
  0
LINE
  5
454
  8
0
  6
CONTINUOUS
 62
     7
 10
279.42014489
 20
146.1327967462
 30
0.0
 11
279.42014489
 21
246.1327967462
 31
0.0
  0
LINE
  5
455
  8
0
  6
CONTINUOUS
 62
     7
 10
279.42014489
 20
146.1327967462
 30
0.0
 11
279.276242845
 21
146.1327967462
 31
0.0
  0
LINE
  5
456
  8
0
  6
CONTINUOUS
 62
     7
 10
279.42014489
 20
246.1327967462
 30
0.0
 11
279.276242845
 21
246.1327967462
 31
0.0
  0
LINE
  5
457
  8
0
  6
CONTINUOUS
 62
     7
 10
277.9323634712
 20
146.1327967462
 30
0.0
 11
277.9323634712
 21
246.1327967462
 31
0.0
  0
LINE
  5
458
  8
0
  6
CONTINUOUS
 62
     7
 10
278.0762655162
 20
146.1327967462
 30
0.0
 11
277.9323634712
 21
146.1327967462
 31
0.0
  0
LINE
  5
459
  8
0
  6
CONTINUOUS
 62
     7
 10
278.0762655162
 20
246.1327967462
 30
0.0
 11
277.9323634712
 21
246.1327967462
 31
0.0
  0
LINE
  5
45A
  8
0
  6
CONTINUOUS
 62
     7
 10
271.42014489
 20
146.1327967462
 30
0.0
 11
271.42014489
 21
246.1327967462
 31
0.0
  0
LINE
  5
45B
  8
0
  6
CONTINUOUS
 62
     7
 10
271.42014489
 20
146.1327967462
 30
0.0
 11
271.276242845
 21
146.1327967462
 31
0.0
  0
LINE
  5
45C
  8
0
  6
CONTINUOUS
 62
     7
 10
271.42014489
 20
246.1327967462
 30
0.0
 11
271.276242845
 21
246.1327967462
 31
0.0
  0
LINE
  5
45D
  8
0
  6
CONTINUOUS
 62
     7
 10
287.42014489
 20
146.1327967462
 30
0.0
 11
287.42014489
 21
246.1327967462
 31
0.0
  0
LINE
  5
45E
  8
0
  6
CONTINUOUS
 62
     7
 10
287.42014489
 20
146.1327967462
 30
0.0
 11
287.276242845
 21
146.1327967462
 31
0.0
  0
LINE
  5
45F
  8
0
  6
CONTINUOUS
 62
     7
 10
287.42014489
 20
246.1327967462
 30
0.0
 11
287.276242845
 21
246.1327967462
 31
0.0
  0
LINE
  5
460
  8
0
  6
CONTINUOUS
 62
     7
 10
269.9323634712
 20
146.1327967462
 30
0.0
 11
269.9323634712
 21
246.1327967462
 31
0.0
  0
LINE
  5
461
  8
0
  6
CONTINUOUS
 62
     7
 10
270.0762655162
 20
146.1327967462
 30
0.0
 11
269.9323634712
 21
146.1327967462
 31
0.0
  0
LINE
  5
462
  8
0
  6
CONTINUOUS
 62
     7
 10
270.0762655162
 20
246.1327967462
 30
0.0
 11
269.9323634712
 21
246.1327967462
 31
0.0
  0
LINE
  5
463
  8
0
  6
CONTINUOUS
 62
     7
 10
252.6762541806
 20
146.1327967462
 30
0.0
 11
252.6762541806
 21
246.1327967462
 31
0.0
  0
LINE
  5
464
  8
0
  6
CONTINUOUS
 62
     7
 10
253.6762352879
 20
146.1327967462
 30
0.0
 11
252.6762541806
 21
146.1327967462
 31
0.0
  0
LINE
  5
465
  8
0
  6
CONTINUOUS
 62
     7
 10
253.6762352879
 20
246.1327967462
 30
0.0
 11
252.6762541806
 21
246.1327967462
 31
0.0
  0
LINE
  5
466
  8
0
  6
CONTINUOUS
 62
     7
 10
256.163997814
 20
146.1327967462
 30
0.0
 11
256.163997814
 21
246.1327967462
 31
0.0
  0
LINE
  5
467
  8
0
  6
CONTINUOUS
 62
     7
 10
256.163997814
 20
146.1327967462
 30
0.0
 11
255.1640167067
 21
146.1327967462
 31
0.0
  0
LINE
  5
468
  8
0
  6
CONTINUOUS
 62
     7
 10
256.163997814
 20
246.1327967462
 30
0.0
 11
255.1640167067
 21
246.1327967462
 31
0.0
  0
LINE
  5
469
  8
0
  6
CONTINUOUS
 62
     7
 10
260.6762541806
 20
146.1327967462
 30
0.0
 11
260.6762541806
 21
246.1327967462
 31
0.0
  0
LINE
  5
46A
  8
0
  6
CONTINUOUS
 62
     7
 10
261.6762352879
 20
146.1327967462
 30
0.0
 11
260.6762541806
 21
146.1327967462
 31
0.0
  0
LINE
  5
46B
  8
0
  6
CONTINUOUS
 62
     7
 10
261.6762352879
 20
246.1327967462
 30
0.0
 11
260.6762541806
 21
246.1327967462
 31
0.0
  0
LINE
  5
46C
  8
0
  6
CONTINUOUS
 62
     7
 10
248.163997814
 20
146.1327967462
 30
0.0
 11
248.163997814
 21
246.1327967462
 31
0.0
  0
LINE
  5
46D
  8
0
  6
CONTINUOUS
 62
     7
 10
248.163997814
 20
146.1327967462
 30
0.0
 11
247.1640167067
 21
146.1327967462
 31
0.0
  0
LINE
  5
46E
  8
0
  6
CONTINUOUS
 62
     7
 10
248.163997814
 20
246.1327967462
 30
0.0
 11
247.1640167067
 21
246.1327967462
 31
0.0
  0
LINE
  5
46F
  8
0
  6
CONTINUOUS
 62
     7
 10
244.6762541806
 20
146.1327967462
 30
0.0
 11
244.6762541806
 21
246.1327967462
 31
0.0
  0
LINE
  5
470
  8
0
  6
CONTINUOUS
 62
     7
 10
245.6762352879
 20
146.1327967462
 30
0.0
 11
244.6762541806
 21
146.1327967462
 31
0.0
  0
LINE
  5
471
  8
0
  6
CONTINUOUS
 62
     7
 10
245.6762352879
 20
246.1327967462
 30
0.0
 11
244.6762541806
 21
246.1327967462
 31
0.0
  0
LINE
  5
472
  8
0
  6
CONTINUOUS
 62
     7
 10
236.6762541806
 20
146.1327967462
 30
0.0
 11
236.6762541806
 21
246.1327967462
 31
0.0
  0
LINE
  5
473
  8
0
  6
CONTINUOUS
 62
     7
 10
237.6762352879
 20
146.1327967462
 30
0.0
 11
236.6762541806
 21
146.1327967462
 31
0.0
  0
LINE
  5
474
  8
0
  6
CONTINUOUS
 62
     7
 10
237.6762352879
 20
246.1327967462
 30
0.0
 11
236.6762541806
 21
246.1327967462
 31
0.0
  0
LINE
  5
475
  8
0
  6
CONTINUOUS
 62
     7
 10
240.163997814
 20
146.1327967462
 30
0.0
 11
240.163997814
 21
246.1327967462
 31
0.0
  0
LINE
  5
476
  8
0
  6
CONTINUOUS
 62
     7
 10
240.163997814
 20
146.1327967462
 30
0.0
 11
239.1640167067
 21
146.1327967462
 31
0.0
  0
LINE
  5
477
  8
0
  6
CONTINUOUS
 62
     7
 10
240.163997814
 20
246.1327967462
 30
0.0
 11
239.1640167067
 21
246.1327967462
 31
0.0
  0
LINE
  5
478
  8
0
  6
CONTINUOUS
 62
     7
 10
264.163997814
 20
146.1327967462
 30
0.0
 11
264.163997814
 21
246.1327967462
 31
0.0
  0
LINE
  5
479
  8
0
  6
CONTINUOUS
 62
     7
 10
264.163997814
 20
146.1327967462
 30
0.0
 11
263.1640167067
 21
146.1327967462
 31
0.0
  0
LINE
  5
47A
  8
0
  6
CONTINUOUS
 62
     7
 10
264.163997814
 20
246.1327967462
 30
0.0
 11
263.1640167067
 21
246.1327967462
 31
0.0
  0
LINE
  5
47B
  8
0
  6
CONTINUOUS
 62
     7
 10
232.163997814
 20
146.1327967462
 30
0.0
 11
232.163997814
 21
246.1327967462
 31
0.0
  0
LINE
  5
47C
  8
0
  6
CONTINUOUS
 62
     7
 10
232.163997814
 20
146.1327967462
 30
0.0
 11
231.1640167067
 21
146.1327967462
 31
0.0
  0
LINE
  5
47D
  8
0
  6
CONTINUOUS
 62
     7
 10
232.163997814
 20
246.1327967462
 30
0.0
 11
231.1640167067
 21
246.1327967462
 31
0.0
  0
LINE
  5
47E
  8
0
  6
CONTINUOUS
 62
     7
 10
180.6762541806
 20
146.1327967462
 30
0.0
 11
180.6762541806
 21
246.1327967462
 31
0.0
  0
LINE
  5
47F
  8
0
  6
CONTINUOUS
 62
     7
 10
181.6762352879
 20
146.1327967462
 30
0.0
 11
180.6762541806
 21
146.1327967462
 31
0.0
  0
LINE
  5
480
  8
0
  6
CONTINUOUS
 62
     7
 10
181.6762352879
 20
246.1327967462
 30
0.0
 11
180.6762541806
 21
246.1327967462
 31
0.0
  0
LINE
  5
481
  8
0
  6
CONTINUOUS
 62
     7
 10
228.6762541806
 20
146.1327967462
 30
0.0
 11
228.6762541806
 21
246.1327967462
 31
0.0
  0
LINE
  5
482
  8
0
  6
CONTINUOUS
 62
     7
 10
229.6762352879
 20
146.1327967462
 30
0.0
 11
228.6762541806
 21
146.1327967462
 31
0.0
  0
LINE
  5
483
  8
0
  6
CONTINUOUS
 62
     7
 10
229.6762352879
 20
246.1327967462
 30
0.0
 11
228.6762541806
 21
246.1327967462
 31
0.0
  0
LINE
  5
484
  8
0
  6
CONTINUOUS
 62
     7
 10
224.163997814
 20
146.1327967462
 30
0.0
 11
224.163997814
 21
246.1327967462
 31
0.0
  0
LINE
  5
485
  8
0
  6
CONTINUOUS
 62
     7
 10
224.163997814
 20
146.1327967462
 30
0.0
 11
223.1640167067
 21
146.1327967462
 31
0.0
  0
LINE
  5
486
  8
0
  6
CONTINUOUS
 62
     7
 10
224.163997814
 20
246.1327967462
 30
0.0
 11
223.1640167067
 21
246.1327967462
 31
0.0
  0
LINE
  5
487
  8
0
  6
CONTINUOUS
 62
     7
 10
220.6762541806
 20
146.1327967462
 30
0.0
 11
220.6762541806
 21
246.1327967462
 31
0.0
  0
LINE
  5
488
  8
0
  6
CONTINUOUS
 62
     7
 10
221.6762352879
 20
146.1327967462
 30
0.0
 11
220.6762541806
 21
146.1327967462
 31
0.0
  0
LINE
  5
489
  8
0
  6
CONTINUOUS
 62
     7
 10
221.6762352879
 20
246.1327967462
 30
0.0
 11
220.6762541806
 21
246.1327967462
 31
0.0
  0
LINE
  5
48A
  8
0
  6
CONTINUOUS
 62
     7
 10
184.163997814
 20
146.1327967462
 30
0.0
 11
184.163997814
 21
246.1327967462
 31
0.0
  0
LINE
  5
48B
  8
0
  6
CONTINUOUS
 62
     7
 10
184.163997814
 20
146.1327967462
 30
0.0
 11
183.1640167067
 21
146.1327967462
 31
0.0
  0
LINE
  5
48C
  8
0
  6
CONTINUOUS
 62
     7
 10
184.163997814
 20
246.1327967462
 30
0.0
 11
183.1640167067
 21
246.1327967462
 31
0.0
  0
LINE
  5
48D
  8
0
  6
CONTINUOUS
 62
     7
 10
216.163997814
 20
146.1327967462
 30
0.0
 11
216.163997814
 21
246.1327967462
 31
0.0
  0
LINE
  5
48E
  8
0
  6
CONTINUOUS
 62
     7
 10
216.163997814
 20
146.1327967462
 30
0.0
 11
215.1640167067
 21
146.1327967462
 31
0.0
  0
LINE
  5
48F
  8
0
  6
CONTINUOUS
 62
     7
 10
216.163997814
 20
246.1327967462
 30
0.0
 11
215.1640167067
 21
246.1327967462
 31
0.0
  0
LINE
  5
490
  8
0
  6
CONTINUOUS
 62
     7
 10
212.6762541806
 20
146.1327967462
 30
0.0
 11
212.6762541806
 21
246.1327967462
 31
0.0
  0
LINE
  5
491
  8
0
  6
CONTINUOUS
 62
     7
 10
213.6762352879
 20
146.1327967462
 30
0.0
 11
212.6762541806
 21
146.1327967462
 31
0.0
  0
LINE
  5
492
  8
0
  6
CONTINUOUS
 62
     7
 10
213.6762352879
 20
246.1327967462
 30
0.0
 11
212.6762541806
 21
246.1327967462
 31
0.0
  0
LINE
  5
493
  8
0
  6
CONTINUOUS
 62
     7
 10
172.6762541806
 20
146.1327967462
 30
0.0
 11
172.6762541806
 21
246.1327967462
 31
0.0
  0
LINE
  5
494
  8
0
  6
CONTINUOUS
 62
     7
 10
173.6762352879
 20
146.1327967462
 30
0.0
 11
172.6762541806
 21
146.1327967462
 31
0.0
  0
LINE
  5
495
  8
0
  6
CONTINUOUS
 62
     7
 10
173.6762352879
 20
246.1327967462
 30
0.0
 11
172.6762541806
 21
246.1327967462
 31
0.0
  0
LINE
  5
496
  8
0
  6
CONTINUOUS
 62
     7
 10
176.163997814
 20
146.1327967462
 30
0.0
 11
176.163997814
 21
246.1327967462
 31
0.0
  0
LINE
  5
497
  8
0
  6
CONTINUOUS
 62
     7
 10
176.163997814
 20
146.1327967462
 30
0.0
 11
175.1640167067
 21
146.1327967462
 31
0.0
  0
LINE
  5
498
  8
0
  6
CONTINUOUS
 62
     7
 10
176.163997814
 20
246.1327967462
 30
0.0
 11
175.1640167067
 21
246.1327967462
 31
0.0
  0
LINE
  5
499
  8
0
  6
CONTINUOUS
 62
     7
 10
164.6762541806
 20
146.1327967462
 30
0.0
 11
164.6762541806
 21
246.1327967462
 31
0.0
  0
LINE
  5
49A
  8
0
  6
CONTINUOUS
 62
     7
 10
165.6762352879
 20
146.1327967462
 30
0.0
 11
164.6762541806
 21
146.1327967462
 31
0.0
  0
LINE
  5
49B
  8
0
  6
CONTINUOUS
 62
     7
 10
165.6762352879
 20
246.1327967462
 30
0.0
 11
164.6762541806
 21
246.1327967462
 31
0.0
  0
LINE
  5
49C
  8
0
  6
CONTINUOUS
 62
     7
 10
168.163997814
 20
146.1327967462
 30
0.0
 11
168.163997814
 21
246.1327967462
 31
0.0
  0
LINE
  5
49D
  8
0
  6
CONTINUOUS
 62
     7
 10
168.163997814
 20
146.1327967462
 30
0.0
 11
167.1640167067
 21
146.1327967462
 31
0.0
  0
LINE
  5
49E
  8
0
  6
CONTINUOUS
 62
     7
 10
168.163997814
 20
246.1327967462
 30
0.0
 11
167.1640167067
 21
246.1327967462
 31
0.0
  0
LINE
  5
49F
  8
0
  6
CONTINUOUS
 62
     7
 10
188.6762541806
 20
146.1327967462
 30
0.0
 11
188.6762541806
 21
246.1327967462
 31
0.0
  0
LINE
  5
4A0
  8
0
  6
CONTINUOUS
 62
     7
 10
189.6762352879
 20
146.1327967462
 30
0.0
 11
188.6762541806
 21
146.1327967462
 31
0.0
  0
LINE
  5
4A1
  8
0
  6
CONTINUOUS
 62
     7
 10
189.6762352879
 20
246.1327967462
 30
0.0
 11
188.6762541806
 21
246.1327967462
 31
0.0
  0
LINE
  5
4A2
  8
0
  6
CONTINUOUS
 62
     7
 10
204.6762541806
 20
146.1327967462
 30
0.0
 11
204.6762541806
 21
246.1327967462
 31
0.0
  0
LINE
  5
4A3
  8
0
  6
CONTINUOUS
 62
     7
 10
205.6762352879
 20
146.1327967462
 30
0.0
 11
204.6762541806
 21
146.1327967462
 31
0.0
  0
LINE
  5
4A4
  8
0
  6
CONTINUOUS
 62
     7
 10
205.6762352879
 20
246.1327967462
 30
0.0
 11
204.6762541806
 21
246.1327967462
 31
0.0
  0
LINE
  5
4A5
  8
0
  6
CONTINUOUS
 62
     7
 10
196.6762541806
 20
146.1327967462
 30
0.0
 11
196.6762541806
 21
246.1327967462
 31
0.0
  0
LINE
  5
4A6
  8
0
  6
CONTINUOUS
 62
     7
 10
197.6762352879
 20
146.1327967462
 30
0.0
 11
196.6762541806
 21
146.1327967462
 31
0.0
  0
LINE
  5
4A7
  8
0
  6
CONTINUOUS
 62
     7
 10
197.6762352879
 20
246.1327967462
 30
0.0
 11
196.6762541806
 21
246.1327967462
 31
0.0
  0
LINE
  5
4A8
  8
0
  6
CONTINUOUS
 62
     7
 10
152.163997814
 20
146.1327967462
 30
0.0
 11
152.163997814
 21
246.1327967462
 31
0.0
  0
LINE
  5
4A9
  8
0
  6
CONTINUOUS
 62
     7
 10
152.163997814
 20
146.1327967462
 30
0.0
 11
151.1640167067
 21
146.1327967462
 31
0.0
  0
LINE
  5
4AA
  8
0
  6
CONTINUOUS
 62
     7
 10
152.163997814
 20
246.1327967462
 30
0.0
 11
151.1640167067
 21
246.1327967462
 31
0.0
  0
LINE
  5
4AB
  8
0
  6
CONTINUOUS
 62
     7
 10
156.6762541806
 20
146.1327967462
 30
0.0
 11
156.6762541806
 21
246.1327967462
 31
0.0
  0
LINE
  5
4AC
  8
0
  6
CONTINUOUS
 62
     7
 10
157.6762352879
 20
146.1327967462
 30
0.0
 11
156.6762541806
 21
146.1327967462
 31
0.0
  0
LINE
  5
4AD
  8
0
  6
CONTINUOUS
 62
     7
 10
157.6762352879
 20
246.1327967462
 30
0.0
 11
156.6762541806
 21
246.1327967462
 31
0.0
  0
LINE
  5
4AE
  8
0
  6
CONTINUOUS
 62
     7
 10
208.163997814
 20
146.1327967462
 30
0.0
 11
208.163997814
 21
246.1327967462
 31
0.0
  0
LINE
  5
4AF
  8
0
  6
CONTINUOUS
 62
     7
 10
208.163997814
 20
146.1327967462
 30
0.0
 11
207.1640167067
 21
146.1327967462
 31
0.0
  0
LINE
  5
4B0
  8
0
  6
CONTINUOUS
 62
     7
 10
208.163997814
 20
246.1327967462
 30
0.0
 11
207.1640167067
 21
246.1327967462
 31
0.0
  0
LINE
  5
4B1
  8
0
  6
CONTINUOUS
 62
     7
 10
200.163997814
 20
146.1327967462
 30
0.0
 11
200.163997814
 21
246.1327967462
 31
0.0
  0
LINE
  5
4B2
  8
0
  6
CONTINUOUS
 62
     7
 10
200.163997814
 20
146.1327967462
 30
0.0
 11
199.1640167067
 21
146.1327967462
 31
0.0
  0
LINE
  5
4B3
  8
0
  6
CONTINUOUS
 62
     7
 10
200.163997814
 20
246.1327967462
 30
0.0
 11
199.1640167067
 21
246.1327967462
 31
0.0
  0
LINE
  5
4B4
  8
0
  6
CONTINUOUS
 62
     7
 10
148.6762541806
 20
146.1327967462
 30
0.0
 11
148.6762541806
 21
246.1327967462
 31
0.0
  0
LINE
  5
4B5
  8
0
  6
CONTINUOUS
 62
     7
 10
149.6762352879
 20
146.1327967462
 30
0.0
 11
148.6762541806
 21
146.1327967462
 31
0.0
  0
LINE
  5
4B6
  8
0
  6
CONTINUOUS
 62
     7
 10
149.6762352879
 20
246.1327967462
 30
0.0
 11
148.6762541806
 21
246.1327967462
 31
0.0
  0
LINE
  5
4B7
  8
0
  6
CONTINUOUS
 62
     7
 10
192.163997814
 20
146.1327967462
 30
0.0
 11
192.163997814
 21
246.1327967462
 31
0.0
  0
LINE
  5
4B8
  8
0
  6
CONTINUOUS
 62
     7
 10
192.163997814
 20
146.1327967462
 30
0.0
 11
191.1640167067
 21
146.1327967462
 31
0.0
  0
LINE
  5
4B9
  8
0
  6
CONTINUOUS
 62
     7
 10
192.163997814
 20
246.1327967462
 30
0.0
 11
191.1640167067
 21
246.1327967462
 31
0.0
  0
LINE
  5
4BA
  8
0
  6
CONTINUOUS
 62
     7
 10
160.163997814
 20
146.1327967462
 30
0.0
 11
160.163997814
 21
246.1327967462
 31
0.0
  0
LINE
  5
4BB
  8
0
  6
CONTINUOUS
 62
     7
 10
160.163997814
 20
146.1327967462
 30
0.0
 11
159.1640167067
 21
146.1327967462
 31
0.0
  0
LINE
  5
4BC
  8
0
  6
CONTINUOUS
 62
     7
 10
160.163997814
 20
246.1327967462
 30
0.0
 11
159.1640167067
 21
246.1327967462
 31
0.0
  0
LINE
  5
4BD
  8
0
  6
CONTINUOUS
 62
     7
 10
144.163997814
 20
146.1327967462
 30
0.0
 11
144.163997814
 21
246.1327967462
 31
0.0
  0
LINE
  5
4BE
  8
0
  6
CONTINUOUS
 62
     7
 10
144.163997814
 20
146.1327967462
 30
0.0
 11
143.1640167067
 21
146.1327967462
 31
0.0
  0
LINE
  5
4BF
  8
0
  6
CONTINUOUS
 62
     7
 10
144.163997814
 20
246.1327967462
 30
0.0
 11
143.1640167067
 21
246.1327967462
 31
0.0
  0
LINE
  5
4C0
  8
0
  6
CONTINUOUS
 62
     7
 10
136.163997814
 20
146.1327967462
 30
0.0
 11
136.163997814
 21
246.1327967462
 31
0.0
  0
LINE
  5
4C1
  8
0
  6
CONTINUOUS
 62
     7
 10
136.163997814
 20
146.1327967462
 30
0.0
 11
135.1640167067
 21
146.1327967462
 31
0.0
  0
LINE
  5
4C2
  8
0
  6
CONTINUOUS
 62
     7
 10
136.163997814
 20
246.1327967462
 30
0.0
 11
135.1640167067
 21
246.1327967462
 31
0.0
  0
LINE
  5
4C3
  8
0
  6
CONTINUOUS
 62
     7
 10
132.6762541806
 20
146.1327967462
 30
0.0
 11
132.6762541806
 21
246.1327967462
 31
0.0
  0
LINE
  5
4C4
  8
0
  6
CONTINUOUS
 62
     7
 10
133.6762352879
 20
146.1327967462
 30
0.0
 11
132.6762541806
 21
146.1327967462
 31
0.0
  0
LINE
  5
4C5
  8
0
  6
CONTINUOUS
 62
     7
 10
133.6762352879
 20
246.1327967462
 30
0.0
 11
132.6762541806
 21
246.1327967462
 31
0.0
  0
LINE
  5
4C6
  8
0
  6
CONTINUOUS
 62
     7
 10
128.163997814
 20
146.1327967462
 30
0.0
 11
128.163997814
 21
246.1327967462
 31
0.0
  0
LINE
  5
4C7
  8
0
  6
CONTINUOUS
 62
     7
 10
128.163997814
 20
146.1327967462
 30
0.0
 11
127.1640167067
 21
146.1327967462
 31
0.0
  0
LINE
  5
4C8
  8
0
  6
CONTINUOUS
 62
     7
 10
128.163997814
 20
246.1327967462
 30
0.0
 11
127.1640167067
 21
246.1327967462
 31
0.0
  0
LINE
  5
4C9
  8
0
  6
CONTINUOUS
 62
     7
 10
124.6762541806
 20
146.1327967462
 30
0.0
 11
124.6762541806
 21
246.1327967462
 31
0.0
  0
LINE
  5
4CA
  8
0
  6
CONTINUOUS
 62
     7
 10
125.6762352879
 20
146.1327967462
 30
0.0
 11
124.6762541806
 21
146.1327967462
 31
0.0
  0
LINE
  5
4CB
  8
0
  6
CONTINUOUS
 62
     7
 10
125.6762352879
 20
246.1327967462
 30
0.0
 11
124.6762541806
 21
246.1327967462
 31
0.0
  0
LINE
  5
4CC
  8
0
  6
CONTINUOUS
 62
     7
 10
140.6762541806
 20
146.1327967462
 30
0.0
 11
140.6762541806
 21
246.1327967462
 31
0.0
  0
LINE
  5
4CD
  8
0
  6
CONTINUOUS
 62
     7
 10
141.6762352879
 20
146.1327967462
 30
0.0
 11
140.6762541806
 21
146.1327967462
 31
0.0
  0
LINE
  5
4CE
  8
0
  6
CONTINUOUS
 62
     7
 10
141.6762352879
 20
246.1327967462
 30
0.0
 11
140.6762541806
 21
246.1327967462
 31
0.0
  0
LINE
  5
4CF
  8
0
  6
CONTINUOUS
 62
     7
 10
120.163997814
 20
146.1327967462
 30
0.0
 11
120.163997814
 21
246.1327967462
 31
0.0
  0
LINE
  5
4D0
  8
0
  6
CONTINUOUS
 62
     7
 10
120.163997814
 20
146.1327967462
 30
0.0
 11
119.1640167067
 21
146.1327967462
 31
0.0
  0
LINE
  5
4D1
  8
0
  6
CONTINUOUS
 62
     7
 10
120.163997814
 20
246.1327967462
 30
0.0
 11
119.1640167067
 21
246.1327967462
 31
0.0
  0
LINE
  5
4D2
  8
0
  6
CONTINUOUS
 62
     7
 10
116.6762541806
 20
146.1327967462
 30
0.0
 11
116.6762541806
 21
246.1327967462
 31
0.0
  0
LINE
  5
4D3
  8
0
  6
CONTINUOUS
 62
     7
 10
117.6762352879
 20
146.1327967462
 30
0.0
 11
116.6762541806
 21
146.1327967462
 31
0.0
  0
LINE
  5
4D4
  8
0
  6
CONTINUOUS
 62
     7
 10
117.6762352879
 20
246.1327967462
 30
0.0
 11
116.6762541806
 21
246.1327967462
 31
0.0
  0
LINE
  5
4D5
  8
0
  6
CONTINUOUS
 62
     7
 10
112.163997814
 20
146.1327967462
 30
0.0
 11
112.163997814
 21
246.1327967462
 31
0.0
  0
LINE
  5
4D6
  8
0
  6
CONTINUOUS
 62
     7
 10
112.163997814
 20
146.1327967462
 30
0.0
 11
111.1640167067
 21
146.1327967462
 31
0.0
  0
LINE
  5
4D7
  8
0
  6
CONTINUOUS
 62
     7
 10
112.163997814
 20
246.1327967462
 30
0.0
 11
111.1640167067
 21
246.1327967462
 31
0.0
  0
LINE
  5
4D8
  8
0
  6
CONTINUOUS
 62
     7
 10
108.6762541806
 20
146.1327967462
 30
0.0
 11
108.6762541806
 21
246.1327967462
 31
0.0
  0
LINE
  5
4D9
  8
0
  6
CONTINUOUS
 62
     7
 10
109.6762352879
 20
146.1327967462
 30
0.0
 11
108.6762541806
 21
146.1327967462
 31
0.0
  0
LINE
  5
4DA
  8
0
  6
CONTINUOUS
 62
     7
 10
109.6762352879
 20
246.1327967462
 30
0.0
 11
108.6762541806
 21
246.1327967462
 31
0.0
  0
LINE
  5
4DB
  8
0
  6
CONTINUOUS
 62
     7
 10
104.163997814
 20
146.1327967462
 30
0.0
 11
104.163997814
 21
246.1327967462
 31
0.0
  0
LINE
  5
4DC
  8
0
  6
CONTINUOUS
 62
     7
 10
104.163997814
 20
146.1327967462
 30
0.0
 11
103.1640167067
 21
146.1327967462
 31
0.0
  0
LINE
  5
4DD
  8
0
  6
CONTINUOUS
 62
     7
 10
104.163997814
 20
246.1327967462
 30
0.0
 11
103.1640167067
 21
246.1327967462
 31
0.0
  0
LINE
  5
4DE
  8
0
  6
CONTINUOUS
 62
     7
 10
96.163997814
 20
146.1327967462
 30
0.0
 11
96.163997814
 21
246.1327967462
 31
0.0
  0
LINE
  5
4DF
  8
0
  6
CONTINUOUS
 62
     7
 10
96.163997814
 20
146.1327967462
 30
0.0
 11
95.1640167067
 21
146.1327967462
 31
0.0
  0
LINE
  5
4E0
  8
0
  6
CONTINUOUS
 62
     7
 10
96.163997814
 20
246.1327967462
 30
0.0
 11
95.1640167067
 21
246.1327967462
 31
0.0
  0
LINE
  5
4E1
  8
0
  6
CONTINUOUS
 62
     7
 10
92.6762541806
 20
146.1327967462
 30
0.0
 11
92.6762541806
 21
246.1327967462
 31
0.0
  0
LINE
  5
4E2
  8
0
  6
CONTINUOUS
 62
     7
 10
93.6762352879
 20
146.1327967462
 30
0.0
 11
92.6762541806
 21
146.1327967462
 31
0.0
  0
LINE
  5
4E3
  8
0
  6
CONTINUOUS
 62
     7
 10
93.6762352879
 20
246.1327967462
 30
0.0
 11
92.6762541806
 21
246.1327967462
 31
0.0
  0
LINE
  5
4E4
  8
0
  6
CONTINUOUS
 62
     7
 10
100.6762541806
 20
146.1327967462
 30
0.0
 11
100.6762541806
 21
246.1327967462
 31
0.0
  0
LINE
  5
4E5
  8
0
  6
CONTINUOUS
 62
     7
 10
101.6762352879
 20
146.1327967462
 30
0.0
 11
100.6762541806
 21
146.1327967462
 31
0.0
  0
LINE
  5
4E6
  8
0
  6
CONTINUOUS
 62
     7
 10
101.6762352879
 20
246.1327967462
 30
0.0
 11
100.6762541806
 21
246.1327967462
 31
0.0
  0
LINE
  5
4E7
  8
0
  6
CONTINUOUS
 62
     7
 10
88.163997814
 20
146.1327967462
 30
0.0
 11
88.163997814
 21
246.1327967462
 31
0.0
  0
LINE
  5
4E8
  8
0
  6
CONTINUOUS
 62
     7
 10
88.163997814
 20
146.1327967462
 30
0.0
 11
87.1640167067
 21
146.1327967462
 31
0.0
  0
LINE
  5
4E9
  8
0
  6
CONTINUOUS
 62
     7
 10
88.163997814
 20
246.1327967462
 30
0.0
 11
87.1640167067
 21
246.1327967462
 31
0.0
  0
LINE
  5
4EA
  8
0
  6
CONTINUOUS
 62
     7
 10
276.9323823639
 20
146.1327967462
 30
0.0
 11
276.9323823639
 21
246.1327967462
 31
0.0
  0
LINE
  5
4EB
  8
0
  6
CONTINUOUS
 62
     7
 10
277.9323634712
 20
146.1327967462
 30
0.0
 11
276.9323823639
 21
146.1327967462
 31
0.0
  0
LINE
  5
4EC
  8
0
  6
CONTINUOUS
 62
     7
 10
277.9323634712
 20
246.1327967462
 30
0.0
 11
276.9323823639
 21
246.1327967462
 31
0.0
  0
LINE
  5
4ED
  8
0
  6
CONTINUOUS
 62
     7
 10
284.9323823639
 20
146.1327967462
 30
0.0
 11
284.9323823639
 21
246.1327967462
 31
0.0
  0
LINE
  5
4EE
  8
0
  6
CONTINUOUS
 62
     7
 10
285.9323634712
 20
146.1327967462
 30
0.0
 11
284.9323823639
 21
146.1327967462
 31
0.0
  0
LINE
  5
4EF
  8
0
  6
CONTINUOUS
 62
     7
 10
285.9323634712
 20
246.1327967462
 30
0.0
 11
284.9323823639
 21
246.1327967462
 31
0.0
  0
LINE
  5
4F0
  8
0
  6
CONTINUOUS
 62
     7
 10
280.4201259973
 20
146.1327967462
 30
0.0
 11
280.4201259973
 21
246.1327967462
 31
0.0
  0
LINE
  5
4F1
  8
0
  6
CONTINUOUS
 62
     7
 10
280.4201259973
 20
146.1327967462
 30
0.0
 11
279.42014489
 21
146.1327967462
 31
0.0
  0
LINE
  5
4F2
  8
0
  6
CONTINUOUS
 62
     7
 10
280.4201259973
 20
246.1327967462
 30
0.0
 11
279.42014489
 21
246.1327967462
 31
0.0
  0
LINE
  5
4F3
  8
0
  6
CONTINUOUS
 62
     7
 10
84.6762541806
 20
146.1327967462
 30
0.0
 11
84.6762541806
 21
246.1327967462
 31
0.0
  0
LINE
  5
4F4
  8
0
  6
CONTINUOUS
 62
     7
 10
85.6762352879
 20
146.1327967462
 30
0.0
 11
84.6762541806
 21
146.1327967462
 31
0.0
  0
LINE
  5
4F5
  8
0
  6
CONTINUOUS
 62
     7
 10
85.6762352879
 20
246.1327967462
 30
0.0
 11
84.6762541806
 21
246.1327967462
 31
0.0
  0
LINE
  5
4F6
  8
0
  6
CONTINUOUS
 62
     7
 10
288.676205357
 20
146.1327967462
 30
0.0
 11
288.676205357
 21
246.1327967462
 31
0.0
  0
LINE
  5
4F7
  8
0
  6
CONTINUOUS
 62
     7
 10
288.676205357
 20
146.1327967462
 30
0.0
 11
287.42014489
 21
146.1327967462
 31
0.0
  0
LINE
  5
4F8
  8
0
  6
CONTINUOUS
 62
     7
 10
288.676205357
 20
246.1327967462
 30
0.0
 11
287.42014489
 21
246.1327967462
 31
0.0
  0
LINE
  5
4F9
  8
0
  6
CONTINUOUS
 62
     7
 10
268.6762541806
 20
146.1327967462
 30
0.0
 11
268.6762541806
 21
246.1327967462
 31
0.0
  0
LINE
  5
4FA
  8
0
  6
CONTINUOUS
 62
     7
 10
269.9323634712
 20
146.1327967462
 30
0.0
 11
268.6762541806
 21
146.1327967462
 31
0.0
  0
LINE
  5
4FB
  8
0
  6
CONTINUOUS
 62
     7
 10
269.9323634712
 20
246.1327967462
 30
0.0
 11
268.6762541806
 21
246.1327967462
 31
0.0
  0
LINE
  5
4FC
  8
0
  6
CONTINUOUS
 62
     7
 10
272.4201259973
 20
146.1327967462
 30
0.0
 11
272.4201259973
 21
246.1327967462
 31
0.0
  0
LINE
  5
4FD
  8
0
  6
CONTINUOUS
 62
     7
 10
272.4201259973
 20
146.1327967462
 30
0.0
 11
271.42014489
 21
146.1327967462
 31
0.0
  0
LINE
  5
4FE
  8
0
  6
CONTINUOUS
 62
     7
 10
272.4201259973
 20
246.1327967462
 30
0.0
 11
271.42014489
 21
246.1327967462
 31
0.0
  0
LINE
  5
4FF
  8
0
  6
CONTINUOUS
 62
     7
 10
301.6762541806
 20
146.1327967462
 30
0.0
 11
301.6762541806
 21
246.1327967462
 31
0.0
  0
LINE
  5
500
  8
0
  6
CONTINUOUS
 62
     7
 10
301.6762541806
 20
146.1327967462
 30
0.0
 11
288.676205357
 21
146.1327967462
 31
0.0
  0
LINE
  5
501
  8
0
  6
CONTINUOUS
 62
     7
 10
301.6762541806
 20
246.1327967462
 30
0.0
 11
288.676205357
 21
246.1327967462
 31
0.0
  0
LINE
  5
502
  8
0
  6
CONTINUOUS
 62
     7
 10
260.6762541806
 20
146.1327967462
 30
0.0
 11
256.163997814
 21
146.1327967462
 31
0.0
  0
LINE
  5
503
  8
0
  6
CONTINUOUS
 62
     7
 10
260.6762541806
 20
246.1327967462
 30
0.0
 11
256.163997814
 21
246.1327967462
 31
0.0
  0
LINE
  5
504
  8
0
  6
CONTINUOUS
 62
     7
 10
252.6762541806
 20
146.1327967462
 30
0.0
 11
248.163997814
 21
146.1327967462
 31
0.0
  0
LINE
  5
505
  8
0
  6
CONTINUOUS
 62
     7
 10
252.6762541806
 20
246.1327967462
 30
0.0
 11
248.163997814
 21
246.1327967462
 31
0.0
  0
LINE
  5
506
  8
0
  6
CONTINUOUS
 62
     7
 10
244.6762541806
 20
146.1327967462
 30
0.0
 11
240.163997814
 21
146.1327967462
 31
0.0
  0
LINE
  5
507
  8
0
  6
CONTINUOUS
 62
     7
 10
244.6762541806
 20
246.1327967462
 30
0.0
 11
240.163997814
 21
246.1327967462
 31
0.0
  0
LINE
  5
508
  8
0
  6
CONTINUOUS
 62
     7
 10
268.6762541806
 20
146.1327967462
 30
0.0
 11
264.163997814
 21
146.1327967462
 31
0.0
  0
LINE
  5
509
  8
0
  6
CONTINUOUS
 62
     7
 10
268.6762541806
 20
246.1327967462
 30
0.0
 11
264.163997814
 21
246.1327967462
 31
0.0
  0
LINE
  5
50A
  8
0
  6
CONTINUOUS
 62
     7
 10
236.6762541806
 20
146.1327967462
 30
0.0
 11
232.163997814
 21
146.1327967462
 31
0.0
  0
LINE
  5
50B
  8
0
  6
CONTINUOUS
 62
     7
 10
236.6762541806
 20
246.1327967462
 30
0.0
 11
232.163997814
 21
246.1327967462
 31
0.0
  0
LINE
  5
50C
  8
0
  6
CONTINUOUS
 62
     7
 10
188.6762541806
 20
146.1327967462
 30
0.0
 11
184.163997814
 21
146.1327967462
 31
0.0
  0
LINE
  5
50D
  8
0
  6
CONTINUOUS
 62
     7
 10
188.6762541806
 20
246.1327967462
 30
0.0
 11
184.163997814
 21
246.1327967462
 31
0.0
  0
LINE
  5
50E
  8
0
  6
CONTINUOUS
 62
     7
 10
228.6762541806
 20
146.1327967462
 30
0.0
 11
224.163997814
 21
146.1327967462
 31
0.0
  0
LINE
  5
50F
  8
0
  6
CONTINUOUS
 62
     7
 10
228.6762541806
 20
246.1327967462
 30
0.0
 11
224.163997814
 21
246.1327967462
 31
0.0
  0
LINE
  5
510
  8
0
  6
CONTINUOUS
 62
     7
 10
220.6762541806
 20
146.1327967462
 30
0.0
 11
216.163997814
 21
146.1327967462
 31
0.0
  0
LINE
  5
511
  8
0
  6
CONTINUOUS
 62
     7
 10
220.6762541806
 20
246.1327967462
 30
0.0
 11
216.163997814
 21
246.1327967462
 31
0.0
  0
LINE
  5
512
  8
0
  6
CONTINUOUS
 62
     7
 10
180.6762541806
 20
146.1327967462
 30
0.0
 11
176.163997814
 21
146.1327967462
 31
0.0
  0
LINE
  5
513
  8
0
  6
CONTINUOUS
 62
     7
 10
180.6762541806
 20
246.1327967462
 30
0.0
 11
176.163997814
 21
246.1327967462
 31
0.0
  0
LINE
  5
514
  8
0
  6
CONTINUOUS
 62
     7
 10
172.6762541806
 20
146.1327967462
 30
0.0
 11
168.163997814
 21
146.1327967462
 31
0.0
  0
LINE
  5
515
  8
0
  6
CONTINUOUS
 62
     7
 10
172.6762541806
 20
246.1327967462
 30
0.0
 11
168.163997814
 21
246.1327967462
 31
0.0
  0
LINE
  5
516
  8
0
  6
CONTINUOUS
 62
     7
 10
156.6762541806
 20
146.1327967462
 30
0.0
 11
152.163997814
 21
146.1327967462
 31
0.0
  0
LINE
  5
517
  8
0
  6
CONTINUOUS
 62
     7
 10
156.6762541806
 20
246.1327967462
 30
0.0
 11
152.163997814
 21
246.1327967462
 31
0.0
  0
LINE
  5
518
  8
0
  6
CONTINUOUS
 62
     7
 10
212.6762541806
 20
146.1327967462
 30
0.0
 11
208.163997814
 21
146.1327967462
 31
0.0
  0
LINE
  5
519
  8
0
  6
CONTINUOUS
 62
     7
 10
212.6762541806
 20
246.1327967462
 30
0.0
 11
208.163997814
 21
246.1327967462
 31
0.0
  0
LINE
  5
51A
  8
0
  6
CONTINUOUS
 62
     7
 10
204.6762541806
 20
146.1327967462
 30
0.0
 11
200.163997814
 21
146.1327967462
 31
0.0
  0
LINE
  5
51B
  8
0
  6
CONTINUOUS
 62
     7
 10
204.6762541806
 20
246.1327967462
 30
0.0
 11
200.163997814
 21
246.1327967462
 31
0.0
  0
LINE
  5
51C
  8
0
  6
CONTINUOUS
 62
     7
 10
196.6762541806
 20
146.1327967462
 30
0.0
 11
192.163997814
 21
146.1327967462
 31
0.0
  0
LINE
  5
51D
  8
0
  6
CONTINUOUS
 62
     7
 10
196.6762541806
 20
246.1327967462
 30
0.0
 11
192.163997814
 21
246.1327967462
 31
0.0
  0
LINE
  5
51E
  8
0
  6
CONTINUOUS
 62
     7
 10
164.6762541806
 20
146.1327967462
 30
0.0
 11
160.163997814
 21
146.1327967462
 31
0.0
  0
LINE
  5
51F
  8
0
  6
CONTINUOUS
 62
     7
 10
164.6762541806
 20
246.1327967462
 30
0.0
 11
160.163997814
 21
246.1327967462
 31
0.0
  0
LINE
  5
520
  8
0
  6
CONTINUOUS
 62
     7
 10
148.6762541806
 20
146.1327967462
 30
0.0
 11
144.163997814
 21
146.1327967462
 31
0.0
  0
LINE
  5
521
  8
0
  6
CONTINUOUS
 62
     7
 10
148.6762541806
 20
246.1327967462
 30
0.0
 11
144.163997814
 21
246.1327967462
 31
0.0
  0
LINE
  5
522
  8
0
  6
CONTINUOUS
 62
     7
 10
140.6762541806
 20
146.1327967462
 30
0.0
 11
136.163997814
 21
146.1327967462
 31
0.0
  0
LINE
  5
523
  8
0
  6
CONTINUOUS
 62
     7
 10
140.6762541806
 20
246.1327967462
 30
0.0
 11
136.163997814
 21
246.1327967462
 31
0.0
  0
LINE
  5
524
  8
0
  6
CONTINUOUS
 62
     7
 10
132.6762541806
 20
146.1327967462
 30
0.0
 11
128.163997814
 21
146.1327967462
 31
0.0
  0
LINE
  5
525
  8
0
  6
CONTINUOUS
 62
     7
 10
132.6762541806
 20
246.1327967462
 30
0.0
 11
128.163997814
 21
246.1327967462
 31
0.0
  0
LINE
  5
526
  8
0
  6
CONTINUOUS
 62
     7
 10
124.6762541806
 20
146.1327967462
 30
0.0
 11
120.163997814
 21
146.1327967462
 31
0.0
  0
LINE
  5
527
  8
0
  6
CONTINUOUS
 62
     7
 10
124.6762541806
 20
246.1327967462
 30
0.0
 11
120.163997814
 21
246.1327967462
 31
0.0
  0
LINE
  5
528
  8
0
  6
CONTINUOUS
 62
     7
 10
116.6762541806
 20
146.1327967462
 30
0.0
 11
112.163997814
 21
146.1327967462
 31
0.0
  0
LINE
  5
529
  8
0
  6
CONTINUOUS
 62
     7
 10
116.6762541806
 20
246.1327967462
 30
0.0
 11
112.163997814
 21
246.1327967462
 31
0.0
  0
LINE
  5
52A
  8
0
  6
CONTINUOUS
 62
     7
 10
108.6762541806
 20
146.1327967462
 30
0.0
 11
104.163997814
 21
146.1327967462
 31
0.0
  0
LINE
  5
52B
  8
0
  6
CONTINUOUS
 62
     7
 10
108.6762541806
 20
246.1327967462
 30
0.0
 11
104.163997814
 21
246.1327967462
 31
0.0
  0
LINE
  5
52C
  8
0
  6
CONTINUOUS
 62
     7
 10
100.6762541806
 20
146.1327967462
 30
0.0
 11
96.163997814
 21
146.1327967462
 31
0.0
  0
LINE
  5
52D
  8
0
  6
CONTINUOUS
 62
     7
 10
100.6762541806
 20
246.1327967462
 30
0.0
 11
96.163997814
 21
246.1327967462
 31
0.0
  0
LINE
  5
52E
  8
0
  6
CONTINUOUS
 62
     7
 10
276.9323823639
 20
146.1327967462
 30
0.0
 11
272.4201259973
 21
146.1327967462
 31
0.0
  0
LINE
  5
52F
  8
0
  6
CONTINUOUS
 62
     7
 10
276.9323823639
 20
246.1327967462
 30
0.0
 11
272.4201259973
 21
246.1327967462
 31
0.0
  0
LINE
  5
530
  8
0
  6
CONTINUOUS
 62
     7
 10
92.6762541806
 20
146.1327967462
 30
0.0
 11
88.163997814
 21
146.1327967462
 31
0.0
  0
LINE
  5
531
  8
0
  6
CONTINUOUS
 62
     7
 10
92.6762541806
 20
246.1327967462
 30
0.0
 11
88.163997814
 21
246.1327967462
 31
0.0
  0
LINE
  5
532
  8
0
  6
CONTINUOUS
 62
     7
 10
284.9323823639
 20
146.1327967462
 30
0.0
 11
280.4201259973
 21
146.1327967462
 31
0.0
  0
LINE
  5
533
  8
0
  6
CONTINUOUS
 62
     7
 10
284.9323823639
 20
246.1327967462
 30
0.0
 11
280.4201259973
 21
246.1327967462
 31
0.0
  0
LINE
  5
534
  8
0
  6
CONTINUOUS
 62
     7
 10
71.6762541806
 20
146.1327967462
 30
0.0
 11
71.6762541806
 21
246.1327967462
 31
0.0
  0
LINE
  5
535
  8
0
  6
CONTINUOUS
 62
     7
 10
84.6762541806
 20
146.1327967462
 30
0.0
 11
71.6762541806
 21
146.1327967462
 31
0.0
  0
LINE
  5
536
  8
0
  6
CONTINUOUS
 62
     7
 10
84.6762541806
 20
246.1327967462
 30
0.0
 11
71.6762541806
 21
246.1327967462
 31
0.0
  0
ENDSEC
  0
EOF
