  0
SECTION
  2
HEADER
  9
$ACADVER
  1
AC1009
  9
$INSBASE
 10
0.0
 20
0.0
 30
0.0
  9
$EXTMIN
 10
0.0
 20
0.0
 30
0.0
  9
$EXTMAX
 10
420.0
 20
297.0
 30
0.0
  9
$LIMMIN
 10
-76.0
 20
-57.55
  9
$LIMMAX
 10
496.0
 20
354.55
  9
$ORTHOMODE
 70
     1
  9
$REGENMODE
 70
     1
  9
$FILLMODE
 70
     1
  9
$QTEXTMODE
 70
     0
  9
$MIRRTEXT
 70
     0
  9
$DRAGMODE
 70
     2
  9
$LTSCALE
 40
5.0
  9
$OSMODE
 70
     1
  9
$ATTMODE
 70
     1
  9
$TEXTSIZE
 40
3.5
  9
$TRACEWID
 40
0.05
  9
$TEXTSTYLE
  7
NORM
  9
$CLAYER
  8
BEMASSUNG
  9
$CELTYPE
  6
BYLAYER
  9
$CECOLOR
 62
   256
  9
$DIMSCALE
 40
1.0
  9
$DIMASZ
 40
3.5
  9
$DIMEXO
 40
0.0
  9
$DIMDLI
 40
6.0
  9
$DIMRND
 40
0.0
  9
$DIMDLE
 40
0.0
  9
$DIMEXE
 40
0.5
  9
$DIMTP
 40
0.0
  9
$DIMTM
 40
0.0
  9
$DIMTXT
 40
3.0
  9
$DIMCEN
 40
0.0
  9
$DIMTSZ
 40
0.0
  9
$DIMTOL
 70
     0
  9
$DIMLIM
 70
     0
  9
$DIMTIH
 70
     0
  9
$DIMTOH
 70
     0
  9
$DIMSE1
 70
     0
  9
$DIMSE2
 70
     0
  9
$DIMTAD
 70
     1
  9
$DIMZIN
 70
     0
  9
$DIMBLK
  1

  9
$DIMASO
 70
     1
  9
$DIMSHO
 70
     1
  9
$DIMPOST
  1

  9
$DIMAPOST
  1
BEMASSO EIN
  9
$DIMALT
 70
     0
  9
$DIMALTD
 70
     2
  9
$DIMALTF
 40
25.4
  9
$DIMLFAC
 40
1.0
  9
$DIMTOFL
 70
     1
  9
$DIMTVP
 40
0.0
  9
$DIMTIX
 70
     0
  9
$DIMSOXD
 70
     0
  9
$DIMSAH
 70
     0
  9
$DIMBLK1
  1

  9
$DIMBLK2
  1

  9
$DIMSTYLE
  2
RBBEM
  9
$DIMCLRD
 70
   256
  9
$DIMCLRE
 70
   256
  9
$DIMCLRT
 70
     2
  9
$DIMTFAC
 40
1.0
  9
$DIMGAP
 40
0.9
  9
$LUNITS
 70
     2
  9
$LUPREC
 70
     2
  9
$SKETCHINC
 40
0.1
  9
$FILLETRAD
 40
0.0
  9
$AUNITS
 70
     0
  9
$AUPREC
 70
     0
  9
$MENU
  1
CADIM
  9
$ELEVATION
 40
0.0
  9
$PELEVATION
 40
0.0
  9
$THICKNESS
 40
0.0
  9
$LIMCHECK
 70
     0
  9
$BLIPMODE
 70
     0
  9
$CHAMFERA
 40
1.5
  9
$CHAMFERB
 40
1.5
  9
$SKPOLY
 70
     0
  9
$TDCREATE
 40
2450375.632234375
  9
$TDUPDATE
 40
2450375.632234375
  9
$TDINDWG
 40
0.0000000000
  9
$TDUSRTIMER
 40
0.0000000000
  9
$USRTIMER
 70
     1
  9
$ANGBASE
 50
0.0
  9
$ANGDIR
 70
     0
  9
$PDMODE
 70
     0
  9
$PDSIZE
 40
0.0
  9
$PLINEWID
 40
0.0
  9
$COORDS
 70
     2
  9
$SPLFRAME
 70
     0
  9
$SPLINETYPE
 70
     6
  9
$SPLINESEGS
 70
     8
  9
$ATTDIA
 70
     0
  9
$ATTREQ
 70
     1
  9
$HANDLING
 70
     1
  9
$HANDSEED
  5
CDF2
  9
$SURFTAB1
 70
     6
  9
$SURFTAB2
 70
     6
  9
$SURFTYPE
 70
     6
  9
$SURFU
 70
     6
  9
$SURFV
 70
     6
  9
$UCSNAME
  2

  9
$UCSORG
 10
0.0
 20
0.0
 30
0.0
  9
$UCSXDIR
 10
1.0
 20
0.0
 30
0.0
  9
$UCSYDIR
 10
0.0
 20
1.0
 30
0.0
  9
$PUCSNAME
  2

  9
$PUCSORG
 10
0.0
 20
0.0
 30
0.0
  9
$PUCSXDIR
 10
1.0
 20
0.0
 30
0.0
  9
$PUCSYDIR
 10
0.0
 20
1.0
 30
0.0
  9
$USERI1
 70
     0
  9
$USERI2
 70
     0
  9
$USERI3
 70
     0
  9
$USERI4
 70
     0
  9
$USERI5
 70
     0
  9
$USERR1
 40
0.0
  9
$USERR2
 40
0.0
  9
$USERR3
 40
0.0
  9
$USERR4
 40
0.0
  9
$USERR5
 40
0.0
  9
$WORLDVIEW
 70
     1
  9
$SHADEDGE
 70
     3
  9
$SHADEDIF
 70
    70
  9
$TILEMODE
 70
     0
  9
$MAXACTVP
 70
    16
  9
$PINSBASE
 10
0.0
 20
0.0
 30
0.0
  9
$PLIMCHECK
 70
     0
  9
$PEXTMIN
 10
-10.0
 20
-10.0
 30
0.0
  9
$PEXTMAX
 10
430.0
 20
307.0
 30
0.0
  9
$PLIMMIN
 10
-15.0
 20
-15.0
  9
$PLIMMAX
 10
435.0
 20
312.0
  9
$UNITMODE
 70
     0
  9
$VISRETAIN
 70
     0
  9
$PLINEGEN
 70
     0
  9
$PSLTSCALE
 70
     1
  9
$TREEDEPTH
 70
  3020
  9
$DWGCODEPAGE
  3
dos850
  0
ENDSEC
  0
SECTION
  2
TABLES
  0
TABLE
  2
VPORT
 70
     1
  0
VPORT
  2
*ACTIVE
 70
     0
 10
0.0
 20
0.0
 11
1.0
 21
1.0
 12
439.015383
 22
344.278678
 13
0.0
 23
0.0
 14
1.0
 24
1.0
 15
0.0
 25
0.0
 16
0.0
 26
0.0
 36
1.0
 17
0.0
 27
0.0
 37
0.0
 40
688.557356
 41
1.275174
 42
50.0
 43
0.0
 44
0.0
 50
0.0
 51
0.0
 71
     0
 72
 20000
 73
     1
 74
     0
 75
     0
 76
     0
 77
     0
 78
     0
  0
ENDTAB
  0
TABLE
  2
LTYPE
 70
     5
  0
LTYPE
  2
CONTINUOUS
 70
    64
  3
Solid line
 72
    65
 73
     0
 40
0.0
  0
LTYPE
  2
STRICHPUNKT
 70
    64
  3
__ . __ . __ . __ . __ . __ . __ . __ . __ . __
 72
    65
 73
     4
 40
1.0
 49
0.5
 49
-0.25
 49
0.0
 49
-0.25
  0
LTYPE
  2
GESTRICHELT
 70
    64
  3
__ __ __ __ __ __ __ __ __ __ __ __ __ __ __
 72
    65
 73
     2
 40
0.75
 49
0.5
 49
-0.25
  0
LTYPE
  2
MITTE
 70
    64
  3
____ _ ____ _ ____ _ ____ _ ____ _ ____ _ ____
 72
    65
 73
     4
 40
2.0
 49
1.25
 49
-0.25
 49
0.25
 49
-0.25
  0
LTYPE
  2
PHANTOM
 70
     0
  3
______  __  __  ______  __  __  ______  __  __ 
 72
    65
 73
     6
 40
2.5
 49
1.25
 49
-0.25
 49
0.25
 49
-0.25
 49
0.25
 49
-0.25
  0
ENDTAB
  0
TABLE
  2
LAYER
 70
    30
  0
LAYER
  2
0
 70
    64
 62
     7
  6
CONTINUOUS
  0
LAYER
  2
VOLLINIE
 70
    64
 62
     3
  6
CONTINUOUS
  0
LAYER
  2
STRICHLINIE
 70
     0
 62
     2
  6
GESTRICHELT
  0
LAYER
  2
STRICHPUNKTLINIE
 70
     0
 62
     7
  6
STRICHPUNKT
  0
LAYER
  2
SCHMALEVOLLINIE
 70
     0
 62
     7
  6
CONTINUOUS
  0
LAYER
  2
MITTELLINIE
 70
    64
 62
     4
  6
MITTE
  0
LAYER
  2
TEXT02
 70
     0
 62
     7
  6
CONTINUOUS
  0
LAYER
  2
TEXT03
 70
     0
 62
     2
  6
CONTINUOUS
  0
LAYER
  2
TEXT05
 70
     0
 62
     1
  6
CONTINUOUS
  0
LAYER
  2
TEXT07
 70
     0
 62
     1
  6
CONTINUOUS
  0
LAYER
  2
TEXT10
 70
     0
 62
     6
  6
CONTINUOUS
  0
LAYER
  2
HILFSLINIEN
 70
     0
 62
     6
  6
CONTINUOUS
  0
LAYER
  2
SCHRAFFUR
 70
     0
 62
   135
  6
CONTINUOUS
  0
LAYER
  2
BEMASSUNG
 70
    64
 62
     4
  6
CONTINUOUS
  0
LAYER
  2
TEXT
 70
     0
 62
     1
  6
CONTINUOUS
  0
LAYER
  2
RAHMEN
 70
    64
 62
     7
  6
CONTINUOUS
  0
LAYER
  2
SCHNITT
 70
     0
 62
     1
  6
CONTINUOUS
  0
LAYER
  2
POS
 70
     0
 62
     1
  6
CONTINUOUS
  0
LAYER
  2
HILFSKONSTR
 70
     0
 62
     6
  6
CONTINUOUS
  0
LAYER
  2
CADI_VARSAVE
 70
    68
 62
     7
  6
CONTINUOUS
  0
LAYER
  2
CADIVARSAVE
 70
    64
 62
     7
  6
CONTINUOUS
  0
LAYER
  2
ACA_VARSAVE
 70
    68
 62
     7
  6
CONTINUOUS
  0
LAYER
  2
DEFPOINTS
 70
    64
 62
     7
  6
CONTINUOUS
  0
LAYER
  2
0_-PSPAC_
 70
    64
 62
     7
  6
CONTINUOUS
  0
LAYER
  2
BEMASSUNG_-PSPAC_
 70
     0
 62
     4
  6
CONTINUOUS
  0
LAYER
  2
BEM5
 70
     0
 62
     7
  6
CONTINUOUS
  0
LAYER
  2
STRICHLINIE_-PSPAC_
 70
     0
 62
     7
  6
CONTINUOUS
  0
LAYER
  2
STRICHPUNKTLINIE_-PSPAC_
 70
     0
 62
     7
  6
CONTINUOUS
  0
LAYER
  2
ACHSEN
 70
     0
 62
     7
  6
CONTINUOUS
  0
LAYER
  2
TEXT05_-PSPAC_
 70
     0
 62
     1
  6
CONTINUOUS
  0
ENDTAB
  0
TABLE
  2
STYLE
 70
    10
  0
STYLE
  2
STANDARD
 70
    64
 40
0.0
 41
1.0
 50
0.0
 71
     0
 42
1.75
  3
txt
  4

  0
STYLE
  2
NORM
 70
    64
 40
0.0
 41
1.0
 50
0.0
 71
     0
 42
3.5
  3
SIMPLEX8
  4

  0
STYLE
  2
COMP
 70
     0
 40
0.0
 41
1.0
 50
0.0
 71
     0
 42
3.5
  3
COMPLEX
  4

  0
STYLE
  2
ITAL
 70
     0
 40
0.0
 41
1.0
 50
0.0
 71
     0
 42
20.0
  3
ITALIC
  4

  0
STYLE
  2
ISO
 70
    64
 40
0.0
 41
1.0
 50
0.0
 71
     0
 42
2.0
  3
iso8
  4

  0
STYLE
  2
BEMTEXT
 70
     0
 40
0.0
 41
0.9
 50
0.0
 71
     0
 42
3.5
  3
iso8
  4

  0
STYLE
  2
BEMTXT
 70
     0
 40
0.0
 41
1.0
 50
0.0
 71
     0
 42
3.5
  3
ISO8
  4

  0
STYLE
  2
CADINORM
 70
     0
 40
0.0
 41
1.0
 50
0.0
 71
     0
 42
3.5
  3
romans
  4

  0
STYLE
  2
CADIVSM
 70
     0
 40
0.0
 41
1.0
 50
0.0
 71
     0
 42
3.5
  3
BAHAMALN.pfb
  4

  0
STYLE
  2
CADIISO
 70
     0
 40
0.0
 41
1.0
 50
0.0
 71
     0
 42
3.5
  3
ISO8
  4

  0
ENDTAB
  0
TABLE
  2
VIEW
 70
    11
  0
VIEW
  2
CADIALL
 70
     0
 40
317.0
 10
210.0
 20
148.5
 41
440.0
 11
0.0
 21
0.0
 31
1.0
 12
0.0
 22
0.0
 32
0.0
 42
50.0
 43
0.0
 44
0.0
 50
0.0
 71
     0
  0
VIEW
  2
CADIOL
 70
     0
 40
116.233333
 10
70.666667
 20
248.883333
 41
161.333333
 11
0.0
 21
0.0
 31
1.0
 12
0.0
 22
0.0
 32
0.0
 42
50.0
 43
0.0
 44
0.0
 50
0.0
 71
     0
  0
VIEW
  2
CADIOM
 70
     0
 40
116.233333
 10
210.0
 20
248.883333
 41
176.0
 11
0.0
 21
0.0
 31
1.0
 12
0.0
 22
0.0
 32
0.0
 42
50.0
 43
0.0
 44
0.0
 50
0.0
 71
     0
  0
VIEW
  2
CADIOR
 70
     0
 40
116.233333
 10
349.333333
 20
248.883333
 41
161.333333
 11
0.0
 21
0.0
 31
1.0
 12
0.0
 22
0.0
 32
0.0
 42
50.0
 43
0.0
 44
0.0
 50
0.0
 71
     0
  0
VIEW
  2
CADIML
 70
     0
 40
126.8
 10
70.666667
 20
148.5
 41
161.333333
 11
0.0
 21
0.0
 31
1.0
 12
0.0
 22
0.0
 32
0.0
 42
50.0
 43
0.0
 44
0.0
 50
0.0
 71
     0
  0
VIEW
  2
CADIMM
 70
     0
 40
126.8
 10
210.0
 20
148.5
 41
176.0
 11
0.0
 21
0.0
 31
1.0
 12
0.0
 22
0.0
 32
0.0
 42
50.0
 43
0.0
 44
0.0
 50
0.0
 71
     0
  0
VIEW
  2
CADIMR
 70
     0
 40
126.8
 10
349.333333
 20
148.5
 41
161.333333
 11
0.0
 21
0.0
 31
1.0
 12
0.0
 22
0.0
 32
0.0
 42
50.0
 43
0.0
 44
0.0
 50
0.0
 71
     0
  0
VIEW
  2
CADIUL
 70
     0
 40
116.233333
 10
70.666667
 20
48.116667
 41
161.333333
 11
0.0
 21
0.0
 31
1.0
 12
0.0
 22
0.0
 32
0.0
 42
50.0
 43
0.0
 44
0.0
 50
0.0
 71
     0
  0
VIEW
  2
CADIUM
 70
     0
 40
116.233333
 10
210.0
 20
48.116667
 41
176.0
 11
0.0
 21
0.0
 31
1.0
 12
0.0
 22
0.0
 32
0.0
 42
50.0
 43
0.0
 44
0.0
 50
0.0
 71
     0
  0
VIEW
  2
CADIUR
 70
     0
 40
116.233333
 10
349.333333
 20
48.116667
 41
161.333333
 11
0.0
 21
0.0
 31
1.0
 12
0.0
 22
0.0
 32
0.0
 42
50.0
 43
0.0
 44
0.0
 50
0.0
 71
     0
  0
VIEW
  2
BTA2-106
 70
     0
 40
412.1
 10
212.604235
 20
148.5
 41
577.208469
 11
0.0
 21
0.0
 31
1.0
 12
0.0
 22
0.0
 32
0.0
 42
50.0
 43
0.0
 44
0.0
 50
0.0
 71
     0
  0
ENDTAB
  0
TABLE
  2
UCS
 70
     0
  0
ENDTAB
  0
TABLE
  2
APPID
 70
     4
  0
APPID
  2
ACAD
 70
    64
  0
APPID
  2
ACA_CADIMENU
 70
    64
  0
APPID
  2
CADIVARSAVE
 70
    64
  0
ENDTAB
  0
TABLE
  2
DIMSTYLE
 70
     3
  0
DIMSTYLE
  2
CADIMENU
 70
     0
  3

  4

  5

  6

  7

 40
1.0
 41
3.5
 42
0.1
 43
7.0
 44
1.8
 45
0.0
 46
0.0
 47
0.0
 48
0.0
140
3.5
141
1.5
142
0.0
143
25.4
144
1.0
145
0.0
146
0.5
147
1.0
 71
     0
 72
     0
 73
     0
 74
     0
 75
     0
 76
     0
 77
     1
 78
     8
170
     0
171
     2
172
     0
173
     0
174
     1
175
     0
176
     0
177
     0
178
     0
  0
DIMSTYLE
  2
RBBEM
 70
    64
  3

  4

  5

  6

  7

 40
1.0
 41
3.5
 42
0.0
 43
6.0
 44
0.5
 45
0.0
 46
0.0
 47
0.0
 48
0.0
140
3.0
141
0.0
142
0.0
143
25.4
144
1.0
145
0.0
146
1.0
147
0.9
 71
     0
 72
     0
 73
     0
 74
     0
 75
     0
 76
     0
 77
     1
 78
     1
170
     0
171
     2
172
     1
173
     0
174
     0
175
     0
176
   256
177
   256
178
     2
  0
DIMSTYLE
  2
STANDARD
 70
     0
  3

  4

  5

  6

  7

 40
1.0
 41
0.18
 42
0.0625
 43
0.38
 44
0.18
 45
0.0
 46
0.0
 47
0.0
 48
0.0
140
0.18
141
0.09
142
0.0
143
25.4
144
1.0
145
0.0
146
1.0
147
0.09
 71
     0
 72
     0
 73
     1
 74
     1
 75
     0
 76
     0
 77
     0
 78
     0
170
     0
171
     2
172
     0
173
     0
174
     0
175
     0
176
     0
177
     0
178
     0
  0
ENDTAB
  0
ENDSEC
  0
SECTION
  2
BLOCKS
  0
BLOCK
  8
0
  5
23
  2
KBEMPKT
 70
     0
 10
0.0
 20
0.0
 30
0.0
  3
KBEMPKT
  0
CIRCLE
  8
BEMASSUNG
 62
     1
  5
21
 10
0.0
 20
0.0
 30
0.0
 40
0.125
  0
LINE
  8
BEMASSUNG
 62
     4
  5
22
 10
0.0
 20
0.0
 30
0.0
 11
-2.0
 21
0.0
 31
0.0
  0
ENDBLK
  8
0
  5
24
  0
BLOCK
  8
0
  5
26
  2
KBEMPKT-1
 70
     0
 10
0.0
 20
0.0
 30
0.0
  3
KBEMPKT-1
  0
ENDBLK
  8
0
  5
27
  0
BLOCK
  8
0
  5
29
  2
CADICFG
 70
    64
 10
0.0
 20
0.0
 30
0.0
  1
CADICFG
  3
CADICFG
  0
ENDBLK
  8
0
  5
2A
  0
BLOCK
  8
0
  5
2D
  2
CADISAVE_DONT_PURGE
 70
    64
 10
0.0
 20
0.0
 30
0.0
  1
CADISAVE_DONT_PURGE
  3
CADISAVE_DONT_PURGE
  0
INSERT
  8
CADI_VARSAVE
  5
2C
  2
CADICFG
 10
0.0
 20
0.0
 30
0.0
1001
CADIVARSAVE
1000
CADICFG
1002
{
1000
CADI_V:LAY-GRCODE
1000

1002
}
1002
{
1000
CADI_V:LAY-GRDEL1
1000
_-
1002
}
1002
{
1000
CADI_V:LAY-GRDEL2
1000
_
1002
}
1002
{
1000
CADI_V:LAY-MLAST
1000

1002
}
1002
{
1000
CADI_V:LAY-PRE
1000

1002
}
1002
{
1000
CADI_V:LAY-PRELIST
1000
.nil.
1002
}
1002
{
1000
CADI_V:ZEIN
1070
     1
1002
}
1002
{
1000
CADI_V:EINH
1000
mm
1002
}
1002
{
1000
CADI_V:Mass
1040
1.0
1002
}
1002
{
1000
CADI_V:EIFA
1040
1.0
1002
}
1002
{
1000
CADI_V:PDIS
1000
 mm
1002
}
1002
{
1000
CADI_V:PARE
1000
 qmm
1002
}
1002
{
1000
CADI_V:FFA1
1040
1.0
1002
}
1002
{
1000
CADI_V:FDR1
1000
0.0
1002
}
1002
{
1000
CADI_V:FXF1
1040
1.0
1002
}
1002
{
1000
CADI_V:FYF1
1040
1.0
1002
}
1002
{
1000
CADI_V:FZF1
1040
1.0
1002
}
1002
{
1000
CADI_V:THT2
1040
2.5
1002
}
1002
{
1000
CADI_V:THT3
1040
3.5
1002
}
1002
{
1000
CADI_V:THT5
1040
5.0
1002
}
1002
{
1000
CADI_V:THT7
1040
7.0
1002
}
1002
{
1000
CADI_V:THT1
1040
10.0
1002
}
1002
{
1000
CADI_V:ZSi
1000
.nil.
1002
}
1002
{
1000
CADI_V:F-CADI
1000
CM1
1002
}
1002
{
1000
CADI_V:F-CAD1
1000
B
1002
}
1002
{
1000
CADI_V:F-CAD3
1000
A
1002
}
1002
{
1000
CADI_V:CMENU_VERS
1000
.nil.
1002
}
1002
{
1000
CADI_L:ABBI
1000
ABBIEGEKANT
1002
}
1002
{
1000
CADI_L:ACHS
1000
ACHSEN
1002
}
1002
{
1000
CADI_L:ATRI
1000
ATTRIBUTE
1002
}
1002
{
1000
CADI_L:AVER
1000
AVERDECKTE
1002
}
1002
{
1000
CADI_L:A-AL
1000
ABBIEGEKANT*,*ACHSEN*,*AVERDECKTE*,*AVERDECKTE*
1002
}
1002
{
1000
CADI_L:BEMA
1000
BEMASSUNG
1002
}
1002
{
1000
CADI_L:BEMT
1000
BEMTEXT
1002
}
1002
{
1000
CADI_L:B-AL
1000
BEM*
1002
}
1002
{
1000
CADI_L:HIKO
1000
HILFSKONSTR
1002
}
1002
{
1000
CADI_L:HILI
1000
HILFSLINIEN
1002
}
1002
{
1000
CADI_L:HIPU
1000
HILFSPUNKTE
1002
}
1002
{
1000
CADI_L:H-AL
1000
HILFS*
1002
}
1002
{
1000
CADI_L:KO03
1000
Rahmen
1002
}
1002
{
1000
CADI_L:KO05
1000
Schnitt
1002
}
1002
{
1000
CADI_L:KO07
1000
Pos
1002
}
1002
{
1000
CADI_L:KO10
1000
KOPF10
1002
}
1002
{
1000
CADI_L:K-AL
1000
KOPF*
1002
}
1002
{
1000
CADI_L:SCHR
1000
SCHRAFFUR
1002
}
1002
{
1000
CADI_L:TE02
1000
TEXT02
1002
}
1002
{
1000
CADI_L:TE03
1000
TEXT03
1002
}
1002
{
1000
CADI_L:TE05
1000
TEXT05
1002
}
1002
{
1000
CADI_L:TE07
1000
TEXT07
1002
}
1002
{
1000
CADI_L:TE10
1000
TEXT10
1002
}
1002
{
1000
CADI_L:T-AL
1000
TEXT*
1002
}
1002
{
1000
CADI_L:UM02
1000
Vollinie
1002
}
1002
{
1000
CADI_L:UM03
1000
Strichlinie
1002
}
1002
{
1000
CADI_L:UM05
1000
Strichpunktlinie
1002
}
1002
{
1000
CADI_L:UM07
1000
Schmalevollinie
1002
}
1002
{
1000
CADI_L:UM10
1000
Mittellinie
1002
}
1002
{
1000
CADI_L:U-AL
1000
UMRISS*
1002
}
1002
{
1000
CADI_L:2225
1000
S-FELD225
1002
}
1002
{
1000
CADI_L:2226
1000
S-FELD226
1002
}
1002
{
1000
CADI_L:2227
1000
S-FELD227
1002
}
1002
{
1000
CADI_L:2228
1000
S-FELD228
1002
}
1002
{
1000
CADI_L:2230
1000
S-*,*SCHRAFF*
1002
}
1002
{
1000
CADI_L:2239
1000
0
1002
}
1002
{
1000
CADI_L:2240
1000
*
1002
}
1002
{
1000
CADI_L:2241
1000
R-FELD241
1002
}
1002
{
1000
CADI_L:2242
1000
R-FELD242
1002
}
1002
{
1000
CADI_L:2243
1000
R-FELD243
1002
}
1002
{
1000
CADI_L:2244
1000
R-*
1002
}
1002
{
1000
CADI_L:GRA0
1000
SEIT0
1002
}
1002
{
1000
CADI_L:GRA1
1000
SEIT1
1002
}
1002
{
1000
CADI_L:GRA2
1000
SEIT2
1002
}
1002
{
1000
CADI_L:GRA3
1000
SEIT3
1002
}
1002
{
1000
CADI_L:GRA4
1000
SEIT4
1002
}
1002
{
1000
CADI_L:GRA5
1000
SEIT5
1002
}
1002
{
1000
CADI_L:GRA6
1000
SEIT6
1002
}
1002
{
1000
CADI_L:GRA7
1000
SEIT7
1002
}
1002
{
1000
CADI_L:GRA8
1000
SEIT8
1002
}
1002
{
1000
CADI_L:GRA9
1000
SEIT9
1002
}
1002
{
1000
CADI_L:GRB0
1000
GRUN0
1002
}
1002
{
1000
CADI_L:GRB1
1000
GRUN1
1002
}
1002
{
1000
CADI_L:GRB2
1000
GRUN2
1002
}
1002
{
1000
CADI_L:GRB3
1000
GRUN3
1002
}
1002
{
1000
CADI_L:GRB4
1000
GRUN4
1002
}
1002
{
1000
CADI_L:GRB5
1000
GRUN5
1002
}
1002
{
1000
CADI_L:GRB6
1000
GRUN6
1002
}
1002
{
1000
CADI_L:GRB7
1000
GRUN7
1002
}
1002
{
1000
CADI_L:GRB8
1000
GRUN8
1002
}
1002
{
1000
CADI_L:GRB9
1000
GRUN9
1002
}
1002
{
1000
CADI_L:GRC0
1000
AUFR0
1002
}
1002
{
1000
CADI_L:GRC1
1000
AUFR1
1002
}
1002
{
1000
CADI_L:GRC2
1000
AUFR2
1002
}
1002
{
1000
CADI_L:GRC3
1000
AUFR3
1002
}
1002
{
1000
CADI_L:GRC4
1000
AUFR4
1002
}
1002
{
1000
CADI_L:GRC5
1000
AUFR5
1002
}
1002
{
1000
CADI_L:GRC6
1000
AUFR6
1002
}
1002
{
1000
CADI_L:GRC7
1000
AUFR7
1002
}
1002
{
1000
CADI_L:GRC8
1000
AUFR8
1002
}
1002
{
1000
CADI_L:GRC9
1000
AUFR9
1002
}
1002
{
1000
CADI_L:GRD0
1000
TEIL0
1002
}
1002
{
1000
CADI_L:GRD1
1000
TEIL1
1002
}
1002
{
1000
CADI_L:GRD2
1000
TEIL2
1002
}
1002
{
1000
CADI_L:GRD3
1000
TEIL3
1002
}
1002
{
1000
CADI_L:GRD4
1000
TEIL4
1002
}
1002
{
1000
CADI_L:GRD5
1000
TEIL5
1002
}
1002
{
1000
CADI_L:GRD6
1000
TEIL6
1002
}
1002
{
1000
CADI_L:GRD7
1000
TEIL7
1002
}
1002
{
1000
CADI_L:GRD8
1000
TEIL8
1002
}
1002
{
1000
CADI_L:GRD9
1000
TEIL9
1002
}
  0
ENDBLK
  8
0
  5
2E
  0
BLOCK
  8
0
  5
236
  2
CBF-CFG
 70
    64
 10
0.0
 20
0.0
 30
0.0
  1
CBF-CFG
  3
CBF-CFG
  0
ENDBLK
  8
0
  5
237
  0
BLOCK
  8
0
  5
240
  2
BORDER
 70
    64
 10
0.0
 20
0.0
 30
0.0
  3
BORDER
  0
LINE
  8
0
  5
23A
 10
0.0
 20
0.0
 30
0.0
 11
1.0
 21
0.0
 31
0.0
  0
LINE
  8
0
  5
23B
 10
1.0
 20
0.0
 30
0.0
 11
1.0
 21
1.0
 31
0.0
  0
LINE
  8
0
  5
23C
 10
1.0
 20
1.0
 30
0.0
 11
0.0
 21
1.0
 31
0.0
  0
LINE
  8
0
  5
23D
 10
0.0
 20
1.0
 30
0.0
 11
0.0
 21
0.0
 31
0.0
  0
INSERT
  8
0
  5
23E
  2
CBF-CFG
 10
0.0
 20
0.0
 30
0.0
  0
INSERT
  8
CADIVARSAVE
  5
23F
  2
CADISAVE_DONT_PURGE
 10
0.0
 20
0.0
 30
0.0
  0
ENDBLK
  8
0
  5
241
  0
BLOCK
  8
0
  5
250
  2
ACA_CFG
 70
    64
 10
0.0
 20
0.0
 30
0.0
  1
ACA_CFG
  3
ACA_CFG
  0
ENDBLK
  8
0
  5
251
  0
BLOCK
  8
0
  5
254
  2
ACA_SAVE_DONT_PURGE
 70
    64
 10
0.0
 20
0.0
 30
0.0
  1
ACA_SAVE_DONT_PURGE
  3
ACA_SAVE_DONT_PURGE
  0
INSERT
  8
ACA_VARSAVE
  5
253
  2
ACA_CFG
 10
0.0
 20
0.0
 30
0.0
1001
ACA_CADIMENU
1000
ACA_CFG
1002
{
1000
ACA_V:LAY-GRCODE
1000

1002
}
1002
{
1000
ACA_V:LAY-GRDEL1
1000
_-
1002
}
1002
{
1000
ACA_V:LAY-GRDEL2
1000
_
1002
}
1002
{
1000
ACA_V:LAY-MLAST
1000

1002
}
1002
{
1000
ACA_V:LAY-PRE
1000

1002
}
1002
{
1000
ACA_V:LAY-PRELIST
1000
.nil.
1002
}
1002
{
1000
ACA_V:ZEIN
1040
1.0
1002
}
1002
{
1000
ACA_V:EINH
1000
mm
1002
}
1002
{
1000
ACA_V:Mass
1040
1.0
1002
}
1002
{
1000
ACA_V:EIFA
1040
1.0
1002
}
1002
{
1000
ACA_V:PDIS
1000
 mm
1002
}
1002
{
1000
ACA_V:PARE
1000
 qmm
1002
}
1002
{
1000
ACA_V:FFA1
1040
1.0
1002
}
1002
{
1000
ACA_V:FDR1
1000
0.0
1002
}
1002
{
1000
ACA_V:FXF1
1040
1.0
1002
}
1002
{
1000
ACA_V:FYF1
1040
1.0
1002
}
1002
{
1000
ACA_V:FZF1
1040
1.0
1002
}
1002
{
1000
ACA_V:THT2
1040
2.5
1002
}
1002
{
1000
ACA_V:THT3
1040
3.5
1002
}
1002
{
1000
ACA_V:THT5
1040
5.0
1002
}
1002
{
1000
ACA_V:THT7
1040
7.0
1002
}
1002
{
1000
ACA_V:THT1
1040
10.0
1002
}
1002
{
1000
ACA_V:ZSi
1000
.nil.
1002
}
1002
{
1000
ACA_V:F-CADI
1000
CM1
1002
}
1002
{
1000
ACA_V:F-CAD1
1000
B
1002
}
1002
{
1000
ACA_V:F-CAD3
1000
A
1002
}
1002
{
1000
ACA_V:CMENU_VERS
1000
.nil.
1002
}
1002
{
1000
ACA_L:ABBI
1000
ABBIEGEKANT
1002
}
1002
{
1000
ACA_L:ACHS
1000
ACHSEN
1002
}
1002
{
1000
ACA_L:ATRI
1000
ATTRIBUTE
1002
}
1002
{
1000
ACA_L:AVER
1000
AVERDECKTE
1002
}
1002
{
1000
ACA_L:A-AL
1000
ABBIEGEKANT*,*ACHSEN*,*AVERDECKTE*,*AVERDECKTE*
1002
}
1002
{
1000
ACA_L:BEMA
1000
BEMASSUNG
1002
}
1002
{
1000
ACA_L:BEMT
1000
BEMTEXT
1002
}
1002
{
1000
ACA_L:B-AL
1000
BEM*
1002
}
1002
{
1000
ACA_L:HIKO
1000
HILFSKONSTR
1002
}
1002
{
1000
ACA_L:HILI
1000
HILFSLINIEN
1002
}
1002
{
1000
ACA_L:HIPU
1000
HILFSPUNKTE
1002
}
1002
{
1000
ACA_L:H-AL
1000
HILFS*
1002
}
1002
{
1000
ACA_L:KO03
1000
Rahmen
1002
}
1002
{
1000
ACA_L:KO05
1000
Schnitt
1002
}
1002
{
1000
ACA_L:KO07
1000
Pos
1002
}
1002
{
1000
ACA_L:KO10
1000
KOPF10
1002
}
1002
{
1000
ACA_L:K-AL
1000
KOPF*
1002
}
1002
{
1000
ACA_L:SCHR
1000
SCHRAFFUR
1002
}
1002
{
1000
ACA_L:TE02
1000
TEXT02
1002
}
1002
{
1000
ACA_L:TE03
1000
TEXT03
1002
}
1002
{
1000
ACA_L:TE05
1000
TEXT05
1002
}
1002
{
1000
ACA_L:TE07
1000
TEXT07
1002
}
1002
{
1000
ACA_L:TE10
1000
TEXT10
1002
}
1002
{
1000
ACA_L:T-AL
1000
TEXT*
1002
}
1002
{
1000
ACA_L:UM02
1000
Vollinie
1002
}
1002
{
1000
ACA_L:UM03
1000
Strichlinie
1002
}
1002
{
1000
ACA_L:UM05
1000
Strichpunktlinie
1002
}
1002
{
1000
ACA_L:UM07
1000
Schmalevollinie
1002
}
1002
{
1000
ACA_L:UM10
1000
Mittellinie
1002
}
1002
{
1000
ACA_L:U-AL
1000
UMRISS*
1002
}
1002
{
1000
ACA_L:2225
1000
S-FELD225
1002
}
1002
{
1000
ACA_L:2226
1000
S-FELD226
1002
}
1002
{
1000
ACA_L:2227
1000
S-FELD227
1002
}
1002
{
1000
ACA_L:2228
1000
S-FELD228
1002
}
1002
{
1000
ACA_L:2230
1000
S-*,*SCHRAFF*
1002
}
1002
{
1000
ACA_L:2239
1000
0
1002
}
1002
{
1000
ACA_L:2240
1000
*
1002
}
1002
{
1000
ACA_L:2241
1000
R-FELD241
1002
}
1002
{
1000
ACA_L:2242
1000
R-FELD242
1002
}
1002
{
1000
ACA_L:2243
1000
R-FELD243
1002
}
1002
{
1000
ACA_L:2244
1000
R-*
1002
}
1002
{
1000
ACA_L:GRA0
1000
SEIT0
1002
}
1002
{
1000
ACA_L:GRA1
1000
SEIT1
1002
}
1002
{
1000
ACA_L:GRA2
1000
SEIT2
1002
}
1002
{
1000
ACA_L:GRA3
1000
SEIT3
1002
}
1002
{
1000
ACA_L:GRA4
1000
SEIT4
1002
}
1002
{
1000
ACA_L:GRA5
1000
SEIT5
1002
}
1002
{
1000
ACA_L:GRA6
1000
SEIT6
1002
}
1002
{
1000
ACA_L:GRA7
1000
SEIT7
1002
}
1002
{
1000
ACA_L:GRA8
1000
SEIT8
1002
}
1002
{
1000
ACA_L:GRA9
1000
SEIT9
1002
}
1002
{
1000
ACA_L:GRB0
1000
GRUN0
1002
}
1002
{
1000
ACA_L:GRB1
1000
GRUN1
1002
}
1002
{
1000
ACA_L:GRB2
1000
GRUN2
1002
}
1002
{
1000
ACA_L:GRB3
1000
GRUN3
1002
}
1002
{
1000
ACA_L:GRB4
1000
GRUN4
1002
}
1002
{
1000
ACA_L:GRB5
1000
GRUN5
1002
}
1002
{
1000
ACA_L:GRB6
1000
GRUN6
1002
}
1002
{
1000
ACA_L:GRB7
1000
GRUN7
1002
}
1002
{
1000
ACA_L:GRB8
1000
GRUN8
1002
}
1002
{
1000
ACA_L:GRB9
1000
GRUN9
1002
}
1002
{
1000
ACA_L:GRC0
1000
AUFR0
1002
}
1002
{
1000
ACA_L:GRC1
1000
AUFR1
1002
}
1002
{
1000
ACA_L:GRC2
1000
AUFR2
1002
}
1002
{
1000
ACA_L:GRC3
1000
AUFR3
1002
}
1002
{
1000
ACA_L:GRC4
1000
AUFR4
1002
}
1002
{
1000
ACA_L:GRC5
1000
AUFR5
1002
}
1002
{
1000
ACA_L:GRC6
1000
AUFR6
1002
}
1002
{
1000
ACA_L:GRC7
1000
AUFR7
1002
}
1002
{
1000
ACA_L:GRC8
1000
AUFR8
1002
}
1002
{
1000
ACA_L:GRC9
1000
AUFR9
1002
}
1002
{
1000
ACA_L:GRD0
1000
TEIL0
1002
}
1002
{
1000
ACA_L:GRD1
1000
TEIL1
1002
}
1002
{
1000
ACA_L:GRD2
1000
TEIL2
1002
}
1002
{
1000
ACA_L:GRD3
1000
TEIL3
1002
}
1002
{
1000
ACA_L:GRD4
1000
TEIL4
1002
}
1002
{
1000
ACA_L:GRD5
1000
TEIL5
1002
}
1002
{
1000
ACA_L:GRD6
1000
TEIL6
1002
}
1002
{
1000
ACA_L:GRD7
1000
TEIL7
1002
}
1002
{
1000
ACA_L:GRD8
1000
TEIL8
1002
}
1002
{
1000
ACA_L:GRD9
1000
TEIL9
1002
}
  0
ENDBLK
  8
0
  5
255
  0
BLOCK
  8
0
  5
2C1
  2
DIN-A4
 70
     2
 10
0.0
 20
0.0
 30
0.0
  3
DIN-A4
  0
ATTDEF
  8
RAHMEN
 62
     7
  5
3C9
 10
70.30346
 20
1.0
 30
0.0
 40
2.0
  1

  3
Ausgeplottet am:
  2
P.DATUM
 70
     0
  7
ISO
  0
TEXT
  8
RAHMEN
 62
     7
  5
3CA
 10
49.45645
 20
1.0
 30
0.0
 40
2.0
  1
Ausgeplottet am:
  7
ISO
  0
ATTDEF
  8
RAHMEN
 62
     7
  5
3CB
 10
35.407379
 20
1.0
 30
0.0
 40
2.0
  1
A1
  3
Zeichnungsformat
  2
AX
 70
     0
  7
ISO
  0
TEXT
  8
RAHMEN
 62
     7
  5
3CC
 10
30.724355
 20
1.0
 30
0.0
 40
2.0
  1
DIN 
  7
ISO
  0
TEXT
  8
RAHMEN
 62
     7
  5
3CD
 10
10.0
 20
1.0
 30
0.0
 40
2.0
  1
Zeichnungsformat
  7
ISO
  0
LINE
  8
RAHMEN
 62
     3
  5
3CE
 10
17.0
 20
5.0
 30
0.0
 11
17.0
 21
292.0
 31
0.0
  0
LINE
  8
0
 62
     7
  5
3CF
 10
210.0
 20
0.0
 30
0.0
 11
210.0
 21
297.0
 31
0.0
  0
LINE
  8
0
 62
     7
  5
3D0
 10
210.0
 20
297.0
 30
0.0
 11
0.0
 21
297.0
 31
0.0
  0
LINE
  8
0
 62
     7
  5
3D1
 10
0.0
 20
297.0
 30
0.0
 11
0.0
 21
0.0
 31
0.0
  0
LINE
  8
0
 62
     3
  5
3D2
 10
205.0
 20
5.0
 30
0.0
 11
205.0
 21
292.0
 31
0.0
  0
LINE
  8
0
 62
     3
  5
3D3
 10
205.0
 20
292.0
 30
0.0
 11
17.0
 21
292.0
 31
0.0
  0
LINE
  8
0
 62
     7
  5
3D4
 10
5.0
 20
148.5
 30
0.0
 11
15.0
 21
148.5
 31
0.0
  0
ATTDEF
  8
RAHMEN
  5
3D5
 10
195.385213
 20
9.657692
 30
0.0
 40
2.0
  1
X.
  3
Gesamtblattzahl
  2
X.
 70
     0
  7
ISO
  0
LINE
  8
RAHMEN
 62
     3
  5
3D6
 10
17.0
 20
5.0
 30
0.0
 11
17.0
 21
61.0
 31
0.0
  0
LINE
  8
RAHMEN
 62
     3
  5
3D7
 10
17.0
 20
61.0
 30
0.0
 11
205.0
 21
61.0
 31
0.0
  0
LINE
  8
RAHMEN
 62
     7
  5
3D8
 10
17.0
 20
9.0
 30
0.0
 11
205.0
 21
9.0
 31
0.0
  0
LINE
  8
RAHMEN
 62
     7
  5
3D9
 10
17.0
 20
21.0
 30
0.0
 11
205.0
 21
21.0
 31
0.0
  0
LINE
  8
RAHMEN
 62
     7
  5
3DA
 10
17.0
 20
41.0
 30
0.0
 11
205.0
 21
41.0
 31
0.0
  0
LINE
  8
RAHMEN
 62
     7
  5
3DB
 10
74.0
 20
61.0
 30
0.0
 11
74.0
 21
5.0
 31
0.0
  0
LINE
  8
RAHMEN
 62
     7
  5
3DC
 10
119.0
 20
61.0
 30
0.0
 11
119.0
 21
5.0
 31
0.0
  0
LINE
  8
RAHMEN
 62
     7
  5
3DD
 10
25.0
 20
41.0
 30
0.0
 11
25.0
 21
5.0
 31
0.0
  0
LINE
  8
RAHMEN
 62
     7
  5
3DE
 10
51.0
 20
41.0
 30
0.0
 11
51.0
 21
5.0
 31
0.0
  0
LINE
  8
RAHMEN
 62
     7
  5
3DF
 10
160.0
 20
9.0
 30
0.0
 11
160.0
 21
5.0
 31
0.0
  0
LINE
  8
RAHMEN
 62
     7
  5
3E0
 10
192.0
 20
21.0
 30
0.0
 11
192.0
 21
9.0
 31
0.0
  0
LINE
  8
RAHMEN
 62
     7
  5
3E1
 10
17.0
 20
13.0
 30
0.0
 11
74.0
 21
13.0
 31
0.0
  0
LINE
  8
RAHMEN
 62
     7
  5
3E2
 10
74.0
 20
17.0
 30
0.0
 11
17.0
 21
17.0
 31
0.0
  0
LINE
  8
RAHMEN
 62
     7
  5
3E3
 10
119.0
 20
25.0
 30
0.0
 11
17.0
 21
25.0
 31
0.0
  0
LINE
  8
RAHMEN
 62
     7
  5
3E4
 10
17.0
 20
29.0
 30
0.0
 11
119.0
 21
29.0
 31
0.0
  0
LINE
  8
RAHMEN
 62
     7
  5
3E5
 10
119.0
 20
33.0
 30
0.0
 11
17.0
 21
33.0
 31
0.0
  0
LINE
  8
RAHMEN
 62
     7
  5
3E6
 10
17.0
 20
37.0
 30
0.0
 11
119.0
 21
37.0
 31
0.0
  0
LINE
  8
RAHMEN
 62
     7
  5
3E7
 10
100.0
 20
61.0
 30
0.0
 11
100.0
 21
21.0
 31
0.0
  0
LINE
  8
RAHMEN
 62
     7
  5
3E8
 10
84.0
 20
41.0
 30
0.0
 11
84.0
 21
25.0
 31
0.0
  0
LINE
  8
RAHMEN
 62
     7
  5
3E9
 10
66.0
 20
5.0
 30
0.0
 11
66.0
 21
41.0
 31
0.0
  0
LINE
  8
RAHMEN
 62
     7
  5
3EA
 10
119.0
 20
54.23365
 30
0.0
 11
205.0
 21
54.23365
 31
0.0
  0
LINE
  8
RAHMEN
 62
     7
  5
3EB
 10
165.660653
 20
61.0
 30
0.0
 11
165.660653
 21
54.23365
 31
0.0
  0
LINE
  8
RAHMEN
 62
     7
  5
3EC
 10
192.0
 20
13.0
 30
0.0
 11
205.0
 21
13.0
 31
0.0
  0
LINE
  8
RAHMEN
 62
     7
  5
3ED
 10
119.0
 20
15.0
 30
0.0
 11
74.0
 21
15.0
 31
0.0
  0
LINE
  8
RAHMEN
  6
MITTE
 62
     7
  5
3EE
 10
186.958101
 20
57.602876
 30
0.0
 11
196.885141
 21
57.602876
 31
0.0
  0
LINE
  8
RAHMEN
 62
     7
  5
3EF
 10
188.586489
 20
57.602876
 30
0.0
 11
188.586489
 21
59.069888
 31
0.0
  0
LINE
  8
RAHMEN
 62
     7
  5
3F0
 10
188.586489
 20
59.069888
 30
0.0
 11
195.790176
 21
59.726759
 31
0.0
  0
LINE
  8
RAHMEN
 62
     7
  5
3F1
 10
195.790176
 20
59.726759
 30
0.0
 11
195.790176
 21
57.602876
 31
0.0
  0
CIRCLE
  8
RAHMEN
 62
     7
  5
3F2
 10
201.194413
 20
57.602876
 30
0.0
 40
2.123883
  0
CIRCLE
  8
RAHMEN
 62
     7
  5
3F3
 10
201.194413
 20
57.602876
 30
0.0
 40
1.467012
  0
LINE
  8
RAHMEN
 62
     7
  5
3F4
 10
195.790176
 20
55.478992
 30
0.0
 11
195.790176
 21
57.602876
 31
0.0
  0
LINE
  8
RAHMEN
 62
     7
  5
3F5
 10
188.586489
 20
56.135864
 30
0.0
 11
195.790176
 21
55.478992
 31
0.0
  0
LINE
  8
RAHMEN
 62
     7
  5
3F6
 10
188.586489
 20
57.602876
 30
0.0
 11
188.586489
 21
56.135864
 31
0.0
  0
LINE
  8
RAHMEN
  6
MITTE
 62
     7
  5
3F7
 10
198.645753
 20
57.602876
 30
0.0
 11
203.743073
 21
57.602876
 31
0.0
  0
LINE
  8
RAHMEN
  6
MITTE
 62
     7
  5
3F8
 10
201.194413
 20
60.151536
 30
0.0
 11
201.194413
 21
55.054216
 31
0.0
  0
ATTDEF
  8
RAHMEN
 62
     1
  5
3F9
 10
120.204017
 20
30.466331
 30
0.0
 40
5.0
  1
Spritzwerkzeug 2-fach für
  3
Art des Werkzeuges
  2
SPRITZWERKZEUG
 70
     0
  7
ISO
  0
ATTDEF
  8
RAHMEN
 62
     1
  5
3FA
 10
120.204017
 20
22.773055
 30
0.0
 40
5.0
  1

  3
Benennung
  2
BENENNUNG
 70
     0
  7
ISO
  0
ATTDEF
  8
RAHMEN
 62
     1
  5
3FB
 10
141.779711
 20
11.378909
 30
0.0
 40
5.0
  1

  3
Zeichnungsnummer
  2
Z-NR.
 70
     0
  7
NORM
  0
ATTDEF
  8
RAHMEN
 62
     2
  5
3FC
 10
88.189797
 20
16.14611
 30
0.0
 40
3.5
  1

  3
Zeichnungs-Name (File)
  2
FILE
 70
     0
  7
NORM
  0
ATTDEF
  8
RAHMEN
 62
     2
  5
3FD
 10
134.053557
 20
56.091966
 30
0.0
 40
3.5
  1
2 : 1
  3
Maßstab der Zeichnung
  2
MASS
 70
     0
  7
ISO
  0
ATTDEF
  8
RAHMEN
 62
     1
  5
3FE
 10
142.272869
 20
44.091771
 30
0.0
 40
5.0
  1
1.2767
  3
Werkstoff
  2
WERKSTOFF
 70
     0
  7
ISO
  0
ATTDEF
  8
RAHMEN
 62
     2
  5
3FF
 10
196.766908
 20
13.844703
 30
0.0
 40
3.0
  1

  3
Blatt-Nr
  2
B
 70
     0
  7
NORM
  0
ATTDEF
  8
RAHMEN
 62
     7
  5
400
 10
84.737686
 20
33.899824
 30
0.0
 40
2.0
  1

  3
Datum
  2
DATUM
 70
     0
  7
NORM
  0
LINE
  8
RAHMEN
 62
     3
  5
401
 10
205.0
 20
5.0
 30
0.0
 11
17.0
 21
5.0
 31
0.0
  0
LINE
  8
RAHMEN
 62
     7
  5
402
 10
210.0
 20
0.0
 30
0.0
 11
0.0
 21
0.0
 31
0.0
  0
TEXT
  8
RAHMEN
 62
     7
  5
403
 10
18.4
 20
5.610908
 30
0.0
 40
1.3
  1
Chg-No.
  7
ISO
 72
     4
 11
21.0
 21
6.075193
 31
0.0
  0
TEXT
  8
RAHMEN
 62
     7
  5
404
 10
18.701786
 20
7.086847
 30
0.0
 40
1.3
  1
ÄM-Nr.
  7
ISO
 72
     4
 11
21.0
 21
7.876133
 31
0.0
  0
TEXT
  8
RAHMEN
 62
     7
  5
405
 10
34.773214
 20
7.223886
 30
0.0
 40
1.3
  1
Änderung
  7
ISO
 72
     4
 11
38.0
 21
7.827457
 31
0.0
  0
TEXT
  8
RAHMEN
 62
     7
  5
406
 10
30.436654
 20
5.562234
 30
0.0
 40
1.3
  1
Modification/Chg-Note
  7
ISO
 72
     4
 11
38.097368
 21
6.026519
 31
0.0
  0
TEXT
  8
RAHMEN
 62
     7
  5
407
 10
56.07675
 20
7.177457
 30
0.0
 40
1.3
  1
Datum
  7
ISO
 72
     4
 11
58.073178
 21
7.827457
 31
0.0
  0
TEXT
  8
RAHMEN
 62
     7
  5
408
 10
56.633892
 20
5.376518
 30
0.0
 40
1.3
  1
Date
  7
ISO
 72
     4
 11
58.073178
 21
6.026518
 31
0.0
  0
TEXT
  8
RAHMEN
 62
     7
  5
409
 10
68.282143
 20
7.372155
 30
0.0
 40
1.3
  1
Name
  7
ISO
 72
     4
 11
70.0
 21
8.022155
 31
0.0
  0
TEXT
  8
RAHMEN
 62
     7
  5
40A
 10
68.282143
 20
5.425194
 30
0.0
 40
1.3
  1
Name
  7
ISO
 72
     4
 11
70.0
 21
6.075194
 31
0.0
  0
TEXT
  8
RAHMEN
 62
     7
  5
40B
 10
74.393453
 20
7.489216
 30
0.0
 40
1.3
  1
Urspr.
  7
ISO
  0
TEXT
  8
RAHMEN
 62
     7
  5
40C
 10
74.434018
 20
5.664067
 30
0.0
 40
1.3
  1
Orig.
  7
ISO
  0
TEXT
  8
RAHMEN
 62
     7
  5
40D
 10
89.381212
 20
12.335318
 30
0.0
 40
2.0
  1
erstellt
  7
ISO
  0
TEXT
  8
RAHMEN
 62
     7
  5
40E
 10
89.381212
 20
9.95948
 30
0.0
 40
2.0
  1
generated
  7
ISO
  0
TEXT
  8
RAHMEN
 62
     2
  5
40F
 10
75.601021
 20
9.893627
 30
0.0
 40
3.5
  1
CAD
  7
NORM
  0
TEXT
  8
RAHMEN
 62
     7
  5
410
 10
75.119315
 20
18.104516
 30
0.0
 40
2.0
  1
Filename
  7
ISO
  0
TEXT
  8
RAHMEN
 62
     7
  5
411
 10
75.119315
 20
15.728678
 30
0.0
 40
2.0
  1
Filename
  7
ISO
  0
TEXT
  8
RAHMEN
 62
     7
  5
412
 10
76.551762
 20
25.571128
 30
0.0
 40
1.5
  1
Appr.
  7
ISO
 72
     4
 11
78.533905
 21
26.106843
 31
0.0
  0
TEXT
  8
RAHMEN
 62
     7
  5
413
 10
76.644175
 20
27.29849
 30
0.0
 40
1.5
  1
Norm
  7
ISO
 72
     4
 11
78.572746
 21
28.04849
 31
0.0
  0
TEXT
  8
RAHMEN
 62
     7
  5
414
 10
75.266048
 20
29.356843
 30
0.0
 40
1.5
  1
Checked
  7
ISO
 72
     4
 11
78.533905
 21
30.106843
 31
0.0
  0
TEXT
  8
RAHMEN
 62
     7
  5
415
 10
76.590603
 20
31.240946
 30
0.0
 40
1.5
  1
Gepr.
  7
ISO
 72
     4
 11
78.572746
 21
31.77666
 31
0.0
  0
TEXT
  8
RAHMEN
 62
     7
  5
416
 10
76.069619
 20
33.356843
 30
0.0
 40
1.5
  1
Drawn
  7
ISO
 72
     4
 11
78.533905
 21
34.106843
 31
0.0
  0
TEXT
  8
RAHMEN
 62
     7
  5
417
 10
75.679889
 20
35.29849
 30
0.0
 40
1.5
  1
Erstellt
  7
ISO
 72
     4
 11
78.572746
 21
36.04849
 31
0.0
  0
TEXT
  8
RAHMEN
 62
     7
  5
418
 10
85.745474
 20
38.25
 30
0.0
 40
1.5
  1
Datum  Date
  7
ISO
 72
     4
 11
90.83476
 21
39.0
 31
0.0
  0
TEXT
  8
RAHMEN
 62
     7
  5
419
 10
104.100573
 20
38.25
 30
0.0
 40
1.5
  1
Name  Name
  7
ISO
 72
     4
 11
109.189859
 21
39.0
 31
0.0
  0
TEXT
  8
RAHMEN
 62
     7
  5
41A
 10
75.439017
 20
58.90949
 30
0.0
 40
1.5
  1
Allgemeintoleranz
  7
ISO
 72
     4
 11
82.564017
 21
59.445205
 31
0.0
  0
TEXT
  8
RAHMEN
 62
     7
  5
41B
 10
74.903302
 20
55.92586
 30
0.0
 40
1.5
  1
General Tolerance
  7
ISO
 72
     4
 11
82.564017
 21
56.67586
 31
0.0
  0
TEXT
  8
RAHMEN
 62
     7
  5
41C
 10
101.08762
 20
59.050042
 30
0.0
 40
1.5
  1
Oberfläche
  7
ISO
  0
TEXT
  8
RAHMEN
 62
     7
  5
41D
 10
101.08762
 20
56.367239
 30
0.0
 40
1.5
  1
Surface Coating
  7
ISO
  0
TEXT
  8
RAHMEN
 62
     7
  5
41E
 10
120.430478
 20
58.523283
 30
0.0
 40
1.5
  1
Maßstab
  7
ISO
 72
     4
 11
123.698335
 21
59.112568
 31
0.0
  0
TEXT
  8
RAHMEN
 62
     7
  5
41F
 10
121.60905
 20
55.118597
 30
0.0
 40
1.5
  1
Scale
  7
ISO
 72
     4
 11
123.698335
 21
55.868597
 31
0.0
  0
TEXT
  8
RAHMEN
 62
     7
  5
420
 10
119.962388
 20
51.298402
 30
0.0
 40
1.5
  1
Werkstoff,Halbzeug
  7
ISO
  0
TEXT
  8
RAHMEN
 62
     7
  5
421
 10
119.962388
 20
48.602655
 30
0.0
 40
1.5
  1
Material,Material From
  7
ISO
  0
TEXT
  8
RAHMEN
 62
     7
  5
422
 10
120.333943
 20
38.869797
 30
0.0
 40
1.5
  1
Benennung
  7
ISO
  0
TEXT
  8
RAHMEN
 62
     7
  5
423
 10
120.333943
 20
36.750627
 30
0.0
 40
1.5
  1
Drawing Name
  7
ISO
  0
TEXT
  8
RAHMEN
 62
     7
  5
424
 10
120.114986
 20
18.670841
 30
0.0
 40
1.5
  1
Zeichnung-Nr.
  7
ISO
  0
TEXT
  8
RAHMEN
 62
     7
  5
425
 10
120.114986
 20
16.3633
 30
0.0
 40
1.5
  1
Drawing NO.
  7
ISO
  0
TEXT
  8
RAHMEN
 62
     7
  5
426
 10
119.434018
 20
5.664067
 30
0.0
 40
1.3
  1
Repl. for:
  7
ISO
  0
TEXT
  8
RAHMEN
 62
     7
  5
427
 10
119.393453
 20
7.489216
 30
0.0
 40
1.3
  1
Ers.f.:
  7
ISO
  0
TEXT
  8
RAHMEN
 62
     7
  5
428
 10
160.434018
 20
5.664067
 30
0.0
 40
1.3
  1
Repl. by:
  7
ISO
  0
TEXT
  8
RAHMEN
 62
     7
  5
429
 10
160.393453
 20
7.489216
 30
0.0
 40
1.3
  1
Ers.d.:
  7
ISO
  0
TEXT
  8
RAHMEN
 62
     7
  5
42A
 10
192.557306
 20
19.22161
 30
0.0
 40
1.5
  1
Blatt
  7
ISO
 72
     4
 11
194.325163
 21
19.97161
 31
0.0
  0
TEXT
  8
RAHMEN
 62
     7
  5
42B
 10
192.182306
 20
17.44377
 30
0.0
 40
1.5
  1
Sheet
  7
ISO
 72
     4
 11
194.325163
 21
18.19377
 31
0.0
  0
TEXT
  8
RAHMEN
 62
     7
  5
42C
 10
202.375017
 20
11.283628
 30
0.0
 40
1.5
  1
Bl.
  7
ISO
 72
     4
 11
203.178589
 21
12.033628
 31
0.0
  0
TEXT
  8
RAHMEN
 62
     7
  5
42D
 10
202.589303
 20
9.299062
 30
0.0
 40
1.5
  1
of
  7
ISO
 72
     4
 11
203.178589
 21
10.049062
 31
0.0
  0
TEXT
  8
RAHMEN
 62
     7
  5
42E
 10
166.320054
 20
58.195549
 30
0.0
 40
1.5
  1
Projektionsmethode
  7
ISO
  0
TEXT
  8
RAHMEN
 62
     7
  5
42F
 10
166.320054
 20
55.147445
 30
0.0
 40
1.5
  1
First Angle Projection
  7
ISO
  0
INSERT
  8
ACA_VARSAVE
  5
430
  2
ACA_SAVE_DONT_PURGE
 10
0.0
 20
0.0
 30
0.0
  0
ATTDEF
  8
RAHMEN
 62
     7
  5
431
 10
100.737686
 20
33.899824
 30
0.0
 40
2.0
  1
Berges
  3
Name eingeben
  2
NAME
 70
     0
  7
NORM
  0
ENDBLK
  8
0
  5
2C2
  0
BLOCK
  8
0
  5
101E
  2
ALU
 70
     0
 10
0.0
 20
0.0
 30
0.0
  3
ALU
  0
LINE
  8
RAHMEN
  5
9597
 10
40.869794
 20
7.063503
 30
0.0
 11
41.969794
 21
11.168759
 31
0.0
1001
ACAD
1000
ASC_BOUNDS
1002
{
1070
    19
1002
}
  0
LINE
  8
RAHMEN
  5
9598
 10
43.619794
 20
7.063503
 30
0.0
 11
44.157987
 21
9.072068
 31
0.0
1001
ACAD
1000
ASC_BOUNDS
1002
{
1070
    19
1002
}
  0
LINE
  8
RAHMEN
  5
9599
 10
25.559794
 20
11.109913
 30
0.0
 11
25.792532
 21
11.978503
 31
0.0
1001
ACAD
1000
ASC_BOUNDS
1002
{
1070
    19
1002
}
  0
POLYLINE
  8
RAHMEN
  5
959A
 66
     1
 10
0.0
 20
0.0
 30
0.0
 70
     1
  0
VERTEX
  8
RAHMEN
  5
959B
 10
33.609794
 20
10.363503
 30
0.0
 42
-1.0
  0
VERTEX
  8
RAHMEN
  5
959C
 10
30.309794
 20
10.363503
 30
0.0
 42
-1.0
  0
SEQEND
  8
RAHMEN
  5
959D
  0
POLYLINE
  8
RAHMEN
  5
959E
 66
     1
 10
0.0
 20
0.0
 30
0.0
 70
     1
  0
VERTEX
  8
RAHMEN
  5
959F
 10
28.659794
 20
10.363503
 30
0.0
 42
1.0
  0
VERTEX
  8
RAHMEN
  5
95A0
 10
35.259794
 20
10.363503
 30
0.0
 42
1.0
  0
SEQEND
  8
RAHMEN
  5
95A1
  0
POLYLINE
  8
RAHMEN
  5
95A2
 66
     1
 10
0.0
 20
0.0
 30
0.0
 70
     1
  0
VERTEX
  8
RAHMEN
  5
95A3
 10
26.102294
 20
10.363503
 30
0.0
  0
VERTEX
  8
RAHMEN
  5
95A4
 10
25.359794
 20
10.363503
 30
0.0
  0
VERTEX
  8
RAHMEN
  5
95A5
 10
25.359794
 20
12.178503
 30
0.0
  0
VERTEX
  8
RAHMEN
  5
95A6
 10
26.102294
 20
12.178503
 30
0.0
 42
-1.0
  0
SEQEND
  8
RAHMEN
  5
95A7
  0
POLYLINE
  8
RAHMEN
  5
95A8
 66
     1
 10
0.0
 20
0.0
 30
0.0
 70
     1
  0
VERTEX
  8
RAHMEN
  5
95A9
 10
8.474794
 20
10.991599
 30
0.0
  0
VERTEX
  8
RAHMEN
  5
95AA
 10
8.474794
 20
9.263503
 30
0.0
  0
VERTEX
  8
RAHMEN
  5
95AB
 10
7.369332
 20
9.263503
 30
0.0
  0
SEQEND
  8
RAHMEN
  5
95AC
  0
POLYLINE
  8
RAHMEN
  5
95AD
 66
     1
 10
0.0
 20
0.0
 30
0.0
 70
     1
  0
VERTEX
  8
RAHMEN
  5
95AE
 10
8.474794
 20
10.991599
 30
0.0
  0
VERTEX
  8
RAHMEN
  5
95AF
 10
7.369332
 20
9.263503
 30
0.0
  0
VERTEX
  8
RAHMEN
  5
95B0
 10
8.474794
 20
9.263503
 30
0.0
  0
SEQEND
  8
RAHMEN
  5
95B1
  0
LINE
  8
RAHMEN
  5
95B2
 10
10.324794
 20
13.637173
 30
0.0
 11
11.761759
 21
19.0
 31
0.0
1001
ACAD
1000
ASC_BOUNDS
1002
{
1070
    19
1002
}
  0
LINE
  8
RAHMEN
  5
95B3
 10
10.324794
 20
7.809913
 30
0.0
 11
10.324794
 21
13.637173
 31
0.0
1001
ACAD
1000
ASC_BOUNDS
1002
{
1070
    19
1002
}
  0
LINE
  8
RAHMEN
  5
95B4
 10
10.524794
 20
8.556323
 30
0.0
 11
10.524794
 21
13.610842
 31
0.0
1001
ACAD
1000
ASC_BOUNDS
1002
{
1070
    19
1002
}
  0
LINE
  8
RAHMEN
  5
95B5
 10
12.324794
 20
12.890762
 30
0.0
 11
13.961759
 21
19.0
 31
0.0
1001
ACAD
1000
ASC_BOUNDS
1002
{
1070
    19
1002
}
  0
LINE
  8
RAHMEN
  5
95B6
 10
12.324794
 20
12.118022
 30
0.0
 11
14.168815
 21
19.0
 31
0.0
1001
ACAD
1000
ASC_BOUNDS
1002
{
1070
    19
1002
}
  0
LINE
  8
RAHMEN
  5
95B7
 10
12.324794
 20
11.345281
 30
0.0
 11
14.37587
 21
19.0
 31
0.0
1001
ACAD
1000
ASC_BOUNDS
1002
{
1070
    19
1002
}
  0
LINE
  8
RAHMEN
  5
95B8
 10
12.324794
 20
10.57254
 30
0.0
 11
14.582925
 21
19.0
 31
0.0
1001
ACAD
1000
ASC_BOUNDS
1002
{
1070
    19
1002
}
  0
LINE
  8
RAHMEN
  5
95B9
 10
12.324794
 20
9.7998
 30
0.0
 11
14.78998
 21
19.0
 31
0.0
1001
ACAD
1000
ASC_BOUNDS
1002
{
1070
    19
1002
}
  0
LINE
  8
RAHMEN
  5
95BA
 10
12.324794
 20
9.027059
 30
0.0
 11
14.997036
 21
19.0
 31
0.0
1001
ACAD
1000
ASC_BOUNDS
1002
{
1070
    19
1002
}
  0
LINE
  8
RAHMEN
  5
95BB
 10
10.524794
 20
13.610842
 30
0.0
 11
11.968815
 21
19.0
 31
0.0
1001
ACAD
1000
ASC_BOUNDS
1002
{
1070
    19
1002
}
  0
LINE
  8
RAHMEN
  5
95BC
 10
8.274794
 20
10.307808
 30
0.0
 11
7.734692
 21
9.463503
 31
0.0
  0
LINE
  8
RAHMEN
  5
95BD
 10
7.734692
 20
9.463503
 30
0.0
 11
8.274794
 21
9.463503
 31
0.0
  0
LINE
  8
RAHMEN
  5
95BE
 10
8.274794
 20
9.463503
 30
0.0
 11
8.274794
 21
10.307808
 31
0.0
  0
LINE
  8
RAHMEN
  5
95BF
 10
8.274794
 20
9.936664
 30
0.0
 11
7.972113
 21
9.463503
 31
0.0
  0
LINE
  8
RAHMEN
  5
95C0
 10
5.961992
 20
7.063503
 30
0.0
 11
8.474794
 21
7.063503
 31
0.0
  0
LINE
  8
RAHMEN
  5
95C1
 10
8.474794
 20
7.688503
 30
0.0
 11
6.361805
 21
7.688503
 31
0.0
1001
ACAD
1000
ASC_BOUNDS
1002
{
1070
    19
1002
}
  0
LINE
  8
RAHMEN
  5
95C2
 10
8.474794
 20
7.488503
 30
0.0
 11
6.233865
 21
7.488503
 31
0.0
1001
ACAD
1000
ASC_BOUNDS
1002
{
1070
    19
1002
}
  0
LINE
  8
RAHMEN
  5
95C3
 10
8.474794
 20
7.288503
 30
0.0
 11
6.105925
 21
7.288503
 31
0.0
1001
ACAD
1000
ASC_BOUNDS
1002
{
1070
    19
1002
}
  0
LINE
  8
RAHMEN
  5
95C4
 10
8.474794
 20
7.088503
 30
0.0
 11
5.977985
 21
7.088503
 31
0.0
1001
ACAD
1000
ASC_BOUNDS
1002
{
1070
    19
1002
}
  0
LINE
  8
RAHMEN
  5
95C5
 10
19.227979
 20
13.611739
 30
0.0
 11
20.671759
 21
19.0
 31
0.0
1001
ACAD
1000
ASC_BOUNDS
1002
{
1070
    19
1002
}
  0
POLYLINE
  8
RAHMEN
  5
95C6
 66
     1
 10
0.0
 20
0.0
 30
0.0
 70
     1
  0
VERTEX
  8
RAHMEN
  5
95C7
 10
17.384794
 20
13.663503
 30
0.0
  0
VERTEX
  8
RAHMEN
  5
95C8
 10
18.814704
 20
19.0
 30
0.0
  0
VERTEX
  8
RAHMEN
  5
95C9
 10
17.164704
 20
19.0
 30
0.0
  0
VERTEX
  8
RAHMEN
  5
95CA
 10
15.734794
 20
13.663503
 30
0.0
  0
VERTEX
  8
RAHMEN
  5
95CB
 10
15.734794
 20
9.538503
 30
0.0
 42
1.0
  0
VERTEX
  8
RAHMEN
  5
95CC
 10
17.384794
 20
9.538503
 30
0.0
  0
SEQEND
  8
RAHMEN
  5
95CD
  0
POLYLINE
  8
RAHMEN
  5
95CE
 66
     1
 10
0.0
 20
0.0
 30
0.0
 70
     1
  0
VERTEX
  8
RAHMEN
  5
95CF
 10
17.184794
 20
13.689834
 30
0.0
  0
VERTEX
  8
RAHMEN
  5
95D0
 10
18.554059
 20
18.8
 30
0.0
  0
VERTEX
  8
RAHMEN
  5
95D1
 10
17.31817
 20
18.8
 30
0.0
  0
VERTEX
  8
RAHMEN
  5
95D2
 10
15.934794
 20
13.637173
 30
0.0
  0
VERTEX
  8
RAHMEN
  5
95D3
 10
15.934794
 20
9.538503
 30
0.0
 42
1.0
  0
VERTEX
  8
RAHMEN
  5
95D4
 10
17.184794
 20
9.538503
 30
0.0
  0
SEQEND
  8
RAHMEN
  5
95D5
  0
POLYLINE
  8
RAHMEN
  5
95D6
 66
     1
 10
0.0
 20
0.0
 30
0.0
 70
     1
  0
VERTEX
  8
RAHMEN
  5
95D7
 10
16.984794
 20
13.716164
 30
0.0
  0
VERTEX
  8
RAHMEN
  5
95D8
 10
18.293414
 20
18.6
 30
0.0
  0
VERTEX
  8
RAHMEN
  5
95D9
 10
17.471635
 20
18.6
 30
0.0
  0
VERTEX
  8
RAHMEN
  5
95DA
 10
16.134794
 20
13.610842
 30
0.0
  0
VERTEX
  8
RAHMEN
  5
95DB
 10
16.134794
 20
9.538503
 30
0.0
 42
1.0
  0
VERTEX
  8
RAHMEN
  5
95DC
 10
16.984794
 20
9.538503
 30
0.0
  0
SEQEND
  8
RAHMEN
  5
95DD
  0
POLYLINE
  8
RAHMEN
  5
95DE
 66
     1
 10
0.0
 20
0.0
 30
0.0
 70
     1
  0
VERTEX
  8
RAHMEN
  5
95DF
 10
16.784794
 20
13.742495
 30
0.0
  0
VERTEX
  8
RAHMEN
  5
95E0
 10
18.032769
 20
18.4
 30
0.0
  0
VERTEX
  8
RAHMEN
  5
95E1
 10
17.6251
 20
18.4
 30
0.0
  0
VERTEX
  8
RAHMEN
  5
95E2
 10
16.334794
 20
13.584512
 30
0.0
  0
VERTEX
  8
RAHMEN
  5
95E3
 10
16.334794
 20
9.538503
 30
0.0
 42
1.0
  0
VERTEX
  8
RAHMEN
  5
95E4
 10
16.784794
 20
9.538503
 30
0.0
  0
SEQEND
  8
RAHMEN
  5
95E5
  0
POLYLINE
  8
RAHMEN
  5
95E6
 66
     1
 10
0.0
 20
0.0
 30
0.0
  0
VERTEX
  8
RAHMEN
  5
95E7
 10
16.584794
 20
13.768825
 30
0.0
  0
VERTEX
  8
RAHMEN
  5
95E8
 10
17.772124
 20
18.2
 30
0.0
  0
VERTEX
  8
RAHMEN
  5
95E9
 10
17.6251
 20
18.2
 30
0.0
  0
SEQEND
  8
RAHMEN
  5
95EA
  0
LINE
  8
RAHMEN
  5
95EB
 10
16.584794
 20
13.768825
 30
0.0
 11
16.584794
 21
9.314896
 31
0.0
  0
POLYLINE
  8
RAHMEN
  5
95EC
 66
     1
 10
0.0
 20
0.0
 30
0.0
  0
VERTEX
  8
RAHMEN
  5
95ED
 10
12.324794
 20
13.663503
 30
0.0
  0
VERTEX
  8
RAHMEN
  5
95EE
 10
10.674794
 20
13.663503
 30
0.0
  0
VERTEX
  8
RAHMEN
  5
95EF
 10
10.674794
 20
7.063503
 30
0.0
  0
VERTEX
  8
RAHMEN
  5
95F0
 10
14.359794
 20
7.063503
 30
0.0
  0
VERTEX
  8
RAHMEN
  5
95F1
 10
14.359794
 20
8.404649
 30
0.0
  0
SEQEND
  8
RAHMEN
  5
95F2
  0
POLYLINE
  8
RAHMEN
  5
95F3
 66
     1
 10
0.0
 20
0.0
 30
0.0
  0
VERTEX
  8
RAHMEN
  5
95F4
 10
14.268201
 20
8.603503
 30
0.0
  0
VERTEX
  8
RAHMEN
  5
95F5
 10
12.324794
 20
8.603503
 30
0.0
  0
VERTEX
  8
RAHMEN
  5
95F6
 10
12.324794
 20
13.663503
 30
0.0
  0
SEQEND
  8
RAHMEN
  5
95F7
  0
LINE
  8
RAHMEN
  5
95F8
 10
14.359794
 20
7.836244
 30
0.0
 11
14.463403
 21
8.222916
 31
0.0
  0
LINE
  8
RAHMEN
  5
95F9
 10
19.234794
 20
10.731814
 30
0.0
 11
19.234794
 21
13.663503
 31
0.0
1001
ACAD
1000
ASC_BOUNDS
1002
{
1070
    19
1002
}
  0
LINE
  8
RAHMEN
  5
95FA
 10
19.434794
 20
11.478224
 30
0.0
 11
19.434794
 21
12.088503
 31
0.0
1001
ACAD
1000
ASC_BOUNDS
1002
{
1070
    19
1002
}
  0
LINE
  8
RAHMEN
  5
95FB
 10
19.034794
 20
9.985404
 30
0.0
 11
19.598318
 21
12.088503
 31
0.0
1001
ACAD
1000
ASC_BOUNDS
1002
{
1070
    19
1002
}
  0
LINE
  8
RAHMEN
  5
95FC
 10
19.434794
 20
12.088503
 30
0.0
 11
19.598318
 21
12.088503
 31
0.0
  0
LINE
  8
RAHMEN
  5
95FD
 10
23.634794
 20
13.637173
 30
0.0
 11
25.071759
 21
19.0
 31
0.0
1001
ACAD
1000
ASC_BOUNDS
1002
{
1070
    19
1002
}
  0
LINE
  8
RAHMEN
  5
95FE
 10
23.634794
 20
13.034913
 30
0.0
 11
23.634794
 21
13.637173
 31
0.0
1001
ACAD
1000
ASC_BOUNDS
1002
{
1070
    19
1002
}
  0
LINE
  8
RAHMEN
  5
95FF
 10
22.397294
 20
12.088503
 30
0.0
 11
22.397294
 21
7.809913
 31
0.0
1001
ACAD
1000
ASC_BOUNDS
1002
{
1070
    19
1002
}
  0
LINE
  8
RAHMEN
  5
9600
 10
22.397294
 20
8.582654
 30
0.0
 11
23.390273
 21
12.288503
 31
0.0
1001
ACAD
1000
ASC_BOUNDS
1002
{
1070
    19
1002
}
  0
LINE
  8
RAHMEN
  5
9601
 10
22.397294
 20
9.355395
 30
0.0
 11
23.129628
 21
12.088503
 31
0.0
1001
ACAD
1000
ASC_BOUNDS
1002
{
1070
    19
1002
}
  0
LINE
  8
RAHMEN
  5
9602
 10
22.397294
 20
10.128135
 30
0.0
 11
22.922573
 21
12.088503
 31
0.0
1001
ACAD
1000
ASC_BOUNDS
1002
{
1070
    19
1002
}
  0
LINE
  8
RAHMEN
  5
9603
 10
22.397294
 20
10.900876
 30
0.0
 11
22.715518
 21
12.088503
 31
0.0
1001
ACAD
1000
ASC_BOUNDS
1002
{
1070
    19
1002
}
  0
LINE
  8
RAHMEN
  5
9604
 10
22.397294
 20
11.673617
 30
0.0
 11
22.508463
 21
12.088503
 31
0.0
1001
ACAD
1000
ASC_BOUNDS
1002
{
1070
    19
1002
}
  0
LINE
  8
RAHMEN
  5
9605
 10
22.397294
 20
12.088503
 30
0.0
 11
23.336684
 21
12.088503
 31
0.0
1001
ACAD
1000
ASC_BOUNDS
1002
{
1070
    19
1002
}
  0
LINE
  8
RAHMEN
  5
9606
 10
28.735008
 20
12.22731
 30
0.0
 11
30.549745
 21
19.0
 31
0.0
1001
ACAD
1000
ASC_BOUNDS
1002
{
1070
    19
1002
}
  0
LINE
  8
RAHMEN
  5
9607
 10
28.609323
 20
12.530989
 30
0.0
 11
30.34269
 21
19.0
 31
0.0
1001
ACAD
1000
ASC_BOUNDS
1002
{
1070
    19
1002
}
  0
LINE
  8
RAHMEN
  5
9608
 10
28.468265
 20
12.777293
 30
0.0
 11
30.135634
 21
19.0
 31
0.0
1001
ACAD
1000
ASC_BOUNDS
1002
{
1070
    19
1002
}
  0
LINE
  8
RAHMEN
  5
9609
 10
28.316621
 20
12.984093
 30
0.0
 11
29.928579
 21
19.0
 31
0.0
1001
ACAD
1000
ASC_BOUNDS
1002
{
1070
    19
1002
}
  0
LINE
  8
RAHMEN
  5
960A
 10
28.15685
 20
13.160559
 30
0.0
 11
29.721524
 21
19.0
 31
0.0
1001
ACAD
1000
ASC_BOUNDS
1002
{
1070
    19
1002
}
  0
LINE
  8
RAHMEN
  5
960B
 10
28.579051
 20
7.534905
 30
0.0
 11
28.965363
 21
8.976642
 31
0.0
1001
ACAD
1000
ASC_BOUNDS
1002
{
1070
    19
1002
}
  0
LINE
  8
RAHMEN
  5
960C
 10
28.430171
 20
7.752021
 30
0.0
 11
28.840965
 21
9.285123
 31
0.0
1001
ACAD
1000
ASC_BOUNDS
1002
{
1070
    19
1002
}
  0
LINE
  8
RAHMEN
  5
960D
 10
28.281292
 20
7.969137
 30
0.0
 11
28.735072
 21
9.662668
 31
0.0
1001
ACAD
1000
ASC_BOUNDS
1002
{
1070
    19
1002
}
  0
LINE
  8
RAHMEN
  5
960E
 10
28.132413
 20
8.186252
 30
0.0
 11
28.665202
 21
10.17465
 31
0.0
1001
ACAD
1000
ASC_BOUNDS
1002
{
1070
    19
1002
}
  0
LINE
  8
RAHMEN
  5
960F
 10
27.983534
 20
8.403368
 30
0.0
 11
28.440247
 21
10.107846
 31
0.0
1001
ACAD
1000
ASC_BOUNDS
1002
{
1070
    19
1002
}
  0
LINE
  8
RAHMEN
  5
9610
 10
27.834654
 20
8.620484
 30
0.0
 11
28.136264
 21
9.746108
 31
0.0
1001
ACAD
1000
ASC_BOUNDS
1002
{
1070
    19
1002
}
  0
LINE
  8
RAHMEN
  5
9611
 10
27.685775
 20
8.837599
 30
0.0
 11
27.868795
 21
9.52064
 31
0.0
1001
ACAD
1000
ASC_BOUNDS
1002
{
1070
    19
1002
}
  0
LINE
  8
RAHMEN
  5
9612
 10
27.536896
 20
9.054715
 30
0.0
 11
27.619278
 21
9.362171
 31
0.0
1001
ACAD
1000
ASC_BOUNDS
1002
{
1070
    19
1002
}
  0
LINE
  8
RAHMEN
  5
9613
 10
25.359794
 20
7.836244
 30
0.0
 11
25.581793
 21
8.664755
 31
0.0
1001
ACAD
1000
ASC_BOUNDS
1002
{
1070
    19
1002
}
  0
LINE
  8
RAHMEN
  5
9614
 10
25.559794
 20
11.882654
 30
0.0
 11
25.585477
 21
11.978503
 31
0.0
1001
ACAD
1000
ASC_BOUNDS
1002
{
1070
    19
1002
}
  0
LINE
  8
RAHMEN
  5
9615
 10
28.579051
 20
7.534905
 30
0.0
 11
27.39948
 21
9.255112
 31
0.0
  0
ARC
  8
RAHMEN
  5
9616
 10
26.459794
 20
11.463503
 30
0.0
 40
2.4
 50
293.050102
 51
325.607637
  0
ARC
  8
RAHMEN
  5
9617
 10
26.459794
 20
11.463503
 30
0.0
 40
2.4
 50
8.556464
 51
50.375682
  0
LINE
  8
RAHMEN
  5
9618
 10
25.559794
 20
11.109913
 30
0.0
 11
25.559794
 21
11.978503
 31
0.0
  0
LINE
  8
RAHMEN
  5
9619
 10
25.559794
 20
11.978503
 30
0.0
 11
25.792532
 21
11.978503
 31
0.0
  0
LINE
  8
RAHMEN
  5
961A
 10
34.819291
 20
12.381739
 30
0.0
 11
35.169794
 21
13.689834
 31
0.0
1001
ACAD
1000
ASC_BOUNDS
1002
{
1070
    19
1002
}
  0
LINE
  8
RAHMEN
  5
961B
 10
34.666136
 20
12.582898
 30
0.0
 11
36.385594
 21
19.0
 31
0.0
1001
ACAD
1000
ASC_BOUNDS
1002
{
1070
    19
1002
}
  0
LINE
  8
RAHMEN
  5
961C
 10
34.507445
 20
12.763394
 30
0.0
 11
36.178538
 21
19.0
 31
0.0
1001
ACAD
1000
ASC_BOUNDS
1002
{
1070
    19
1002
}
  0
LINE
  8
RAHMEN
  5
961D
 10
34.343933
 20
12.925901
 30
0.0
 11
35.971483
 21
19.0
 31
0.0
1001
ACAD
1000
ASC_BOUNDS
1002
{
1070
    19
1002
}
  0
LINE
  8
RAHMEN
  5
961E
 10
34.176121
 20
13.072358
 30
0.0
 11
35.764428
 21
19.0
 31
0.0
1001
ACAD
1000
ASC_BOUNDS
1002
{
1070
    19
1002
}
  0
LINE
  8
RAHMEN
  5
961F
 10
35.104384
 20
11.900238
 30
0.0
 11
35.169794
 21
12.144352
 31
0.0
1001
ACAD
1000
ASC_BOUNDS
1002
{
1070
    19
1002
}
  0
LINE
  8
RAHMEN
  5
9620
 10
35.216329
 20
13.863503
 30
0.0
 11
35.169794
 21
13.863503
 31
0.0
1001
ACAD
1000
ASC_BOUNDS
1002
{
1070
    19
1002
}
  0
LINE
  8
RAHMEN
  5
9621
 10
35.369794
 20
13.663503
 30
0.0
 11
36.799704
 21
19.0
 31
0.0
1001
ACAD
1000
ASC_BOUNDS
1002
{
1070
    19
1002
}
  0
LINE
  8
RAHMEN
  5
9622
 10
35.216329
 20
13.863503
 30
0.0
 11
36.592649
 21
19.0
 31
0.0
1001
ACAD
1000
ASC_BOUNDS
1002
{
1070
    19
1002
}
  0
LINE
  8
RAHMEN
  5
9623
 10
35.169794
 20
11.758459
 30
0.0
 11
35.169794
 21
13.863503
 31
0.0
1001
ACAD
1000
ASC_BOUNDS
1002
{
1070
    19
1002
}
  0
POLYLINE
  8
RAHMEN
  5
9624
 66
     1
 10
0.0
 20
0.0
 30
0.0
  0
VERTEX
  8
RAHMEN
  5
9625
 10
35.169794
 20
11.758459
 30
0.0
 42
0.13506
  0
VERTEX
  8
RAHMEN
  5
9626
 10
34.004395
 20
13.204209
 30
0.0
 42
1.0
  0
SEQEND
  8
RAHMEN
  5
9627
  0
POLYLINE
  8
RAHMEN
  5
9628
 66
     1
 10
0.0
 20
0.0
 30
0.0
 70
     1
  0
VERTEX
  8
RAHMEN
  5
9629
 10
40.649704
 20
19.0
 30
0.0
  0
VERTEX
  8
RAHMEN
  5
962A
 10
38.174704
 20
19.0
 30
0.0
  0
VERTEX
  8
RAHMEN
  5
962B
 10
36.744794
 20
13.663503
 30
0.0
  0
VERTEX
  8
RAHMEN
  5
962C
 10
39.219794
 20
10.253503
 30
0.0
  0
VERTEX
  8
RAHMEN
  5
962D
 10
39.219794
 20
13.663503
 30
0.0
  0
SEQEND
  8
RAHMEN
  5
962E
  0
POLYLINE
  8
RAHMEN
  5
962F
 66
     1
 10
0.0
 20
0.0
 30
0.0
 70
     1
  0
VERTEX
  8
RAHMEN
  5
9630
 10
40.389059
 20
18.8
 30
0.0
  0
VERTEX
  8
RAHMEN
  5
9631
 10
38.32817
 20
18.8
 30
0.0
  0
VERTEX
  8
RAHMEN
  5
9632
 10
36.962654
 20
13.703827
 30
0.0
  0
VERTEX
  8
RAHMEN
  5
9633
 10
39.019794
 20
10.869545
 30
0.0
  0
VERTEX
  8
RAHMEN
  5
9634
 10
39.019794
 20
13.689834
 30
0.0
  0
SEQEND
  8
RAHMEN
  5
9635
  0
POLYLINE
  8
RAHMEN
  5
9636
 66
     1
 10
0.0
 20
0.0
 30
0.0
 70
     1
  0
VERTEX
  8
RAHMEN
  5
9637
 10
40.128414
 20
18.6
 30
0.0
  0
VERTEX
  8
RAHMEN
  5
9638
 10
38.481635
 20
18.6
 30
0.0
  0
VERTEX
  8
RAHMEN
  5
9639
 10
37.180514
 20
13.74415
 30
0.0
  0
VERTEX
  8
RAHMEN
  5
963A
 10
38.819794
 20
11.485587
 30
0.0
  0
VERTEX
  8
RAHMEN
  5
963B
 10
38.819794
 20
13.716164
 30
0.0
  0
SEQEND
  8
RAHMEN
  5
963C
  0
POLYLINE
  8
RAHMEN
  5
963D
 66
     1
 10
0.0
 20
0.0
 30
0.0
 70
     1
  0
VERTEX
  8
RAHMEN
  5
963E
 10
39.867769
 20
18.4
 30
0.0
  0
VERTEX
  8
RAHMEN
  5
963F
 10
38.6351
 20
18.4
 30
0.0
  0
VERTEX
  8
RAHMEN
  5
9640
 10
37.398374
 20
13.784474
 30
0.0
  0
VERTEX
  8
RAHMEN
  5
9641
 10
38.619794
 20
12.101628
 30
0.0
  0
VERTEX
  8
RAHMEN
  5
9642
 10
38.619794
 20
13.742495
 30
0.0
  0
SEQEND
  8
RAHMEN
  5
9643
  0
POLYLINE
  8
RAHMEN
  5
9644
 66
     1
 10
0.0
 20
0.0
 30
0.0
 70
     1
  0
VERTEX
  8
RAHMEN
  5
9645
 10
39.607124
 20
18.2
 30
0.0
  0
VERTEX
  8
RAHMEN
  5
9646
 10
38.788566
 20
18.2
 30
0.0
  0
VERTEX
  8
RAHMEN
  5
9647
 10
37.616234
 20
13.824798
 30
0.0
  0
VERTEX
  8
RAHMEN
  5
9648
 10
38.419794
 20
12.71767
 30
0.0
  0
VERTEX
  8
RAHMEN
  5
9649
 10
38.419794
 20
13.768825
 30
0.0
  0
SEQEND
  8
RAHMEN
  5
964A
  0
POLYLINE
  8
RAHMEN
  5
964B
 66
     1
 10
0.0
 20
0.0
 30
0.0
 70
     1
  0
VERTEX
  8
RAHMEN
  5
964C
 10
39.346479
 20
18.0
 30
0.0
  0
VERTEX
  8
RAHMEN
  5
964D
 10
38.942031
 20
18.0
 30
0.0
  0
VERTEX
  8
RAHMEN
  5
964E
 10
37.834094
 20
13.865121
 30
0.0
  0
VERTEX
  8
RAHMEN
  5
964F
 10
38.219794
 20
13.333712
 30
0.0
  0
VERTEX
  8
RAHMEN
  5
9650
 10
38.219794
 20
13.795156
 30
0.0
  0
SEQEND
  8
RAHMEN
  5
9651
  0
POLYLINE
  8
RAHMEN
  5
9652
 66
     1
 10
0.0
 20
0.0
 30
0.0
  0
VERTEX
  8
RAHMEN
  5
9653
 10
39.346479
 20
17.8
 30
0.0
  0
VERTEX
  8
RAHMEN
  5
9654
 10
39.095497
 20
17.8
 30
0.0
  0
VERTEX
  8
RAHMEN
  5
9655
 10
38.051954
 20
13.905445
 30
0.0
  0
VERTEX
  8
RAHMEN
  5
9656
 10
38.381654
 20
13.451191
 30
0.0
  0
SEQEND
  8
RAHMEN
  5
9657
  0
POLYLINE
  8
RAHMEN
  5
9658
 66
     1
 10
0.0
 20
0.0
 30
0.0
 70
     1
  0
VERTEX
  8
RAHMEN
  5
9659
 10
43.139059
 20
18.8
 30
0.0
  0
VERTEX
  8
RAHMEN
  5
965A
 10
42.45317
 20
18.8
 30
0.0
  0
VERTEX
  8
RAHMEN
  5
965B
 10
41.069794
 20
13.637173
 30
0.0
  0
VERTEX
  8
RAHMEN
  5
965C
 10
41.069794
 20
8.582654
 30
0.0
  0
VERTEX
  8
RAHMEN
  5
965D
 10
41.769794
 20
11.195089
 30
0.0
  0
VERTEX
  8
RAHMEN
  5
965E
 10
41.769794
 20
13.689834
 30
0.0
  0
SEQEND
  8
RAHMEN
  5
965F
  0
POLYLINE
  8
RAHMEN
  5
9660
 66
     1
 10
0.0
 20
0.0
 30
0.0
 70
     1
  0
VERTEX
  8
RAHMEN
  5
9661
 10
42.878414
 20
18.6
 30
0.0
  0
VERTEX
  8
RAHMEN
  5
9662
 10
42.606635
 20
18.6
 30
0.0
  0
VERTEX
  8
RAHMEN
  5
9663
 10
41.269794
 20
13.610842
 30
0.0
  0
VERTEX
  8
RAHMEN
  5
9664
 10
41.269794
 20
10.101805
 30
0.0
  0
VERTEX
  8
RAHMEN
  5
9665
 10
41.569794
 20
11.22142
 30
0.0
  0
VERTEX
  8
RAHMEN
  5
9666
 10
41.569794
 20
13.716164
 30
0.0
  0
SEQEND
  8
RAHMEN
  5
9667
  0
POLYLINE
  8
RAHMEN
  5
9668
 66
     1
 10
0.0
 20
0.0
 30
0.0
 70
     1
  0
VERTEX
  8
RAHMEN
  5
9669
 10
45.83188
 20
18.8
 30
0.0
  0
VERTEX
  8
RAHMEN
  5
966A
 10
45.20317
 20
18.8
 30
0.0
  0
VERTEX
  8
RAHMEN
  5
966B
 10
43.819794
 20
13.637173
 30
0.0
  0
VERTEX
  8
RAHMEN
  5
966C
 10
43.819794
 20
11.290793
 30
0.0
  0
SEQEND
  8
RAHMEN
  5
966D
  0
POLYLINE
  8
RAHMEN
  5
966E
 66
     1
 10
0.0
 20
0.0
 30
0.0
 70
     1
  0
VERTEX
  8
RAHMEN
  5
966F
 10
45.571235
 20
18.6
 30
0.0
  0
VERTEX
  8
RAHMEN
  5
9670
 10
45.356635
 20
18.6
 30
0.0
  0
VERTEX
  8
RAHMEN
  5
9671
 10
44.019794
 20
13.610842
 30
0.0
  0
VERTEX
  8
RAHMEN
  5
9672
 10
44.019794
 20
12.809944
 30
0.0
  0
SEQEND
  8
RAHMEN
  5
9673
  0
LINE
  8
RAHMEN
  5
9674
 10
43.619794
 20
7.836244
 30
0.0
 11
44.0387
 21
9.399621
 31
0.0
1001
ACAD
1000
ASC_BOUNDS
1002
{
1070
    19
1002
}
  0
LINE
  8
RAHMEN
  5
9675
 10
37.119794
 20
8.209449
 30
0.0
 11
37.539652
 21
9.776379
 31
0.0
1001
ACAD
1000
ASC_BOUNDS
1002
{
1070
    19
1002
}
  0
LINE
  8
RAHMEN
  5
9676
 10
37.119794
 20
8.982189
 30
0.0
 11
37.388425
 21
9.984735
 31
0.0
1001
ACAD
1000
ASC_BOUNDS
1002
{
1070
    19
1002
}
  0
LINE
  8
RAHMEN
  5
9677
 10
37.119794
 20
9.75493
 30
0.0
 11
37.237199
 21
10.193091
 31
0.0
1001
ACAD
1000
ASC_BOUNDS
1002
{
1070
    19
1002
}
  0
LINE
  8
RAHMEN
  5
9678
 10
37.119794
 20
7.823078
 30
0.0
 11
37.119794
 21
10.354849
 31
0.0
1001
ACAD
1000
ASC_BOUNDS
1002
{
1070
    19
1002
}
  0
LINE
  8
RAHMEN
  5
9679
 10
37.119794
 20
10.354849
 30
0.0
 11
37.615265
 21
9.672201
 31
0.0
1001
ACAD
1000
ASC_BOUNDS
1002
{
1070
    19
1002
}
  0
LINE
  8
RAHMEN
  5
967A
 10
37.119794
 20
7.823078
 30
0.0
 11
37.615265
 21
9.672201
 31
0.0
1001
ACAD
1000
ASC_BOUNDS
1002
{
1070
    19
1002
}
  0
POLYLINE
  8
RAHMEN
  5
967B
 66
     1
 10
0.0
 20
0.0
 30
0.0
 70
     1
  0
VERTEX
  8
RAHMEN
  5
967C
 10
49.065852
 20
11.188503
 30
0.0
  0
VERTEX
  8
RAHMEN
  5
967D
 10
48.623736
 20
11.188503
 30
0.0
 42
3.732051
  0
VERTEX
  8
RAHMEN
  5
967E
 10
48.623736
 20
9.538503
 30
0.0
  0
SEQEND
  8
RAHMEN
  5
967F
  0
POLYLINE
  8
RAHMEN
  5
9680
 66
     1
 10
0.0
 20
0.0
 30
0.0
 70
     1
  0
VERTEX
  8
RAHMEN
  5
9681
 10
48.805207
 20
10.988503
 30
0.0
  0
VERTEX
  8
RAHMEN
  5
9682
 10
48.503181
 20
10.988503
 30
0.0
 42
3.970851
  0
VERTEX
  8
RAHMEN
  5
9683
 10
48.43759
 20
9.616537
 30
0.0
  0
SEQEND
  8
RAHMEN
  5
9684
  0
POLYLINE
  8
RAHMEN
  5
9685
 66
     1
 10
0.0
 20
0.0
 30
0.0
 70
     1
  0
VERTEX
  8
RAHMEN
  5
9686
 10
48.544562
 20
10.788503
 30
0.0
  0
VERTEX
  8
RAHMEN
  5
9687
 10
48.370326
 20
10.788503
 30
0.0
 42
4.320598
  0
VERTEX
  8
RAHMEN
  5
9688
 10
48.251959
 20
9.696493
 30
0.0
  0
SEQEND
  8
RAHMEN
  5
9689
  0
ARC
  8
RAHMEN
  5
968A
 10
47.194794
 20
10.363503
 30
0.0
 40
0.05
 50
1.685413
 51
247.851136
  0
LINE
  8
RAHMEN
  5
968B
 10
47.175943
 20
10.317193
 30
0.0
 11
47.201624
 21
10.413034
 31
0.0
  0
ARC
  8
RAHMEN
  5
968C
 10
47.194794
 20
10.363503
 30
0.0
 40
0.25
 50
24.184952
 51
305.815048
  0
LINE
  8
RAHMEN
  5
968D
 10
47.341087
 20
10.160776
 30
0.0
 11
47.422851
 21
10.465924
 31
0.0
  0
ARC
  8
RAHMEN
  5
968E
 10
47.194794
 20
10.363503
 30
0.0
 40
0.45
 50
13.947761
 51
316.052239
  0
LINE
  8
RAHMEN
  5
968F
 10
47.518782
 20
10.051202
 30
0.0
 11
47.631526
 21
10.47197
 31
0.0
  0
ARC
  8
RAHMEN
  5
9690
 10
47.194794
 20
10.363503
 30
0.0
 40
0.65
 50
9.005836
 51
320.994164
  0
LINE
  8
RAHMEN
  5
9691
 10
47.699897
 20
9.954393
 30
0.0
 11
47.836781
 21
10.465251
 31
0.0
  0
ARC
  8
RAHMEN
  5
9692
 10
47.194794
 20
10.363503
 30
0.0
 40
0.85
 50
5.955895
 51
324.044105
  0
LINE
  8
RAHMEN
  5
9693
 10
47.882843
 20
9.864415
 30
0.0
 11
48.040206
 21
10.451702
 31
0.0
  0
LINE
  8
RAHMEN
  5
9694
 10
48.283917
 20
10.588503
 30
0.0
 11
48.220404
 21
10.588503
 31
0.0
  0
ARC
  8
RAHMEN
  5
9695
 10
47.194794
 20
10.363503
 30
0.0
 40
1.05
 50
12.373625
 51
326.16547
  0
LINE
  8
RAHMEN
  5
9696
 10
48.066976
 20
9.778867
 30
0.0
 11
48.283917
 21
10.588503
 31
0.0
  0
LINE
  8
RAHMEN
  5
9697
 10
50.361376
 20
11.854396
 30
0.0
 11
52.276034
 21
19.0
 31
0.0
1001
ACAD
1000
ASC_BOUNDS
1002
{
1070
    19
1002
}
  0
LINE
  8
RAHMEN
  5
9698
 10
50.224424
 20
12.116027
 30
0.0
 11
52.068979
 21
19.0
 31
0.0
1001
ACAD
1000
ASC_BOUNDS
1002
{
1070
    19
1002
}
  0
LINE
  8
RAHMEN
  5
9699
 10
50.079045
 20
12.346203
 30
0.0
 11
51.861924
 21
19.0
 31
0.0
1001
ACAD
1000
ASC_BOUNDS
1002
{
1070
    19
1002
}
  0
LINE
  8
RAHMEN
  5
969A
 10
49.926894
 20
12.551111
 30
0.0
 11
51.654869
 21
19.0
 31
0.0
1001
ACAD
1000
ASC_BOUNDS
1002
{
1070
    19
1002
}
  0
LINE
  8
RAHMEN
  5
969B
 10
49.769063
 20
12.734819
 30
0.0
 11
51.447814
 21
19.0
 31
0.0
1001
ACAD
1000
ASC_BOUNDS
1002
{
1070
    19
1002
}
  0
ARC
  8
RAHMEN
  5
969C
 10
47.194794
 20
10.363503
 30
0.0
 40
3.5
 50
25.212039
 51
46.448655
1001
ACAD
1000
ASC_BOUNDS
1002
{
1070
    19
1002
}
  0
LINE
  8
RAHMEN
  5
969D
 10
42.299704
 20
19.0
 30
0.0
 11
43.399704
 21
19.0
 31
0.0
  0
LINE
  8
RAHMEN
  5
969E
 10
45.049704
 20
19.0
 30
0.0
 11
46.092525
 21
19.0
 31
0.0
  0
LINE
  8
RAHMEN
  5
969F
 10
42.7601
 20
18.4
 30
0.0
 11
41.469794
 21
13.584512
 31
0.0
  0
LINE
  8
RAHMEN
  5
96A0
 10
41.469794
 20
13.584512
 30
0.0
 11
41.469794
 21
10.101805
 31
0.0
  0
LINE
  8
RAHMEN
  5
96A1
 10
43.819794
 20
8.582654
 30
0.0
 11
43.819794
 21
13.663503
 31
0.0
1001
ACAD
1000
ASC_BOUNDS
1002
{
1070
    19
1002
}
  0
LINE
  8
RAHMEN
  5
96A2
 10
51.240758
 20
19.0
 30
0.0
 11
52.48309
 21
19.0
 31
0.0
  0
LINE
  8
RAHMEN
  5
96A3
 10
27.990396
 20
13.312085
 30
0.0
 11
29.514469
 21
19.0
 31
0.0
1001
ACAD
1000
ASC_BOUNDS
1002
{
1070
    19
1002
}
  0
LINE
  8
RAHMEN
  5
96A4
 10
30.857525
 20
19.0
 30
0.0
 11
29.514469
 21
19.0
 31
0.0
  0
LINE
  8
RAHMEN
  5
96A5
 10
34.004395
 20
13.204209
 30
0.0
 11
35.557373
 21
19.0
 31
0.0
1001
ACAD
1000
ASC_BOUNDS
1002
{
1070
    19
1002
}
  0
LINE
  8
RAHMEN
  5
96A6
 10
36.592649
 20
19.0
 30
0.0
 11
35.557373
 21
19.0
 31
0.0
  0
LINE
  8
RAHMEN
  5
96A7
 10
49.606309
 20
12.900153
 30
0.0
 11
51.240758
 21
19.0
 31
0.0
1001
ACAD
1000
ASC_BOUNDS
1002
{
1070
    19
1002
}
  0
LINE
  8
RAHMEN
  5
96A8
 10
13.754704
 20
19.0
 30
0.0
 11
15.110527
 21
19.0
 31
0.0
  0
LINE
  8
RAHMEN
  5
96A9
 10
11.554704
 20
19.0
 30
0.0
 11
12.104704
 21
19.0
 31
0.0
  0
LINE
  8
RAHMEN
  5
96AA
 10
20.739704
 20
19.0
 30
0.0
 11
20.464704
 21
19.0
 31
0.0
  0
LINE
  8
RAHMEN
  5
96AB
 10
24.864704
 20
19.0
 30
0.0
 11
25.139704
 21
19.0
 31
0.0
  0
TEXT
  8
RAHMEN
  5
96AC
 10
4.065493
 20
3.959782
 30
0.0
 40
1.3
  1
ALUTRONIC-Kühlkörper GmbH & Co. KG
  7
ISO
  0
TEXT
  8
RAHMEN
  5
96AD
 10
4.065493
 20
1.596916
 30
0.0
 40
1.3
  1
Auf der Löbke 9-10   D-58553 Halver
  7
ISO
  0
TEXT
  8
RAHMEN
  5
96AE
 10
35.210915
 20
3.936885
 30
0.0
 40
1.3
  1
Tel.
  7
ISO
  0
TEXT
  8
RAHMEN
  5
96AF
 10
35.373616
 20
1.582545
 30
0.0
 40
1.3
  1
Fax.0 23 53 - 91 53 33
  7
ISO
  0
TEXT
  8
RAHMEN
  5
96B0
 10
33.987013
 20
3.936885
 30
0.0
 40
1.3
  1
     0 23 53 - 91 5-5
  7
ISO
  0
LINE
  8
RAHMEN
  5
96B1
 10
10.124794
 20
13.663503
 30
0.0
 11
8.749794
 21
13.663503
 31
0.0
1001
ACAD
1000
ASC_BOUNDS
1002
{
1070
    19
1002
}
  0
LINE
  8
RAHMEN
  5
96B2
 10
10.124794
 20
7.063503
 30
0.0
 11
10.124794
 21
13.663503
 31
0.0
1001
ACAD
1000
ASC_BOUNDS
1002
{
1070
    19
1002
}
  0
LINE
  8
RAHMEN
  5
96B3
 10
8.474794
 20
7.063503
 30
0.0
 11
8.474794
 21
7.888503
 31
0.0
1001
ACAD
1000
ASC_BOUNDS
1002
{
1070
    19
1002
}
  0
LINE
  8
RAHMEN
  5
96B4
 10
8.474794
 20
7.888503
 30
0.0
 11
6.489745
 21
7.888503
 31
0.0
1001
ACAD
1000
ASC_BOUNDS
1002
{
1070
    19
1002
}
  0
LINE
  8
RAHMEN
  5
96B5
 10
8.474794
 20
9.263503
 30
0.0
 11
7.369332
 21
9.263503
 31
0.0
1001
ACAD
1000
ASC_BOUNDS
1002
{
1070
    19
1002
}
  0
LINE
  8
RAHMEN
  5
96B6
 10
8.749794
 20
13.663503
 30
0.0
 11
4.074794
 21
7.063503
 31
0.0
1001
ACAD
1000
ASC_BOUNDS
1002
{
1070
    19
1002
}
  0
LINE
  8
RAHMEN
  5
96B7
 10
8.474794
 20
9.263503
 30
0.0
 11
8.474794
 21
10.991599
 31
0.0
1001
ACAD
1000
ASC_BOUNDS
1002
{
1070
    19
1002
}
  0
LINE
  8
RAHMEN
  5
96B8
 10
10.674794
 20
7.063503
 30
0.0
 11
10.674794
 21
13.663503
 31
0.0
1001
ACAD
1000
ASC_BOUNDS
1002
{
1070
    19
1002
}
  0
LINE
  8
RAHMEN
  5
96B9
 10
12.324794
 20
8.603503
 30
0.0
 11
12.324794
 21
13.663503
 31
0.0
1001
ACAD
1000
ASC_BOUNDS
1002
{
1070
    19
1002
}
  0
LINE
  8
RAHMEN
  5
96BA
 10
10.674794
 20
13.663503
 30
0.0
 11
12.324794
 21
13.663503
 31
0.0
1001
ACAD
1000
ASC_BOUNDS
1002
{
1070
    19
1002
}
  0
LINE
  8
RAHMEN
  5
96BB
 10
14.268201
 20
8.603503
 30
0.0
 11
12.324794
 21
8.603503
 31
0.0
1001
ACAD
1000
ASC_BOUNDS
1002
{
1070
    19
1002
}
  0
LINE
  8
RAHMEN
  5
96BC
 10
14.359794
 20
7.063503
 30
0.0
 11
14.359794
 21
8.404649
 31
0.0
1001
ACAD
1000
ASC_BOUNDS
1002
{
1070
    19
1002
}
  0
LINE
  8
RAHMEN
  5
96BD
 10
14.084794
 20
9.538503
 30
0.0
 11
14.084794
 21
13.663503
 31
0.0
1001
ACAD
1000
ASC_BOUNDS
1002
{
1070
    19
1002
}
  0
LINE
  8
RAHMEN
  5
96BE
 10
15.734794
 20
9.538503
 30
0.0
 11
15.734794
 21
13.663503
 31
0.0
1001
ACAD
1000
ASC_BOUNDS
1002
{
1070
    19
1002
}
  0
LINE
  8
RAHMEN
  5
96BF
 10
17.384794
 20
9.538503
 30
0.0
 11
17.384794
 21
13.663503
 31
0.0
1001
ACAD
1000
ASC_BOUNDS
1002
{
1070
    19
1002
}
  0
LINE
  8
RAHMEN
  5
96C0
 10
19.034794
 20
9.538503
 30
0.0
 11
19.034794
 21
13.663503
 31
0.0
1001
ACAD
1000
ASC_BOUNDS
1002
{
1070
    19
1002
}
  0
LINE
  8
RAHMEN
  5
96C1
 10
14.084794
 20
13.663503
 30
0.0
 11
15.734794
 21
13.663503
 31
0.0
1001
ACAD
1000
ASC_BOUNDS
1002
{
1070
    19
1002
}
  0
LINE
  8
RAHMEN
  5
96C2
 10
17.384794
 20
13.663503
 30
0.0
 11
19.034794
 21
13.663503
 31
0.0
1001
ACAD
1000
ASC_BOUNDS
1002
{
1070
    19
1002
}
  0
ARC
  8
RAHMEN
  5
96C3
 10
16.559794
 20
9.538503
 30
0.0
 40
2.475
 50
180.0
 51
202.196101
1001
ACAD
1000
ASC_BOUNDS
1002
{
1070
    19
1002
}
  0
ARC
  8
RAHMEN
  5
96C4
 10
16.559794
 20
9.538503
 30
0.0
 40
0.825
 50
180.0
 51
0.0
1001
ACAD
1000
ASC_BOUNDS
1002
{
1070
    19
1002
}
  0
ARC
  8
RAHMEN
  5
96C5
 10
16.559794
 20
9.538503
 30
0.0
 40
2.475
 50
202.196101
 51
0.0
1001
ACAD
1000
ASC_BOUNDS
1002
{
1070
    19
1002
}
  0
LINE
  8
RAHMEN
  5
96C6
 10
19.309794
 20
12.288503
 30
0.0
 11
19.309794
 21
13.663503
 31
0.0
1001
ACAD
1000
ASC_BOUNDS
1002
{
1070
    19
1002
}
  0
LINE
  8
RAHMEN
  5
96C7
 10
23.434794
 20
12.288503
 30
0.0
 11
23.434794
 21
13.663503
 31
0.0
1001
ACAD
1000
ASC_BOUNDS
1002
{
1070
    19
1002
}
  0
LINE
  8
RAHMEN
  5
96C8
 10
19.309794
 20
12.288503
 30
0.0
 11
20.547294
 21
12.288503
 31
0.0
1001
ACAD
1000
ASC_BOUNDS
1002
{
1070
    19
1002
}
  0
LINE
  8
RAHMEN
  5
96C9
 10
19.309794
 20
13.663503
 30
0.0
 11
23.434794
 21
13.663503
 31
0.0
1001
ACAD
1000
ASC_BOUNDS
1002
{
1070
    19
1002
}
  0
LINE
  8
RAHMEN
  5
96CA
 10
20.547294
 20
12.288503
 30
0.0
 11
20.547294
 21
7.063503
 31
0.0
1001
ACAD
1000
ASC_BOUNDS
1002
{
1070
    19
1002
}
  0
LINE
  8
RAHMEN
  5
96CB
 10
22.197294
 20
12.288503
 30
0.0
 11
22.197294
 21
7.063503
 31
0.0
1001
ACAD
1000
ASC_BOUNDS
1002
{
1070
    19
1002
}
  0
LINE
  8
RAHMEN
  5
96CC
 10
22.197294
 20
12.288503
 30
0.0
 11
23.434794
 21
12.288503
 31
0.0
1001
ACAD
1000
ASC_BOUNDS
1002
{
1070
    19
1002
}
  0
LINE
  8
RAHMEN
  5
96CD
 10
23.709794
 20
7.063503
 30
0.0
 11
23.709794
 21
13.663503
 31
0.0
1001
ACAD
1000
ASC_BOUNDS
1002
{
1070
    19
1005
0
1002
}
  0
LINE
  8
RAHMEN
  5
96CE
 10
23.709794
 20
13.663503
 30
0.0
 11
26.459794
 21
13.663503
 31
0.0
1001
ACAD
1000
ASC_BOUNDS
1002
{
1070
    19
1002
}
  0
ARC
  8
RAHMEN
  5
96CF
 10
26.459794
 20
11.463503
 30
0.0
 40
2.2
 50
286.60092
 51
90.0
1001
ACAD
1000
ASC_BOUNDS
1002
{
1070
    19
1002
}
  0
LINE
  8
RAHMEN
  5
96D0
 10
25.359794
 20
7.063503
 30
0.0
 11
25.359794
 21
8.988503
 31
0.0
  0
LINE
  8
RAHMEN
  5
96D1
 10
8.474794
 20
10.991599
 30
0.0
 11
7.369332
 21
9.263503
 31
0.0
1001
ACAD
1000
ASC_BOUNDS
1002
{
1070
    19
1002
}
  0
LINE
  8
RAHMEN
  5
96D2
 10
6.489745
 20
7.888503
 30
0.0
 11
5.961992
 21
7.063503
 31
0.0
1001
ACAD
1000
ASC_BOUNDS
1002
{
1070
    19
1002
}
  0
LINE
  8
RAHMEN
  5
96D3
 10
26.679794
 20
7.063503
 30
0.0
 11
25.359794
 21
8.988503
 31
0.0
1001
ACAD
1000
ASC_BOUNDS
1002
{
1070
    19
1002
}
  0
LINE
  8
RAHMEN
  5
96D4
 10
25.359794
 20
7.063503
 30
0.0
 11
25.359794
 21
8.988503
 31
0.0
1001
ACAD
1000
ASC_BOUNDS
1002
{
1070
    19
1002
}
  0
LINE
  8
RAHMEN
  5
96D5
 10
25.359794
 20
12.178503
 30
0.0
 11
26.102294
 21
12.178503
 31
0.0
1001
ACAD
1000
ASC_BOUNDS
1002
{
1070
    19
1002
}
  0
LINE
  8
RAHMEN
  5
96D6
 10
25.359794
 20
10.363503
 30
0.0
 11
26.102294
 21
10.363503
 31
0.0
1001
ACAD
1000
ASC_BOUNDS
1002
{
1070
    19
1002
}
  0
ARC
  8
RAHMEN
  5
96D7
 10
26.102294
 20
11.271003
 30
0.0
 40
0.9075
 50
270.0
 51
90.0
1001
ACAD
1000
ASC_BOUNDS
1002
{
1070
    19
1002
}
  0
LINE
  8
RAHMEN
  5
96D8
 10
28.659794
 20
7.063503
 30
0.0
 11
27.088342
 21
9.355204
 31
0.0
1001
ACAD
1000
ASC_BOUNDS
1002
{
1070
    19
1002
}
  0
LINE
  8
RAHMEN
  5
96D9
 10
25.359794
 20
10.363503
 30
0.0
 11
25.359794
 21
12.178503
 31
0.0
1001
ACAD
1000
ASC_BOUNDS
1002
{
1070
    19
1002
}
  0
CIRCLE
  8
RAHMEN
  5
96DA
 10
31.959794
 20
10.363503
 30
0.0
 40
3.3
1001
ACAD
1000
ASC_BOUNDS
1002
{
1070
    19
1002
}
  0
CIRCLE
  8
RAHMEN
  5
96DB
 10
31.959794
 20
10.363503
 30
0.0
 40
1.65
1001
ACAD
1000
ASC_BOUNDS
1002
{
1070
    19
1002
}
  0
LINE
  8
RAHMEN
  5
96DC
 10
35.369794
 20
7.063503
 30
0.0
 11
35.369794
 21
13.663503
 31
0.0
1001
ACAD
1000
ASC_BOUNDS
1002
{
1070
    19
1002
}
  0
LINE
  8
RAHMEN
  5
96DD
 10
37.019794
 20
7.063503
 30
0.0
 11
37.019794
 21
10.66287
 31
0.0
1001
ACAD
1000
ASC_BOUNDS
1002
{
1070
    19
1002
}
  0
LINE
  8
RAHMEN
  5
96DE
 10
43.619794
 20
13.663503
 30
0.0
 11
41.969794
 21
13.663503
 31
0.0
1001
ACAD
1000
ASC_BOUNDS
1002
{
1070
    19
1002
}
  0
LINE
  8
RAHMEN
  5
96DF
 10
40.869794
 20
7.063503
 30
0.0
 11
40.869794
 21
13.663503
 31
0.0
1001
ACAD
1000
ASC_BOUNDS
1002
{
1070
    19
1002
}
  0
LINE
  8
RAHMEN
  5
96E0
 10
39.219794
 20
10.253503
 30
0.0
 11
39.219794
 21
13.663503
 31
0.0
1001
ACAD
1000
ASC_BOUNDS
1002
{
1070
    19
1002
}
  0
LINE
  8
RAHMEN
  5
96E1
 10
36.744794
 20
13.663503
 30
0.0
 11
39.219794
 21
10.253503
 31
0.0
1001
ACAD
1000
ASC_BOUNDS
1002
{
1070
    19
1002
}
  0
LINE
  8
RAHMEN
  5
96E2
 10
37.019794
 20
10.66287
 30
0.0
 11
39.632238
 21
7.063503
 31
0.0
1001
ACAD
1000
ASC_BOUNDS
1002
{
1070
    19
1002
}
  0
LINE
  8
RAHMEN
  5
96E3
 10
41.969794
 20
7.063503
 30
0.0
 11
41.969794
 21
13.663503
 31
0.0
1001
ACAD
1000
ASC_BOUNDS
1002
{
1070
    19
1002
}
  0
LINE
  8
RAHMEN
  5
96E4
 10
43.619794
 20
7.063503
 30
0.0
 11
43.619794
 21
13.663503
 31
0.0
1001
ACAD
1000
ASC_BOUNDS
1002
{
1070
    19
1002
}
  0
ARC
  8
RAHMEN
  5
96E5
 10
47.194794
 20
10.363503
 30
0.0
 40
1.65
 50
30.0
 51
330.0
1001
ACAD
1000
ASC_BOUNDS
1002
{
1070
    19
1002
}
  0
ARC
  8
RAHMEN
  5
96E6
 10
47.194794
 20
10.363503
 30
0.0
 40
3.3
 50
14.477512
 51
345.522488
1001
ACAD
1000
ASC_BOUNDS
1002
{
1070
    19
1002
}
  0
LINE
  8
RAHMEN
  5
96E7
 10
50.390005
 20
11.188503
 30
0.0
 11
48.623736
 21
11.188503
 31
0.0
1001
ACAD
1000
ASC_BOUNDS
1002
{
1070
    19
1002
}
  0
LINE
  8
RAHMEN
  5
96E8
 10
50.390005
 20
9.538503
 30
0.0
 11
48.623736
 21
9.538503
 31
0.0
1001
ACAD
1000
ASC_BOUNDS
1002
{
1070
    19
1002
}
  0
LINE
  8
RAHMEN
  5
96E9
 10
36.744794
 20
13.663503
 30
0.0
 11
35.369794
 21
13.663503
 31
0.0
1001
ACAD
1000
ASC_BOUNDS
1002
{
1070
    19
1002
}
  0
LINE
  8
RAHMEN
  5
96EA
 10
40.869794
 20
13.663503
 30
0.0
 11
39.219794
 21
13.663503
 31
0.0
1001
ACAD
1000
ASC_BOUNDS
1002
{
1070
    19
1002
}
  0
LINE
  8
RAHMEN
  5
96EB
 10
5.961992
 20
7.063503
 30
0.0
 11
4.074794
 21
7.063503
 31
0.0
1001
ACAD
1000
ASC_BOUNDS
1002
{
1070
    19
1002
}
  0
LINE
  8
RAHMEN
  5
96EC
 10
10.124794
 20
7.063503
 30
0.0
 11
8.474794
 21
7.063503
 31
0.0
1001
ACAD
1000
ASC_BOUNDS
1002
{
1070
    19
1002
}
  0
LINE
  8
RAHMEN
  5
96ED
 10
14.359794
 20
7.063503
 30
0.0
 11
10.674794
 21
7.063503
 31
0.0
1001
ACAD
1000
ASC_BOUNDS
1002
{
1070
    19
1002
}
  0
LINE
  8
RAHMEN
  5
96EE
 10
22.197294
 20
7.063503
 30
0.0
 11
20.547294
 21
7.063503
 31
0.0
1001
ACAD
1000
ASC_BOUNDS
1002
{
1070
    19
1002
}
  0
LINE
  8
RAHMEN
  5
96EF
 10
25.359794
 20
7.063503
 30
0.0
 11
23.709794
 21
7.063503
 31
0.0
1001
ACAD
1000
ASC_BOUNDS
1002
{
1070
    19
1002
}
  0
LINE
  8
RAHMEN
  5
96F0
 10
28.659794
 20
7.063503
 30
0.0
 11
26.679794
 21
7.063503
 31
0.0
1001
ACAD
1000
ASC_BOUNDS
1002
{
1070
    19
1002
}
  0
LINE
  8
RAHMEN
  5
96F1
 10
37.019794
 20
7.063503
 30
0.0
 11
35.369794
 21
7.063503
 31
0.0
1001
ACAD
1000
ASC_BOUNDS
1002
{
1070
    19
1002
}
  0
LINE
  8
RAHMEN
  5
96F2
 10
40.869794
 20
7.063503
 30
0.0
 11
39.632238
 21
7.063503
 31
0.0
1001
ACAD
1000
ASC_BOUNDS
1002
{
1070
    19
1002
}
  0
LINE
  8
RAHMEN
  5
96F3
 10
43.619794
 20
7.063503
 30
0.0
 11
41.969794
 21
7.063503
 31
0.0
1001
ACAD
1000
ASC_BOUNDS
1002
{
1070
    19
1002
}
  0
LINE
  8
RAHMEN
  5
96F4
 10
4.074794
 20
7.063503
 30
0.0
 11
7.273169
 21
19.0
 31
0.0
  0
LINE
  8
RAHMEN
  5
96F5
 10
8.749794
 20
13.663503
 30
0.0
 11
10.179704
 21
19.0
 31
0.0
  0
LINE
  8
RAHMEN
  5
96F6
 10
10.124794
 20
13.663503
 30
0.0
 11
11.554704
 21
19.0
 31
0.0
1001
ACAD
1000
ASC_BOUNDS
1002
{
1070
    19
1002
}
  0
LINE
  8
RAHMEN
  5
96F7
 10
10.674794
 20
13.663503
 30
0.0
 11
12.104704
 21
19.0
 31
0.0
1001
ACAD
1000
ASC_BOUNDS
1002
{
1070
    19
1002
}
  0
LINE
  8
RAHMEN
  5
96F8
 10
12.324794
 20
13.663503
 30
0.0
 11
13.754704
 21
19.0
 31
0.0
1001
ACAD
1000
ASC_BOUNDS
1002
{
1070
    19
1002
}
  0
LINE
  8
RAHMEN
  5
96F9
 10
14.084794
 20
13.663503
 30
0.0
 11
15.514704
 21
19.0
 31
0.0
  0
LINE
  8
RAHMEN
  5
96FA
 10
15.734794
 20
13.663503
 30
0.0
 11
17.164704
 21
19.0
 31
0.0
1001
ACAD
1000
ASC_BOUNDS
1002
{
1070
    19
1002
}
  0
LINE
  8
RAHMEN
  5
96FB
 10
17.384794
 20
13.663503
 30
0.0
 11
18.814704
 21
19.0
 31
0.0
1001
ACAD
1000
ASC_BOUNDS
1002
{
1070
    19
1002
}
  0
LINE
  8
RAHMEN
  5
96FC
 10
19.034794
 20
13.663503
 30
0.0
 11
20.464704
 21
19.0
 31
0.0
1001
ACAD
1000
ASC_BOUNDS
1002
{
1070
    19
1002
}
  0
LINE
  8
RAHMEN
  5
96FD
 10
19.309794
 20
13.663503
 30
0.0
 11
20.739704
 21
19.0
 31
0.0
1001
ACAD
1000
ASC_BOUNDS
1002
{
1070
    19
1002
}
  0
LINE
  8
RAHMEN
  5
96FE
 10
23.434794
 20
13.663503
 30
0.0
 11
24.864704
 21
19.0
 31
0.0
1001
ACAD
1000
ASC_BOUNDS
1002
{
1070
    19
1002
}
  0
LINE
  8
RAHMEN
  5
96FF
 10
23.709794
 20
13.663503
 30
0.0
 11
25.139704
 21
19.0
 31
0.0
1001
ACAD
1000
ASC_BOUNDS
1002
{
1070
    19
1002
}
  0
LINE
  8
RAHMEN
  5
9700
 10
34.965887
 20
12.156101
 30
0.0
 11
35.169794
 21
12.917093
 31
0.0
1001
ACAD
1000
ASC_BOUNDS
1002
{
1070
    19
1002
}
  0
LINE
  8
RAHMEN
  5
9701
 10
36.744794
 20
13.663503
 30
0.0
 11
38.174704
 21
19.0
 31
0.0
1001
ACAD
1000
ASC_BOUNDS
1002
{
1070
    19
1002
}
  0
LINE
  8
RAHMEN
  5
9702
 10
39.219794
 20
13.663503
 30
0.0
 11
40.649704
 21
19.0
 31
0.0
1001
ACAD
1000
ASC_BOUNDS
1002
{
1070
    19
1002
}
  0
LINE
  8
RAHMEN
  5
9703
 10
40.869794
 20
13.663503
 30
0.0
 11
42.299704
 21
19.0
 31
0.0
1001
ACAD
1000
ASC_BOUNDS
1002
{
1070
    19
1002
}
  0
LINE
  8
RAHMEN
  5
9704
 10
41.969794
 20
13.663503
 30
0.0
 11
43.399704
 21
19.0
 31
0.0
1001
ACAD
1000
ASC_BOUNDS
1002
{
1070
    19
1002
}
  0
LINE
  8
RAHMEN
  5
9705
 10
43.619794
 20
13.663503
 30
0.0
 11
45.049704
 21
19.0
 31
0.0
1001
ACAD
1000
ASC_BOUNDS
1002
{
1070
    19
1002
}
  0
LINE
  8
RAHMEN
  5
9706
 10
50.390005
 20
11.188503
 30
0.0
 11
52.48309
 21
19.0
 31
0.0
1001
ACAD
1000
ASC_BOUNDS
1002
{
1070
    19
1002
}
  0
LINE
  8
RAHMEN
  5
9707
 10
50.390005
 20
9.538503
 30
0.0
 11
52.925206
 21
19.0
 31
0.0
  0
LINE
  8
RAHMEN
  5
9708
 10
48.623736
 20
9.538503
 30
0.0
 11
49.065852
 21
11.188503
 31
0.0
1001
ACAD
1000
ASC_BOUNDS
1002
{
1070
    19
1002
}
  0
LINE
  8
RAHMEN
  5
9709
 10
12.324794
 20
8.603503
 30
0.0
 11
15.110527
 21
19.0
 31
0.0
1001
ACAD
1000
ASC_BOUNDS
1002
{
1070
    19
1002
}
  0
LINE
  8
RAHMEN
  5
970A
 10
28.584831
 20
10.894101
 30
0.0
 11
30.7568
 21
19.0
 31
0.0
1001
ACAD
1000
ASC_BOUNDS
1002
{
1070
    19
1002
}
  0
LINE
  8
RAHMEN
  5
970B
 10
28.772239
 20
11.217606
 30
0.0
 11
30.857525
 21
19.0
 31
0.0
1001
ACAD
1000
ASC_BOUNDS
1002
{
1070
    19
1002
}
  0
LINE
  8
RAHMEN
  5
970C
 10
35.147349
 20
9.5094
 30
0.0
 11
35.369794
 21
10.339575
 31
0.0
1001
ACAD
1000
ASC_BOUNDS
1002
{
1070
    19
1002
}
  0
LINE
  8
RAHMEN
  5
970D
 10
44.007239
 20
11.217606
 30
0.0
 11
46.092525
 21
19.0
 31
0.0
1001
ACAD
1000
ASC_BOUNDS
1002
{
1070
    19
1002
}
  0
LINE
  8
RAHMEN
  5
970E
 10
28.659794
 20
7.063503
 30
0.0
 11
29.10191
 21
8.713503
 31
0.0
1001
ACAD
1000
ASC_BOUNDS
1002
{
1070
    19
1002
}
  0
LINE
  8
RAHMEN
  5
970F
 10
25.359794
 20
7.063503
 30
0.0
 11
25.730672
 21
8.447639
 31
0.0
1001
ACAD
1000
ASC_BOUNDS
1002
{
1070
    19
1002
}
  0
LINE
  8
RAHMEN
  5
9710
 10
22.197294
 20
7.063503
 30
0.0
 11
23.709794
 21
12.70823
 31
0.0
1001
ACAD
1000
ASC_BOUNDS
1002
{
1070
    19
1002
}
  0
LINE
  8
RAHMEN
  5
9711
 10
23.434794
 20
12.288503
 30
0.0
 11
23.709794
 21
13.314817
 31
0.0
1001
ACAD
1000
ASC_BOUNDS
1002
{
1070
    19
1005
0
1002
}
  0
LINE
  8
RAHMEN
  5
9712
 10
10.124794
 20
7.063503
 30
0.0
 11
10.674794
 21
9.116131
 31
0.0
1001
ACAD
1000
ASC_BOUNDS
1002
{
1070
    19
1002
}
  0
LINE
  8
RAHMEN
  5
9713
 10
14.359794
 20
7.063503
 30
0.0
 11
14.61335
 21
8.009785
 31
0.0
  0
LINE
  8
RAHMEN
  5
9714
 10
18.950461
 20
8.897926
 30
0.0
 11
19.858963
 21
12.288503
 31
0.0
1001
ACAD
1000
ASC_BOUNDS
1002
{
1070
    19
1002
}
  0
LINE
  8
RAHMEN
  5
9715
 10
37.019794
 20
7.063503
 30
0.0
 11
37.724195
 21
9.692363
 31
0.0
1001
ACAD
1000
ASC_BOUNDS
1002
{
1070
    19
1002
}
  0
ENDBLK
  8
0
  5
101F
  0
BLOCK
  8
0
  5
3FF3
  2
DIN-A3
 70
     2
 10
0.0
 20
0.0
 30
0.0
  3
DIN-A3
  0
ATTDEF
  8
RAHMEN
 62
     7
  5
951A
 10
70.30346
 20
1.0
 30
0.0
 40
2.0
  1

  3
Ausgeplottet am:
  2
P.DATUM
 70
     0
  7
ISO
  0
TEXT
  8
RAHMEN
 62
     7
  5
951B
 10
49.45645
 20
1.0
 30
0.0
 40
2.0
  1
Ausgeplottet am:
  7
ISO
  0
ATTDEF
  8
RAHMEN
 62
     7
  5
951C
 10
35.407379
 20
1.0
 30
0.0
 40
2.0
  1
A1
  3
Zeichnungsformat
  2
AX
 70
     0
  7
ISO
  0
TEXT
  8
RAHMEN
 62
     7
  5
951D
 10
30.724355
 20
1.0
 30
0.0
 40
2.0
  1
DIN 
  7
ISO
  0
TEXT
  8
RAHMEN
 62
     7
  5
951E
 10
10.0
 20
1.0
 30
0.0
 40
2.0
  1
Zeichnungsformat
  7
ISO
  0
LINE
  8
0
 62
     7
  5
951F
 10
0.0
 20
0.0
 30
0.0
 11
420.0
 21
0.0
 31
0.0
  0
LINE
  8
0
 62
     7
  5
9520
 10
420.0
 20
0.0
 30
0.0
 11
420.0
 21
297.0
 31
0.0
  0
LINE
  8
0
 62
     7
  5
9521
 10
420.0
 20
297.0
 30
0.0
 11
0.0
 21
297.0
 31
0.0
  0
LINE
  8
0
 62
     7
  5
9522
 10
0.0
 20
297.0
 30
0.0
 11
0.0
 21
0.0
 31
0.0
  0
LINE
  8
0
 62
     3
  5
9523
 10
5.0
 20
5.0
 30
0.0
 11
415.0
 21
5.0
 31
0.0
  0
LINE
  8
0
 62
     3
  5
9524
 10
415.0
 20
5.0
 30
0.0
 11
415.0
 21
292.0
 31
0.0
  0
LINE
  8
0
 62
     3
  5
9525
 10
415.0
 20
292.0
 30
0.0
 11
5.0
 21
292.0
 31
0.0
  0
LINE
  8
0
 62
     3
  5
9526
 10
5.0
 20
292.0
 30
0.0
 11
5.0
 21
5.0
 31
0.0
  0
LINE
  8
0
  5
9527
 10
125.0
 20
5.0
 30
0.0
 11
125.0
 21
0.0
 31
0.0
  0
LINE
  8
0
  5
9528
 10
125.0
 20
297.0
 30
0.0
 11
125.0
 21
292.0
 31
0.0
  0
LINE
  8
0
  5
9529
 10
230.0
 20
297.0
 30
0.0
 11
230.0
 21
292.0
 31
0.0
  0
LINE
  8
0
  5
952A
 10
0.0
 20
148.5
 30
0.0
 11
5.0
 21
148.5
 31
0.0
  0
ATTDEF
  8
RAHMEN
  5
952B
 10
405.385213
 20
9.657692
 30
0.0
 40
2.0
  1
X.
  3
Gesamtblattzahl
  2
X.
 70
     0
  7
ISO
  0
LINE
  8
RAHMEN
 62
     3
  5
952C
 10
227.0
 20
5.0
 30
0.0
 11
227.0
 21
61.0
 31
0.0
  0
LINE
  8
RAHMEN
 62
     3
  5
952D
 10
227.0
 20
61.0
 30
0.0
 11
415.0
 21
61.0
 31
0.0
  0
LINE
  8
RAHMEN
 62
     7
  5
952E
 10
227.0
 20
9.0
 30
0.0
 11
415.0
 21
9.0
 31
0.0
  0
LINE
  8
RAHMEN
 62
     7
  5
952F
 10
227.0
 20
21.0
 30
0.0
 11
415.0
 21
21.0
 31
0.0
  0
LINE
  8
RAHMEN
 62
     7
  5
9530
 10
227.0
 20
41.0
 30
0.0
 11
415.0
 21
41.0
 31
0.0
  0
LINE
  8
RAHMEN
 62
     7
  5
9531
 10
284.0
 20
61.0
 30
0.0
 11
284.0
 21
5.0
 31
0.0
  0
LINE
  8
RAHMEN
 62
     7
  5
9532
 10
329.0
 20
61.0
 30
0.0
 11
329.0
 21
5.0
 31
0.0
  0
LINE
  8
RAHMEN
 62
     7
  5
9533
 10
235.0
 20
41.0
 30
0.0
 11
235.0
 21
5.0
 31
0.0
  0
LINE
  8
RAHMEN
 62
     7
  5
9534
 10
261.0
 20
41.0
 30
0.0
 11
261.0
 21
5.0
 31
0.0
  0
LINE
  8
RAHMEN
 62
     7
  5
9535
 10
370.0
 20
9.0
 30
0.0
 11
370.0
 21
5.0
 31
0.0
  0
LINE
  8
RAHMEN
 62
     7
  5
9536
 10
402.0
 20
21.0
 30
0.0
 11
402.0
 21
9.0
 31
0.0
  0
LINE
  8
RAHMEN
 62
     7
  5
9537
 10
227.0
 20
13.0
 30
0.0
 11
284.0
 21
13.0
 31
0.0
  0
LINE
  8
RAHMEN
 62
     7
  5
9538
 10
284.0
 20
17.0
 30
0.0
 11
227.0
 21
17.0
 31
0.0
  0
LINE
  8
RAHMEN
 62
     7
  5
9539
 10
329.0
 20
25.0
 30
0.0
 11
227.0
 21
25.0
 31
0.0
  0
LINE
  8
RAHMEN
 62
     7
  5
953A
 10
227.0
 20
29.0
 30
0.0
 11
329.0
 21
29.0
 31
0.0
  0
LINE
  8
RAHMEN
 62
     7
  5
953B
 10
329.0
 20
33.0
 30
0.0
 11
227.0
 21
33.0
 31
0.0
  0
LINE
  8
RAHMEN
 62
     7
  5
953C
 10
227.0
 20
37.0
 30
0.0
 11
329.0
 21
37.0
 31
0.0
  0
LINE
  8
RAHMEN
 62
     7
  5
953D
 10
310.0
 20
61.0
 30
0.0
 11
310.0
 21
21.0
 31
0.0
  0
LINE
  8
RAHMEN
 62
     7
  5
953E
 10
294.0
 20
41.0
 30
0.0
 11
294.0
 21
25.0
 31
0.0
  0
LINE
  8
RAHMEN
 62
     7
  5
953F
 10
276.0
 20
5.0
 30
0.0
 11
276.0
 21
41.0
 31
0.0
  0
LINE
  8
RAHMEN
 62
     7
  5
9540
 10
329.0
 20
54.23365
 30
0.0
 11
415.0
 21
54.23365
 31
0.0
  0
LINE
  8
RAHMEN
 62
     7
  5
9541
 10
375.660653
 20
61.0
 30
0.0
 11
375.660653
 21
54.23365
 31
0.0
  0
LINE
  8
RAHMEN
 62
     7
  5
9542
 10
402.0
 20
13.0
 30
0.0
 11
415.0
 21
13.0
 31
0.0
  0
LINE
  8
RAHMEN
 62
     7
  5
9543
 10
329.0
 20
15.0
 30
0.0
 11
284.0
 21
15.0
 31
0.0
  0
LINE
  8
RAHMEN
  6
MITTE
 62
     7
  5
9544
 10
396.958101
 20
57.602876
 30
0.0
 11
406.885141
 21
57.602876
 31
0.0
  0
LINE
  8
RAHMEN
 62
     7
  5
9545
 10
398.586489
 20
57.602876
 30
0.0
 11
398.586489
 21
59.069888
 31
0.0
  0
LINE
  8
RAHMEN
 62
     7
  5
9546
 10
398.586489
 20
59.069888
 30
0.0
 11
405.790176
 21
59.726759
 31
0.0
  0
LINE
  8
RAHMEN
 62
     7
  5
9547
 10
405.790176
 20
59.726759
 30
0.0
 11
405.790176
 21
57.602876
 31
0.0
  0
CIRCLE
  8
RAHMEN
 62
     7
  5
9548
 10
411.194413
 20
57.602876
 30
0.0
 40
2.123883
  0
CIRCLE
  8
RAHMEN
 62
     7
  5
9549
 10
411.194413
 20
57.602876
 30
0.0
 40
1.467012
  0
LINE
  8
RAHMEN
 62
     7
  5
954A
 10
405.790176
 20
55.478992
 30
0.0
 11
405.790176
 21
57.602876
 31
0.0
  0
LINE
  8
RAHMEN
 62
     7
  5
954B
 10
398.586489
 20
56.135864
 30
0.0
 11
405.790176
 21
55.478992
 31
0.0
  0
LINE
  8
RAHMEN
 62
     7
  5
954C
 10
398.586489
 20
57.602876
 30
0.0
 11
398.586489
 21
56.135864
 31
0.0
  0
LINE
  8
RAHMEN
  6
MITTE
 62
     7
  5
954D
 10
408.645753
 20
57.602876
 30
0.0
 11
413.743073
 21
57.602876
 31
0.0
  0
LINE
  8
RAHMEN
  6
MITTE
 62
     7
  5
954E
 10
411.194413
 20
60.151536
 30
0.0
 11
411.194413
 21
55.054216
 31
0.0
  0
LINE
  8
RAHMEN
 62
     7
  5
954F
 10
230.0
 20
0.0
 30
0.0
 11
230.0
 21
5.0
 31
0.0
  0
ATTDEF
  8
RAHMEN
 62
     1
  5
9550
 10
330.204017
 20
30.466331
 30
0.0
 40
5.0
  1
Spritzwerkzeug 2-fach für
  3
Art des Werkzeuges
  2
SPRITZWERKZEUG
 70
     0
  7
ISO
  0
ATTDEF
  8
RAHMEN
 62
     1
  5
9551
 10
330.204017
 20
22.773055
 30
0.0
 40
5.0
  1

  3
Benennung
  2
BENENNUNG
 70
     0
  7
ISO
  0
ATTDEF
  8
RAHMEN
 62
     1
  5
9552
 10
351.779711
 20
11.378909
 30
0.0
 40
5.0
  1

  3
Zeichnungsnummer
  2
Z-NR.
 70
     0
  7
NORM
  0
ATTDEF
  8
RAHMEN
 62
     2
  5
9553
 10
298.189797
 20
16.14611
 30
0.0
 40
3.5
  1

  3
Zeichnungs-Name (File)
  2
FILE
 70
     0
  7
NORM
  0
ATTDEF
  8
RAHMEN
 62
     2
  5
9554
 10
344.053557
 20
56.091966
 30
0.0
 40
3.5
  1
2 : 1
  3
Maßstab der Zeichnung
  2
MASS
 70
     0
  7
ISO
  0
ATTDEF
  8
RAHMEN
 62
     1
  5
9555
 10
352.272869
 20
44.091771
 30
0.0
 40
5.0
  1
1.2767
  3
Werkstoff
  2
WERKSTOFF
 70
     0
  7
ISO
  0
ATTDEF
  8
RAHMEN
 62
     2
  5
9556
 10
406.766908
 20
13.844703
 30
0.0
 40
3.0
  1

  3
Blatt-Nr
  2
B
 70
     0
  7
NORM
  0
ATTDEF
  8
RAHMEN
 62
     7
  5
9557
 10
294.737686
 20
33.899824
 30
0.0
 40
2.0
  1

  3
Datum
  2
DATUM
 70
     0
  7
NORM
  0
TEXT
  8
RAHMEN
 62
     7
  5
9558
 10
228.4
 20
5.610908
 30
0.0
 40
1.3
  1
Chg-No.
  7
ISO
 72
     4
 11
231.0
 21
6.075193
 31
0.0
  0
TEXT
  8
RAHMEN
 62
     7
  5
9559
 10
228.701786
 20
7.086847
 30
0.0
 40
1.3
  1
ÄM-Nr.
  7
ISO
 72
     4
 11
231.0
 21
7.876133
 31
0.0
  0
TEXT
  8
RAHMEN
 62
     7
  5
955A
 10
244.773214
 20
7.223886
 30
0.0
 40
1.3
  1
Änderung
  7
ISO
 72
     4
 11
248.0
 21
7.827457
 31
0.0
  0
TEXT
  8
RAHMEN
 62
     7
  5
955B
 10
240.436654
 20
5.562234
 30
0.0
 40
1.3
  1
Modification/Chg-Note
  7
ISO
 72
     4
 11
248.097368
 21
6.026519
 31
0.0
  0
TEXT
  8
RAHMEN
 62
     7
  5
955C
 10
266.07675
 20
7.177457
 30
0.0
 40
1.3
  1
Datum
  7
ISO
 72
     4
 11
268.073178
 21
7.827457
 31
0.0
  0
TEXT
  8
RAHMEN
 62
     7
  5
955D
 10
266.633892
 20
5.376518
 30
0.0
 40
1.3
  1
Date
  7
ISO
 72
     4
 11
268.073178
 21
6.026518
 31
0.0
  0
TEXT
  8
RAHMEN
 62
     7
  5
955E
 10
278.282143
 20
7.372155
 30
0.0
 40
1.3
  1
Name
  7
ISO
 72
     4
 11
280.0
 21
8.022155
 31
0.0
  0
TEXT
  8
RAHMEN
 62
     7
  5
955F
 10
278.282143
 20
5.425194
 30
0.0
 40
1.3
  1
Name
  7
ISO
 72
     4
 11
280.0
 21
6.075194
 31
0.0
  0
TEXT
  8
RAHMEN
 62
     7
  5
9560
 10
284.393453
 20
7.489216
 30
0.0
 40
1.3
  1
Urspr.
  7
ISO
  0
TEXT
  8
RAHMEN
 62
     7
  5
9561
 10
284.434018
 20
5.664067
 30
0.0
 40
1.3
  1
Orig.
  7
ISO
  0
TEXT
  8
RAHMEN
 62
     7
  5
9562
 10
299.381212
 20
12.335318
 30
0.0
 40
2.0
  1
erstellt
  7
ISO
  0
TEXT
  8
RAHMEN
 62
     7
  5
9563
 10
299.381212
 20
9.95948
 30
0.0
 40
2.0
  1
generated
  7
ISO
  0
TEXT
  8
RAHMEN
 62
     2
  5
9564
 10
285.601021
 20
9.893627
 30
0.0
 40
3.5
  1
CAD
  7
NORM
  0
TEXT
  8
RAHMEN
 62
     7
  5
9565
 10
285.119315
 20
18.104516
 30
0.0
 40
2.0
  1
Filename
  7
ISO
  0
TEXT
  8
RAHMEN
 62
     7
  5
9566
 10
285.119315
 20
15.728678
 30
0.0
 40
2.0
  1
Filename
  7
ISO
  0
TEXT
  8
RAHMEN
 62
     7
  5
9567
 10
286.551762
 20
25.571128
 30
0.0
 40
1.5
  1
Appr.
  7
ISO
 72
     4
 11
288.533905
 21
26.106843
 31
0.0
  0
TEXT
  8
RAHMEN
 62
     7
  5
9568
 10
286.644175
 20
27.29849
 30
0.0
 40
1.5
  1
Norm
  7
ISO
 72
     4
 11
288.572746
 21
28.04849
 31
0.0
  0
TEXT
  8
RAHMEN
 62
     7
  5
9569
 10
285.266048
 20
29.356843
 30
0.0
 40
1.5
  1
Checked
  7
ISO
 72
     4
 11
288.533905
 21
30.106843
 31
0.0
  0
TEXT
  8
RAHMEN
 62
     7
  5
956A
 10
286.590603
 20
31.240946
 30
0.0
 40
1.5
  1
Gepr.
  7
ISO
 72
     4
 11
288.572746
 21
31.77666
 31
0.0
  0
TEXT
  8
RAHMEN
 62
     7
  5
956B
 10
286.069619
 20
33.356843
 30
0.0
 40
1.5
  1
Drawn
  7
ISO
 72
     4
 11
288.533905
 21
34.106843
 31
0.0
  0
TEXT
  8
RAHMEN
 62
     7
  5
956C
 10
285.679889
 20
35.29849
 30
0.0
 40
1.5
  1
Erstellt
  7
ISO
 72
     4
 11
288.572746
 21
36.04849
 31
0.0
  0
TEXT
  8
RAHMEN
 62
     7
  5
956D
 10
295.745474
 20
38.25
 30
0.0
 40
1.5
  1
Datum  Date
  7
ISO
 72
     4
 11
300.83476
 21
39.0
 31
0.0
  0
TEXT
  8
RAHMEN
 62
     7
  5
956E
 10
314.100573
 20
38.25
 30
0.0
 40
1.5
  1
Name  Name
  7
ISO
 72
     4
 11
319.189859
 21
39.0
 31
0.0
  0
TEXT
  8
RAHMEN
 62
     7
  5
956F
 10
285.439017
 20
58.90949
 30
0.0
 40
1.5
  1
Allgemeintoleranz
  7
ISO
 72
     4
 11
292.564017
 21
59.445205
 31
0.0
  0
TEXT
  8
RAHMEN
 62
     7
  5
9570
 10
284.903302
 20
55.92586
 30
0.0
 40
1.5
  1
General Tolerance
  7
ISO
 72
     4
 11
292.564017
 21
56.67586
 31
0.0
  0
TEXT
  8
RAHMEN
 62
     7
  5
9571
 10
311.08762
 20
59.050042
 30
0.0
 40
1.5
  1
Oberfläche
  7
ISO
  0
TEXT
  8
RAHMEN
 62
     7
  5
9572
 10
311.08762
 20
56.367239
 30
0.0
 40
1.5
  1
Surface Coating
  7
ISO
  0
TEXT
  8
RAHMEN
 62
     7
  5
9573
 10
330.430478
 20
58.523283
 30
0.0
 40
1.5
  1
Maßstab
  7
ISO
 72
     4
 11
333.698335
 21
59.112568
 31
0.0
  0
TEXT
  8
RAHMEN
 62
     7
  5
9574
 10
331.60905
 20
55.118597
 30
0.0
 40
1.5
  1
Scale
  7
ISO
 72
     4
 11
333.698335
 21
55.868597
 31
0.0
  0
TEXT
  8
RAHMEN
 62
     7
  5
9575
 10
329.962388
 20
51.298402
 30
0.0
 40
1.5
  1
Werkstoff,Halbzeug
  7
ISO
  0
TEXT
  8
RAHMEN
 62
     7
  5
9576
 10
329.962388
 20
48.602655
 30
0.0
 40
1.5
  1
Material,Material From
  7
ISO
  0
TEXT
  8
RAHMEN
 62
     7
  5
9577
 10
330.333943
 20
38.869797
 30
0.0
 40
1.5
  1
Benennung
  7
ISO
  0
TEXT
  8
RAHMEN
 62
     7
  5
9578
 10
330.333943
 20
36.750627
 30
0.0
 40
1.5
  1
Drawing Name
  7
ISO
  0
TEXT
  8
RAHMEN
 62
     7
  5
9579
 10
330.114986
 20
18.670841
 30
0.0
 40
1.5
  1
Zeichnung-Nr.
  7
ISO
  0
TEXT
  8
RAHMEN
 62
     7
  5
957A
 10
330.114986
 20
16.3633
 30
0.0
 40
1.5
  1
Drawing NO.
  7
ISO
  0
TEXT
  8
RAHMEN
 62
     7
  5
957B
 10
329.434018
 20
5.664067
 30
0.0
 40
1.3
  1
Repl. for:
  7
ISO
  0
TEXT
  8
RAHMEN
 62
     7
  5
957C
 10
329.393453
 20
7.489216
 30
0.0
 40
1.3
  1
Ers.f.:
  7
ISO
  0
TEXT
  8
RAHMEN
 62
     7
  5
957D
 10
370.434018
 20
5.664067
 30
0.0
 40
1.3
  1
Repl. by:
  7
ISO
  0
TEXT
  8
RAHMEN
 62
     7
  5
957E
 10
370.393453
 20
7.489216
 30
0.0
 40
1.3
  1
Ers.d.:
  7
ISO
  0
TEXT
  8
RAHMEN
 62
     7
  5
957F
 10
402.557306
 20
19.22161
 30
0.0
 40
1.5
  1
Blatt
  7
ISO
 72
     4
 11
404.325163
 21
19.97161
 31
0.0
  0
TEXT
  8
RAHMEN
 62
     7
  5
9580
 10
402.182306
 20
17.44377
 30
0.0
 40
1.5
  1
Sheet
  7
ISO
 72
     4
 11
404.325163
 21
18.19377
 31
0.0
  0
TEXT
  8
RAHMEN
 62
     7
  5
9581
 10
412.375017
 20
11.283628
 30
0.0
 40
1.5
  1
Bl.
  7
ISO
 72
     4
 11
413.178589
 21
12.033628
 31
0.0
  0
TEXT
  8
RAHMEN
 62
     7
  5
9582
 10
412.589303
 20
9.299062
 30
0.0
 40
1.5
  1
of
  7
ISO
 72
     4
 11
413.178589
 21
10.049062
 31
0.0
  0
TEXT
  8
RAHMEN
 62
     7
  5
9583
 10
376.320054
 20
58.195549
 30
0.0
 40
1.5
  1
Projektionsmethode
  7
ISO
  0
TEXT
  8
RAHMEN
 62
     7
  5
9584
 10
376.320054
 20
55.147445
 30
0.0
 40
1.5
  1
First Angle Projection
  7
ISO
  0
INSERT
  8
ACA_VARSAVE
  5
9585
  2
ACA_SAVE_DONT_PURGE
 10
0.0
 20
0.0
 30
0.0
  0
ATTDEF
  8
RAHMEN
 62
     7
  5
9586
 10
310.737686
 20
33.899824
 30
0.0
 40
2.0
  1
Berges
  3
Name eingeben
  2
NAME
 70
     0
  7
NORM
  0
ENDBLK
  8
0
  5
3FF4
  0
BLOCK
  8
0
  5
CD43
  2
*D11
 70
    65
 10
0.0
 20
0.0
 30
0.0
  3
*D85
  0
LINE
  8
0
  6
BYBLOCK
  5
CD44
 10
65.509627
 20
221.124161
 30
0.0
 11
65.509627
 21
235.185435
 31
0.0
  0
LINE
  8
0
  6
BYBLOCK
  5
CD45
 10
46.759627
 20
219.624161
 30
0.0
 11
46.759627
 21
235.185435
 31
0.0
  0
LINE
  8
0
  6
BYBLOCK
  5
CD46
 10
69.009627
 20
234.685435
 30
0.0
 11
72.509627
 21
234.685435
 31
0.0
  0
LINE
  8
0
  6
BYBLOCK
  5
CD47
 10
43.259627
 20
234.685435
 30
0.0
 11
29.131056
 21
234.685435
 31
0.0
  0
LINE
  8
0
  6
BYBLOCK
  5
CD48
 10
65.509627
 20
234.685435
 30
0.0
 11
46.759627
 21
234.685435
 31
0.0
  0
SOLID
  8
0
  6
BYBLOCK
  5
CD49
 10
69.009627
 20
235.268768
 30
0.0
 11
69.009627
 21
234.102101
 31
0.0
 12
65.509627
 22
234.685435
 32
0.0
 13
65.509627
 23
234.685435
 33
0.0
  0
SOLID
  8
0
  6
BYBLOCK
  5
CD4A
 10
43.259627
 20
235.268768
 30
0.0
 11
43.259627
 21
234.102101
 31
0.0
 12
46.759627
 22
234.685435
 32
0.0
 13
46.759627
 23
234.685435
 33
0.0
  0
TEXT
  8
0
  6
CONTINUOUS
 62
     2
  5
CD4B
 10
30.031056
 20
235.585435
 30
0.0
 40
3.0
  1
18.75
  0
POINT
  8
DEFPOINTS
  6
BYBLOCK
 62
     0
  5
CD4C
 10
65.509627
 20
221.124161
 30
0.0
  0
POINT
  8
DEFPOINTS
  6
BYBLOCK
 62
     0
  5
CD4D
 10
46.759627
 20
219.624161
 30
0.0
  0
POINT
  8
DEFPOINTS
  6
BYBLOCK
 62
     0
  5
CD4E
 10
46.759627
 20
234.685435
 30
0.0
  0
ENDBLK
  8
0
  5
CD4F
  0
BLOCK
  8
0
  5
CD36
  2
*D12
 70
    65
 10
0.0
 20
0.0
 30
0.0
  3
*D86
  0
LINE
  8
0
  6
BYBLOCK
  5
CD37
 10
78.009627
 20
221.124161
 30
0.0
 11
78.009627
 21
241.148236
 31
0.0
  0
LINE
  8
0
  6
BYBLOCK
  5
CD38
 10
65.509627
 20
221.124161
 30
0.0
 11
65.509627
 21
241.148236
 31
0.0
  0
LINE
  8
0
  6
BYBLOCK
  5
CD39
 10
81.509627
 20
240.648236
 30
0.0
 11
85.009627
 21
240.648236
 31
0.0
  0
LINE
  8
0
  6
BYBLOCK
  5
CD3A
 10
62.009627
 20
240.648236
 30
0.0
 11
49.309627
 21
240.648236
 31
0.0
  0
LINE
  8
0
  6
BYBLOCK
  5
CD3B
 10
78.009627
 20
240.648236
 30
0.0
 11
65.509627
 21
240.648236
 31
0.0
  0
SOLID
  8
0
  6
BYBLOCK
  5
CD3C
 10
81.509627
 20
241.231569
 30
0.0
 11
81.509627
 21
240.064902
 31
0.0
 12
78.009627
 22
240.648236
 32
0.0
 13
78.009627
 23
240.648236
 33
0.0
  0
SOLID
  8
0
  6
BYBLOCK
  5
CD3D
 10
62.009627
 20
241.231569
 30
0.0
 11
62.009627
 21
240.064902
 31
0.0
 12
65.509627
 22
240.648236
 32
0.0
 13
65.509627
 23
240.648236
 33
0.0
  0
TEXT
  8
0
  6
CONTINUOUS
 62
     2
  5
CD3E
 10
50.209627
 20
241.548236
 30
0.0
 40
3.0
  1
12.5
  0
POINT
  8
DEFPOINTS
  6
BYBLOCK
 62
     0
  5
CD3F
 10
78.009627
 20
221.124161
 30
0.0
  0
POINT
  8
DEFPOINTS
  6
BYBLOCK
 62
     0
  5
CD40
 10
65.509627
 20
221.124161
 30
0.0
  0
POINT
  8
DEFPOINTS
  6
BYBLOCK
 62
     0
  5
CD41
 10
65.509627
 20
240.648236
 30
0.0
  0
ENDBLK
  8
0
  5
CD42
  0
BLOCK
  8
0
  5
CD2B
  2
*D13
 70
    65
 10
0.0
 20
0.0
 30
0.0
  3
*D87
  0
LINE
  8
0
  6
BYBLOCK
  5
CD2C
 10
65.509627
 20
234.185435
 30
0.0
 11
65.509627
 21
247.126325
 31
0.0
  0
LINE
  8
0
  6
BYBLOCK
  5
CD2D
 10
328.009627
 20
221.124161
 30
0.0
 11
328.009627
 21
247.126325
 31
0.0
  0
LINE
  8
0
  6
BYBLOCK
  5
CD2E
 10
69.009627
 20
246.626325
 30
0.0
 11
324.509627
 21
246.626325
 31
0.0
  0
SOLID
  8
0
  6
BYBLOCK
  5
CD2F
 10
69.009627
 20
247.209658
 30
0.0
 11
69.009627
 21
246.042991
 31
0.0
 12
65.509627
 22
246.626325
 32
0.0
 13
65.509627
 23
246.626325
 33
0.0
  0
SOLID
  8
0
  6
BYBLOCK
  5
CD30
 10
324.509627
 20
247.209658
 30
0.0
 11
324.509627
 21
246.042991
 31
0.0
 12
328.009627
 22
246.626325
 32
0.0
 13
328.009627
 23
246.626325
 33
0.0
  0
TEXT
  8
0
  6
CONTINUOUS
 62
     2
  5
CD31
 10
177.233905
 20
248.812039
 30
0.0
 40
3.0
  1
21x12.5 (=262.5)
  0
POINT
  8
DEFPOINTS
  6
BYBLOCK
 62
     0
  5
CD32
 10
65.509627
 20
234.185435
 30
0.0
  0
POINT
  8
DEFPOINTS
  6
BYBLOCK
 62
     0
  5
CD33
 10
328.009627
 20
221.124161
 30
0.0
  0
POINT
  8
DEFPOINTS
  6
BYBLOCK
 62
     0
  5
CD34
 10
328.009627
 20
246.626325
 30
0.0
  0
ENDBLK
  8
0
  5
CD35
  0
BLOCK
  8
0
  5
CD1E
  2
*D14
 70
    65
 10
0.0
 20
0.0
 30
0.0
  3
*D88
  0
LINE
  8
0
  6
BYBLOCK
  5
CD1F
 10
328.009627
 20
221.124161
 30
0.0
 11
328.009627
 21
234.129285
 31
0.0
  0
LINE
  8
0
  6
BYBLOCK
  5
CD20
 10
346.759627
 20
219.624161
 30
0.0
 11
346.759627
 21
234.129285
 31
0.0
  0
LINE
  8
0
  6
BYBLOCK
  5
CD21
 10
324.509627
 20
233.629285
 30
0.0
 11
321.009627
 21
233.629285
 31
0.0
  0
LINE
  8
0
  6
BYBLOCK
  5
CD22
 10
350.259627
 20
233.629285
 30
0.0
 11
364.388199
 21
233.629285
 31
0.0
  0
LINE
  8
0
  6
BYBLOCK
  5
CD23
 10
328.009627
 20
233.629285
 30
0.0
 11
346.759627
 21
233.629285
 31
0.0
  0
SOLID
  8
0
  6
BYBLOCK
  5
CD24
 10
324.509627
 20
234.212619
 30
0.0
 11
324.509627
 21
233.045952
 31
0.0
 12
328.009627
 22
233.629285
 32
0.0
 13
328.009627
 23
233.629285
 33
0.0
  0
SOLID
  8
0
  6
BYBLOCK
  5
CD25
 10
350.259627
 20
234.212619
 30
0.0
 11
350.259627
 21
233.045952
 31
0.0
 12
346.759627
 22
233.629285
 32
0.0
 13
346.759627
 23
233.629285
 33
0.0
  0
TEXT
  8
0
  6
CONTINUOUS
 62
     2
  5
CD26
 10
352.059627
 20
234.529285
 30
0.0
 40
3.0
  1
18.75
  0
POINT
  8
DEFPOINTS
  6
BYBLOCK
 62
     0
  5
CD27
 10
328.009627
 20
221.124161
 30
0.0
  0
POINT
  8
DEFPOINTS
  6
BYBLOCK
 62
     0
  5
CD28
 10
346.759627
 20
219.624161
 30
0.0
  0
POINT
  8
DEFPOINTS
  6
BYBLOCK
 62
     0
  5
CD29
 10
346.759627
 20
233.629285
 30
0.0
  0
ENDBLK
  8
0
  5
CD2A
  0
BLOCK
  8
0
  5
CDD4
  2
*D15
 70
    65
 10
0.0
 20
0.0
 30
0.0
  3
*D89
  0
LINE
  8
0
  6
BYBLOCK
  5
CDD5
 10
346.759627
 20
219.624161
 30
0.0
 11
360.859872
 21
219.624161
 31
0.0
  0
LINE
  8
0
  6
BYBLOCK
  5
CDD6
 10
346.759627
 20
135.624161
 30
0.0
 11
360.859872
 21
135.624161
 31
0.0
  0
LINE
  8
0
  6
BYBLOCK
  5
CDD7
 10
360.359872
 20
216.124161
 30
0.0
 11
360.359872
 21
139.124161
 31
0.0
  0
SOLID
  8
0
  6
BYBLOCK
  5
CDD8
 10
359.776539
 20
216.124161
 30
0.0
 11
360.943205
 21
216.124161
 31
0.0
 12
360.359872
 22
219.624161
 32
0.0
 13
360.359872
 23
219.624161
 33
0.0
  0
SOLID
  8
0
  6
BYBLOCK
  5
CDD9
 10
359.776539
 20
139.124161
 30
0.0
 11
360.943205
 21
139.124161
 31
0.0
 12
360.359872
 22
135.624161
 32
0.0
 13
360.359872
 23
135.624161
 33
0.0
  0
TEXT
  8
0
  6
CONTINUOUS
 62
     2
  5
CDDA
 10
359.459872
 20
175.124161
 30
0.0
 40
3.0
  1
84
 50
90.0
  0
POINT
  8
DEFPOINTS
  6
BYBLOCK
 62
     0
  5
CDDB
 10
346.759627
 20
219.624161
 30
0.0
  0
POINT
  8
DEFPOINTS
  6
BYBLOCK
 62
     0
  5
CDDC
 10
346.759627
 20
135.624161
 30
0.0
  0
POINT
  8
DEFPOINTS
  6
BYBLOCK
 62
     0
  5
CDDD
 10
360.359872
 20
135.624161
 30
0.0
  0
ENDBLK
  8
0
  5
CDDE
  0
BLOCK
  8
0
  5
CCD2
  2
*D16
 70
    65
 10
0.0
 20
0.0
 30
0.0
  3
*D91
  0
LINE
  8
0
  6
BYBLOCK
  5
CCD3
 10
330.509627
 20
150.624161
 30
0.0
 11
355.418621
 21
150.624161
 31
0.0
  0
LINE
  8
0
  6
BYBLOCK
  5
CCD4
 10
346.759627
 20
135.624161
 30
0.0
 11
355.418621
 21
135.624161
 31
0.0
  0
LINE
  8
0
  6
BYBLOCK
  5
CCD5
 10
354.918621
 20
147.124161
 30
0.0
 11
354.918621
 21
139.124161
 31
0.0
  0
SOLID
  8
0
  6
BYBLOCK
  5
CCD6
 10
354.335288
 20
147.124161
 30
0.0
 11
355.501955
 21
147.124161
 31
0.0
 12
354.918621
 22
150.624161
 32
0.0
 13
354.918621
 23
150.624161
 33
0.0
  0
SOLID
  8
0
  6
BYBLOCK
  5
CCD7
 10
354.335288
 20
139.124161
 30
0.0
 11
355.501955
 21
139.124161
 31
0.0
 12
354.918621
 22
135.624161
 32
0.0
 13
354.918621
 23
135.624161
 33
0.0
  0
TEXT
  8
0
  6
CONTINUOUS
 62
     2
  5
CCD8
 10
354.018621
 20
140.981304
 30
0.0
 40
3.0
  1
15
 50
90.0
  0
POINT
  8
DEFPOINTS
  6
BYBLOCK
 62
     0
  5
CCD9
 10
330.509627
 20
150.624161
 30
0.0
  0
POINT
  8
DEFPOINTS
  6
BYBLOCK
 62
     0
  5
CCDA
 10
346.759627
 20
135.624161
 30
0.0
  0
POINT
  8
DEFPOINTS
  6
BYBLOCK
 62
     0
  5
CCDB
 10
354.918621
 20
135.624161
 30
0.0
  0
ENDBLK
  8
0
  5
CCDC
  0
BLOCK
  8
0
  5
CD01
  2
*D17
 70
    65
 10
0.0
 20
0.0
 30
0.0
  3
*D92
  0
LINE
  8
0
  6
BYBLOCK
  5
CD02
 10
88.009627
 20
150.624161
 30
0.0
 11
88.009627
 21
128.376114
 31
0.0
  0
LINE
  8
0
  6
BYBLOCK
  5
CD03
 10
93.009627
 20
150.624161
 30
0.0
 11
93.009627
 21
128.376114
 31
0.0
  0
LINE
  8
0
  6
BYBLOCK
  5
CD04
 10
84.509627
 20
128.876114
 30
0.0
 11
81.009627
 21
128.876114
 31
0.0
  0
LINE
  8
0
  6
BYBLOCK
  5
CD05
 10
96.509627
 20
128.876114
 30
0.0
 11
105.495341
 21
128.876114
 31
0.0
  0
LINE
  8
0
  6
BYBLOCK
  5
CD06
 10
88.009627
 20
128.876114
 30
0.0
 11
93.009627
 21
128.876114
 31
0.0
  0
SOLID
  8
0
  6
BYBLOCK
  5
CD07
 10
84.509627
 20
129.459448
 30
0.0
 11
84.509627
 21
128.292781
 31
0.0
 12
88.009627
 22
128.876114
 32
0.0
 13
88.009627
 23
128.876114
 33
0.0
  0
SOLID
  8
0
  6
BYBLOCK
  5
CD08
 10
96.509627
 20
129.459448
 30
0.0
 11
96.509627
 21
128.292781
 31
0.0
 12
93.009627
 22
128.876114
 32
0.0
 13
93.009627
 23
128.876114
 33
0.0
  0
TEXT
  8
0
  6
CONTINUOUS
 62
     2
  5
CD09
 10
98.309627
 20
129.776114
 30
0.0
 40
3.0
  1
5.0
  0
POINT
  8
DEFPOINTS
  6
BYBLOCK
 62
     0
  5
CD0A
 10
88.009627
 20
150.624161
 30
0.0
  0
POINT
  8
DEFPOINTS
  6
BYBLOCK
 62
     0
  5
CD0B
 10
93.009627
 20
150.624161
 30
0.0
  0
POINT
  8
DEFPOINTS
  6
BYBLOCK
 62
     0
  5
CD0C
 10
93.009627
 20
128.876114
 30
0.0
  0
ENDBLK
  8
0
  5
CD0D
  0
BLOCK
  8
0
  5
CD10
  2
*D18
 70
    65
 10
0.0
 20
0.0
 30
0.0
  3
*D93
  0
LINE
  8
0
  6
BYBLOCK
  5
CD11
 10
80.509627
 20
150.624161
 30
0.0
 11
80.509627
 21
122.754477
 31
0.0
  0
LINE
  8
0
  6
BYBLOCK
  5
CD12
 10
88.009627
 20
150.624161
 30
0.0
 11
88.009627
 21
122.754477
 31
0.0
  0
LINE
  8
0
  6
BYBLOCK
  5
CD13
 10
77.009627
 20
123.254477
 30
0.0
 11
73.509627
 21
123.254477
 31
0.0
  0
LINE
  8
0
  6
BYBLOCK
  5
CD14
 10
91.509627
 20
123.254477
 30
0.0
 11
100.495341
 21
123.254477
 31
0.0
  0
LINE
  8
0
  6
BYBLOCK
  5
CD15
 10
80.509627
 20
123.254477
 30
0.0
 11
88.009627
 21
123.254477
 31
0.0
  0
SOLID
  8
0
  6
BYBLOCK
  5
CD16
 10
77.009627
 20
123.83781
 30
0.0
 11
77.009627
 21
122.671143
 31
0.0
 12
80.509627
 22
123.254477
 32
0.0
 13
80.509627
 23
123.254477
 33
0.0
  0
SOLID
  8
0
  6
BYBLOCK
  5
CD17
 10
91.509627
 20
123.83781
 30
0.0
 11
91.509627
 21
122.671143
 31
0.0
 12
88.009627
 22
123.254477
 32
0.0
 13
88.009627
 23
123.254477
 33
0.0
  0
TEXT
  8
0
  6
CONTINUOUS
 62
     2
  5
CD18
 10
93.309627
 20
124.154477
 30
0.0
 40
3.0
  1
7.5
  0
POINT
  8
DEFPOINTS
  6
BYBLOCK
 62
     0
  5
CD19
 10
80.509627
 20
150.624161
 30
0.0
  0
POINT
  8
DEFPOINTS
  6
BYBLOCK
 62
     0
  5
CD1A
 10
88.009627
 20
150.624161
 30
0.0
  0
POINT
  8
DEFPOINTS
  6
BYBLOCK
 62
     0
  5
CD1B
 10
88.009627
 20
123.254477
 30
0.0
  0
ENDBLK
  8
0
  5
CD1C
  0
BLOCK
  8
0
  5
CD7F
  2
*D19
 70
    65
 10
0.0
 20
0.0
 30
0.0
  3
*D94
  0
LINE
  8
0
  6
BYBLOCK
  5
CD80
 10
54.259627
 20
219.624161
 30
0.0
 11
54.259627
 21
228.815641
 31
0.0
  0
LINE
  8
0
  6
BYBLOCK
  5
CD81
 10
46.759627
 20
219.624161
 30
0.0
 11
46.759627
 21
228.815641
 31
0.0
  0
LINE
  8
0
  6
BYBLOCK
  5
CD82
 10
57.759627
 20
228.315641
 30
0.0
 11
61.259627
 21
228.315641
 31
0.0
  0
LINE
  8
0
  6
BYBLOCK
  5
CD83
 10
43.259627
 20
228.315641
 30
0.0
 11
34.273913
 21
228.315641
 31
0.0
  0
LINE
  8
0
  6
BYBLOCK
  5
CD84
 10
54.259627
 20
228.315641
 30
0.0
 11
46.759627
 21
228.315641
 31
0.0
  0
SOLID
  8
0
  6
BYBLOCK
  5
CD85
 10
57.759627
 20
228.898974
 30
0.0
 11
57.759627
 21
227.732308
 31
0.0
 12
54.259627
 22
228.315641
 32
0.0
 13
54.259627
 23
228.315641
 33
0.0
  0
SOLID
  8
0
  6
BYBLOCK
  5
CD86
 10
43.259627
 20
228.898974
 30
0.0
 11
43.259627
 21
227.732308
 31
0.0
 12
46.759627
 22
228.315641
 32
0.0
 13
46.759627
 23
228.315641
 33
0.0
  0
TEXT
  8
0
  6
CONTINUOUS
 62
     2
  5
CD87
 10
35.173913
 20
229.215641
 30
0.0
 40
3.0
  1
7.5
  0
POINT
  8
DEFPOINTS
  6
BYBLOCK
 62
     0
  5
CD88
 10
54.259627
 20
219.624161
 30
0.0
  0
POINT
  8
DEFPOINTS
  6
BYBLOCK
 62
     0
  5
CD89
 10
46.759627
 20
219.624161
 30
0.0
  0
POINT
  8
DEFPOINTS
  6
BYBLOCK
 62
     0
  5
CD8A
 10
46.759627
 20
228.315641
 30
0.0
  0
ENDBLK
  8
0
  5
CD8B
  0
BLOCK
  8
0
  5
CD72
  2
*D20
 70
    65
 10
0.0
 20
0.0
 30
0.0
  3
*D95
  0
LINE
  8
0
  6
BYBLOCK
  5
CD73
 10
56.259627
 20
155.624161
 30
0.0
 11
56.259627
 21
128.13575
 31
0.0
  0
LINE
  8
0
  6
BYBLOCK
  5
CD74
 10
46.759627
 20
135.624161
 30
0.0
 11
46.759627
 21
128.13575
 31
0.0
  0
LINE
  8
0
  6
BYBLOCK
  5
CD75
 10
59.759627
 20
128.63575
 30
0.0
 11
63.259627
 21
128.63575
 31
0.0
  0
LINE
  8
0
  6
BYBLOCK
  5
CD76
 10
43.259627
 20
128.63575
 30
0.0
 11
34.273913
 21
128.63575
 31
0.0
  0
LINE
  8
0
  6
BYBLOCK
  5
CD77
 10
56.259627
 20
128.63575
 30
0.0
 11
46.759627
 21
128.63575
 31
0.0
  0
SOLID
  8
0
  6
BYBLOCK
  5
CD78
 10
59.759627
 20
129.219084
 30
0.0
 11
59.759627
 21
128.052417
 31
0.0
 12
56.259627
 22
128.63575
 32
0.0
 13
56.259627
 23
128.63575
 33
0.0
  0
SOLID
  8
0
  6
BYBLOCK
  5
CD79
 10
43.259627
 20
129.219084
 30
0.0
 11
43.259627
 21
128.052417
 31
0.0
 12
46.759627
 22
128.63575
 32
0.0
 13
46.759627
 23
128.63575
 33
0.0
  0
TEXT
  8
0
  6
CONTINUOUS
 62
     2
  5
CD7A
 10
35.173913
 20
129.53575
 30
0.0
 40
3.0
  1
9.5
  0
POINT
  8
DEFPOINTS
  6
BYBLOCK
 62
     0
  5
CD7B
 10
56.259627
 20
155.624161
 30
0.0
  0
POINT
  8
DEFPOINTS
  6
BYBLOCK
 62
     0
  5
CD7C
 10
46.759627
 20
135.624161
 30
0.0
  0
POINT
  8
DEFPOINTS
  6
BYBLOCK
 62
     0
  5
CD7D
 10
46.759627
 20
128.63575
 30
0.0
  0
ENDBLK
  8
0
  5
CD7E
  0
BLOCK
  8
0
  5
CDE7
  2
*D21
 70
    65
 10
0.0
 20
0.0
 30
0.0
  1
CADISAVE_DONT_PURGE
  3
*D96
  0
LINE
  8
0
  6
BYBLOCK
  5
CDE8
 10
46.759627
 20
135.624161
 30
0.0
 11
46.759627
 21
116.989176
 31
0.0
  0
LINE
  8
0
  6
BYBLOCK
  5
CDE9
 10
346.759627
 20
135.624161
 30
0.0
 11
346.759627
 21
116.989176
 31
0.0
  0
LINE
  8
0
  6
BYBLOCK
  5
CDEA
 10
50.259627
 20
117.489176
 30
0.0
 11
343.259627
 21
117.489176
 31
0.0
  0
SOLID
  8
0
  6
BYBLOCK
  5
CDEB
 10
50.259627
 20
118.07251
 30
0.0
 11
50.259627
 21
116.905843
 31
0.0
 12
46.759627
 22
117.489176
 32
0.0
 13
46.759627
 23
117.489176
 33
0.0
  0
SOLID
  8
0
  6
BYBLOCK
  5
CDEC
 10
343.259627
 20
118.07251
 30
0.0
 11
343.259627
 21
116.905843
 31
0.0
 12
346.759627
 22
117.489176
 32
0.0
 13
346.759627
 23
117.489176
 33
0.0
  0
TEXT
  8
0
  6
CONTINUOUS
 62
     2
  5
CDED
 10
192.539733
 20
118.389176
 30
0.0
 40
3.0
  1
300
  0
POINT
  8
DEFPOINTS
  6
BYBLOCK
 62
     0
  5
CDEE
 10
46.759627
 20
135.624161
 30
0.0
  0
POINT
  8
DEFPOINTS
  6
BYBLOCK
 62
     0
  5
CDEF
 10
346.759627
 20
135.624161
 30
0.0
  0
POINT
  8
DEFPOINTS
  6
BYBLOCK
 62
     0
  5
CDF0
 10
346.759627
 20
117.489176
 30
0.0
  0
ENDBLK
  8
0
  5
CDF1
  0
BLOCK
  8
0
  5
CDBC
  2
*D22
 70
    65
 10
0.0
 20
0.0
 30
0.0
  3
*D97
  0
LINE
  8
0
  6
BYBLOCK
  5
CDBD
 10
328.009627
 20
219.624161
 30
0.0
 11
355.416934
 21
219.624161
 31
0.0
  0
LINE
  8
0
  6
BYBLOCK
  5
CDBE
 10
330.509627
 20
150.624161
 30
0.0
 11
355.416934
 21
150.624161
 31
0.0
  0
LINE
  8
0
  6
BYBLOCK
  5
CDBF
 10
354.916934
 20
216.124161
 30
0.0
 11
354.916934
 21
154.124161
 31
0.0
  0
SOLID
  8
0
  6
BYBLOCK
  5
CDC0
 10
354.3336
 20
216.124161
 30
0.0
 11
355.500267
 21
216.124161
 31
0.0
 12
354.916934
 22
219.624161
 32
0.0
 13
354.916934
 23
219.624161
 33
0.0
  0
SOLID
  8
0
  6
BYBLOCK
  5
CDC1
 10
354.3336
 20
154.124161
 30
0.0
 11
355.500267
 21
154.124161
 31
0.0
 12
354.916934
 22
150.624161
 32
0.0
 13
354.916934
 23
150.624161
 33
0.0
  0
TEXT
  8
0
  6
CONTINUOUS
 62
     2
  5
CDC2
 10
354.016934
 20
182.767019
 30
0.0
 40
3.0
  1
69
 50
90.0
  0
POINT
  8
DEFPOINTS
  6
BYBLOCK
 62
     0
  5
CDC3
 10
328.009627
 20
219.624161
 30
0.0
  0
POINT
  8
DEFPOINTS
  6
BYBLOCK
 62
     0
  5
CDC4
 10
330.509627
 20
150.624161
 30
0.0
  0
POINT
  8
DEFPOINTS
  6
BYBLOCK
 62
     0
  5
CDC5
 10
354.916934
 20
150.624161
 30
0.0
  0
ENDBLK
  8
0
  5
CDC6
  0
BLOCK
  8
0
  5
CDC8
  2
*D23
 70
    65
 10
0.0
 20
0.0
 30
0.0
  3
*D98
  0
LINE
  8
0
  6
BYBLOCK
  5
CDC9
 10
46.759627
 20
135.624161
 30
0.0
 11
39.453502
 21
135.624161
 31
0.0
  0
LINE
  8
0
  6
BYBLOCK
  5
CDCA
 10
56.259627
 20
155.624161
 30
0.0
 11
39.453502
 21
155.624161
 31
0.0
  0
LINE
  8
0
  6
BYBLOCK
  5
CDCB
 10
39.953502
 20
139.124161
 30
0.0
 11
39.953502
 21
152.124161
 31
0.0
  0
SOLID
  8
0
  6
BYBLOCK
  5
CDCC
 10
39.370169
 20
139.124161
 30
0.0
 11
40.536835
 21
139.124161
 31
0.0
 12
39.953502
 22
135.624161
 32
0.0
 13
39.953502
 23
135.624161
 33
0.0
  0
SOLID
  8
0
  6
BYBLOCK
  5
CDCD
 10
39.370169
 20
152.124161
 30
0.0
 11
40.536835
 21
152.124161
 31
0.0
 12
39.953502
 22
155.624161
 32
0.0
 13
39.953502
 23
155.624161
 33
0.0
  0
TEXT
  8
0
  6
CONTINUOUS
 62
     2
  5
CDCE
 10
39.053502
 20
144.672264
 30
0.0
 40
3.0
  1
20
 50
90.0
  0
POINT
  8
DEFPOINTS
  6
BYBLOCK
 62
     0
  5
CDCF
 10
46.759627
 20
135.624161
 30
0.0
  0
POINT
  8
DEFPOINTS
  6
BYBLOCK
 62
     0
  5
CDD0
 10
56.259627
 20
155.624161
 30
0.0
  0
POINT
  8
DEFPOINTS
  6
BYBLOCK
 62
     0
  5
CDD1
 10
39.953502
 20
155.624161
 30
0.0
  0
ENDBLK
  8
0
  5
CDD2
  0
ENDSEC
  0
SECTION
  2
ENTITIES
  0
INSERT
  8
CADI_VARSAVE
  5
58
  2
CADISAVE_DONT_PURGE
 10
0.0
 20
0.0
 30
0.0
  0
INSERT
  8
VOLLINIE
  5
59
  2
CADICFG
 10
0.0
 20
0.0
 30
0.0
  0
LINE
  8
VOLLINIE
  5
C246
 10
346.759627
 20
135.624161
 30
0.0
 11
46.759627
 21
135.624161
 31
0.0
  0
LINE
  8
MITTELLINIE
  5
C247
 10
196.759627
 20
134.124161
 30
0.0
 11
196.759627
 21
221.124161
 31
0.0
  0
LINE
  8
VOLLINIE
  5
C248
 10
46.759627
 20
135.624161
 30
0.0
 11
46.759627
 21
219.624161
 31
0.0
  0
LINE
  8
BEMASSUNG
  5
C24A
 10
54.259627
 20
219.624161
 30
0.0
 11
51.415633
 21
219.624161
 31
0.0
  0
LINE
  8
MITTELLINIE
  5
C24B
 10
65.509627
 20
149.124161
 30
0.0
 11
65.509627
 21
221.124161
 31
0.0
  0
ARC
  8
VOLLINIE
  5
C2B2
 10
57.228865
 20
156.624161
 30
0.0
 40
1.0
 50
181.789911
 51
270.0
  0
ARC
  8
VOLLINIE
  5
C2CD
 10
53.596447
 20
215.233417
 30
0.0
 40
0.8
 50
278.41572
 51
85.164101
  0
ARC
  8
VOLLINIE
  5
C2CE
 10
53.976969
 20
212.661413
 30
0.0
 40
1.8
 50
98.41572
 51
265.164101
  0
ARC
  8
VOLLINIE
  5
C2CF
 10
53.757783
 20
210.070669
 30
0.0
 40
0.8
 50
278.41572
 51
85.164101
  0
ARC
  8
VOLLINIE
  5
C2D0
 10
54.138305
 20
207.498665
 30
0.0
 40
1.8
 50
98.41572
 51
265.164101
  0
ARC
  8
VOLLINIE
  5
C2D1
 10
53.815633
 20
217.824161
 30
0.0
 40
1.8
 50
157.380135
 51
265.164101
  0
ARC
  8
VOLLINIE
  5
C2D2
 10
53.919119
 20
204.90792
 30
0.0
 40
0.8
 50
278.41572
 51
85.164101
  0
ARC
  8
VOLLINIE
  5
C2D3
 10
54.299641
 20
202.335916
 30
0.0
 40
1.8
 50
98.41572
 51
265.164101
  0
ARC
  8
VOLLINIE
  5
C2D4
 10
54.080455
 20
199.745172
 30
0.0
 40
0.8
 50
278.41572
 51
85.164101
  0
ARC
  8
VOLLINIE
  5
C2D5
 10
54.460977
 20
197.173168
 30
0.0
 40
1.8
 50
98.41572
 51
265.164101
  0
ARC
  8
VOLLINIE
  5
C2D6
 10
54.241791
 20
194.582423
 30
0.0
 40
0.8
 50
278.41572
 51
85.164101
  0
ARC
  8
VOLLINIE
  5
C2D7
 10
54.622312
 20
192.01042
 30
0.0
 40
1.8
 50
98.41572
 51
265.164101
  0
ARC
  8
VOLLINIE
  5
C2D8
 10
54.403127
 20
189.419675
 30
0.0
 40
0.8
 50
278.41572
 51
85.164101
  0
ARC
  8
VOLLINIE
  5
C2D9
 10
54.783648
 20
186.847671
 30
0.0
 40
1.8
 50
98.41572
 51
265.164101
  0
ARC
  8
VOLLINIE
  5
C2DA
 10
54.564463
 20
184.256927
 30
0.0
 40
0.8
 50
278.41572
 51
85.164101
  0
ARC
  8
VOLLINIE
  5
C2DB
 10
54.944984
 20
181.684923
 30
0.0
 40
1.8
 50
98.41572
 51
265.164101
  0
ARC
  8
VOLLINIE
  5
C2DC
 10
54.725799
 20
179.094178
 30
0.0
 40
0.8
 50
278.41572
 51
85.164101
  0
ARC
  8
VOLLINIE
  5
C2DD
 10
55.10632
 20
176.522175
 30
0.0
 40
1.8
 50
98.41572
 51
265.164101
  0
ARC
  8
VOLLINIE
  5
C2DE
 10
54.887134
 20
173.93143
 30
0.0
 40
0.8
 50
278.41572
 51
85.164101
  0
ARC
  8
VOLLINIE
  5
C2DF
 10
55.267656
 20
171.359426
 30
0.0
 40
1.8
 50
98.41572
 51
265.164101
  0
ARC
  8
VOLLINIE
  5
C2E1
 10
55.04847
 20
168.768682
 30
0.0
 40
0.8
 50
278.41572
 51
85.164101
  0
ARC
  8
VOLLINIE
  5
C2E2
 10
55.428992
 20
166.196678
 30
0.0
 40
1.8
 50
98.41572
 51
263.824412
  0
ARC
  8
VOLLINIE
  5
C2E3
 10
55.141765
 20
163.542172
 30
0.0
 40
0.87
 50
279.75541
 51
83.824412
  0
ARC
  8
VOLLINIE
  5
C2E4
 10
55.594176
 20
160.91078
 30
0.0
 40
1.8
 50
99.75541
 51
265.164101
  0
ARC
  8
VOLLINIE
  5
C2E5
 10
55.374991
 20
158.320036
 30
0.0
 40
0.8
 50
1.789911
 51
85.164101
  0
ARC
  8
VOLLINIE
  5
C2E6
 10
51.415633
 20
218.824161
 30
0.0
 40
0.8
 50
337.380135
 51
90.0
  0
LINE
  8
VOLLINIE
  5
C2E7
 10
56.229353
 20
156.592927
 30
0.0
 11
56.1746
 21
158.345023
 31
0.0
  0
LINE
  8
VOLLINIE
  5
C2E8
 10
68.009627
 20
150.624161
 30
0.0
 11
63.009627
 21
150.624161
 31
0.0
  0
LINE
  8
VOLLINIE
  5
C2E9
 10
63.009627
 20
150.624161
 30
0.0
 11
63.009627
 21
164.624161
 31
0.0
  0
LINE
  8
VOLLINIE
  5
C2EA
 10
68.009627
 20
150.624161
 30
0.0
 11
68.009627
 21
166.124161
 31
0.0
  0
LINE
  8
VOLLINIE
  5
C2FD
 10
66.095414
 20
219.624161
 30
0.0
 11
65.509627
 21
219.624161
 31
0.0
  0
LINE
  8
VOLLINIE
  5
C2FF
 10
69.688559
 20
155.624161
 30
0.0
 11
71.759627
 21
150.624161
 31
0.0
  0
LINE
  8
VOLLINIE
  5
C300
 10
73.830695
 20
155.624161
 30
0.0
 11
71.759627
 21
150.624161
 31
0.0
  0
LINE
  8
VOLLINIE
  5
C301
 10
69.688559
 20
155.624161
 30
0.0
 11
68.009627
 21
155.624161
 31
0.0
  0
LINE
  8
MITTELLINIE
  5
C302
 10
71.759627
 20
149.124161
 30
0.0
 11
71.759627
 21
157.124161
 31
0.0
  0
ARC
  8
VOLLINIE
  5
C306
 10
63.509627
 20
218.624161
 30
0.0
 40
0.5
 50
103.644085
 51
270.0
  0
ARC
  8
VOLLINIE
  5
C30B
 10
63.509627
 20
217.124161
 30
0.0
 40
1.0
 50
270.0
 51
90.0
  0
ARC
  8
VOLLINIE
  5
C30C
 10
67.509627
 20
217.124161
 30
0.0
 40
0.5
 50
270.0
 51
90.0
  0
ARC
  8
VOLLINIE
  5
C30D
 10
67.509627
 20
218.624161
 30
0.0
 40
1.0
 50
160.528779
 51
270.0
  0
ARC
  8
VOLLINIE
  5
C30E
 10
63.509627
 20
214.124161
 30
0.0
 40
1.0
 50
270.0
 51
90.0
  0
ARC
  8
VOLLINIE
  5
C30F
 10
63.509627
 20
215.624161
 30
0.0
 40
0.5
 50
90.0
 51
270.0
  0
ARC
  8
VOLLINIE
  5
C312
 10
67.509627
 20
215.624161
 30
0.0
 40
1.0
 50
90.0
 51
270.0
  0
ARC
  8
VOLLINIE
  5
C313
 10
67.509627
 20
214.124161
 30
0.0
 40
0.5
 50
270.0
 51
90.0
  0
ARC
  8
VOLLINIE
  5
C314
 10
67.509627
 20
208.124161
 30
0.0
 40
0.5
 50
270.0
 51
90.0
  0
ARC
  8
VOLLINIE
  5
C315
 10
67.509627
 20
209.624161
 30
0.0
 40
1.0
 50
90.0
 51
270.0
  0
ARC
  8
VOLLINIE
  5
C316
 10
63.509627
 20
209.624161
 30
0.0
 40
0.5
 50
90.0
 51
270.0
  0
ARC
  8
VOLLINIE
  5
C317
 10
63.509627
 20
208.124161
 30
0.0
 40
1.0
 50
270.0
 51
90.0
  0
ARC
  8
VOLLINIE
  5
C318
 10
67.509627
 20
212.624161
 30
0.0
 40
1.0
 50
90.0
 51
270.0
  0
ARC
  8
VOLLINIE
  5
C319
 10
67.509627
 20
211.124161
 30
0.0
 40
0.5
 50
270.0
 51
90.0
  0
ARC
  8
VOLLINIE
  5
C31A
 10
63.509627
 20
211.124161
 30
0.0
 40
1.0
 50
270.0
 51
90.0
  0
ARC
  8
VOLLINIE
  5
C31B
 10
63.509627
 20
212.624161
 30
0.0
 40
0.5
 50
90.0
 51
270.0
  0
ARC
  8
VOLLINIE
  5
C31C
 10
63.509627
 20
200.624161
 30
0.0
 40
0.5
 50
90.0
 51
270.0
  0
ARC
  8
VOLLINIE
  5
C31D
 10
63.509627
 20
199.124161
 30
0.0
 40
1.0
 50
270.0
 51
90.0
  0
ARC
  8
VOLLINIE
  5
C31E
 10
67.509627
 20
199.124161
 30
0.0
 40
0.5
 50
270.0
 51
90.0
  0
ARC
  8
VOLLINIE
  5
C31F
 10
67.509627
 20
200.624161
 30
0.0
 40
1.0
 50
90.0
 51
270.0
  0
ARC
  8
VOLLINIE
  5
C320
 10
63.509627
 20
196.124161
 30
0.0
 40
1.0
 50
270.0
 51
90.0
  0
ARC
  8
VOLLINIE
  5
C321
 10
63.509627
 20
197.624161
 30
0.0
 40
0.5
 50
90.0
 51
270.0
  0
ARC
  8
VOLLINIE
  5
C322
 10
67.509627
 20
197.624161
 30
0.0
 40
1.0
 50
90.0
 51
270.0
  0
ARC
  8
VOLLINIE
  5
C323
 10
67.509627
 20
196.124161
 30
0.0
 40
0.5
 50
270.0
 51
90.0
  0
ARC
  8
VOLLINIE
  5
C324
 10
67.509627
 20
202.124161
 30
0.0
 40
0.5
 50
270.0
 51
90.0
  0
ARC
  8
VOLLINIE
  5
C325
 10
67.509627
 20
203.624161
 30
0.0
 40
1.0
 50
90.0
 51
270.0
  0
ARC
  8
VOLLINIE
  5
C326
 10
63.509627
 20
203.624161
 30
0.0
 40
0.5
 50
90.0
 51
270.0
  0
ARC
  8
VOLLINIE
  5
C327
 10
63.509627
 20
202.124161
 30
0.0
 40
1.0
 50
270.0
 51
90.0
  0
ARC
  8
VOLLINIE
  5
C328
 10
67.509627
 20
206.624161
 30
0.0
 40
1.0
 50
90.0
 51
270.0
  0
ARC
  8
VOLLINIE
  5
C329
 10
67.509627
 20
205.124161
 30
0.0
 40
0.5
 50
270.0
 51
90.0
  0
ARC
  8
VOLLINIE
  5
C32A
 10
63.509627
 20
205.124161
 30
0.0
 40
1.0
 50
270.0
 51
90.0
  0
ARC
  8
VOLLINIE
  5
C32B
 10
63.509627
 20
206.624161
 30
0.0
 40
0.5
 50
90.0
 51
270.0
  0
ARC
  8
VOLLINIE
  5
C32C
 10
63.509627
 20
185.624161
 30
0.0
 40
0.5
 50
90.0
 51
270.0
  0
ARC
  8
VOLLINIE
  5
C32D
 10
63.509627
 20
184.124161
 30
0.0
 40
1.0
 50
270.0
 51
90.0
  0
ARC
  8
VOLLINIE
  5
C32E
 10
67.509627
 20
184.124161
 30
0.0
 40
0.5
 50
270.0
 51
90.0
  0
ARC
  8
VOLLINIE
  5
C32F
 10
67.509627
 20
185.624161
 30
0.0
 40
1.0
 50
90.0
 51
270.0
  0
ARC
  8
VOLLINIE
  5
C330
 10
63.509627
 20
181.124161
 30
0.0
 40
1.0
 50
270.0
 51
90.0
  0
ARC
  8
VOLLINIE
  5
C331
 10
63.509627
 20
182.624161
 30
0.0
 40
0.5
 50
90.0
 51
270.0
  0
ARC
  8
VOLLINIE
  5
C332
 10
67.509627
 20
182.624161
 30
0.0
 40
1.0
 50
90.0
 51
270.0
  0
ARC
  8
VOLLINIE
  5
C333
 10
67.509627
 20
181.124161
 30
0.0
 40
0.5
 50
270.0
 51
90.0
  0
ARC
  8
VOLLINIE
  5
C334
 10
67.509627
 20
175.124161
 30
0.0
 40
0.5
 50
270.0
 51
90.0
  0
ARC
  8
VOLLINIE
  5
C335
 10
67.509627
 20
176.624161
 30
0.0
 40
1.0
 50
90.0
 51
270.0
  0
ARC
  8
VOLLINIE
  5
C336
 10
63.509627
 20
176.624161
 30
0.0
 40
0.5
 50
90.0
 51
270.0
  0
ARC
  8
VOLLINIE
  5
C337
 10
63.509627
 20
175.124161
 30
0.0
 40
1.0
 50
270.0
 51
90.0
  0
ARC
  8
VOLLINIE
  5
C338
 10
67.509627
 20
179.624161
 30
0.0
 40
1.0
 50
90.0
 51
270.0
  0
ARC
  8
VOLLINIE
  5
C339
 10
67.509627
 20
178.124161
 30
0.0
 40
0.5
 50
270.0
 51
90.0
  0
ARC
  8
VOLLINIE
  5
C33A
 10
63.509627
 20
178.124161
 30
0.0
 40
1.0
 50
270.0
 51
90.0
  0
ARC
  8
VOLLINIE
  5
C33B
 10
63.509627
 20
179.624161
 30
0.0
 40
0.5
 50
90.0
 51
270.0
  0
ARC
  8
VOLLINIE
  5
C33C
 10
63.509627
 20
191.624161
 30
0.0
 40
0.5
 50
90.0
 51
270.0
  0
ARC
  8
VOLLINIE
  5
C33D
 10
63.509627
 20
190.124161
 30
0.0
 40
1.0
 50
270.0
 51
90.0
  0
ARC
  8
VOLLINIE
  5
C33E
 10
67.509627
 20
190.124161
 30
0.0
 40
0.5
 50
270.0
 51
90.0
  0
ARC
  8
VOLLINIE
  5
C33F
 10
67.509627
 20
191.624161
 30
0.0
 40
1.0
 50
90.0
 51
270.0
  0
ARC
  8
VOLLINIE
  5
C340
 10
63.509627
 20
187.124161
 30
0.0
 40
1.0
 50
270.0
 51
90.0
  0
ARC
  8
VOLLINIE
  5
C341
 10
63.509627
 20
188.624161
 30
0.0
 40
0.5
 50
90.0
 51
270.0
  0
ARC
  8
VOLLINIE
  5
C342
 10
67.509627
 20
188.624161
 30
0.0
 40
1.0
 50
90.0
 51
270.0
  0
ARC
  8
VOLLINIE
  5
C344
 10
67.509627
 20
193.124161
 30
0.0
 40
0.5
 50
270.0
 51
90.0
  0
ARC
  8
VOLLINIE
  5
C345
 10
67.509627
 20
194.624161
 30
0.0
 40
1.0
 50
90.0
 51
270.0
  0
ARC
  8
VOLLINIE
  5
C346
 10
63.509627
 20
194.624161
 30
0.0
 40
0.5
 50
90.0
 51
270.0
  0
ARC
  8
VOLLINIE
  5
C347
 10
63.509627
 20
193.124161
 30
0.0
 40
1.0
 50
270.0
 51
90.0
  0
ARC
  8
VOLLINIE
  5
C354
 10
63.509627
 20
170.624161
 30
0.0
 40
0.5
 50
90.0
 51
270.0
  0
ARC
  8
VOLLINIE
  5
C355
 10
63.509627
 20
169.124161
 30
0.0
 40
1.0
 50
270.0
 51
90.0
  0
ARC
  8
VOLLINIE
  5
C356
 10
67.509627
 20
169.124161
 30
0.0
 40
0.5
 50
270.0
 51
90.0
  0
ARC
  8
VOLLINIE
  5
C357
 10
67.509627
 20
170.624161
 30
0.0
 40
1.0
 50
90.0
 51
270.0
  0
ARC
  8
VOLLINIE
  5
C358
 10
63.509627
 20
166.124161
 30
0.0
 40
1.0
 50
270.0
 51
90.0
  0
ARC
  8
VOLLINIE
  5
C359
 10
63.509627
 20
167.624161
 30
0.0
 40
0.5
 50
90.0
 51
270.0
  0
ARC
  8
VOLLINIE
  5
C35A
 10
67.509627
 20
167.624161
 30
0.0
 40
1.0
 50
90.0
 51
270.0
  0
ARC
  8
VOLLINIE
  5
C35B
 10
67.509627
 20
166.124161
 30
0.0
 40
0.5
 50
0.0
 51
90.0
  0
ARC
  8
VOLLINIE
  5
C35C
 10
67.509627
 20
172.124161
 30
0.0
 40
0.5
 50
270.0
 51
90.0
  0
ARC
  8
VOLLINIE
  5
C35D
 10
67.509627
 20
173.624161
 30
0.0
 40
1.0
 50
90.0
 51
270.0
  0
ARC
  8
VOLLINIE
  5
C35E
 10
63.509627
 20
173.624161
 30
0.0
 40
0.5
 50
90.0
 51
270.0
  0
ARC
  8
VOLLINIE
  5
C35F
 10
63.509627
 20
172.124161
 30
0.0
 40
1.0
 50
270.0
 51
90.0
  0
ARC
  8
VOLLINIE
  5
C360
 10
63.509627
 20
164.624161
 30
0.0
 40
0.5
 50
90.0
 51
180.0
  0
LINE
  8
VOLLINIE
  5
C363
 10
63.391682
 20
219.110051
 30
0.0
 11
65.509627
 21
219.624161
 31
0.0
  0
ARC
  8
VOLLINIE
  5
C366
 10
66.095414
 20
219.124161
 30
0.0
 40
0.5
 50
340.528779
 51
90.0
  0
ARC
  8
VOLLINIE
  5
C367
 10
67.509627
 20
187.124161
 30
0.0
 40
0.5
 50
270.0
 51
90.0
  0
LINE
  8
VOLLINIE
  5
C368
 10
63.009627
 20
155.624161
 30
0.0
 11
57.228865
 21
155.624161
 31
0.0
  0
ARC
  8
VOLLINIE
  5
C369
 10
80.009627
 20
187.124161
 30
0.0
 40
0.5
 50
270.0
 51
90.0
  0
ARC
  8
VOLLINIE
  5
C36A
 10
78.595414
 20
219.124161
 30
0.0
 40
0.5
 50
340.528779
 51
90.0
  0
LINE
  8
VOLLINIE
  5
C36B
 10
75.891682
 20
219.110051
 30
0.0
 11
78.009627
 21
219.624161
 31
0.0
  0
ARC
  8
VOLLINIE
  5
C36C
 10
76.009627
 20
164.624161
 30
0.0
 40
0.5
 50
90.0
 51
180.0
  0
ARC
  8
VOLLINIE
  5
C36D
 10
76.009627
 20
172.124161
 30
0.0
 40
1.0
 50
270.0
 51
90.0
  0
ARC
  8
VOLLINIE
  5
C36E
 10
76.009627
 20
173.624161
 30
0.0
 40
0.5
 50
90.0
 51
270.0
  0
ARC
  8
VOLLINIE
  5
C36F
 10
80.009627
 20
173.624161
 30
0.0
 40
1.0
 50
90.0
 51
270.0
  0
ARC
  8
VOLLINIE
  5
C370
 10
80.009627
 20
172.124161
 30
0.0
 40
0.5
 50
270.0
 51
90.0
  0
ARC
  8
VOLLINIE
  5
C371
 10
80.009627
 20
166.124161
 30
0.0
 40
0.5
 50
0.0
 51
90.0
  0
ARC
  8
VOLLINIE
  5
C372
 10
80.009627
 20
167.624161
 30
0.0
 40
1.0
 50
90.0
 51
270.0
  0
ARC
  8
VOLLINIE
  5
C373
 10
76.009627
 20
167.624161
 30
0.0
 40
0.5
 50
90.0
 51
270.0
  0
ARC
  8
VOLLINIE
  5
C374
 10
76.009627
 20
166.124161
 30
0.0
 40
1.0
 50
270.0
 51
90.0
  0
ARC
  8
VOLLINIE
  5
C375
 10
80.009627
 20
170.624161
 30
0.0
 40
1.0
 50
90.0
 51
270.0
  0
ARC
  8
VOLLINIE
  5
C376
 10
80.009627
 20
169.124161
 30
0.0
 40
0.5
 50
270.0
 51
90.0
  0
ARC
  8
VOLLINIE
  5
C377
 10
76.009627
 20
169.124161
 30
0.0
 40
1.0
 50
270.0
 51
90.0
  0
ARC
  8
VOLLINIE
  5
C378
 10
76.009627
 20
170.624161
 30
0.0
 40
0.5
 50
90.0
 51
270.0
  0
ARC
  8
VOLLINIE
  5
C379
 10
76.009627
 20
193.124161
 30
0.0
 40
1.0
 50
270.0
 51
90.0
  0
ARC
  8
VOLLINIE
  5
C37A
 10
76.009627
 20
194.624161
 30
0.0
 40
0.5
 50
90.0
 51
270.0
  0
ARC
  8
VOLLINIE
  5
C37B
 10
80.009627
 20
194.624161
 30
0.0
 40
1.0
 50
90.0
 51
270.0
  0
ARC
  8
VOLLINIE
  5
C37C
 10
80.009627
 20
193.124161
 30
0.0
 40
0.5
 50
270.0
 51
90.0
  0
ARC
  8
VOLLINIE
  5
C37D
 10
80.009627
 20
188.624161
 30
0.0
 40
1.0
 50
90.0
 51
270.0
  0
ARC
  8
VOLLINIE
  5
C37E
 10
76.009627
 20
188.624161
 30
0.0
 40
0.5
 50
90.0
 51
270.0
  0
ARC
  8
VOLLINIE
  5
C37F
 10
76.009627
 20
187.124161
 30
0.0
 40
1.0
 50
270.0
 51
90.0
  0
ARC
  8
VOLLINIE
  5
C380
 10
80.009627
 20
191.624161
 30
0.0
 40
1.0
 50
90.0
 51
270.0
  0
ARC
  8
VOLLINIE
  5
C381
 10
80.009627
 20
190.124161
 30
0.0
 40
0.5
 50
270.0
 51
90.0
  0
ARC
  8
VOLLINIE
  5
C382
 10
76.009627
 20
190.124161
 30
0.0
 40
1.0
 50
270.0
 51
90.0
  0
ARC
  8
VOLLINIE
  5
C383
 10
76.009627
 20
191.624161
 30
0.0
 40
0.5
 50
90.0
 51
270.0
  0
ARC
  8
VOLLINIE
  5
C384
 10
76.009627
 20
179.624161
 30
0.0
 40
0.5
 50
90.0
 51
270.0
  0
ARC
  8
VOLLINIE
  5
C385
 10
76.009627
 20
178.124161
 30
0.0
 40
1.0
 50
270.0
 51
90.0
  0
ARC
  8
VOLLINIE
  5
C386
 10
80.009627
 20
178.124161
 30
0.0
 40
0.5
 50
270.0
 51
90.0
  0
ARC
  8
VOLLINIE
  5
C387
 10
80.009627
 20
179.624161
 30
0.0
 40
1.0
 50
90.0
 51
270.0
  0
ARC
  8
VOLLINIE
  5
C388
 10
76.009627
 20
175.124161
 30
0.0
 40
1.0
 50
270.0
 51
90.0
  0
ARC
  8
VOLLINIE
  5
C389
 10
76.009627
 20
176.624161
 30
0.0
 40
0.5
 50
90.0
 51
270.0
  0
ARC
  8
VOLLINIE
  5
C38A
 10
80.009627
 20
176.624161
 30
0.0
 40
1.0
 50
90.0
 51
270.0
  0
ARC
  8
VOLLINIE
  5
C38B
 10
80.009627
 20
175.124161
 30
0.0
 40
0.5
 50
270.0
 51
90.0
  0
ARC
  8
VOLLINIE
  5
C38C
 10
80.009627
 20
181.124161
 30
0.0
 40
0.5
 50
270.0
 51
90.0
  0
ARC
  8
VOLLINIE
  5
C38D
 10
80.009627
 20
182.624161
 30
0.0
 40
1.0
 50
90.0
 51
270.0
  0
ARC
  8
VOLLINIE
  5
C38E
 10
76.009627
 20
182.624161
 30
0.0
 40
0.5
 50
90.0
 51
270.0
  0
ARC
  8
VOLLINIE
  5
C38F
 10
76.009627
 20
181.124161
 30
0.0
 40
1.0
 50
270.0
 51
90.0
  0
ARC
  8
VOLLINIE
  5
C390
 10
80.009627
 20
185.624161
 30
0.0
 40
1.0
 50
90.0
 51
270.0
  0
ARC
  8
VOLLINIE
  5
C391
 10
80.009627
 20
184.124161
 30
0.0
 40
0.5
 50
270.0
 51
90.0
  0
ARC
  8
VOLLINIE
  5
C392
 10
76.009627
 20
184.124161
 30
0.0
 40
1.0
 50
270.0
 51
90.0
  0
ARC
  8
VOLLINIE
  5
C393
 10
76.009627
 20
185.624161
 30
0.0
 40
0.5
 50
90.0
 51
270.0
  0
ARC
  8
VOLLINIE
  5
C394
 10
76.009627
 20
206.624161
 30
0.0
 40
0.5
 50
90.0
 51
270.0
  0
ARC
  8
VOLLINIE
  5
C395
 10
76.009627
 20
205.124161
 30
0.0
 40
1.0
 50
270.0
 51
90.0
  0
ARC
  8
VOLLINIE
  5
C396
 10
80.009627
 20
205.124161
 30
0.0
 40
0.5
 50
270.0
 51
90.0
  0
ARC
  8
VOLLINIE
  5
C397
 10
80.009627
 20
206.624161
 30
0.0
 40
1.0
 50
90.0
 51
270.0
  0
ARC
  8
VOLLINIE
  5
C398
 10
76.009627
 20
202.124161
 30
0.0
 40
1.0
 50
270.0
 51
90.0
  0
ARC
  8
VOLLINIE
  5
C399
 10
76.009627
 20
203.624161
 30
0.0
 40
0.5
 50
90.0
 51
270.0
  0
ARC
  8
VOLLINIE
  5
C39A
 10
80.009627
 20
203.624161
 30
0.0
 40
1.0
 50
90.0
 51
270.0
  0
ARC
  8
VOLLINIE
  5
C39B
 10
80.009627
 20
202.124161
 30
0.0
 40
0.5
 50
270.0
 51
90.0
  0
ARC
  8
VOLLINIE
  5
C39C
 10
80.009627
 20
196.124161
 30
0.0
 40
0.5
 50
270.0
 51
90.0
  0
ARC
  8
VOLLINIE
  5
C39D
 10
80.009627
 20
197.624161
 30
0.0
 40
1.0
 50
90.0
 51
270.0
  0
ARC
  8
VOLLINIE
  5
C39E
 10
76.009627
 20
197.624161
 30
0.0
 40
0.5
 50
90.0
 51
270.0
  0
ARC
  8
VOLLINIE
  5
C39F
 10
76.009627
 20
196.124161
 30
0.0
 40
1.0
 50
270.0
 51
90.0
  0
ARC
  8
VOLLINIE
  5
C3A0
 10
80.009627
 20
200.624161
 30
0.0
 40
1.0
 50
90.0
 51
270.0
  0
ARC
  8
VOLLINIE
  5
C3A1
 10
80.009627
 20
199.124161
 30
0.0
 40
0.5
 50
270.0
 51
90.0
  0
ARC
  8
VOLLINIE
  5
C3A2
 10
76.009627
 20
199.124161
 30
0.0
 40
1.0
 50
270.0
 51
90.0
  0
ARC
  8
VOLLINIE
  5
C3A3
 10
76.009627
 20
200.624161
 30
0.0
 40
0.5
 50
90.0
 51
270.0
  0
ARC
  8
VOLLINIE
  5
C3A4
 10
76.009627
 20
212.624161
 30
0.0
 40
0.5
 50
90.0
 51
270.0
  0
ARC
  8
VOLLINIE
  5
C3A5
 10
76.009627
 20
211.124161
 30
0.0
 40
1.0
 50
270.0
 51
90.0
  0
ARC
  8
VOLLINIE
  5
C3A6
 10
80.009627
 20
211.124161
 30
0.0
 40
0.5
 50
270.0
 51
90.0
  0
ARC
  8
VOLLINIE
  5
C3A7
 10
80.009627
 20
212.624161
 30
0.0
 40
1.0
 50
90.0
 51
270.0
  0
ARC
  8
VOLLINIE
  5
C3A8
 10
76.009627
 20
208.124161
 30
0.0
 40
1.0
 50
270.0
 51
90.0
  0
ARC
  8
VOLLINIE
  5
C3A9
 10
76.009627
 20
209.624161
 30
0.0
 40
0.5
 50
90.0
 51
270.0
  0
ARC
  8
VOLLINIE
  5
C3AA
 10
80.009627
 20
209.624161
 30
0.0
 40
1.0
 50
90.0
 51
270.0
  0
ARC
  8
VOLLINIE
  5
C3AB
 10
80.009627
 20
208.124161
 30
0.0
 40
0.5
 50
270.0
 51
90.0
  0
ARC
  8
VOLLINIE
  5
C3AC
 10
80.009627
 20
214.124161
 30
0.0
 40
0.5
 50
270.0
 51
90.0
  0
ARC
  8
VOLLINIE
  5
C3AD
 10
80.009627
 20
215.624161
 30
0.0
 40
1.0
 50
90.0
 51
270.0
  0
ARC
  8
VOLLINIE
  5
C3AE
 10
76.009627
 20
215.624161
 30
0.0
 40
0.5
 50
90.0
 51
270.0
  0
ARC
  8
VOLLINIE
  5
C3AF
 10
76.009627
 20
214.124161
 30
0.0
 40
1.0
 50
270.0
 51
90.0
  0
ARC
  8
VOLLINIE
  5
C3B0
 10
80.009627
 20
218.624161
 30
0.0
 40
1.0
 50
160.528779
 51
270.0
  0
ARC
  8
VOLLINIE
  5
C3B1
 10
80.009627
 20
217.124161
 30
0.0
 40
0.5
 50
270.0
 51
90.0
  0
ARC
  8
VOLLINIE
  5
C3B2
 10
76.009627
 20
217.124161
 30
0.0
 40
1.0
 50
270.0
 51
90.0
  0
ARC
  8
VOLLINIE
  5
C3B3
 10
76.009627
 20
218.624161
 30
0.0
 40
0.5
 50
103.644085
 51
270.0
  0
LINE
  8
VOLLINIE
  5
C3B4
 10
78.595414
 20
219.624161
 30
0.0
 11
78.009627
 21
219.624161
 31
0.0
  0
LINE
  8
VOLLINIE
  5
C3B5
 10
80.509627
 20
150.624161
 30
0.0
 11
80.509627
 21
166.124161
 31
0.0
  0
LINE
  8
VOLLINIE
  5
C3B6
 10
75.509627
 20
150.624161
 30
0.0
 11
75.509627
 21
164.624161
 31
0.0
  0
LINE
  8
VOLLINIE
  5
C3B7
 10
80.509627
 20
150.624161
 30
0.0
 11
75.509627
 21
150.624161
 31
0.0
  0
LINE
  8
MITTELLINIE
  5
C3B8
 10
78.009627
 20
149.124161
 30
0.0
 11
78.009627
 21
221.124161
 31
0.0
  0
LINE
  8
VOLLINIE
  5
C3BC
 10
75.509627
 20
155.624161
 30
0.0
 11
73.830695
 21
155.624161
 31
0.0
  0
LINE
  8
MITTELLINIE
  5
C408
 10
84.259627
 20
149.124161
 30
0.0
 11
84.259627
 21
157.124161
 31
0.0
  0
LINE
  8
VOLLINIE
  5
C409
 10
86.330695
 20
155.624161
 30
0.0
 11
88.009627
 21
155.624161
 31
0.0
  0
LINE
  8
VOLLINIE
  5
C40A
 10
82.188559
 20
155.624161
 30
0.0
 11
84.259627
 21
150.624161
 31
0.0
  0
LINE
  8
VOLLINIE
  5
C40B
 10
86.330695
 20
155.624161
 30
0.0
 11
84.259627
 21
150.624161
 31
0.0
  0
LINE
  8
VOLLINIE
  5
C411
 10
82.188559
 20
155.624161
 30
0.0
 11
80.509627
 21
155.624161
 31
0.0
  0
LINE
  8
VOLLINIE
  5
C412
 10
88.009627
 20
155.624161
 30
0.0
 11
86.330695
 21
155.624161
 31
0.0
  0
LINE
  8
VOLLINIE
  5
C4BA
 10
330.509627
 20
155.624161
 30
0.0
 11
336.290389
 21
155.624161
 31
0.0
  0
LINE
  8
VOLLINIE
  5
C50E
 10
337.289901
 20
156.592927
 30
0.0
 11
337.344654
 21
158.345023
 31
0.0
  0
ARC
  8
VOLLINIE
  5
C50F
 10
342.103621
 20
218.824161
 30
0.0
 40
0.8
 50
90.0
 51
202.619865
  0
ARC
  8
VOLLINIE
  5
C510
 10
338.144264
 20
158.320036
 30
0.0
 40
0.8
 50
94.835899
 51
178.210089
  0
ARC
  8
VOLLINIE
  5
C511
 10
337.925078
 20
160.91078
 30
0.0
 40
1.8
 50
274.835899
 51
80.24459
  0
ARC
  8
VOLLINIE
  5
C512
 10
338.37749
 20
163.542172
 30
0.0
 40
0.87
 50
96.175588
 51
260.24459
  0
ARC
  8
VOLLINIE
  5
C513
 10
338.090262
 20
166.196678
 30
0.0
 40
1.8
 50
276.175588
 51
81.58428
  0
ARC
  8
VOLLINIE
  5
C514
 10
338.470784
 20
168.768682
 30
0.0
 40
0.8
 50
94.835899
 51
261.58428
  0
ARC
  8
VOLLINIE
  5
C515
 10
338.251598
 20
171.359426
 30
0.0
 40
1.8
 50
274.835899
 51
81.58428
  0
ARC
  8
VOLLINIE
  5
C516
 10
338.63212
 20
173.93143
 30
0.0
 40
0.8
 50
94.835899
 51
261.58428
  0
ARC
  8
VOLLINIE
  5
C517
 10
338.412934
 20
176.522175
 30
0.0
 40
1.8
 50
274.835899
 51
81.58428
  0
ARC
  8
VOLLINIE
  5
C518
 10
338.793456
 20
179.094178
 30
0.0
 40
0.8
 50
94.835899
 51
261.58428
  0
ARC
  8
VOLLINIE
  5
C519
 10
338.57427
 20
181.684923
 30
0.0
 40
1.8
 50
274.835899
 51
81.58428
  0
ARC
  8
VOLLINIE
  5
C51A
 10
338.954792
 20
184.256927
 30
0.0
 40
0.8
 50
94.835899
 51
261.58428
  0
ARC
  8
VOLLINIE
  5
C51B
 10
338.735606
 20
186.847671
 30
0.0
 40
1.8
 50
274.835899
 51
81.58428
  0
ARC
  8
VOLLINIE
  5
C51C
 10
339.116127
 20
189.419675
 30
0.0
 40
0.8
 50
94.835899
 51
261.58428
  0
ARC
  8
VOLLINIE
  5
C51D
 10
338.896942
 20
192.01042
 30
0.0
 40
1.8
 50
274.835899
 51
81.58428
  0
ARC
  8
VOLLINIE
  5
C51E
 10
339.277463
 20
194.582423
 30
0.0
 40
0.8
 50
94.835899
 51
261.58428
  0
ARC
  8
VOLLINIE
  5
C51F
 10
339.058278
 20
197.173168
 30
0.0
 40
1.8
 50
274.835899
 51
81.58428
  0
ARC
  8
VOLLINIE
  5
C520
 10
339.438799
 20
199.745172
 30
0.0
 40
0.8
 50
94.835899
 51
261.58428
  0
ARC
  8
VOLLINIE
  5
C521
 10
339.219614
 20
202.335916
 30
0.0
 40
1.8
 50
274.835899
 51
81.58428
  0
ARC
  8
VOLLINIE
  5
C522
 10
339.600135
 20
204.90792
 30
0.0
 40
0.8
 50
94.835899
 51
261.58428
  0
ARC
  8
VOLLINIE
  5
C523
 10
339.703621
 20
217.824161
 30
0.0
 40
1.8
 50
274.835899
 51
22.619865
  0
ARC
  8
VOLLINIE
  5
C524
 10
339.380949
 20
207.498665
 30
0.0
 40
1.8
 50
274.835899
 51
81.58428
  0
ARC
  8
VOLLINIE
  5
C525
 10
339.761471
 20
210.070669
 30
0.0
 40
0.8
 50
94.835899
 51
261.58428
  0
ARC
  8
VOLLINIE
  5
C526
 10
339.542285
 20
212.661413
 30
0.0
 40
1.8
 50
274.835899
 51
81.58428
  0
ARC
  8
VOLLINIE
  5
C527
 10
339.922807
 20
215.233417
 30
0.0
 40
0.8
 50
94.835899
 51
261.58428
  0
ARC
  8
VOLLINIE
  5
C528
 10
336.290389
 20
156.624161
 30
0.0
 40
1.0
 50
270.0
 51
358.210089
  0
LINE
  8
VOLLINIE
  5
C52A
 10
342.103621
 20
219.624161
 30
0.0
 11
346.759627
 21
219.624161
 31
0.0
  0
LINE
  8
VOLLINIE
  5
C52B
 10
346.759627
 20
135.624161
 30
0.0
 11
346.759627
 21
219.624161
 31
0.0
  0
LINE
  8
VOLLINIE
  5
C539
 10
100.509627
 20
155.624161
 30
0.0
 11
98.830695
 21
155.624161
 31
0.0
  0
LINE
  8
VOLLINIE
  5
C53A
 10
94.688559
 20
155.624161
 30
0.0
 11
93.009627
 21
155.624161
 31
0.0
  0
LINE
  8
VOLLINIE
  5
C53B
 10
98.830695
 20
155.624161
 30
0.0
 11
96.759627
 21
150.624161
 31
0.0
  0
LINE
  8
VOLLINIE
  5
C53C
 10
94.688559
 20
155.624161
 30
0.0
 11
96.759627
 21
150.624161
 31
0.0
  0
LINE
  8
VOLLINIE
  5
C53D
 10
98.830695
 20
155.624161
 30
0.0
 11
100.509627
 21
155.624161
 31
0.0
  0
LINE
  8
MITTELLINIE
  5
C53E
 10
96.759627
 20
149.124161
 30
0.0
 11
96.759627
 21
157.124161
 31
0.0
  0
LINE
  8
MITTELLINIE
  5
C53F
 10
90.509627
 20
149.124161
 30
0.0
 11
90.509627
 21
221.124161
 31
0.0
  0
LINE
  8
VOLLINIE
  5
C540
 10
93.009627
 20
150.624161
 30
0.0
 11
88.009627
 21
150.624161
 31
0.0
  0
LINE
  8
VOLLINIE
  5
C541
 10
88.009627
 20
150.624161
 30
0.0
 11
88.009627
 21
164.624161
 31
0.0
  0
LINE
  8
VOLLINIE
  5
C542
 10
93.009627
 20
150.624161
 30
0.0
 11
93.009627
 21
166.124161
 31
0.0
  0
LINE
  8
VOLLINIE
  5
C543
 10
91.095414
 20
219.624161
 30
0.0
 11
90.509627
 21
219.624161
 31
0.0
  0
ARC
  8
VOLLINIE
  5
C544
 10
88.509627
 20
218.624161
 30
0.0
 40
0.5
 50
103.644085
 51
270.0
  0
ARC
  8
VOLLINIE
  5
C545
 10
88.509627
 20
217.124161
 30
0.0
 40
1.0
 50
270.0
 51
90.0
  0
ARC
  8
VOLLINIE
  5
C546
 10
92.509627
 20
217.124161
 30
0.0
 40
0.5
 50
270.0
 51
90.0
  0
ARC
  8
VOLLINIE
  5
C547
 10
92.509627
 20
218.624161
 30
0.0
 40
1.0
 50
160.528779
 51
270.0
  0
ARC
  8
VOLLINIE
  5
C548
 10
88.509627
 20
214.124161
 30
0.0
 40
1.0
 50
270.0
 51
90.0
  0
ARC
  8
VOLLINIE
  5
C549
 10
88.509627
 20
215.624161
 30
0.0
 40
0.5
 50
90.0
 51
270.0
  0
ARC
  8
VOLLINIE
  5
C54A
 10
92.509627
 20
215.624161
 30
0.0
 40
1.0
 50
90.0
 51
270.0
  0
ARC
  8
VOLLINIE
  5
C54B
 10
92.509627
 20
214.124161
 30
0.0
 40
0.5
 50
270.0
 51
90.0
  0
ARC
  8
VOLLINIE
  5
C54C
 10
92.509627
 20
208.124161
 30
0.0
 40
0.5
 50
270.0
 51
90.0
  0
ARC
  8
VOLLINIE
  5
C54D
 10
92.509627
 20
209.624161
 30
0.0
 40
1.0
 50
90.0
 51
270.0
  0
ARC
  8
VOLLINIE
  5
C54E
 10
88.509627
 20
209.624161
 30
0.0
 40
0.5
 50
90.0
 51
270.0
  0
ARC
  8
VOLLINIE
  5
C54F
 10
88.509627
 20
208.124161
 30
0.0
 40
1.0
 50
270.0
 51
90.0
  0
ARC
  8
VOLLINIE
  5
C550
 10
92.509627
 20
212.624161
 30
0.0
 40
1.0
 50
90.0
 51
270.0
  0
ARC
  8
VOLLINIE
  5
C551
 10
92.509627
 20
211.124161
 30
0.0
 40
0.5
 50
270.0
 51
90.0
  0
ARC
  8
VOLLINIE
  5
C552
 10
88.509627
 20
211.124161
 30
0.0
 40
1.0
 50
270.0
 51
90.0
  0
ARC
  8
VOLLINIE
  5
C553
 10
88.509627
 20
212.624161
 30
0.0
 40
0.5
 50
90.0
 51
270.0
  0
ARC
  8
VOLLINIE
  5
C554
 10
88.509627
 20
200.624161
 30
0.0
 40
0.5
 50
90.0
 51
270.0
  0
ARC
  8
VOLLINIE
  5
C555
 10
88.509627
 20
199.124161
 30
0.0
 40
1.0
 50
270.0
 51
90.0
  0
ARC
  8
VOLLINIE
  5
C556
 10
92.509627
 20
199.124161
 30
0.0
 40
0.5
 50
270.0
 51
90.0
  0
ARC
  8
VOLLINIE
  5
C557
 10
92.509627
 20
200.624161
 30
0.0
 40
1.0
 50
90.0
 51
270.0
  0
ARC
  8
VOLLINIE
  5
C558
 10
88.509627
 20
196.124161
 30
0.0
 40
1.0
 50
270.0
 51
90.0
  0
ARC
  8
VOLLINIE
  5
C559
 10
88.509627
 20
197.624161
 30
0.0
 40
0.5
 50
90.0
 51
270.0
  0
ARC
  8
VOLLINIE
  5
C55A
 10
92.509627
 20
197.624161
 30
0.0
 40
1.0
 50
90.0
 51
270.0
  0
ARC
  8
VOLLINIE
  5
C55B
 10
92.509627
 20
196.124161
 30
0.0
 40
0.5
 50
270.0
 51
90.0
  0
ARC
  8
VOLLINIE
  5
C55C
 10
92.509627
 20
202.124161
 30
0.0
 40
0.5
 50
270.0
 51
90.0
  0
ARC
  8
VOLLINIE
  5
C55D
 10
92.509627
 20
203.624161
 30
0.0
 40
1.0
 50
90.0
 51
270.0
  0
ARC
  8
VOLLINIE
  5
C55E
 10
88.509627
 20
203.624161
 30
0.0
 40
0.5
 50
90.0
 51
270.0
  0
ARC
  8
VOLLINIE
  5
C55F
 10
88.509627
 20
202.124161
 30
0.0
 40
1.0
 50
270.0
 51
90.0
  0
ARC
  8
VOLLINIE
  5
C560
 10
92.509627
 20
206.624161
 30
0.0
 40
1.0
 50
90.0
 51
270.0
  0
ARC
  8
VOLLINIE
  5
C561
 10
92.509627
 20
205.124161
 30
0.0
 40
0.5
 50
270.0
 51
90.0
  0
ARC
  8
VOLLINIE
  5
C562
 10
88.509627
 20
205.124161
 30
0.0
 40
1.0
 50
270.0
 51
90.0
  0
ARC
  8
VOLLINIE
  5
C563
 10
88.509627
 20
206.624161
 30
0.0
 40
0.5
 50
90.0
 51
270.0
  0
ARC
  8
VOLLINIE
  5
C564
 10
88.509627
 20
185.624161
 30
0.0
 40
0.5
 50
90.0
 51
270.0
  0
ARC
  8
VOLLINIE
  5
C565
 10
88.509627
 20
184.124161
 30
0.0
 40
1.0
 50
270.0
 51
90.0
  0
ARC
  8
VOLLINIE
  5
C566
 10
92.509627
 20
184.124161
 30
0.0
 40
0.5
 50
270.0
 51
90.0
  0
ARC
  8
VOLLINIE
  5
C567
 10
92.509627
 20
185.624161
 30
0.0
 40
1.0
 50
90.0
 51
270.0
  0
ARC
  8
VOLLINIE
  5
C568
 10
88.509627
 20
181.124161
 30
0.0
 40
1.0
 50
270.0
 51
90.0
  0
ARC
  8
VOLLINIE
  5
C569
 10
88.509627
 20
182.624161
 30
0.0
 40
0.5
 50
90.0
 51
270.0
  0
ARC
  8
VOLLINIE
  5
C56A
 10
92.509627
 20
182.624161
 30
0.0
 40
1.0
 50
90.0
 51
270.0
  0
ARC
  8
VOLLINIE
  5
C56B
 10
92.509627
 20
181.124161
 30
0.0
 40
0.5
 50
270.0
 51
90.0
  0
ARC
  8
VOLLINIE
  5
C56C
 10
92.509627
 20
175.124161
 30
0.0
 40
0.5
 50
270.0
 51
90.0
  0
ARC
  8
VOLLINIE
  5
C56D
 10
92.509627
 20
176.624161
 30
0.0
 40
1.0
 50
90.0
 51
270.0
  0
ARC
  8
VOLLINIE
  5
C56E
 10
88.509627
 20
176.624161
 30
0.0
 40
0.5
 50
90.0
 51
270.0
  0
ARC
  8
VOLLINIE
  5
C56F
 10
88.509627
 20
175.124161
 30
0.0
 40
1.0
 50
270.0
 51
90.0
  0
ARC
  8
VOLLINIE
  5
C570
 10
92.509627
 20
179.624161
 30
0.0
 40
1.0
 50
90.0
 51
270.0
  0
ARC
  8
VOLLINIE
  5
C571
 10
92.509627
 20
178.124161
 30
0.0
 40
0.5
 50
270.0
 51
90.0
  0
ARC
  8
VOLLINIE
  5
C572
 10
88.509627
 20
178.124161
 30
0.0
 40
1.0
 50
270.0
 51
90.0
  0
ARC
  8
VOLLINIE
  5
C573
 10
88.509627
 20
179.624161
 30
0.0
 40
0.5
 50
90.0
 51
270.0
  0
ARC
  8
VOLLINIE
  5
C574
 10
88.509627
 20
191.624161
 30
0.0
 40
0.5
 50
90.0
 51
270.0
  0
ARC
  8
VOLLINIE
  5
C575
 10
88.509627
 20
190.124161
 30
0.0
 40
1.0
 50
270.0
 51
90.0
  0
ARC
  8
VOLLINIE
  5
C576
 10
92.509627
 20
190.124161
 30
0.0
 40
0.5
 50
270.0
 51
90.0
  0
ARC
  8
VOLLINIE
  5
C577
 10
92.509627
 20
191.624161
 30
0.0
 40
1.0
 50
90.0
 51
270.0
  0
ARC
  8
VOLLINIE
  5
C578
 10
88.509627
 20
187.124161
 30
0.0
 40
1.0
 50
270.0
 51
90.0
  0
ARC
  8
VOLLINIE
  5
C579
 10
88.509627
 20
188.624161
 30
0.0
 40
0.5
 50
90.0
 51
270.0
  0
ARC
  8
VOLLINIE
  5
C57A
 10
92.509627
 20
188.624161
 30
0.0
 40
1.0
 50
90.0
 51
270.0
  0
ARC
  8
VOLLINIE
  5
C57B
 10
92.509627
 20
193.124161
 30
0.0
 40
0.5
 50
270.0
 51
90.0
  0
ARC
  8
VOLLINIE
  5
C57C
 10
92.509627
 20
194.624161
 30
0.0
 40
1.0
 50
90.0
 51
270.0
  0
ARC
  8
VOLLINIE
  5
C57D
 10
88.509627
 20
194.624161
 30
0.0
 40
0.5
 50
90.0
 51
270.0
  0
ARC
  8
VOLLINIE
  5
C57E
 10
88.509627
 20
193.124161
 30
0.0
 40
1.0
 50
270.0
 51
90.0
  0
ARC
  8
VOLLINIE
  5
C57F
 10
88.509627
 20
170.624161
 30
0.0
 40
0.5
 50
90.0
 51
270.0
  0
ARC
  8
VOLLINIE
  5
C580
 10
88.509627
 20
169.124161
 30
0.0
 40
1.0
 50
270.0
 51
90.0
  0
ARC
  8
VOLLINIE
  5
C581
 10
92.509627
 20
169.124161
 30
0.0
 40
0.5
 50
270.0
 51
90.0
  0
ARC
  8
VOLLINIE
  5
C582
 10
92.509627
 20
170.624161
 30
0.0
 40
1.0
 50
90.0
 51
270.0
  0
ARC
  8
VOLLINIE
  5
C583
 10
88.509627
 20
166.124161
 30
0.0
 40
1.0
 50
270.0
 51
90.0
  0
ARC
  8
VOLLINIE
  5
C584
 10
88.509627
 20
167.624161
 30
0.0
 40
0.5
 50
90.0
 51
270.0
  0
ARC
  8
VOLLINIE
  5
C585
 10
92.509627
 20
167.624161
 30
0.0
 40
1.0
 50
90.0
 51
270.0
  0
ARC
  8
VOLLINIE
  5
C586
 10
92.509627
 20
166.124161
 30
0.0
 40
0.5
 50
0.0
 51
90.0
  0
ARC
  8
VOLLINIE
  5
C587
 10
92.509627
 20
172.124161
 30
0.0
 40
0.5
 50
270.0
 51
90.0
  0
ARC
  8
VOLLINIE
  5
C588
 10
92.509627
 20
173.624161
 30
0.0
 40
1.0
 50
90.0
 51
270.0
  0
ARC
  8
VOLLINIE
  5
C589
 10
88.509627
 20
173.624161
 30
0.0
 40
0.5
 50
90.0
 51
270.0
  0
ARC
  8
VOLLINIE
  5
C58A
 10
88.509627
 20
172.124161
 30
0.0
 40
1.0
 50
270.0
 51
90.0
  0
ARC
  8
VOLLINIE
  5
C58B
 10
88.509627
 20
164.624161
 30
0.0
 40
0.5
 50
90.0
 51
180.0
  0
LINE
  8
VOLLINIE
  5
C58C
 10
88.391682
 20
219.110051
 30
0.0
 11
90.509627
 21
219.624161
 31
0.0
  0
ARC
  8
VOLLINIE
  5
C58D
 10
91.095414
 20
219.124161
 30
0.0
 40
0.5
 50
340.528779
 51
90.0
  0
ARC
  8
VOLLINIE
  5
C58E
 10
92.509627
 20
187.124161
 30
0.0
 40
0.5
 50
270.0
 51
90.0
  0
LINE
  8
VOLLINIE
  5
C58F
 10
113.009627
 20
155.624161
 30
0.0
 11
111.330695
 21
155.624161
 31
0.0
  0
LINE
  8
VOLLINIE
  5
C590
 10
107.188559
 20
155.624161
 30
0.0
 11
105.509627
 21
155.624161
 31
0.0
  0
LINE
  8
VOLLINIE
  5
C591
 10
111.330695
 20
155.624161
 30
0.0
 11
109.259627
 21
150.624161
 31
0.0
  0
LINE
  8
VOLLINIE
  5
C592
 10
107.188559
 20
155.624161
 30
0.0
 11
109.259627
 21
150.624161
 31
0.0
  0
LINE
  8
VOLLINIE
  5
C593
 10
111.330695
 20
155.624161
 30
0.0
 11
113.009627
 21
155.624161
 31
0.0
  0
LINE
  8
MITTELLINIE
  5
C594
 10
109.259627
 20
149.124161
 30
0.0
 11
109.259627
 21
157.124161
 31
0.0
  0
LINE
  8
MITTELLINIE
  5
C595
 10
103.009627
 20
149.124161
 30
0.0
 11
103.009627
 21
221.124161
 31
0.0
  0
LINE
  8
VOLLINIE
  5
C596
 10
105.509627
 20
150.624161
 30
0.0
 11
100.509627
 21
150.624161
 31
0.0
  0
LINE
  8
VOLLINIE
  5
C597
 10
100.509627
 20
150.624161
 30
0.0
 11
100.509627
 21
164.624161
 31
0.0
  0
LINE
  8
VOLLINIE
  5
C598
 10
105.509627
 20
150.624161
 30
0.0
 11
105.509627
 21
166.124161
 31
0.0
  0
LINE
  8
VOLLINIE
  5
C599
 10
103.595414
 20
219.624161
 30
0.0
 11
103.009627
 21
219.624161
 31
0.0
  0
ARC
  8
VOLLINIE
  5
C59A
 10
101.009627
 20
218.624161
 30
0.0
 40
0.5
 50
103.644085
 51
270.0
  0
ARC
  8
VOLLINIE
  5
C59B
 10
101.009627
 20
217.124161
 30
0.0
 40
1.0
 50
270.0
 51
90.0
  0
ARC
  8
VOLLINIE
  5
C59C
 10
105.009627
 20
217.124161
 30
0.0
 40
0.5
 50
270.0
 51
90.0
  0
ARC
  8
VOLLINIE
  5
C59D
 10
105.009627
 20
218.624161
 30
0.0
 40
1.0
 50
160.528779
 51
270.0
  0
ARC
  8
VOLLINIE
  5
C59E
 10
101.009627
 20
214.124161
 30
0.0
 40
1.0
 50
270.0
 51
90.0
  0
ARC
  8
VOLLINIE
  5
C59F
 10
101.009627
 20
215.624161
 30
0.0
 40
0.5
 50
90.0
 51
270.0
  0
ARC
  8
VOLLINIE
  5
C5A0
 10
105.009627
 20
215.624161
 30
0.0
 40
1.0
 50
90.0
 51
270.0
  0
ARC
  8
VOLLINIE
  5
C5A1
 10
105.009627
 20
214.124161
 30
0.0
 40
0.5
 50
270.0
 51
90.0
  0
ARC
  8
VOLLINIE
  5
C5A2
 10
105.009627
 20
208.124161
 30
0.0
 40
0.5
 50
270.0
 51
90.0
  0
ARC
  8
VOLLINIE
  5
C5A3
 10
105.009627
 20
209.624161
 30
0.0
 40
1.0
 50
90.0
 51
270.0
  0
ARC
  8
VOLLINIE
  5
C5A4
 10
101.009627
 20
209.624161
 30
0.0
 40
0.5
 50
90.0
 51
270.0
  0
ARC
  8
VOLLINIE
  5
C5A5
 10
101.009627
 20
208.124161
 30
0.0
 40
1.0
 50
270.0
 51
90.0
  0
ARC
  8
VOLLINIE
  5
C5A6
 10
105.009627
 20
212.624161
 30
0.0
 40
1.0
 50
90.0
 51
270.0
  0
ARC
  8
VOLLINIE
  5
C5A7
 10
105.009627
 20
211.124161
 30
0.0
 40
0.5
 50
270.0
 51
90.0
  0
ARC
  8
VOLLINIE
  5
C5A8
 10
101.009627
 20
211.124161
 30
0.0
 40
1.0
 50
270.0
 51
90.0
  0
ARC
  8
VOLLINIE
  5
C5A9
 10
101.009627
 20
212.624161
 30
0.0
 40
0.5
 50
90.0
 51
270.0
  0
ARC
  8
VOLLINIE
  5
C5AA
 10
101.009627
 20
200.624161
 30
0.0
 40
0.5
 50
90.0
 51
270.0
  0
ARC
  8
VOLLINIE
  5
C5AB
 10
101.009627
 20
199.124161
 30
0.0
 40
1.0
 50
270.0
 51
90.0
  0
ARC
  8
VOLLINIE
  5
C5AC
 10
105.009627
 20
199.124161
 30
0.0
 40
0.5
 50
270.0
 51
90.0
  0
ARC
  8
VOLLINIE
  5
C5AD
 10
105.009627
 20
200.624161
 30
0.0
 40
1.0
 50
90.0
 51
270.0
  0
ARC
  8
VOLLINIE
  5
C5AE
 10
101.009627
 20
196.124161
 30
0.0
 40
1.0
 50
270.0
 51
90.0
  0
ARC
  8
VOLLINIE
  5
C5AF
 10
101.009627
 20
197.624161
 30
0.0
 40
0.5
 50
90.0
 51
270.0
  0
ARC
  8
VOLLINIE
  5
C5B0
 10
105.009627
 20
197.624161
 30
0.0
 40
1.0
 50
90.0
 51
270.0
  0
ARC
  8
VOLLINIE
  5
C5B1
 10
105.009627
 20
196.124161
 30
0.0
 40
0.5
 50
270.0
 51
90.0
  0
ARC
  8
VOLLINIE
  5
C5B2
 10
105.009627
 20
202.124161
 30
0.0
 40
0.5
 50
270.0
 51
90.0
  0
ARC
  8
VOLLINIE
  5
C5B3
 10
105.009627
 20
203.624161
 30
0.0
 40
1.0
 50
90.0
 51
270.0
  0
ARC
  8
VOLLINIE
  5
C5B4
 10
101.009627
 20
203.624161
 30
0.0
 40
0.5
 50
90.0
 51
270.0
  0
ARC
  8
VOLLINIE
  5
C5B5
 10
101.009627
 20
202.124161
 30
0.0
 40
1.0
 50
270.0
 51
90.0
  0
ARC
  8
VOLLINIE
  5
C5B6
 10
105.009627
 20
206.624161
 30
0.0
 40
1.0
 50
90.0
 51
270.0
  0
ARC
  8
VOLLINIE
  5
C5B7
 10
105.009627
 20
205.124161
 30
0.0
 40
0.5
 50
270.0
 51
90.0
  0
ARC
  8
VOLLINIE
  5
C5B8
 10
101.009627
 20
205.124161
 30
0.0
 40
1.0
 50
270.0
 51
90.0
  0
ARC
  8
VOLLINIE
  5
C5B9
 10
101.009627
 20
206.624161
 30
0.0
 40
0.5
 50
90.0
 51
270.0
  0
ARC
  8
VOLLINIE
  5
C5BA
 10
101.009627
 20
185.624161
 30
0.0
 40
0.5
 50
90.0
 51
270.0
  0
ARC
  8
VOLLINIE
  5
C5BB
 10
101.009627
 20
184.124161
 30
0.0
 40
1.0
 50
270.0
 51
90.0
  0
ARC
  8
VOLLINIE
  5
C5BC
 10
105.009627
 20
184.124161
 30
0.0
 40
0.5
 50
270.0
 51
90.0
  0
ARC
  8
VOLLINIE
  5
C5BD
 10
105.009627
 20
185.624161
 30
0.0
 40
1.0
 50
90.0
 51
270.0
  0
ARC
  8
VOLLINIE
  5
C5BE
 10
101.009627
 20
181.124161
 30
0.0
 40
1.0
 50
270.0
 51
90.0
  0
ARC
  8
VOLLINIE
  5
C5BF
 10
101.009627
 20
182.624161
 30
0.0
 40
0.5
 50
90.0
 51
270.0
  0
ARC
  8
VOLLINIE
  5
C5C0
 10
105.009627
 20
182.624161
 30
0.0
 40
1.0
 50
90.0
 51
270.0
  0
ARC
  8
VOLLINIE
  5
C5C1
 10
105.009627
 20
181.124161
 30
0.0
 40
0.5
 50
270.0
 51
90.0
  0
ARC
  8
VOLLINIE
  5
C5C2
 10
105.009627
 20
175.124161
 30
0.0
 40
0.5
 50
270.0
 51
90.0
  0
ARC
  8
VOLLINIE
  5
C5C3
 10
105.009627
 20
176.624161
 30
0.0
 40
1.0
 50
90.0
 51
270.0
  0
ARC
  8
VOLLINIE
  5
C5C4
 10
101.009627
 20
176.624161
 30
0.0
 40
0.5
 50
90.0
 51
270.0
  0
ARC
  8
VOLLINIE
  5
C5C5
 10
101.009627
 20
175.124161
 30
0.0
 40
1.0
 50
270.0
 51
90.0
  0
ARC
  8
VOLLINIE
  5
C5C6
 10
105.009627
 20
179.624161
 30
0.0
 40
1.0
 50
90.0
 51
270.0
  0
ARC
  8
VOLLINIE
  5
C5C7
 10
105.009627
 20
178.124161
 30
0.0
 40
0.5
 50
270.0
 51
90.0
  0
ARC
  8
VOLLINIE
  5
C5C8
 10
101.009627
 20
178.124161
 30
0.0
 40
1.0
 50
270.0
 51
90.0
  0
ARC
  8
VOLLINIE
  5
C5C9
 10
101.009627
 20
179.624161
 30
0.0
 40
0.5
 50
90.0
 51
270.0
  0
ARC
  8
VOLLINIE
  5
C5CA
 10
101.009627
 20
191.624161
 30
0.0
 40
0.5
 50
90.0
 51
270.0
  0
ARC
  8
VOLLINIE
  5
C5CB
 10
101.009627
 20
190.124161
 30
0.0
 40
1.0
 50
270.0
 51
90.0
  0
ARC
  8
VOLLINIE
  5
C5CC
 10
105.009627
 20
190.124161
 30
0.0
 40
0.5
 50
270.0
 51
90.0
  0
ARC
  8
VOLLINIE
  5
C5CD
 10
105.009627
 20
191.624161
 30
0.0
 40
1.0
 50
90.0
 51
270.0
  0
ARC
  8
VOLLINIE
  5
C5CE
 10
101.009627
 20
187.124161
 30
0.0
 40
1.0
 50
270.0
 51
90.0
  0
ARC
  8
VOLLINIE
  5
C5CF
 10
101.009627
 20
188.624161
 30
0.0
 40
0.5
 50
90.0
 51
270.0
  0
ARC
  8
VOLLINIE
  5
C5D0
 10
105.009627
 20
188.624161
 30
0.0
 40
1.0
 50
90.0
 51
270.0
  0
ARC
  8
VOLLINIE
  5
C5D1
 10
105.009627
 20
193.124161
 30
0.0
 40
0.5
 50
270.0
 51
90.0
  0
ARC
  8
VOLLINIE
  5
C5D2
 10
105.009627
 20
194.624161
 30
0.0
 40
1.0
 50
90.0
 51
270.0
  0
ARC
  8
VOLLINIE
  5
C5D3
 10
101.009627
 20
194.624161
 30
0.0
 40
0.5
 50
90.0
 51
270.0
  0
ARC
  8
VOLLINIE
  5
C5D4
 10
101.009627
 20
193.124161
 30
0.0
 40
1.0
 50
270.0
 51
90.0
  0
ARC
  8
VOLLINIE
  5
C5D5
 10
101.009627
 20
170.624161
 30
0.0
 40
0.5
 50
90.0
 51
270.0
  0
ARC
  8
VOLLINIE
  5
C5D6
 10
101.009627
 20
169.124161
 30
0.0
 40
1.0
 50
270.0
 51
90.0
  0
ARC
  8
VOLLINIE
  5
C5D7
 10
105.009627
 20
169.124161
 30
0.0
 40
0.5
 50
270.0
 51
90.0
  0
ARC
  8
VOLLINIE
  5
C5D8
 10
105.009627
 20
170.624161
 30
0.0
 40
1.0
 50
90.0
 51
270.0
  0
ARC
  8
VOLLINIE
  5
C5D9
 10
101.009627
 20
166.124161
 30
0.0
 40
1.0
 50
270.0
 51
90.0
  0
ARC
  8
VOLLINIE
  5
C5DA
 10
101.009627
 20
167.624161
 30
0.0
 40
0.5
 50
90.0
 51
270.0
  0
ARC
  8
VOLLINIE
  5
C5DB
 10
105.009627
 20
167.624161
 30
0.0
 40
1.0
 50
90.0
 51
270.0
  0
ARC
  8
VOLLINIE
  5
C5DC
 10
105.009627
 20
166.124161
 30
0.0
 40
0.5
 50
0.0
 51
90.0
  0
ARC
  8
VOLLINIE
  5
C5DD
 10
105.009627
 20
172.124161
 30
0.0
 40
0.5
 50
270.0
 51
90.0
  0
ARC
  8
VOLLINIE
  5
C5DE
 10
105.009627
 20
173.624161
 30
0.0
 40
1.0
 50
90.0
 51
270.0
  0
ARC
  8
VOLLINIE
  5
C5DF
 10
101.009627
 20
173.624161
 30
0.0
 40
0.5
 50
90.0
 51
270.0
  0
ARC
  8
VOLLINIE
  5
C5E0
 10
101.009627
 20
172.124161
 30
0.0
 40
1.0
 50
270.0
 51
90.0
  0
ARC
  8
VOLLINIE
  5
C5E1
 10
101.009627
 20
164.624161
 30
0.0
 40
0.5
 50
90.0
 51
180.0
  0
LINE
  8
VOLLINIE
  5
C5E2
 10
100.891682
 20
219.110051
 30
0.0
 11
103.009627
 21
219.624161
 31
0.0
  0
ARC
  8
VOLLINIE
  5
C5E3
 10
103.595414
 20
219.124161
 30
0.0
 40
0.5
 50
340.528779
 51
90.0
  0
ARC
  8
VOLLINIE
  5
C5E4
 10
105.009627
 20
187.124161
 30
0.0
 40
0.5
 50
270.0
 51
90.0
  0
LINE
  8
VOLLINIE
  5
C5E5
 10
125.509627
 20
155.624161
 30
0.0
 11
123.830695
 21
155.624161
 31
0.0
  0
LINE
  8
VOLLINIE
  5
C5E6
 10
119.688559
 20
155.624161
 30
0.0
 11
118.009627
 21
155.624161
 31
0.0
  0
LINE
  8
VOLLINIE
  5
C5E7
 10
123.830695
 20
155.624161
 30
0.0
 11
121.759627
 21
150.624161
 31
0.0
  0
LINE
  8
VOLLINIE
  5
C5E8
 10
119.688559
 20
155.624161
 30
0.0
 11
121.759627
 21
150.624161
 31
0.0
  0
LINE
  8
VOLLINIE
  5
C5E9
 10
123.830695
 20
155.624161
 30
0.0
 11
125.509627
 21
155.624161
 31
0.0
  0
LINE
  8
MITTELLINIE
  5
C5EA
 10
121.759627
 20
149.124161
 30
0.0
 11
121.759627
 21
157.124161
 31
0.0
  0
LINE
  8
MITTELLINIE
  5
C5EB
 10
115.509627
 20
149.124161
 30
0.0
 11
115.509627
 21
221.124161
 31
0.0
  0
LINE
  8
VOLLINIE
  5
C5EC
 10
118.009627
 20
150.624161
 30
0.0
 11
113.009627
 21
150.624161
 31
0.0
  0
LINE
  8
VOLLINIE
  5
C5ED
 10
113.009627
 20
150.624161
 30
0.0
 11
113.009627
 21
164.624161
 31
0.0
  0
LINE
  8
VOLLINIE
  5
C5EE
 10
118.009627
 20
150.624161
 30
0.0
 11
118.009627
 21
166.124161
 31
0.0
  0
LINE
  8
VOLLINIE
  5
C5EF
 10
116.095414
 20
219.624161
 30
0.0
 11
115.509627
 21
219.624161
 31
0.0
  0
ARC
  8
VOLLINIE
  5
C5F0
 10
113.509627
 20
218.624161
 30
0.0
 40
0.5
 50
103.644085
 51
270.0
  0
ARC
  8
VOLLINIE
  5
C5F1
 10
113.509627
 20
217.124161
 30
0.0
 40
1.0
 50
270.0
 51
90.0
  0
ARC
  8
VOLLINIE
  5
C5F2
 10
117.509627
 20
217.124161
 30
0.0
 40
0.5
 50
270.0
 51
90.0
  0
ARC
  8
VOLLINIE
  5
C5F3
 10
117.509627
 20
218.624161
 30
0.0
 40
1.0
 50
160.528779
 51
270.0
  0
ARC
  8
VOLLINIE
  5
C5F4
 10
113.509627
 20
214.124161
 30
0.0
 40
1.0
 50
270.0
 51
90.0
  0
ARC
  8
VOLLINIE
  5
C5F5
 10
113.509627
 20
215.624161
 30
0.0
 40
0.5
 50
90.0
 51
270.0
  0
ARC
  8
VOLLINIE
  5
C5F6
 10
117.509627
 20
215.624161
 30
0.0
 40
1.0
 50
90.0
 51
270.0
  0
ARC
  8
VOLLINIE
  5
C5F7
 10
117.509627
 20
214.124161
 30
0.0
 40
0.5
 50
270.0
 51
90.0
  0
ARC
  8
VOLLINIE
  5
C5F8
 10
117.509627
 20
208.124161
 30
0.0
 40
0.5
 50
270.0
 51
90.0
  0
ARC
  8
VOLLINIE
  5
C5F9
 10
117.509627
 20
209.624161
 30
0.0
 40
1.0
 50
90.0
 51
270.0
  0
ARC
  8
VOLLINIE
  5
C5FA
 10
113.509627
 20
209.624161
 30
0.0
 40
0.5
 50
90.0
 51
270.0
  0
ARC
  8
VOLLINIE
  5
C5FB
 10
113.509627
 20
208.124161
 30
0.0
 40
1.0
 50
270.0
 51
90.0
  0
ARC
  8
VOLLINIE
  5
C5FC
 10
117.509627
 20
212.624161
 30
0.0
 40
1.0
 50
90.0
 51
270.0
  0
ARC
  8
VOLLINIE
  5
C5FD
 10
117.509627
 20
211.124161
 30
0.0
 40
0.5
 50
270.0
 51
90.0
  0
ARC
  8
VOLLINIE
  5
C5FE
 10
113.509627
 20
211.124161
 30
0.0
 40
1.0
 50
270.0
 51
90.0
  0
ARC
  8
VOLLINIE
  5
C5FF
 10
113.509627
 20
212.624161
 30
0.0
 40
0.5
 50
90.0
 51
270.0
  0
ARC
  8
VOLLINIE
  5
C600
 10
113.509627
 20
200.624161
 30
0.0
 40
0.5
 50
90.0
 51
270.0
  0
ARC
  8
VOLLINIE
  5
C601
 10
113.509627
 20
199.124161
 30
0.0
 40
1.0
 50
270.0
 51
90.0
  0
ARC
  8
VOLLINIE
  5
C602
 10
117.509627
 20
199.124161
 30
0.0
 40
0.5
 50
270.0
 51
90.0
  0
ARC
  8
VOLLINIE
  5
C603
 10
117.509627
 20
200.624161
 30
0.0
 40
1.0
 50
90.0
 51
270.0
  0
ARC
  8
VOLLINIE
  5
C604
 10
113.509627
 20
196.124161
 30
0.0
 40
1.0
 50
270.0
 51
90.0
  0
ARC
  8
VOLLINIE
  5
C605
 10
113.509627
 20
197.624161
 30
0.0
 40
0.5
 50
90.0
 51
270.0
  0
ARC
  8
VOLLINIE
  5
C606
 10
117.509627
 20
197.624161
 30
0.0
 40
1.0
 50
90.0
 51
270.0
  0
ARC
  8
VOLLINIE
  5
C607
 10
117.509627
 20
196.124161
 30
0.0
 40
0.5
 50
270.0
 51
90.0
  0
ARC
  8
VOLLINIE
  5
C608
 10
117.509627
 20
202.124161
 30
0.0
 40
0.5
 50
270.0
 51
90.0
  0
ARC
  8
VOLLINIE
  5
C609
 10
117.509627
 20
203.624161
 30
0.0
 40
1.0
 50
90.0
 51
270.0
  0
ARC
  8
VOLLINIE
  5
C60A
 10
113.509627
 20
203.624161
 30
0.0
 40
0.5
 50
90.0
 51
270.0
  0
ARC
  8
VOLLINIE
  5
C60B
 10
113.509627
 20
202.124161
 30
0.0
 40
1.0
 50
270.0
 51
90.0
  0
ARC
  8
VOLLINIE
  5
C60C
 10
117.509627
 20
206.624161
 30
0.0
 40
1.0
 50
90.0
 51
270.0
  0
ARC
  8
VOLLINIE
  5
C60D
 10
117.509627
 20
205.124161
 30
0.0
 40
0.5
 50
270.0
 51
90.0
  0
ARC
  8
VOLLINIE
  5
C60E
 10
113.509627
 20
205.124161
 30
0.0
 40
1.0
 50
270.0
 51
90.0
  0
ARC
  8
VOLLINIE
  5
C60F
 10
113.509627
 20
206.624161
 30
0.0
 40
0.5
 50
90.0
 51
270.0
  0
ARC
  8
VOLLINIE
  5
C610
 10
113.509627
 20
185.624161
 30
0.0
 40
0.5
 50
90.0
 51
270.0
  0
ARC
  8
VOLLINIE
  5
C611
 10
113.509627
 20
184.124161
 30
0.0
 40
1.0
 50
270.0
 51
90.0
  0
ARC
  8
VOLLINIE
  5
C612
 10
117.509627
 20
184.124161
 30
0.0
 40
0.5
 50
270.0
 51
90.0
  0
ARC
  8
VOLLINIE
  5
C613
 10
117.509627
 20
185.624161
 30
0.0
 40
1.0
 50
90.0
 51
270.0
  0
ARC
  8
VOLLINIE
  5
C614
 10
113.509627
 20
181.124161
 30
0.0
 40
1.0
 50
270.0
 51
90.0
  0
ARC
  8
VOLLINIE
  5
C615
 10
113.509627
 20
182.624161
 30
0.0
 40
0.5
 50
90.0
 51
270.0
  0
ARC
  8
VOLLINIE
  5
C616
 10
117.509627
 20
182.624161
 30
0.0
 40
1.0
 50
90.0
 51
270.0
  0
ARC
  8
VOLLINIE
  5
C617
 10
117.509627
 20
181.124161
 30
0.0
 40
0.5
 50
270.0
 51
90.0
  0
ARC
  8
VOLLINIE
  5
C618
 10
117.509627
 20
175.124161
 30
0.0
 40
0.5
 50
270.0
 51
90.0
  0
ARC
  8
VOLLINIE
  5
C619
 10
117.509627
 20
176.624161
 30
0.0
 40
1.0
 50
90.0
 51
270.0
  0
ARC
  8
VOLLINIE
  5
C61A
 10
113.509627
 20
176.624161
 30
0.0
 40
0.5
 50
90.0
 51
270.0
  0
ARC
  8
VOLLINIE
  5
C61B
 10
113.509627
 20
175.124161
 30
0.0
 40
1.0
 50
270.0
 51
90.0
  0
ARC
  8
VOLLINIE
  5
C61C
 10
117.509627
 20
179.624161
 30
0.0
 40
1.0
 50
90.0
 51
270.0
  0
ARC
  8
VOLLINIE
  5
C61D
 10
117.509627
 20
178.124161
 30
0.0
 40
0.5
 50
270.0
 51
90.0
  0
ARC
  8
VOLLINIE
  5
C61E
 10
113.509627
 20
178.124161
 30
0.0
 40
1.0
 50
270.0
 51
90.0
  0
ARC
  8
VOLLINIE
  5
C61F
 10
113.509627
 20
179.624161
 30
0.0
 40
0.5
 50
90.0
 51
270.0
  0
ARC
  8
VOLLINIE
  5
C620
 10
113.509627
 20
191.624161
 30
0.0
 40
0.5
 50
90.0
 51
270.0
  0
ARC
  8
VOLLINIE
  5
C621
 10
113.509627
 20
190.124161
 30
0.0
 40
1.0
 50
270.0
 51
90.0
  0
ARC
  8
VOLLINIE
  5
C622
 10
117.509627
 20
190.124161
 30
0.0
 40
0.5
 50
270.0
 51
90.0
  0
ARC
  8
VOLLINIE
  5
C623
 10
117.509627
 20
191.624161
 30
0.0
 40
1.0
 50
90.0
 51
270.0
  0
ARC
  8
VOLLINIE
  5
C624
 10
113.509627
 20
187.124161
 30
0.0
 40
1.0
 50
270.0
 51
90.0
  0
ARC
  8
VOLLINIE
  5
C625
 10
113.509627
 20
188.624161
 30
0.0
 40
0.5
 50
90.0
 51
270.0
  0
ARC
  8
VOLLINIE
  5
C626
 10
117.509627
 20
188.624161
 30
0.0
 40
1.0
 50
90.0
 51
270.0
  0
ARC
  8
VOLLINIE
  5
C627
 10
117.509627
 20
193.124161
 30
0.0
 40
0.5
 50
270.0
 51
90.0
  0
ARC
  8
VOLLINIE
  5
C628
 10
117.509627
 20
194.624161
 30
0.0
 40
1.0
 50
90.0
 51
270.0
  0
ARC
  8
VOLLINIE
  5
C629
 10
113.509627
 20
194.624161
 30
0.0
 40
0.5
 50
90.0
 51
270.0
  0
ARC
  8
VOLLINIE
  5
C62A
 10
113.509627
 20
193.124161
 30
0.0
 40
1.0
 50
270.0
 51
90.0
  0
ARC
  8
VOLLINIE
  5
C62B
 10
113.509627
 20
170.624161
 30
0.0
 40
0.5
 50
90.0
 51
270.0
  0
ARC
  8
VOLLINIE
  5
C62C
 10
113.509627
 20
169.124161
 30
0.0
 40
1.0
 50
270.0
 51
90.0
  0
ARC
  8
VOLLINIE
  5
C62D
 10
117.509627
 20
169.124161
 30
0.0
 40
0.5
 50
270.0
 51
90.0
  0
ARC
  8
VOLLINIE
  5
C62E
 10
117.509627
 20
170.624161
 30
0.0
 40
1.0
 50
90.0
 51
270.0
  0
ARC
  8
VOLLINIE
  5
C62F
 10
113.509627
 20
166.124161
 30
0.0
 40
1.0
 50
270.0
 51
90.0
  0
ARC
  8
VOLLINIE
  5
C630
 10
113.509627
 20
167.624161
 30
0.0
 40
0.5
 50
90.0
 51
270.0
  0
ARC
  8
VOLLINIE
  5
C631
 10
117.509627
 20
167.624161
 30
0.0
 40
1.0
 50
90.0
 51
270.0
  0
ARC
  8
VOLLINIE
  5
C632
 10
117.509627
 20
166.124161
 30
0.0
 40
0.5
 50
0.0
 51
90.0
  0
ARC
  8
VOLLINIE
  5
C633
 10
117.509627
 20
172.124161
 30
0.0
 40
0.5
 50
270.0
 51
90.0
  0
ARC
  8
VOLLINIE
  5
C634
 10
117.509627
 20
173.624161
 30
0.0
 40
1.0
 50
90.0
 51
270.0
  0
ARC
  8
VOLLINIE
  5
C635
 10
113.509627
 20
173.624161
 30
0.0
 40
0.5
 50
90.0
 51
270.0
  0
ARC
  8
VOLLINIE
  5
C636
 10
113.509627
 20
172.124161
 30
0.0
 40
1.0
 50
270.0
 51
90.0
  0
ARC
  8
VOLLINIE
  5
C637
 10
113.509627
 20
164.624161
 30
0.0
 40
0.5
 50
90.0
 51
180.0
  0
LINE
  8
VOLLINIE
  5
C638
 10
113.391682
 20
219.110051
 30
0.0
 11
115.509627
 21
219.624161
 31
0.0
  0
ARC
  8
VOLLINIE
  5
C639
 10
116.095414
 20
219.124161
 30
0.0
 40
0.5
 50
340.528779
 51
90.0
  0
ARC
  8
VOLLINIE
  5
C63A
 10
117.509627
 20
187.124161
 30
0.0
 40
0.5
 50
270.0
 51
90.0
  0
LINE
  8
VOLLINIE
  5
C63B
 10
138.009627
 20
155.624161
 30
0.0
 11
136.330695
 21
155.624161
 31
0.0
  0
LINE
  8
VOLLINIE
  5
C63C
 10
132.188559
 20
155.624161
 30
0.0
 11
130.509627
 21
155.624161
 31
0.0
  0
LINE
  8
VOLLINIE
  5
C63D
 10
136.330695
 20
155.624161
 30
0.0
 11
134.259627
 21
150.624161
 31
0.0
  0
LINE
  8
VOLLINIE
  5
C63E
 10
132.188559
 20
155.624161
 30
0.0
 11
134.259627
 21
150.624161
 31
0.0
  0
LINE
  8
VOLLINIE
  5
C63F
 10
136.330695
 20
155.624161
 30
0.0
 11
138.009627
 21
155.624161
 31
0.0
  0
LINE
  8
MITTELLINIE
  5
C640
 10
134.259627
 20
149.124161
 30
0.0
 11
134.259627
 21
157.124161
 31
0.0
  0
LINE
  8
MITTELLINIE
  5
C641
 10
128.009627
 20
149.124161
 30
0.0
 11
128.009627
 21
221.124161
 31
0.0
  0
LINE
  8
VOLLINIE
  5
C642
 10
130.509627
 20
150.624161
 30
0.0
 11
125.509627
 21
150.624161
 31
0.0
  0
LINE
  8
VOLLINIE
  5
C643
 10
125.509627
 20
150.624161
 30
0.0
 11
125.509627
 21
164.624161
 31
0.0
  0
LINE
  8
VOLLINIE
  5
C644
 10
130.509627
 20
150.624161
 30
0.0
 11
130.509627
 21
166.124161
 31
0.0
  0
LINE
  8
VOLLINIE
  5
C645
 10
128.595414
 20
219.624161
 30
0.0
 11
128.009627
 21
219.624161
 31
0.0
  0
ARC
  8
VOLLINIE
  5
C646
 10
126.009627
 20
218.624161
 30
0.0
 40
0.5
 50
103.644085
 51
270.0
  0
ARC
  8
VOLLINIE
  5
C647
 10
126.009627
 20
217.124161
 30
0.0
 40
1.0
 50
270.0
 51
90.0
  0
ARC
  8
VOLLINIE
  5
C648
 10
130.009627
 20
217.124161
 30
0.0
 40
0.5
 50
270.0
 51
90.0
  0
ARC
  8
VOLLINIE
  5
C649
 10
130.009627
 20
218.624161
 30
0.0
 40
1.0
 50
160.528779
 51
270.0
  0
ARC
  8
VOLLINIE
  5
C64A
 10
126.009627
 20
214.124161
 30
0.0
 40
1.0
 50
270.0
 51
90.0
  0
ARC
  8
VOLLINIE
  5
C64B
 10
126.009627
 20
215.624161
 30
0.0
 40
0.5
 50
90.0
 51
270.0
  0
ARC
  8
VOLLINIE
  5
C64C
 10
130.009627
 20
215.624161
 30
0.0
 40
1.0
 50
90.0
 51
270.0
  0
ARC
  8
VOLLINIE
  5
C64D
 10
130.009627
 20
214.124161
 30
0.0
 40
0.5
 50
270.0
 51
90.0
  0
ARC
  8
VOLLINIE
  5
C64E
 10
130.009627
 20
208.124161
 30
0.0
 40
0.5
 50
270.0
 51
90.0
  0
ARC
  8
VOLLINIE
  5
C64F
 10
130.009627
 20
209.624161
 30
0.0
 40
1.0
 50
90.0
 51
270.0
  0
ARC
  8
VOLLINIE
  5
C650
 10
126.009627
 20
209.624161
 30
0.0
 40
0.5
 50
90.0
 51
270.0
  0
ARC
  8
VOLLINIE
  5
C651
 10
126.009627
 20
208.124161
 30
0.0
 40
1.0
 50
270.0
 51
90.0
  0
ARC
  8
VOLLINIE
  5
C652
 10
130.009627
 20
212.624161
 30
0.0
 40
1.0
 50
90.0
 51
270.0
  0
ARC
  8
VOLLINIE
  5
C653
 10
130.009627
 20
211.124161
 30
0.0
 40
0.5
 50
270.0
 51
90.0
  0
ARC
  8
VOLLINIE
  5
C654
 10
126.009627
 20
211.124161
 30
0.0
 40
1.0
 50
270.0
 51
90.0
  0
ARC
  8
VOLLINIE
  5
C655
 10
126.009627
 20
212.624161
 30
0.0
 40
0.5
 50
90.0
 51
270.0
  0
ARC
  8
VOLLINIE
  5
C656
 10
126.009627
 20
200.624161
 30
0.0
 40
0.5
 50
90.0
 51
270.0
  0
ARC
  8
VOLLINIE
  5
C657
 10
126.009627
 20
199.124161
 30
0.0
 40
1.0
 50
270.0
 51
90.0
  0
ARC
  8
VOLLINIE
  5
C658
 10
130.009627
 20
199.124161
 30
0.0
 40
0.5
 50
270.0
 51
90.0
  0
ARC
  8
VOLLINIE
  5
C659
 10
130.009627
 20
200.624161
 30
0.0
 40
1.0
 50
90.0
 51
270.0
  0
ARC
  8
VOLLINIE
  5
C65A
 10
126.009627
 20
196.124161
 30
0.0
 40
1.0
 50
270.0
 51
90.0
  0
ARC
  8
VOLLINIE
  5
C65B
 10
126.009627
 20
197.624161
 30
0.0
 40
0.5
 50
90.0
 51
270.0
  0
ARC
  8
VOLLINIE
  5
C65C
 10
130.009627
 20
197.624161
 30
0.0
 40
1.0
 50
90.0
 51
270.0
  0
ARC
  8
VOLLINIE
  5
C65D
 10
130.009627
 20
196.124161
 30
0.0
 40
0.5
 50
270.0
 51
90.0
  0
ARC
  8
VOLLINIE
  5
C65E
 10
130.009627
 20
202.124161
 30
0.0
 40
0.5
 50
270.0
 51
90.0
  0
ARC
  8
VOLLINIE
  5
C65F
 10
130.009627
 20
203.624161
 30
0.0
 40
1.0
 50
90.0
 51
270.0
  0
ARC
  8
VOLLINIE
  5
C660
 10
126.009627
 20
203.624161
 30
0.0
 40
0.5
 50
90.0
 51
270.0
  0
ARC
  8
VOLLINIE
  5
C661
 10
126.009627
 20
202.124161
 30
0.0
 40
1.0
 50
270.0
 51
90.0
  0
ARC
  8
VOLLINIE
  5
C662
 10
130.009627
 20
206.624161
 30
0.0
 40
1.0
 50
90.0
 51
270.0
  0
ARC
  8
VOLLINIE
  5
C663
 10
130.009627
 20
205.124161
 30
0.0
 40
0.5
 50
270.0
 51
90.0
  0
ARC
  8
VOLLINIE
  5
C664
 10
126.009627
 20
205.124161
 30
0.0
 40
1.0
 50
270.0
 51
90.0
  0
ARC
  8
VOLLINIE
  5
C665
 10
126.009627
 20
206.624161
 30
0.0
 40
0.5
 50
90.0
 51
270.0
  0
ARC
  8
VOLLINIE
  5
C666
 10
126.009627
 20
185.624161
 30
0.0
 40
0.5
 50
90.0
 51
270.0
  0
ARC
  8
VOLLINIE
  5
C667
 10
126.009627
 20
184.124161
 30
0.0
 40
1.0
 50
270.0
 51
90.0
  0
ARC
  8
VOLLINIE
  5
C668
 10
130.009627
 20
184.124161
 30
0.0
 40
0.5
 50
270.0
 51
90.0
  0
ARC
  8
VOLLINIE
  5
C669
 10
130.009627
 20
185.624161
 30
0.0
 40
1.0
 50
90.0
 51
270.0
  0
ARC
  8
VOLLINIE
  5
C66A
 10
126.009627
 20
181.124161
 30
0.0
 40
1.0
 50
270.0
 51
90.0
  0
ARC
  8
VOLLINIE
  5
C66B
 10
126.009627
 20
182.624161
 30
0.0
 40
0.5
 50
90.0
 51
270.0
  0
ARC
  8
VOLLINIE
  5
C66C
 10
130.009627
 20
182.624161
 30
0.0
 40
1.0
 50
90.0
 51
270.0
  0
ARC
  8
VOLLINIE
  5
C66D
 10
130.009627
 20
181.124161
 30
0.0
 40
0.5
 50
270.0
 51
90.0
  0
ARC
  8
VOLLINIE
  5
C66E
 10
130.009627
 20
175.124161
 30
0.0
 40
0.5
 50
270.0
 51
90.0
  0
ARC
  8
VOLLINIE
  5
C66F
 10
130.009627
 20
176.624161
 30
0.0
 40
1.0
 50
90.0
 51
270.0
  0
ARC
  8
VOLLINIE
  5
C670
 10
126.009627
 20
176.624161
 30
0.0
 40
0.5
 50
90.0
 51
270.0
  0
ARC
  8
VOLLINIE
  5
C671
 10
126.009627
 20
175.124161
 30
0.0
 40
1.0
 50
270.0
 51
90.0
  0
ARC
  8
VOLLINIE
  5
C672
 10
130.009627
 20
179.624161
 30
0.0
 40
1.0
 50
90.0
 51
270.0
  0
ARC
  8
VOLLINIE
  5
C673
 10
130.009627
 20
178.124161
 30
0.0
 40
0.5
 50
270.0
 51
90.0
  0
ARC
  8
VOLLINIE
  5
C674
 10
126.009627
 20
178.124161
 30
0.0
 40
1.0
 50
270.0
 51
90.0
  0
ARC
  8
VOLLINIE
  5
C675
 10
126.009627
 20
179.624161
 30
0.0
 40
0.5
 50
90.0
 51
270.0
  0
ARC
  8
VOLLINIE
  5
C676
 10
126.009627
 20
191.624161
 30
0.0
 40
0.5
 50
90.0
 51
270.0
  0
ARC
  8
VOLLINIE
  5
C677
 10
126.009627
 20
190.124161
 30
0.0
 40
1.0
 50
270.0
 51
90.0
  0
ARC
  8
VOLLINIE
  5
C678
 10
130.009627
 20
190.124161
 30
0.0
 40
0.5
 50
270.0
 51
90.0
  0
ARC
  8
VOLLINIE
  5
C679
 10
130.009627
 20
191.624161
 30
0.0
 40
1.0
 50
90.0
 51
270.0
  0
ARC
  8
VOLLINIE
  5
C67A
 10
126.009627
 20
187.124161
 30
0.0
 40
1.0
 50
270.0
 51
90.0
  0
ARC
  8
VOLLINIE
  5
C67B
 10
126.009627
 20
188.624161
 30
0.0
 40
0.5
 50
90.0
 51
270.0
  0
ARC
  8
VOLLINIE
  5
C67C
 10
130.009627
 20
188.624161
 30
0.0
 40
1.0
 50
90.0
 51
270.0
  0
ARC
  8
VOLLINIE
  5
C67D
 10
130.009627
 20
193.124161
 30
0.0
 40
0.5
 50
270.0
 51
90.0
  0
ARC
  8
VOLLINIE
  5
C67E
 10
130.009627
 20
194.624161
 30
0.0
 40
1.0
 50
90.0
 51
270.0
  0
ARC
  8
VOLLINIE
  5
C67F
 10
126.009627
 20
194.624161
 30
0.0
 40
0.5
 50
90.0
 51
270.0
  0
ARC
  8
VOLLINIE
  5
C680
 10
126.009627
 20
193.124161
 30
0.0
 40
1.0
 50
270.0
 51
90.0
  0
ARC
  8
VOLLINIE
  5
C681
 10
126.009627
 20
170.624161
 30
0.0
 40
0.5
 50
90.0
 51
270.0
  0
ARC
  8
VOLLINIE
  5
C682
 10
126.009627
 20
169.124161
 30
0.0
 40
1.0
 50
270.0
 51
90.0
  0
ARC
  8
VOLLINIE
  5
C683
 10
130.009627
 20
169.124161
 30
0.0
 40
0.5
 50
270.0
 51
90.0
  0
ARC
  8
VOLLINIE
  5
C684
 10
130.009627
 20
170.624161
 30
0.0
 40
1.0
 50
90.0
 51
270.0
  0
ARC
  8
VOLLINIE
  5
C685
 10
126.009627
 20
166.124161
 30
0.0
 40
1.0
 50
270.0
 51
90.0
  0
ARC
  8
VOLLINIE
  5
C686
 10
126.009627
 20
167.624161
 30
0.0
 40
0.5
 50
90.0
 51
270.0
  0
ARC
  8
VOLLINIE
  5
C687
 10
130.009627
 20
167.624161
 30
0.0
 40
1.0
 50
90.0
 51
270.0
  0
ARC
  8
VOLLINIE
  5
C688
 10
130.009627
 20
166.124161
 30
0.0
 40
0.5
 50
0.0
 51
90.0
  0
ARC
  8
VOLLINIE
  5
C689
 10
130.009627
 20
172.124161
 30
0.0
 40
0.5
 50
270.0
 51
90.0
  0
ARC
  8
VOLLINIE
  5
C68A
 10
130.009627
 20
173.624161
 30
0.0
 40
1.0
 50
90.0
 51
270.0
  0
ARC
  8
VOLLINIE
  5
C68B
 10
126.009627
 20
173.624161
 30
0.0
 40
0.5
 50
90.0
 51
270.0
  0
ARC
  8
VOLLINIE
  5
C68C
 10
126.009627
 20
172.124161
 30
0.0
 40
1.0
 50
270.0
 51
90.0
  0
ARC
  8
VOLLINIE
  5
C68D
 10
126.009627
 20
164.624161
 30
0.0
 40
0.5
 50
90.0
 51
180.0
  0
LINE
  8
VOLLINIE
  5
C68E
 10
125.891682
 20
219.110051
 30
0.0
 11
128.009627
 21
219.624161
 31
0.0
  0
ARC
  8
VOLLINIE
  5
C68F
 10
128.595414
 20
219.124161
 30
0.0
 40
0.5
 50
340.528779
 51
90.0
  0
ARC
  8
VOLLINIE
  5
C690
 10
130.009627
 20
187.124161
 30
0.0
 40
0.5
 50
270.0
 51
90.0
  0
LINE
  8
VOLLINIE
  5
C691
 10
150.509627
 20
155.624161
 30
0.0
 11
148.830695
 21
155.624161
 31
0.0
  0
LINE
  8
VOLLINIE
  5
C692
 10
144.688559
 20
155.624161
 30
0.0
 11
143.009627
 21
155.624161
 31
0.0
  0
LINE
  8
VOLLINIE
  5
C693
 10
148.830695
 20
155.624161
 30
0.0
 11
146.759627
 21
150.624161
 31
0.0
  0
LINE
  8
VOLLINIE
  5
C694
 10
144.688559
 20
155.624161
 30
0.0
 11
146.759627
 21
150.624161
 31
0.0
  0
LINE
  8
VOLLINIE
  5
C695
 10
148.830695
 20
155.624161
 30
0.0
 11
150.509627
 21
155.624161
 31
0.0
  0
LINE
  8
MITTELLINIE
  5
C696
 10
146.759627
 20
149.124161
 30
0.0
 11
146.759627
 21
157.124161
 31
0.0
  0
LINE
  8
MITTELLINIE
  5
C697
 10
140.509627
 20
149.124161
 30
0.0
 11
140.509627
 21
221.124161
 31
0.0
  0
LINE
  8
VOLLINIE
  5
C698
 10
143.009627
 20
150.624161
 30
0.0
 11
138.009627
 21
150.624161
 31
0.0
  0
LINE
  8
VOLLINIE
  5
C699
 10
138.009627
 20
150.624161
 30
0.0
 11
138.009627
 21
164.624161
 31
0.0
  0
LINE
  8
VOLLINIE
  5
C69A
 10
143.009627
 20
150.624161
 30
0.0
 11
143.009627
 21
166.124161
 31
0.0
  0
LINE
  8
VOLLINIE
  5
C69B
 10
141.095414
 20
219.624161
 30
0.0
 11
140.509627
 21
219.624161
 31
0.0
  0
ARC
  8
VOLLINIE
  5
C69C
 10
138.509627
 20
218.624161
 30
0.0
 40
0.5
 50
103.644085
 51
270.0
  0
ARC
  8
VOLLINIE
  5
C69D
 10
138.509627
 20
217.124161
 30
0.0
 40
1.0
 50
270.0
 51
90.0
  0
ARC
  8
VOLLINIE
  5
C69E
 10
142.509627
 20
217.124161
 30
0.0
 40
0.5
 50
270.0
 51
90.0
  0
ARC
  8
VOLLINIE
  5
C69F
 10
142.509627
 20
218.624161
 30
0.0
 40
1.0
 50
160.528779
 51
270.0
  0
ARC
  8
VOLLINIE
  5
C6A0
 10
138.509627
 20
214.124161
 30
0.0
 40
1.0
 50
270.0
 51
90.0
  0
ARC
  8
VOLLINIE
  5
C6A1
 10
138.509627
 20
215.624161
 30
0.0
 40
0.5
 50
90.0
 51
270.0
  0
ARC
  8
VOLLINIE
  5
C6A2
 10
142.509627
 20
215.624161
 30
0.0
 40
1.0
 50
90.0
 51
270.0
  0
ARC
  8
VOLLINIE
  5
C6A3
 10
142.509627
 20
214.124161
 30
0.0
 40
0.5
 50
270.0
 51
90.0
  0
ARC
  8
VOLLINIE
  5
C6A4
 10
142.509627
 20
208.124161
 30
0.0
 40
0.5
 50
270.0
 51
90.0
  0
ARC
  8
VOLLINIE
  5
C6A5
 10
142.509627
 20
209.624161
 30
0.0
 40
1.0
 50
90.0
 51
270.0
  0
ARC
  8
VOLLINIE
  5
C6A6
 10
138.509627
 20
209.624161
 30
0.0
 40
0.5
 50
90.0
 51
270.0
  0
ARC
  8
VOLLINIE
  5
C6A7
 10
138.509627
 20
208.124161
 30
0.0
 40
1.0
 50
270.0
 51
90.0
  0
ARC
  8
VOLLINIE
  5
C6A8
 10
142.509627
 20
212.624161
 30
0.0
 40
1.0
 50
90.0
 51
270.0
  0
ARC
  8
VOLLINIE
  5
C6A9
 10
142.509627
 20
211.124161
 30
0.0
 40
0.5
 50
270.0
 51
90.0
  0
ARC
  8
VOLLINIE
  5
C6AA
 10
138.509627
 20
211.124161
 30
0.0
 40
1.0
 50
270.0
 51
90.0
  0
ARC
  8
VOLLINIE
  5
C6AB
 10
138.509627
 20
212.624161
 30
0.0
 40
0.5
 50
90.0
 51
270.0
  0
ARC
  8
VOLLINIE
  5
C6AC
 10
138.509627
 20
200.624161
 30
0.0
 40
0.5
 50
90.0
 51
270.0
  0
ARC
  8
VOLLINIE
  5
C6AD
 10
138.509627
 20
199.124161
 30
0.0
 40
1.0
 50
270.0
 51
90.0
  0
ARC
  8
VOLLINIE
  5
C6AE
 10
142.509627
 20
199.124161
 30
0.0
 40
0.5
 50
270.0
 51
90.0
  0
ARC
  8
VOLLINIE
  5
C6AF
 10
142.509627
 20
200.624161
 30
0.0
 40
1.0
 50
90.0
 51
270.0
  0
ARC
  8
VOLLINIE
  5
C6B0
 10
138.509627
 20
196.124161
 30
0.0
 40
1.0
 50
270.0
 51
90.0
  0
ARC
  8
VOLLINIE
  5
C6B1
 10
138.509627
 20
197.624161
 30
0.0
 40
0.5
 50
90.0
 51
270.0
  0
ARC
  8
VOLLINIE
  5
C6B2
 10
142.509627
 20
197.624161
 30
0.0
 40
1.0
 50
90.0
 51
270.0
  0
ARC
  8
VOLLINIE
  5
C6B3
 10
142.509627
 20
196.124161
 30
0.0
 40
0.5
 50
270.0
 51
90.0
  0
ARC
  8
VOLLINIE
  5
C6B4
 10
142.509627
 20
202.124161
 30
0.0
 40
0.5
 50
270.0
 51
90.0
  0
ARC
  8
VOLLINIE
  5
C6B5
 10
142.509627
 20
203.624161
 30
0.0
 40
1.0
 50
90.0
 51
270.0
  0
ARC
  8
VOLLINIE
  5
C6B6
 10
138.509627
 20
203.624161
 30
0.0
 40
0.5
 50
90.0
 51
270.0
  0
ARC
  8
VOLLINIE
  5
C6B7
 10
138.509627
 20
202.124161
 30
0.0
 40
1.0
 50
270.0
 51
90.0
  0
ARC
  8
VOLLINIE
  5
C6B8
 10
142.509627
 20
206.624161
 30
0.0
 40
1.0
 50
90.0
 51
270.0
  0
ARC
  8
VOLLINIE
  5
C6B9
 10
142.509627
 20
205.124161
 30
0.0
 40
0.5
 50
270.0
 51
90.0
  0
ARC
  8
VOLLINIE
  5
C6BA
 10
138.509627
 20
205.124161
 30
0.0
 40
1.0
 50
270.0
 51
90.0
  0
ARC
  8
VOLLINIE
  5
C6BB
 10
138.509627
 20
206.624161
 30
0.0
 40
0.5
 50
90.0
 51
270.0
  0
ARC
  8
VOLLINIE
  5
C6BC
 10
138.509627
 20
185.624161
 30
0.0
 40
0.5
 50
90.0
 51
270.0
  0
ARC
  8
VOLLINIE
  5
C6BD
 10
138.509627
 20
184.124161
 30
0.0
 40
1.0
 50
270.0
 51
90.0
  0
ARC
  8
VOLLINIE
  5
C6BE
 10
142.509627
 20
184.124161
 30
0.0
 40
0.5
 50
270.0
 51
90.0
  0
ARC
  8
VOLLINIE
  5
C6BF
 10
142.509627
 20
185.624161
 30
0.0
 40
1.0
 50
90.0
 51
270.0
  0
ARC
  8
VOLLINIE
  5
C6C0
 10
138.509627
 20
181.124161
 30
0.0
 40
1.0
 50
270.0
 51
90.0
  0
ARC
  8
VOLLINIE
  5
C6C1
 10
138.509627
 20
182.624161
 30
0.0
 40
0.5
 50
90.0
 51
270.0
  0
ARC
  8
VOLLINIE
  5
C6C2
 10
142.509627
 20
182.624161
 30
0.0
 40
1.0
 50
90.0
 51
270.0
  0
ARC
  8
VOLLINIE
  5
C6C3
 10
142.509627
 20
181.124161
 30
0.0
 40
0.5
 50
270.0
 51
90.0
  0
ARC
  8
VOLLINIE
  5
C6C4
 10
142.509627
 20
175.124161
 30
0.0
 40
0.5
 50
270.0
 51
90.0
  0
ARC
  8
VOLLINIE
  5
C6C5
 10
142.509627
 20
176.624161
 30
0.0
 40
1.0
 50
90.0
 51
270.0
  0
ARC
  8
VOLLINIE
  5
C6C6
 10
138.509627
 20
176.624161
 30
0.0
 40
0.5
 50
90.0
 51
270.0
  0
ARC
  8
VOLLINIE
  5
C6C7
 10
138.509627
 20
175.124161
 30
0.0
 40
1.0
 50
270.0
 51
90.0
  0
ARC
  8
VOLLINIE
  5
C6C8
 10
142.509627
 20
179.624161
 30
0.0
 40
1.0
 50
90.0
 51
270.0
  0
ARC
  8
VOLLINIE
  5
C6C9
 10
142.509627
 20
178.124161
 30
0.0
 40
0.5
 50
270.0
 51
90.0
  0
ARC
  8
VOLLINIE
  5
C6CA
 10
138.509627
 20
178.124161
 30
0.0
 40
1.0
 50
270.0
 51
90.0
  0
ARC
  8
VOLLINIE
  5
C6CB
 10
138.509627
 20
179.624161
 30
0.0
 40
0.5
 50
90.0
 51
270.0
  0
ARC
  8
VOLLINIE
  5
C6CC
 10
138.509627
 20
191.624161
 30
0.0
 40
0.5
 50
90.0
 51
270.0
  0
ARC
  8
VOLLINIE
  5
C6CD
 10
138.509627
 20
190.124161
 30
0.0
 40
1.0
 50
270.0
 51
90.0
  0
ARC
  8
VOLLINIE
  5
C6CE
 10
142.509627
 20
190.124161
 30
0.0
 40
0.5
 50
270.0
 51
90.0
  0
ARC
  8
VOLLINIE
  5
C6CF
 10
142.509627
 20
191.624161
 30
0.0
 40
1.0
 50
90.0
 51
270.0
  0
ARC
  8
VOLLINIE
  5
C6D0
 10
138.509627
 20
187.124161
 30
0.0
 40
1.0
 50
270.0
 51
90.0
  0
ARC
  8
VOLLINIE
  5
C6D1
 10
138.509627
 20
188.624161
 30
0.0
 40
0.5
 50
90.0
 51
270.0
  0
ARC
  8
VOLLINIE
  5
C6D2
 10
142.509627
 20
188.624161
 30
0.0
 40
1.0
 50
90.0
 51
270.0
  0
ARC
  8
VOLLINIE
  5
C6D3
 10
142.509627
 20
193.124161
 30
0.0
 40
0.5
 50
270.0
 51
90.0
  0
ARC
  8
VOLLINIE
  5
C6D4
 10
142.509627
 20
194.624161
 30
0.0
 40
1.0
 50
90.0
 51
270.0
  0
ARC
  8
VOLLINIE
  5
C6D5
 10
138.509627
 20
194.624161
 30
0.0
 40
0.5
 50
90.0
 51
270.0
  0
ARC
  8
VOLLINIE
  5
C6D6
 10
138.509627
 20
193.124161
 30
0.0
 40
1.0
 50
270.0
 51
90.0
  0
ARC
  8
VOLLINIE
  5
C6D7
 10
138.509627
 20
170.624161
 30
0.0
 40
0.5
 50
90.0
 51
270.0
  0
ARC
  8
VOLLINIE
  5
C6D8
 10
138.509627
 20
169.124161
 30
0.0
 40
1.0
 50
270.0
 51
90.0
  0
ARC
  8
VOLLINIE
  5
C6D9
 10
142.509627
 20
169.124161
 30
0.0
 40
0.5
 50
270.0
 51
90.0
  0
ARC
  8
VOLLINIE
  5
C6DA
 10
142.509627
 20
170.624161
 30
0.0
 40
1.0
 50
90.0
 51
270.0
  0
ARC
  8
VOLLINIE
  5
C6DB
 10
138.509627
 20
166.124161
 30
0.0
 40
1.0
 50
270.0
 51
90.0
  0
ARC
  8
VOLLINIE
  5
C6DC
 10
138.509627
 20
167.624161
 30
0.0
 40
0.5
 50
90.0
 51
270.0
  0
ARC
  8
VOLLINIE
  5
C6DD
 10
142.509627
 20
167.624161
 30
0.0
 40
1.0
 50
90.0
 51
270.0
  0
ARC
  8
VOLLINIE
  5
C6DE
 10
142.509627
 20
166.124161
 30
0.0
 40
0.5
 50
0.0
 51
90.0
  0
ARC
  8
VOLLINIE
  5
C6DF
 10
142.509627
 20
172.124161
 30
0.0
 40
0.5
 50
270.0
 51
90.0
  0
ARC
  8
VOLLINIE
  5
C6E0
 10
142.509627
 20
173.624161
 30
0.0
 40
1.0
 50
90.0
 51
270.0
  0
ARC
  8
VOLLINIE
  5
C6E1
 10
138.509627
 20
173.624161
 30
0.0
 40
0.5
 50
90.0
 51
270.0
  0
ARC
  8
VOLLINIE
  5
C6E2
 10
138.509627
 20
172.124161
 30
0.0
 40
1.0
 50
270.0
 51
90.0
  0
ARC
  8
VOLLINIE
  5
C6E3
 10
138.509627
 20
164.624161
 30
0.0
 40
0.5
 50
90.0
 51
180.0
  0
LINE
  8
VOLLINIE
  5
C6E4
 10
138.391682
 20
219.110051
 30
0.0
 11
140.509627
 21
219.624161
 31
0.0
  0
ARC
  8
VOLLINIE
  5
C6E5
 10
141.095414
 20
219.124161
 30
0.0
 40
0.5
 50
340.528779
 51
90.0
  0
ARC
  8
VOLLINIE
  5
C6E6
 10
142.509627
 20
187.124161
 30
0.0
 40
0.5
 50
270.0
 51
90.0
  0
LINE
  8
VOLLINIE
  5
C6E7
 10
163.009627
 20
155.624161
 30
0.0
 11
161.330695
 21
155.624161
 31
0.0
  0
LINE
  8
VOLLINIE
  5
C6E8
 10
157.188559
 20
155.624161
 30
0.0
 11
155.509627
 21
155.624161
 31
0.0
  0
LINE
  8
VOLLINIE
  5
C6E9
 10
161.330695
 20
155.624161
 30
0.0
 11
159.259627
 21
150.624161
 31
0.0
  0
LINE
  8
VOLLINIE
  5
C6EA
 10
157.188559
 20
155.624161
 30
0.0
 11
159.259627
 21
150.624161
 31
0.0
  0
LINE
  8
VOLLINIE
  5
C6EB
 10
161.330695
 20
155.624161
 30
0.0
 11
163.009627
 21
155.624161
 31
0.0
  0
LINE
  8
MITTELLINIE
  5
C6EC
 10
159.259627
 20
149.124161
 30
0.0
 11
159.259627
 21
157.124161
 31
0.0
  0
LINE
  8
MITTELLINIE
  5
C6ED
 10
153.009627
 20
149.124161
 30
0.0
 11
153.009627
 21
221.124161
 31
0.0
  0
LINE
  8
VOLLINIE
  5
C6EE
 10
155.509627
 20
150.624161
 30
0.0
 11
150.509627
 21
150.624161
 31
0.0
  0
LINE
  8
VOLLINIE
  5
C6EF
 10
150.509627
 20
150.624161
 30
0.0
 11
150.509627
 21
164.624161
 31
0.0
  0
LINE
  8
VOLLINIE
  5
C6F0
 10
155.509627
 20
150.624161
 30
0.0
 11
155.509627
 21
166.124161
 31
0.0
  0
LINE
  8
VOLLINIE
  5
C6F1
 10
153.595414
 20
219.624161
 30
0.0
 11
153.009627
 21
219.624161
 31
0.0
  0
ARC
  8
VOLLINIE
  5
C6F2
 10
151.009627
 20
218.624161
 30
0.0
 40
0.5
 50
103.644085
 51
270.0
  0
ARC
  8
VOLLINIE
  5
C6F3
 10
151.009627
 20
217.124161
 30
0.0
 40
1.0
 50
270.0
 51
90.0
  0
ARC
  8
VOLLINIE
  5
C6F4
 10
155.009627
 20
217.124161
 30
0.0
 40
0.5
 50
270.0
 51
90.0
  0
ARC
  8
VOLLINIE
  5
C6F5
 10
155.009627
 20
218.624161
 30
0.0
 40
1.0
 50
160.528779
 51
270.0
  0
ARC
  8
VOLLINIE
  5
C6F6
 10
151.009627
 20
214.124161
 30
0.0
 40
1.0
 50
270.0
 51
90.0
  0
ARC
  8
VOLLINIE
  5
C6F7
 10
151.009627
 20
215.624161
 30
0.0
 40
0.5
 50
90.0
 51
270.0
  0
ARC
  8
VOLLINIE
  5
C6F8
 10
155.009627
 20
215.624161
 30
0.0
 40
1.0
 50
90.0
 51
270.0
  0
ARC
  8
VOLLINIE
  5
C6F9
 10
155.009627
 20
214.124161
 30
0.0
 40
0.5
 50
270.0
 51
90.0
  0
ARC
  8
VOLLINIE
  5
C6FA
 10
155.009627
 20
208.124161
 30
0.0
 40
0.5
 50
270.0
 51
90.0
  0
ARC
  8
VOLLINIE
  5
C6FB
 10
155.009627
 20
209.624161
 30
0.0
 40
1.0
 50
90.0
 51
270.0
  0
ARC
  8
VOLLINIE
  5
C6FC
 10
151.009627
 20
209.624161
 30
0.0
 40
0.5
 50
90.0
 51
270.0
  0
ARC
  8
VOLLINIE
  5
C6FD
 10
151.009627
 20
208.124161
 30
0.0
 40
1.0
 50
270.0
 51
90.0
  0
ARC
  8
VOLLINIE
  5
C6FE
 10
155.009627
 20
212.624161
 30
0.0
 40
1.0
 50
90.0
 51
270.0
  0
ARC
  8
VOLLINIE
  5
C6FF
 10
155.009627
 20
211.124161
 30
0.0
 40
0.5
 50
270.0
 51
90.0
  0
ARC
  8
VOLLINIE
  5
C700
 10
151.009627
 20
211.124161
 30
0.0
 40
1.0
 50
270.0
 51
90.0
  0
ARC
  8
VOLLINIE
  5
C701
 10
151.009627
 20
212.624161
 30
0.0
 40
0.5
 50
90.0
 51
270.0
  0
ARC
  8
VOLLINIE
  5
C702
 10
151.009627
 20
200.624161
 30
0.0
 40
0.5
 50
90.0
 51
270.0
  0
ARC
  8
VOLLINIE
  5
C703
 10
151.009627
 20
199.124161
 30
0.0
 40
1.0
 50
270.0
 51
90.0
  0
ARC
  8
VOLLINIE
  5
C704
 10
155.009627
 20
199.124161
 30
0.0
 40
0.5
 50
270.0
 51
90.0
  0
ARC
  8
VOLLINIE
  5
C705
 10
155.009627
 20
200.624161
 30
0.0
 40
1.0
 50
90.0
 51
270.0
  0
ARC
  8
VOLLINIE
  5
C706
 10
151.009627
 20
196.124161
 30
0.0
 40
1.0
 50
270.0
 51
90.0
  0
ARC
  8
VOLLINIE
  5
C707
 10
151.009627
 20
197.624161
 30
0.0
 40
0.5
 50
90.0
 51
270.0
  0
ARC
  8
VOLLINIE
  5
C708
 10
155.009627
 20
197.624161
 30
0.0
 40
1.0
 50
90.0
 51
270.0
  0
ARC
  8
VOLLINIE
  5
C709
 10
155.009627
 20
196.124161
 30
0.0
 40
0.5
 50
270.0
 51
90.0
  0
ARC
  8
VOLLINIE
  5
C70A
 10
155.009627
 20
202.124161
 30
0.0
 40
0.5
 50
270.0
 51
90.0
  0
ARC
  8
VOLLINIE
  5
C70B
 10
155.009627
 20
203.624161
 30
0.0
 40
1.0
 50
90.0
 51
270.0
  0
ARC
  8
VOLLINIE
  5
C70C
 10
151.009627
 20
203.624161
 30
0.0
 40
0.5
 50
90.0
 51
270.0
  0
ARC
  8
VOLLINIE
  5
C70D
 10
151.009627
 20
202.124161
 30
0.0
 40
1.0
 50
270.0
 51
90.0
  0
ARC
  8
VOLLINIE
  5
C70E
 10
155.009627
 20
206.624161
 30
0.0
 40
1.0
 50
90.0
 51
270.0
  0
ARC
  8
VOLLINIE
  5
C70F
 10
155.009627
 20
205.124161
 30
0.0
 40
0.5
 50
270.0
 51
90.0
  0
ARC
  8
VOLLINIE
  5
C710
 10
151.009627
 20
205.124161
 30
0.0
 40
1.0
 50
270.0
 51
90.0
  0
ARC
  8
VOLLINIE
  5
C711
 10
151.009627
 20
206.624161
 30
0.0
 40
0.5
 50
90.0
 51
270.0
  0
ARC
  8
VOLLINIE
  5
C712
 10
151.009627
 20
185.624161
 30
0.0
 40
0.5
 50
90.0
 51
270.0
  0
ARC
  8
VOLLINIE
  5
C713
 10
151.009627
 20
184.124161
 30
0.0
 40
1.0
 50
270.0
 51
90.0
  0
ARC
  8
VOLLINIE
  5
C714
 10
155.009627
 20
184.124161
 30
0.0
 40
0.5
 50
270.0
 51
90.0
  0
ARC
  8
VOLLINIE
  5
C715
 10
155.009627
 20
185.624161
 30
0.0
 40
1.0
 50
90.0
 51
270.0
  0
ARC
  8
VOLLINIE
  5
C716
 10
151.009627
 20
181.124161
 30
0.0
 40
1.0
 50
270.0
 51
90.0
  0
ARC
  8
VOLLINIE
  5
C717
 10
151.009627
 20
182.624161
 30
0.0
 40
0.5
 50
90.0
 51
270.0
  0
ARC
  8
VOLLINIE
  5
C718
 10
155.009627
 20
182.624161
 30
0.0
 40
1.0
 50
90.0
 51
270.0
  0
ARC
  8
VOLLINIE
  5
C719
 10
155.009627
 20
181.124161
 30
0.0
 40
0.5
 50
270.0
 51
90.0
  0
ARC
  8
VOLLINIE
  5
C71A
 10
155.009627
 20
175.124161
 30
0.0
 40
0.5
 50
270.0
 51
90.0
  0
ARC
  8
VOLLINIE
  5
C71B
 10
155.009627
 20
176.624161
 30
0.0
 40
1.0
 50
90.0
 51
270.0
  0
ARC
  8
VOLLINIE
  5
C71C
 10
151.009627
 20
176.624161
 30
0.0
 40
0.5
 50
90.0
 51
270.0
  0
ARC
  8
VOLLINIE
  5
C71D
 10
151.009627
 20
175.124161
 30
0.0
 40
1.0
 50
270.0
 51
90.0
  0
ARC
  8
VOLLINIE
  5
C71E
 10
155.009627
 20
179.624161
 30
0.0
 40
1.0
 50
90.0
 51
270.0
  0
ARC
  8
VOLLINIE
  5
C71F
 10
155.009627
 20
178.124161
 30
0.0
 40
0.5
 50
270.0
 51
90.0
  0
ARC
  8
VOLLINIE
  5
C720
 10
151.009627
 20
178.124161
 30
0.0
 40
1.0
 50
270.0
 51
90.0
  0
ARC
  8
VOLLINIE
  5
C721
 10
151.009627
 20
179.624161
 30
0.0
 40
0.5
 50
90.0
 51
270.0
  0
ARC
  8
VOLLINIE
  5
C722
 10
151.009627
 20
191.624161
 30
0.0
 40
0.5
 50
90.0
 51
270.0
  0
ARC
  8
VOLLINIE
  5
C723
 10
151.009627
 20
190.124161
 30
0.0
 40
1.0
 50
270.0
 51
90.0
  0
ARC
  8
VOLLINIE
  5
C724
 10
155.009627
 20
190.124161
 30
0.0
 40
0.5
 50
270.0
 51
90.0
  0
ARC
  8
VOLLINIE
  5
C725
 10
155.009627
 20
191.624161
 30
0.0
 40
1.0
 50
90.0
 51
270.0
  0
ARC
  8
VOLLINIE
  5
C726
 10
151.009627
 20
187.124161
 30
0.0
 40
1.0
 50
270.0
 51
90.0
  0
ARC
  8
VOLLINIE
  5
C727
 10
151.009627
 20
188.624161
 30
0.0
 40
0.5
 50
90.0
 51
270.0
  0
ARC
  8
VOLLINIE
  5
C728
 10
155.009627
 20
188.624161
 30
0.0
 40
1.0
 50
90.0
 51
270.0
  0
ARC
  8
VOLLINIE
  5
C729
 10
155.009627
 20
193.124161
 30
0.0
 40
0.5
 50
270.0
 51
90.0
  0
ARC
  8
VOLLINIE
  5
C72A
 10
155.009627
 20
194.624161
 30
0.0
 40
1.0
 50
90.0
 51
270.0
  0
ARC
  8
VOLLINIE
  5
C72B
 10
151.009627
 20
194.624161
 30
0.0
 40
0.5
 50
90.0
 51
270.0
  0
ARC
  8
VOLLINIE
  5
C72C
 10
151.009627
 20
193.124161
 30
0.0
 40
1.0
 50
270.0
 51
90.0
  0
ARC
  8
VOLLINIE
  5
C72D
 10
151.009627
 20
170.624161
 30
0.0
 40
0.5
 50
90.0
 51
270.0
  0
ARC
  8
VOLLINIE
  5
C72E
 10
151.009627
 20
169.124161
 30
0.0
 40
1.0
 50
270.0
 51
90.0
  0
ARC
  8
VOLLINIE
  5
C72F
 10
155.009627
 20
169.124161
 30
0.0
 40
0.5
 50
270.0
 51
90.0
  0
ARC
  8
VOLLINIE
  5
C730
 10
155.009627
 20
170.624161
 30
0.0
 40
1.0
 50
90.0
 51
270.0
  0
ARC
  8
VOLLINIE
  5
C731
 10
151.009627
 20
166.124161
 30
0.0
 40
1.0
 50
270.0
 51
90.0
  0
ARC
  8
VOLLINIE
  5
C732
 10
151.009627
 20
167.624161
 30
0.0
 40
0.5
 50
90.0
 51
270.0
  0
ARC
  8
VOLLINIE
  5
C733
 10
155.009627
 20
167.624161
 30
0.0
 40
1.0
 50
90.0
 51
270.0
  0
ARC
  8
VOLLINIE
  5
C734
 10
155.009627
 20
166.124161
 30
0.0
 40
0.5
 50
0.0
 51
90.0
  0
ARC
  8
VOLLINIE
  5
C735
 10
155.009627
 20
172.124161
 30
0.0
 40
0.5
 50
270.0
 51
90.0
  0
ARC
  8
VOLLINIE
  5
C736
 10
155.009627
 20
173.624161
 30
0.0
 40
1.0
 50
90.0
 51
270.0
  0
ARC
  8
VOLLINIE
  5
C737
 10
151.009627
 20
173.624161
 30
0.0
 40
0.5
 50
90.0
 51
270.0
  0
ARC
  8
VOLLINIE
  5
C738
 10
151.009627
 20
172.124161
 30
0.0
 40
1.0
 50
270.0
 51
90.0
  0
ARC
  8
VOLLINIE
  5
C739
 10
151.009627
 20
164.624161
 30
0.0
 40
0.5
 50
90.0
 51
180.0
  0
LINE
  8
VOLLINIE
  5
C73A
 10
150.891682
 20
219.110051
 30
0.0
 11
153.009627
 21
219.624161
 31
0.0
  0
ARC
  8
VOLLINIE
  5
C73B
 10
153.595414
 20
219.124161
 30
0.0
 40
0.5
 50
340.528779
 51
90.0
  0
ARC
  8
VOLLINIE
  5
C73C
 10
155.009627
 20
187.124161
 30
0.0
 40
0.5
 50
270.0
 51
90.0
  0
LINE
  8
VOLLINIE
  5
C73D
 10
175.509627
 20
155.624161
 30
0.0
 11
173.830695
 21
155.624161
 31
0.0
  0
LINE
  8
VOLLINIE
  5
C73E
 10
169.688559
 20
155.624161
 30
0.0
 11
168.009627
 21
155.624161
 31
0.0
  0
LINE
  8
VOLLINIE
  5
C73F
 10
173.830695
 20
155.624161
 30
0.0
 11
171.759627
 21
150.624161
 31
0.0
  0
LINE
  8
VOLLINIE
  5
C740
 10
169.688559
 20
155.624161
 30
0.0
 11
171.759627
 21
150.624161
 31
0.0
  0
LINE
  8
VOLLINIE
  5
C741
 10
173.830695
 20
155.624161
 30
0.0
 11
175.509627
 21
155.624161
 31
0.0
  0
LINE
  8
MITTELLINIE
  5
C742
 10
171.759627
 20
149.124161
 30
0.0
 11
171.759627
 21
157.124161
 31
0.0
  0
LINE
  8
MITTELLINIE
  5
C743
 10
165.509627
 20
149.124161
 30
0.0
 11
165.509627
 21
221.124161
 31
0.0
  0
LINE
  8
VOLLINIE
  5
C744
 10
168.009627
 20
150.624161
 30
0.0
 11
163.009627
 21
150.624161
 31
0.0
  0
LINE
  8
VOLLINIE
  5
C745
 10
163.009627
 20
150.624161
 30
0.0
 11
163.009627
 21
164.624161
 31
0.0
  0
LINE
  8
VOLLINIE
  5
C746
 10
168.009627
 20
150.624161
 30
0.0
 11
168.009627
 21
166.124161
 31
0.0
  0
LINE
  8
VOLLINIE
  5
C747
 10
166.095414
 20
219.624161
 30
0.0
 11
165.509627
 21
219.624161
 31
0.0
  0
ARC
  8
VOLLINIE
  5
C748
 10
163.509627
 20
218.624161
 30
0.0
 40
0.5
 50
103.644085
 51
270.0
  0
ARC
  8
VOLLINIE
  5
C749
 10
163.509627
 20
217.124161
 30
0.0
 40
1.0
 50
270.0
 51
90.0
  0
ARC
  8
VOLLINIE
  5
C74A
 10
167.509627
 20
217.124161
 30
0.0
 40
0.5
 50
270.0
 51
90.0
  0
ARC
  8
VOLLINIE
  5
C74B
 10
167.509627
 20
218.624161
 30
0.0
 40
1.0
 50
160.528779
 51
270.0
  0
ARC
  8
VOLLINIE
  5
C74C
 10
163.509627
 20
214.124161
 30
0.0
 40
1.0
 50
270.0
 51
90.0
  0
ARC
  8
VOLLINIE
  5
C74D
 10
163.509627
 20
215.624161
 30
0.0
 40
0.5
 50
90.0
 51
270.0
  0
ARC
  8
VOLLINIE
  5
C74E
 10
167.509627
 20
215.624161
 30
0.0
 40
1.0
 50
90.0
 51
270.0
  0
ARC
  8
VOLLINIE
  5
C74F
 10
167.509627
 20
214.124161
 30
0.0
 40
0.5
 50
270.0
 51
90.0
  0
ARC
  8
VOLLINIE
  5
C750
 10
167.509627
 20
208.124161
 30
0.0
 40
0.5
 50
270.0
 51
90.0
  0
ARC
  8
VOLLINIE
  5
C751
 10
167.509627
 20
209.624161
 30
0.0
 40
1.0
 50
90.0
 51
270.0
  0
ARC
  8
VOLLINIE
  5
C752
 10
163.509627
 20
209.624161
 30
0.0
 40
0.5
 50
90.0
 51
270.0
  0
ARC
  8
VOLLINIE
  5
C753
 10
163.509627
 20
208.124161
 30
0.0
 40
1.0
 50
270.0
 51
90.0
  0
ARC
  8
VOLLINIE
  5
C754
 10
167.509627
 20
212.624161
 30
0.0
 40
1.0
 50
90.0
 51
270.0
  0
ARC
  8
VOLLINIE
  5
C755
 10
167.509627
 20
211.124161
 30
0.0
 40
0.5
 50
270.0
 51
90.0
  0
ARC
  8
VOLLINIE
  5
C756
 10
163.509627
 20
211.124161
 30
0.0
 40
1.0
 50
270.0
 51
90.0
  0
ARC
  8
VOLLINIE
  5
C757
 10
163.509627
 20
212.624161
 30
0.0
 40
0.5
 50
90.0
 51
270.0
  0
ARC
  8
VOLLINIE
  5
C758
 10
163.509627
 20
200.624161
 30
0.0
 40
0.5
 50
90.0
 51
270.0
  0
ARC
  8
VOLLINIE
  5
C759
 10
163.509627
 20
199.124161
 30
0.0
 40
1.0
 50
270.0
 51
90.0
  0
ARC
  8
VOLLINIE
  5
C75A
 10
167.509627
 20
199.124161
 30
0.0
 40
0.5
 50
270.0
 51
90.0
  0
ARC
  8
VOLLINIE
  5
C75B
 10
167.509627
 20
200.624161
 30
0.0
 40
1.0
 50
90.0
 51
270.0
  0
ARC
  8
VOLLINIE
  5
C75C
 10
163.509627
 20
196.124161
 30
0.0
 40
1.0
 50
270.0
 51
90.0
  0
ARC
  8
VOLLINIE
  5
C75D
 10
163.509627
 20
197.624161
 30
0.0
 40
0.5
 50
90.0
 51
270.0
  0
ARC
  8
VOLLINIE
  5
C75E
 10
167.509627
 20
197.624161
 30
0.0
 40
1.0
 50
90.0
 51
270.0
  0
ARC
  8
VOLLINIE
  5
C75F
 10
167.509627
 20
196.124161
 30
0.0
 40
0.5
 50
270.0
 51
90.0
  0
ARC
  8
VOLLINIE
  5
C760
 10
167.509627
 20
202.124161
 30
0.0
 40
0.5
 50
270.0
 51
90.0
  0
ARC
  8
VOLLINIE
  5
C761
 10
167.509627
 20
203.624161
 30
0.0
 40
1.0
 50
90.0
 51
270.0
  0
ARC
  8
VOLLINIE
  5
C762
 10
163.509627
 20
203.624161
 30
0.0
 40
0.5
 50
90.0
 51
270.0
  0
ARC
  8
VOLLINIE
  5
C763
 10
163.509627
 20
202.124161
 30
0.0
 40
1.0
 50
270.0
 51
90.0
  0
ARC
  8
VOLLINIE
  5
C764
 10
167.509627
 20
206.624161
 30
0.0
 40
1.0
 50
90.0
 51
270.0
  0
ARC
  8
VOLLINIE
  5
C765
 10
167.509627
 20
205.124161
 30
0.0
 40
0.5
 50
270.0
 51
90.0
  0
ARC
  8
VOLLINIE
  5
C766
 10
163.509627
 20
205.124161
 30
0.0
 40
1.0
 50
270.0
 51
90.0
  0
ARC
  8
VOLLINIE
  5
C767
 10
163.509627
 20
206.624161
 30
0.0
 40
0.5
 50
90.0
 51
270.0
  0
ARC
  8
VOLLINIE
  5
C768
 10
163.509627
 20
185.624161
 30
0.0
 40
0.5
 50
90.0
 51
270.0
  0
ARC
  8
VOLLINIE
  5
C769
 10
163.509627
 20
184.124161
 30
0.0
 40
1.0
 50
270.0
 51
90.0
  0
ARC
  8
VOLLINIE
  5
C76A
 10
167.509627
 20
184.124161
 30
0.0
 40
0.5
 50
270.0
 51
90.0
  0
ARC
  8
VOLLINIE
  5
C76B
 10
167.509627
 20
185.624161
 30
0.0
 40
1.0
 50
90.0
 51
270.0
  0
ARC
  8
VOLLINIE
  5
C76C
 10
163.509627
 20
181.124161
 30
0.0
 40
1.0
 50
270.0
 51
90.0
  0
ARC
  8
VOLLINIE
  5
C76D
 10
163.509627
 20
182.624161
 30
0.0
 40
0.5
 50
90.0
 51
270.0
  0
ARC
  8
VOLLINIE
  5
C76E
 10
167.509627
 20
182.624161
 30
0.0
 40
1.0
 50
90.0
 51
270.0
  0
ARC
  8
VOLLINIE
  5
C76F
 10
167.509627
 20
181.124161
 30
0.0
 40
0.5
 50
270.0
 51
90.0
  0
ARC
  8
VOLLINIE
  5
C770
 10
167.509627
 20
175.124161
 30
0.0
 40
0.5
 50
270.0
 51
90.0
  0
ARC
  8
VOLLINIE
  5
C771
 10
167.509627
 20
176.624161
 30
0.0
 40
1.0
 50
90.0
 51
270.0
  0
ARC
  8
VOLLINIE
  5
C772
 10
163.509627
 20
176.624161
 30
0.0
 40
0.5
 50
90.0
 51
270.0
  0
ARC
  8
VOLLINIE
  5
C773
 10
163.509627
 20
175.124161
 30
0.0
 40
1.0
 50
270.0
 51
90.0
  0
ARC
  8
VOLLINIE
  5
C774
 10
167.509627
 20
179.624161
 30
0.0
 40
1.0
 50
90.0
 51
270.0
  0
ARC
  8
VOLLINIE
  5
C775
 10
167.509627
 20
178.124161
 30
0.0
 40
0.5
 50
270.0
 51
90.0
  0
ARC
  8
VOLLINIE
  5
C776
 10
163.509627
 20
178.124161
 30
0.0
 40
1.0
 50
270.0
 51
90.0
  0
ARC
  8
VOLLINIE
  5
C777
 10
163.509627
 20
179.624161
 30
0.0
 40
0.5
 50
90.0
 51
270.0
  0
ARC
  8
VOLLINIE
  5
C778
 10
163.509627
 20
191.624161
 30
0.0
 40
0.5
 50
90.0
 51
270.0
  0
ARC
  8
VOLLINIE
  5
C779
 10
163.509627
 20
190.124161
 30
0.0
 40
1.0
 50
270.0
 51
90.0
  0
ARC
  8
VOLLINIE
  5
C77A
 10
167.509627
 20
190.124161
 30
0.0
 40
0.5
 50
270.0
 51
90.0
  0
ARC
  8
VOLLINIE
  5
C77B
 10
167.509627
 20
191.624161
 30
0.0
 40
1.0
 50
90.0
 51
270.0
  0
ARC
  8
VOLLINIE
  5
C77C
 10
163.509627
 20
187.124161
 30
0.0
 40
1.0
 50
270.0
 51
90.0
  0
ARC
  8
VOLLINIE
  5
C77D
 10
163.509627
 20
188.624161
 30
0.0
 40
0.5
 50
90.0
 51
270.0
  0
ARC
  8
VOLLINIE
  5
C77E
 10
167.509627
 20
188.624161
 30
0.0
 40
1.0
 50
90.0
 51
270.0
  0
ARC
  8
VOLLINIE
  5
C77F
 10
167.509627
 20
193.124161
 30
0.0
 40
0.5
 50
270.0
 51
90.0
  0
ARC
  8
VOLLINIE
  5
C780
 10
167.509627
 20
194.624161
 30
0.0
 40
1.0
 50
90.0
 51
270.0
  0
ARC
  8
VOLLINIE
  5
C781
 10
163.509627
 20
194.624161
 30
0.0
 40
0.5
 50
90.0
 51
270.0
  0
ARC
  8
VOLLINIE
  5
C782
 10
163.509627
 20
193.124161
 30
0.0
 40
1.0
 50
270.0
 51
90.0
  0
ARC
  8
VOLLINIE
  5
C783
 10
163.509627
 20
170.624161
 30
0.0
 40
0.5
 50
90.0
 51
270.0
  0
ARC
  8
VOLLINIE
  5
C784
 10
163.509627
 20
169.124161
 30
0.0
 40
1.0
 50
270.0
 51
90.0
  0
ARC
  8
VOLLINIE
  5
C785
 10
167.509627
 20
169.124161
 30
0.0
 40
0.5
 50
270.0
 51
90.0
  0
ARC
  8
VOLLINIE
  5
C786
 10
167.509627
 20
170.624161
 30
0.0
 40
1.0
 50
90.0
 51
270.0
  0
ARC
  8
VOLLINIE
  5
C787
 10
163.509627
 20
166.124161
 30
0.0
 40
1.0
 50
270.0
 51
90.0
  0
ARC
  8
VOLLINIE
  5
C788
 10
163.509627
 20
167.624161
 30
0.0
 40
0.5
 50
90.0
 51
270.0
  0
ARC
  8
VOLLINIE
  5
C789
 10
167.509627
 20
167.624161
 30
0.0
 40
1.0
 50
90.0
 51
270.0
  0
ARC
  8
VOLLINIE
  5
C78A
 10
167.509627
 20
166.124161
 30
0.0
 40
0.5
 50
0.0
 51
90.0
  0
ARC
  8
VOLLINIE
  5
C78B
 10
167.509627
 20
172.124161
 30
0.0
 40
0.5
 50
270.0
 51
90.0
  0
ARC
  8
VOLLINIE
  5
C78C
 10
167.509627
 20
173.624161
 30
0.0
 40
1.0
 50
90.0
 51
270.0
  0
ARC
  8
VOLLINIE
  5
C78D
 10
163.509627
 20
173.624161
 30
0.0
 40
0.5
 50
90.0
 51
270.0
  0
ARC
  8
VOLLINIE
  5
C78E
 10
163.509627
 20
172.124161
 30
0.0
 40
1.0
 50
270.0
 51
90.0
  0
ARC
  8
VOLLINIE
  5
C78F
 10
163.509627
 20
164.624161
 30
0.0
 40
0.5
 50
90.0
 51
180.0
  0
LINE
  8
VOLLINIE
  5
C790
 10
163.391682
 20
219.110051
 30
0.0
 11
165.509627
 21
219.624161
 31
0.0
  0
ARC
  8
VOLLINIE
  5
C791
 10
166.095414
 20
219.124161
 30
0.0
 40
0.5
 50
340.528779
 51
90.0
  0
ARC
  8
VOLLINIE
  5
C792
 10
167.509627
 20
187.124161
 30
0.0
 40
0.5
 50
270.0
 51
90.0
  0
LINE
  8
VOLLINIE
  5
C793
 10
188.009627
 20
155.624161
 30
0.0
 11
186.330695
 21
155.624161
 31
0.0
  0
LINE
  8
VOLLINIE
  5
C794
 10
182.188559
 20
155.624161
 30
0.0
 11
180.509627
 21
155.624161
 31
0.0
  0
LINE
  8
VOLLINIE
  5
C795
 10
186.330695
 20
155.624161
 30
0.0
 11
184.259627
 21
150.624161
 31
0.0
  0
LINE
  8
VOLLINIE
  5
C796
 10
182.188559
 20
155.624161
 30
0.0
 11
184.259627
 21
150.624161
 31
0.0
  0
LINE
  8
VOLLINIE
  5
C797
 10
186.330695
 20
155.624161
 30
0.0
 11
188.009627
 21
155.624161
 31
0.0
  0
LINE
  8
MITTELLINIE
  5
C798
 10
184.259627
 20
149.124161
 30
0.0
 11
184.259627
 21
157.124161
 31
0.0
  0
LINE
  8
MITTELLINIE
  5
C799
 10
178.009627
 20
149.124161
 30
0.0
 11
178.009627
 21
221.124161
 31
0.0
  0
LINE
  8
VOLLINIE
  5
C79A
 10
180.509627
 20
150.624161
 30
0.0
 11
175.509627
 21
150.624161
 31
0.0
  0
LINE
  8
VOLLINIE
  5
C79B
 10
175.509627
 20
150.624161
 30
0.0
 11
175.509627
 21
164.624161
 31
0.0
  0
LINE
  8
VOLLINIE
  5
C79C
 10
180.509627
 20
150.624161
 30
0.0
 11
180.509627
 21
166.124161
 31
0.0
  0
LINE
  8
VOLLINIE
  5
C79D
 10
178.595414
 20
219.624161
 30
0.0
 11
178.009627
 21
219.624161
 31
0.0
  0
ARC
  8
VOLLINIE
  5
C79E
 10
176.009627
 20
218.624161
 30
0.0
 40
0.5
 50
103.644085
 51
270.0
  0
ARC
  8
VOLLINIE
  5
C79F
 10
176.009627
 20
217.124161
 30
0.0
 40
1.0
 50
270.0
 51
90.0
  0
ARC
  8
VOLLINIE
  5
C7A0
 10
180.009627
 20
217.124161
 30
0.0
 40
0.5
 50
270.0
 51
90.0
  0
ARC
  8
VOLLINIE
  5
C7A1
 10
180.009627
 20
218.624161
 30
0.0
 40
1.0
 50
160.528779
 51
270.0
  0
ARC
  8
VOLLINIE
  5
C7A2
 10
176.009627
 20
214.124161
 30
0.0
 40
1.0
 50
270.0
 51
90.0
  0
ARC
  8
VOLLINIE
  5
C7A3
 10
176.009627
 20
215.624161
 30
0.0
 40
0.5
 50
90.0
 51
270.0
  0
ARC
  8
VOLLINIE
  5
C7A4
 10
180.009627
 20
215.624161
 30
0.0
 40
1.0
 50
90.0
 51
270.0
  0
ARC
  8
VOLLINIE
  5
C7A5
 10
180.009627
 20
214.124161
 30
0.0
 40
0.5
 50
270.0
 51
90.0
  0
ARC
  8
VOLLINIE
  5
C7A6
 10
180.009627
 20
208.124161
 30
0.0
 40
0.5
 50
270.0
 51
90.0
  0
ARC
  8
VOLLINIE
  5
C7A7
 10
180.009627
 20
209.624161
 30
0.0
 40
1.0
 50
90.0
 51
270.0
  0
ARC
  8
VOLLINIE
  5
C7A8
 10
176.009627
 20
209.624161
 30
0.0
 40
0.5
 50
90.0
 51
270.0
  0
ARC
  8
VOLLINIE
  5
C7A9
 10
176.009627
 20
208.124161
 30
0.0
 40
1.0
 50
270.0
 51
90.0
  0
ARC
  8
VOLLINIE
  5
C7AA
 10
180.009627
 20
212.624161
 30
0.0
 40
1.0
 50
90.0
 51
270.0
  0
ARC
  8
VOLLINIE
  5
C7AB
 10
180.009627
 20
211.124161
 30
0.0
 40
0.5
 50
270.0
 51
90.0
  0
ARC
  8
VOLLINIE
  5
C7AC
 10
176.009627
 20
211.124161
 30
0.0
 40
1.0
 50
270.0
 51
90.0
  0
ARC
  8
VOLLINIE
  5
C7AD
 10
176.009627
 20
212.624161
 30
0.0
 40
0.5
 50
90.0
 51
270.0
  0
ARC
  8
VOLLINIE
  5
C7AE
 10
176.009627
 20
200.624161
 30
0.0
 40
0.5
 50
90.0
 51
270.0
  0
ARC
  8
VOLLINIE
  5
C7AF
 10
176.009627
 20
199.124161
 30
0.0
 40
1.0
 50
270.0
 51
90.0
  0
ARC
  8
VOLLINIE
  5
C7B0
 10
180.009627
 20
199.124161
 30
0.0
 40
0.5
 50
270.0
 51
90.0
  0
ARC
  8
VOLLINIE
  5
C7B1
 10
180.009627
 20
200.624161
 30
0.0
 40
1.0
 50
90.0
 51
270.0
  0
ARC
  8
VOLLINIE
  5
C7B2
 10
176.009627
 20
196.124161
 30
0.0
 40
1.0
 50
270.0
 51
90.0
  0
ARC
  8
VOLLINIE
  5
C7B3
 10
176.009627
 20
197.624161
 30
0.0
 40
0.5
 50
90.0
 51
270.0
  0
ARC
  8
VOLLINIE
  5
C7B4
 10
180.009627
 20
197.624161
 30
0.0
 40
1.0
 50
90.0
 51
270.0
  0
ARC
  8
VOLLINIE
  5
C7B5
 10
180.009627
 20
196.124161
 30
0.0
 40
0.5
 50
270.0
 51
90.0
  0
ARC
  8
VOLLINIE
  5
C7B6
 10
180.009627
 20
202.124161
 30
0.0
 40
0.5
 50
270.0
 51
90.0
  0
ARC
  8
VOLLINIE
  5
C7B7
 10
180.009627
 20
203.624161
 30
0.0
 40
1.0
 50
90.0
 51
270.0
  0
ARC
  8
VOLLINIE
  5
C7B8
 10
176.009627
 20
203.624161
 30
0.0
 40
0.5
 50
90.0
 51
270.0
  0
ARC
  8
VOLLINIE
  5
C7B9
 10
176.009627
 20
202.124161
 30
0.0
 40
1.0
 50
270.0
 51
90.0
  0
ARC
  8
VOLLINIE
  5
C7BA
 10
180.009627
 20
206.624161
 30
0.0
 40
1.0
 50
90.0
 51
270.0
  0
ARC
  8
VOLLINIE
  5
C7BB
 10
180.009627
 20
205.124161
 30
0.0
 40
0.5
 50
270.0
 51
90.0
  0
ARC
  8
VOLLINIE
  5
C7BC
 10
176.009627
 20
205.124161
 30
0.0
 40
1.0
 50
270.0
 51
90.0
  0
ARC
  8
VOLLINIE
  5
C7BD
 10
176.009627
 20
206.624161
 30
0.0
 40
0.5
 50
90.0
 51
270.0
  0
ARC
  8
VOLLINIE
  5
C7BE
 10
176.009627
 20
185.624161
 30
0.0
 40
0.5
 50
90.0
 51
270.0
  0
ARC
  8
VOLLINIE
  5
C7BF
 10
176.009627
 20
184.124161
 30
0.0
 40
1.0
 50
270.0
 51
90.0
  0
ARC
  8
VOLLINIE
  5
C7C0
 10
180.009627
 20
184.124161
 30
0.0
 40
0.5
 50
270.0
 51
90.0
  0
ARC
  8
VOLLINIE
  5
C7C1
 10
180.009627
 20
185.624161
 30
0.0
 40
1.0
 50
90.0
 51
270.0
  0
ARC
  8
VOLLINIE
  5
C7C2
 10
176.009627
 20
181.124161
 30
0.0
 40
1.0
 50
270.0
 51
90.0
  0
ARC
  8
VOLLINIE
  5
C7C3
 10
176.009627
 20
182.624161
 30
0.0
 40
0.5
 50
90.0
 51
270.0
  0
ARC
  8
VOLLINIE
  5
C7C4
 10
180.009627
 20
182.624161
 30
0.0
 40
1.0
 50
90.0
 51
270.0
  0
ARC
  8
VOLLINIE
  5
C7C5
 10
180.009627
 20
181.124161
 30
0.0
 40
0.5
 50
270.0
 51
90.0
  0
ARC
  8
VOLLINIE
  5
C7C6
 10
180.009627
 20
175.124161
 30
0.0
 40
0.5
 50
270.0
 51
90.0
  0
ARC
  8
VOLLINIE
  5
C7C7
 10
180.009627
 20
176.624161
 30
0.0
 40
1.0
 50
90.0
 51
270.0
  0
ARC
  8
VOLLINIE
  5
C7C8
 10
176.009627
 20
176.624161
 30
0.0
 40
0.5
 50
90.0
 51
270.0
  0
ARC
  8
VOLLINIE
  5
C7C9
 10
176.009627
 20
175.124161
 30
0.0
 40
1.0
 50
270.0
 51
90.0
  0
ARC
  8
VOLLINIE
  5
C7CA
 10
180.009627
 20
179.624161
 30
0.0
 40
1.0
 50
90.0
 51
270.0
  0
ARC
  8
VOLLINIE
  5
C7CB
 10
180.009627
 20
178.124161
 30
0.0
 40
0.5
 50
270.0
 51
90.0
  0
ARC
  8
VOLLINIE
  5
C7CC
 10
176.009627
 20
178.124161
 30
0.0
 40
1.0
 50
270.0
 51
90.0
  0
ARC
  8
VOLLINIE
  5
C7CD
 10
176.009627
 20
179.624161
 30
0.0
 40
0.5
 50
90.0
 51
270.0
  0
ARC
  8
VOLLINIE
  5
C7CE
 10
176.009627
 20
191.624161
 30
0.0
 40
0.5
 50
90.0
 51
270.0
  0
ARC
  8
VOLLINIE
  5
C7CF
 10
176.009627
 20
190.124161
 30
0.0
 40
1.0
 50
270.0
 51
90.0
  0
ARC
  8
VOLLINIE
  5
C7D0
 10
180.009627
 20
190.124161
 30
0.0
 40
0.5
 50
270.0
 51
90.0
  0
ARC
  8
VOLLINIE
  5
C7D1
 10
180.009627
 20
191.624161
 30
0.0
 40
1.0
 50
90.0
 51
270.0
  0
ARC
  8
VOLLINIE
  5
C7D2
 10
176.009627
 20
187.124161
 30
0.0
 40
1.0
 50
270.0
 51
90.0
  0
ARC
  8
VOLLINIE
  5
C7D3
 10
176.009627
 20
188.624161
 30
0.0
 40
0.5
 50
90.0
 51
270.0
  0
ARC
  8
VOLLINIE
  5
C7D4
 10
180.009627
 20
188.624161
 30
0.0
 40
1.0
 50
90.0
 51
270.0
  0
ARC
  8
VOLLINIE
  5
C7D5
 10
180.009627
 20
193.124161
 30
0.0
 40
0.5
 50
270.0
 51
90.0
  0
ARC
  8
VOLLINIE
  5
C7D6
 10
180.009627
 20
194.624161
 30
0.0
 40
1.0
 50
90.0
 51
270.0
  0
ARC
  8
VOLLINIE
  5
C7D7
 10
176.009627
 20
194.624161
 30
0.0
 40
0.5
 50
90.0
 51
270.0
  0
ARC
  8
VOLLINIE
  5
C7D8
 10
176.009627
 20
193.124161
 30
0.0
 40
1.0
 50
270.0
 51
90.0
  0
ARC
  8
VOLLINIE
  5
C7D9
 10
176.009627
 20
170.624161
 30
0.0
 40
0.5
 50
90.0
 51
270.0
  0
ARC
  8
VOLLINIE
  5
C7DA
 10
176.009627
 20
169.124161
 30
0.0
 40
1.0
 50
270.0
 51
90.0
  0
ARC
  8
VOLLINIE
  5
C7DB
 10
180.009627
 20
169.124161
 30
0.0
 40
0.5
 50
270.0
 51
90.0
  0
ARC
  8
VOLLINIE
  5
C7DC
 10
180.009627
 20
170.624161
 30
0.0
 40
1.0
 50
90.0
 51
270.0
  0
ARC
  8
VOLLINIE
  5
C7DD
 10
176.009627
 20
166.124161
 30
0.0
 40
1.0
 50
270.0
 51
90.0
  0
ARC
  8
VOLLINIE
  5
C7DE
 10
176.009627
 20
167.624161
 30
0.0
 40
0.5
 50
90.0
 51
270.0
  0
ARC
  8
VOLLINIE
  5
C7DF
 10
180.009627
 20
167.624161
 30
0.0
 40
1.0
 50
90.0
 51
270.0
  0
ARC
  8
VOLLINIE
  5
C7E0
 10
180.009627
 20
166.124161
 30
0.0
 40
0.5
 50
0.0
 51
90.0
  0
ARC
  8
VOLLINIE
  5
C7E1
 10
180.009627
 20
172.124161
 30
0.0
 40
0.5
 50
270.0
 51
90.0
  0
ARC
  8
VOLLINIE
  5
C7E2
 10
180.009627
 20
173.624161
 30
0.0
 40
1.0
 50
90.0
 51
270.0
  0
ARC
  8
VOLLINIE
  5
C7E3
 10
176.009627
 20
173.624161
 30
0.0
 40
0.5
 50
90.0
 51
270.0
  0
ARC
  8
VOLLINIE
  5
C7E4
 10
176.009627
 20
172.124161
 30
0.0
 40
1.0
 50
270.0
 51
90.0
  0
ARC
  8
VOLLINIE
  5
C7E5
 10
176.009627
 20
164.624161
 30
0.0
 40
0.5
 50
90.0
 51
180.0
  0
LINE
  8
VOLLINIE
  5
C7E6
 10
175.891682
 20
219.110051
 30
0.0
 11
178.009627
 21
219.624161
 31
0.0
  0
ARC
  8
VOLLINIE
  5
C7E7
 10
178.595414
 20
219.124161
 30
0.0
 40
0.5
 50
340.528779
 51
90.0
  0
ARC
  8
VOLLINIE
  5
C7E8
 10
180.009627
 20
187.124161
 30
0.0
 40
0.5
 50
270.0
 51
90.0
  0
LINE
  8
VOLLINIE
  5
C7E9
 10
200.509627
 20
155.624161
 30
0.0
 11
198.830695
 21
155.624161
 31
0.0
  0
LINE
  8
VOLLINIE
  5
C7EA
 10
194.688559
 20
155.624161
 30
0.0
 11
193.009627
 21
155.624161
 31
0.0
  0
LINE
  8
VOLLINIE
  5
C7EB
 10
198.830695
 20
155.624161
 30
0.0
 11
196.759627
 21
150.624161
 31
0.0
  0
LINE
  8
VOLLINIE
  5
C7EC
 10
194.688559
 20
155.624161
 30
0.0
 11
196.759627
 21
150.624161
 31
0.0
  0
LINE
  8
VOLLINIE
  5
C7ED
 10
198.830695
 20
155.624161
 30
0.0
 11
200.509627
 21
155.624161
 31
0.0
  0
LINE
  8
MITTELLINIE
  5
C7EE
 10
196.759627
 20
149.124161
 30
0.0
 11
196.759627
 21
157.124161
 31
0.0
  0
LINE
  8
MITTELLINIE
  5
C7EF
 10
190.509627
 20
149.124161
 30
0.0
 11
190.509627
 21
221.124161
 31
0.0
  0
LINE
  8
VOLLINIE
  5
C7F0
 10
193.009627
 20
150.624161
 30
0.0
 11
188.009627
 21
150.624161
 31
0.0
  0
LINE
  8
VOLLINIE
  5
C7F1
 10
188.009627
 20
150.624161
 30
0.0
 11
188.009627
 21
164.624161
 31
0.0
  0
LINE
  8
VOLLINIE
  5
C7F2
 10
193.009627
 20
150.624161
 30
0.0
 11
193.009627
 21
166.124161
 31
0.0
  0
LINE
  8
VOLLINIE
  5
C7F3
 10
191.095414
 20
219.624161
 30
0.0
 11
190.509627
 21
219.624161
 31
0.0
  0
ARC
  8
VOLLINIE
  5
C7F4
 10
188.509627
 20
218.624161
 30
0.0
 40
0.5
 50
103.644085
 51
270.0
  0
ARC
  8
VOLLINIE
  5
C7F5
 10
188.509627
 20
217.124161
 30
0.0
 40
1.0
 50
270.0
 51
90.0
  0
ARC
  8
VOLLINIE
  5
C7F6
 10
192.509627
 20
217.124161
 30
0.0
 40
0.5
 50
270.0
 51
90.0
  0
ARC
  8
VOLLINIE
  5
C7F7
 10
192.509627
 20
218.624161
 30
0.0
 40
1.0
 50
160.528779
 51
270.0
  0
ARC
  8
VOLLINIE
  5
C7F8
 10
188.509627
 20
214.124161
 30
0.0
 40
1.0
 50
270.0
 51
90.0
  0
ARC
  8
VOLLINIE
  5
C7F9
 10
188.509627
 20
215.624161
 30
0.0
 40
0.5
 50
90.0
 51
270.0
  0
ARC
  8
VOLLINIE
  5
C7FA
 10
192.509627
 20
215.624161
 30
0.0
 40
1.0
 50
90.0
 51
270.0
  0
ARC
  8
VOLLINIE
  5
C7FB
 10
192.509627
 20
214.124161
 30
0.0
 40
0.5
 50
270.0
 51
90.0
  0
ARC
  8
VOLLINIE
  5
C7FC
 10
192.509627
 20
208.124161
 30
0.0
 40
0.5
 50
270.0
 51
90.0
  0
ARC
  8
VOLLINIE
  5
C7FD
 10
192.509627
 20
209.624161
 30
0.0
 40
1.0
 50
90.0
 51
270.0
  0
ARC
  8
VOLLINIE
  5
C7FE
 10
188.509627
 20
209.624161
 30
0.0
 40
0.5
 50
90.0
 51
270.0
  0
ARC
  8
VOLLINIE
  5
C7FF
 10
188.509627
 20
208.124161
 30
0.0
 40
1.0
 50
270.0
 51
90.0
  0
ARC
  8
VOLLINIE
  5
C800
 10
192.509627
 20
212.624161
 30
0.0
 40
1.0
 50
90.0
 51
270.0
  0
ARC
  8
VOLLINIE
  5
C801
 10
192.509627
 20
211.124161
 30
0.0
 40
0.5
 50
270.0
 51
90.0
  0
ARC
  8
VOLLINIE
  5
C802
 10
188.509627
 20
211.124161
 30
0.0
 40
1.0
 50
270.0
 51
90.0
  0
ARC
  8
VOLLINIE
  5
C803
 10
188.509627
 20
212.624161
 30
0.0
 40
0.5
 50
90.0
 51
270.0
  0
ARC
  8
VOLLINIE
  5
C804
 10
188.509627
 20
200.624161
 30
0.0
 40
0.5
 50
90.0
 51
270.0
  0
ARC
  8
VOLLINIE
  5
C805
 10
188.509627
 20
199.124161
 30
0.0
 40
1.0
 50
270.0
 51
90.0
  0
ARC
  8
VOLLINIE
  5
C806
 10
192.509627
 20
199.124161
 30
0.0
 40
0.5
 50
270.0
 51
90.0
  0
ARC
  8
VOLLINIE
  5
C807
 10
192.509627
 20
200.624161
 30
0.0
 40
1.0
 50
90.0
 51
270.0
  0
ARC
  8
VOLLINIE
  5
C808
 10
188.509627
 20
196.124161
 30
0.0
 40
1.0
 50
270.0
 51
90.0
  0
ARC
  8
VOLLINIE
  5
C809
 10
188.509627
 20
197.624161
 30
0.0
 40
0.5
 50
90.0
 51
270.0
  0
ARC
  8
VOLLINIE
  5
C80A
 10
192.509627
 20
197.624161
 30
0.0
 40
1.0
 50
90.0
 51
270.0
  0
ARC
  8
VOLLINIE
  5
C80B
 10
192.509627
 20
196.124161
 30
0.0
 40
0.5
 50
270.0
 51
90.0
  0
ARC
  8
VOLLINIE
  5
C80C
 10
192.509627
 20
202.124161
 30
0.0
 40
0.5
 50
270.0
 51
90.0
  0
ARC
  8
VOLLINIE
  5
C80D
 10
192.509627
 20
203.624161
 30
0.0
 40
1.0
 50
90.0
 51
270.0
  0
ARC
  8
VOLLINIE
  5
C80E
 10
188.509627
 20
203.624161
 30
0.0
 40
0.5
 50
90.0
 51
270.0
  0
ARC
  8
VOLLINIE
  5
C80F
 10
188.509627
 20
202.124161
 30
0.0
 40
1.0
 50
270.0
 51
90.0
  0
ARC
  8
VOLLINIE
  5
C810
 10
192.509627
 20
206.624161
 30
0.0
 40
1.0
 50
90.0
 51
270.0
  0
ARC
  8
VOLLINIE
  5
C811
 10
192.509627
 20
205.124161
 30
0.0
 40
0.5
 50
270.0
 51
90.0
  0
ARC
  8
VOLLINIE
  5
C812
 10
188.509627
 20
205.124161
 30
0.0
 40
1.0
 50
270.0
 51
90.0
  0
ARC
  8
VOLLINIE
  5
C813
 10
188.509627
 20
206.624161
 30
0.0
 40
0.5
 50
90.0
 51
270.0
  0
ARC
  8
VOLLINIE
  5
C814
 10
188.509627
 20
185.624161
 30
0.0
 40
0.5
 50
90.0
 51
270.0
  0
ARC
  8
VOLLINIE
  5
C815
 10
188.509627
 20
184.124161
 30
0.0
 40
1.0
 50
270.0
 51
90.0
  0
ARC
  8
VOLLINIE
  5
C816
 10
192.509627
 20
184.124161
 30
0.0
 40
0.5
 50
270.0
 51
90.0
  0
ARC
  8
VOLLINIE
  5
C817
 10
192.509627
 20
185.624161
 30
0.0
 40
1.0
 50
90.0
 51
270.0
  0
ARC
  8
VOLLINIE
  5
C818
 10
188.509627
 20
181.124161
 30
0.0
 40
1.0
 50
270.0
 51
90.0
  0
ARC
  8
VOLLINIE
  5
C819
 10
188.509627
 20
182.624161
 30
0.0
 40
0.5
 50
90.0
 51
270.0
  0
ARC
  8
VOLLINIE
  5
C81A
 10
192.509627
 20
182.624161
 30
0.0
 40
1.0
 50
90.0
 51
270.0
  0
ARC
  8
VOLLINIE
  5
C81B
 10
192.509627
 20
181.124161
 30
0.0
 40
0.5
 50
270.0
 51
90.0
  0
ARC
  8
VOLLINIE
  5
C81C
 10
192.509627
 20
175.124161
 30
0.0
 40
0.5
 50
270.0
 51
90.0
  0
ARC
  8
VOLLINIE
  5
C81D
 10
192.509627
 20
176.624161
 30
0.0
 40
1.0
 50
90.0
 51
270.0
  0
ARC
  8
VOLLINIE
  5
C81E
 10
188.509627
 20
176.624161
 30
0.0
 40
0.5
 50
90.0
 51
270.0
  0
ARC
  8
VOLLINIE
  5
C81F
 10
188.509627
 20
175.124161
 30
0.0
 40
1.0
 50
270.0
 51
90.0
  0
ARC
  8
VOLLINIE
  5
C820
 10
192.509627
 20
179.624161
 30
0.0
 40
1.0
 50
90.0
 51
270.0
  0
ARC
  8
VOLLINIE
  5
C821
 10
192.509627
 20
178.124161
 30
0.0
 40
0.5
 50
270.0
 51
90.0
  0
ARC
  8
VOLLINIE
  5
C822
 10
188.509627
 20
178.124161
 30
0.0
 40
1.0
 50
270.0
 51
90.0
  0
ARC
  8
VOLLINIE
  5
C823
 10
188.509627
 20
179.624161
 30
0.0
 40
0.5
 50
90.0
 51
270.0
  0
ARC
  8
VOLLINIE
  5
C824
 10
188.509627
 20
191.624161
 30
0.0
 40
0.5
 50
90.0
 51
270.0
  0
ARC
  8
VOLLINIE
  5
C825
 10
188.509627
 20
190.124161
 30
0.0
 40
1.0
 50
270.0
 51
90.0
  0
ARC
  8
VOLLINIE
  5
C826
 10
192.509627
 20
190.124161
 30
0.0
 40
0.5
 50
270.0
 51
90.0
  0
ARC
  8
VOLLINIE
  5
C827
 10
192.509627
 20
191.624161
 30
0.0
 40
1.0
 50
90.0
 51
270.0
  0
ARC
  8
VOLLINIE
  5
C828
 10
188.509627
 20
187.124161
 30
0.0
 40
1.0
 50
270.0
 51
90.0
  0
ARC
  8
VOLLINIE
  5
C829
 10
188.509627
 20
188.624161
 30
0.0
 40
0.5
 50
90.0
 51
270.0
  0
ARC
  8
VOLLINIE
  5
C82A
 10
192.509627
 20
188.624161
 30
0.0
 40
1.0
 50
90.0
 51
270.0
  0
ARC
  8
VOLLINIE
  5
C82B
 10
192.509627
 20
193.124161
 30
0.0
 40
0.5
 50
270.0
 51
90.0
  0
ARC
  8
VOLLINIE
  5
C82C
 10
192.509627
 20
194.624161
 30
0.0
 40
1.0
 50
90.0
 51
270.0
  0
ARC
  8
VOLLINIE
  5
C82D
 10
188.509627
 20
194.624161
 30
0.0
 40
0.5
 50
90.0
 51
270.0
  0
ARC
  8
VOLLINIE
  5
C82E
 10
188.509627
 20
193.124161
 30
0.0
 40
1.0
 50
270.0
 51
90.0
  0
ARC
  8
VOLLINIE
  5
C82F
 10
188.509627
 20
170.624161
 30
0.0
 40
0.5
 50
90.0
 51
270.0
  0
ARC
  8
VOLLINIE
  5
C830
 10
188.509627
 20
169.124161
 30
0.0
 40
1.0
 50
270.0
 51
90.0
  0
ARC
  8
VOLLINIE
  5
C831
 10
192.509627
 20
169.124161
 30
0.0
 40
0.5
 50
270.0
 51
90.0
  0
ARC
  8
VOLLINIE
  5
C832
 10
192.509627
 20
170.624161
 30
0.0
 40
1.0
 50
90.0
 51
270.0
  0
ARC
  8
VOLLINIE
  5
C833
 10
188.509627
 20
166.124161
 30
0.0
 40
1.0
 50
270.0
 51
90.0
  0
ARC
  8
VOLLINIE
  5
C834
 10
188.509627
 20
167.624161
 30
0.0
 40
0.5
 50
90.0
 51
270.0
  0
ARC
  8
VOLLINIE
  5
C835
 10
192.509627
 20
167.624161
 30
0.0
 40
1.0
 50
90.0
 51
270.0
  0
ARC
  8
VOLLINIE
  5
C836
 10
192.509627
 20
166.124161
 30
0.0
 40
0.5
 50
0.0
 51
90.0
  0
ARC
  8
VOLLINIE
  5
C837
 10
192.509627
 20
172.124161
 30
0.0
 40
0.5
 50
270.0
 51
90.0
  0
ARC
  8
VOLLINIE
  5
C838
 10
192.509627
 20
173.624161
 30
0.0
 40
1.0
 50
90.0
 51
270.0
  0
ARC
  8
VOLLINIE
  5
C839
 10
188.509627
 20
173.624161
 30
0.0
 40
0.5
 50
90.0
 51
270.0
  0
ARC
  8
VOLLINIE
  5
C83A
 10
188.509627
 20
172.124161
 30
0.0
 40
1.0
 50
270.0
 51
90.0
  0
ARC
  8
VOLLINIE
  5
C83B
 10
188.509627
 20
164.624161
 30
0.0
 40
0.5
 50
90.0
 51
180.0
  0
LINE
  8
VOLLINIE
  5
C83C
 10
188.391682
 20
219.110051
 30
0.0
 11
190.509627
 21
219.624161
 31
0.0
  0
ARC
  8
VOLLINIE
  5
C83D
 10
191.095414
 20
219.124161
 30
0.0
 40
0.5
 50
340.528779
 51
90.0
  0
ARC
  8
VOLLINIE
  5
C83E
 10
192.509627
 20
187.124161
 30
0.0
 40
0.5
 50
270.0
 51
90.0
  0
LINE
  8
VOLLINIE
  5
C83F
 10
213.009627
 20
155.624161
 30
0.0
 11
211.330695
 21
155.624161
 31
0.0
  0
LINE
  8
VOLLINIE
  5
C840
 10
207.188559
 20
155.624161
 30
0.0
 11
205.509627
 21
155.624161
 31
0.0
  0
LINE
  8
VOLLINIE
  5
C841
 10
211.330695
 20
155.624161
 30
0.0
 11
209.259627
 21
150.624161
 31
0.0
  0
LINE
  8
VOLLINIE
  5
C842
 10
207.188559
 20
155.624161
 30
0.0
 11
209.259627
 21
150.624161
 31
0.0
  0
LINE
  8
VOLLINIE
  5
C843
 10
211.330695
 20
155.624161
 30
0.0
 11
213.009627
 21
155.624161
 31
0.0
  0
LINE
  8
MITTELLINIE
  5
C844
 10
209.259627
 20
149.124161
 30
0.0
 11
209.259627
 21
157.124161
 31
0.0
  0
LINE
  8
MITTELLINIE
  5
C845
 10
203.009627
 20
149.124161
 30
0.0
 11
203.009627
 21
221.124161
 31
0.0
  0
LINE
  8
VOLLINIE
  5
C846
 10
205.509627
 20
150.624161
 30
0.0
 11
200.509627
 21
150.624161
 31
0.0
  0
LINE
  8
VOLLINIE
  5
C847
 10
200.509627
 20
150.624161
 30
0.0
 11
200.509627
 21
164.624161
 31
0.0
  0
LINE
  8
VOLLINIE
  5
C848
 10
205.509627
 20
150.624161
 30
0.0
 11
205.509627
 21
166.124161
 31
0.0
  0
LINE
  8
VOLLINIE
  5
C849
 10
203.595414
 20
219.624161
 30
0.0
 11
203.009627
 21
219.624161
 31
0.0
  0
ARC
  8
VOLLINIE
  5
C84A
 10
201.009627
 20
218.624161
 30
0.0
 40
0.5
 50
103.644085
 51
270.0
  0
ARC
  8
VOLLINIE
  5
C84B
 10
201.009627
 20
217.124161
 30
0.0
 40
1.0
 50
270.0
 51
90.0
  0
ARC
  8
VOLLINIE
  5
C84C
 10
205.009627
 20
217.124161
 30
0.0
 40
0.5
 50
270.0
 51
90.0
  0
ARC
  8
VOLLINIE
  5
C84D
 10
205.009627
 20
218.624161
 30
0.0
 40
1.0
 50
160.528779
 51
270.0
  0
ARC
  8
VOLLINIE
  5
C84E
 10
201.009627
 20
214.124161
 30
0.0
 40
1.0
 50
270.0
 51
90.0
  0
ARC
  8
VOLLINIE
  5
C84F
 10
201.009627
 20
215.624161
 30
0.0
 40
0.5
 50
90.0
 51
270.0
  0
ARC
  8
VOLLINIE
  5
C850
 10
205.009627
 20
215.624161
 30
0.0
 40
1.0
 50
90.0
 51
270.0
  0
ARC
  8
VOLLINIE
  5
C851
 10
205.009627
 20
214.124161
 30
0.0
 40
0.5
 50
270.0
 51
90.0
  0
ARC
  8
VOLLINIE
  5
C852
 10
205.009627
 20
208.124161
 30
0.0
 40
0.5
 50
270.0
 51
90.0
  0
ARC
  8
VOLLINIE
  5
C853
 10
205.009627
 20
209.624161
 30
0.0
 40
1.0
 50
90.0
 51
270.0
  0
ARC
  8
VOLLINIE
  5
C854
 10
201.009627
 20
209.624161
 30
0.0
 40
0.5
 50
90.0
 51
270.0
  0
ARC
  8
VOLLINIE
  5
C855
 10
201.009627
 20
208.124161
 30
0.0
 40
1.0
 50
270.0
 51
90.0
  0
ARC
  8
VOLLINIE
  5
C856
 10
205.009627
 20
212.624161
 30
0.0
 40
1.0
 50
90.0
 51
270.0
  0
ARC
  8
VOLLINIE
  5
C857
 10
205.009627
 20
211.124161
 30
0.0
 40
0.5
 50
270.0
 51
90.0
  0
ARC
  8
VOLLINIE
  5
C858
 10
201.009627
 20
211.124161
 30
0.0
 40
1.0
 50
270.0
 51
90.0
  0
ARC
  8
VOLLINIE
  5
C859
 10
201.009627
 20
212.624161
 30
0.0
 40
0.5
 50
90.0
 51
270.0
  0
ARC
  8
VOLLINIE
  5
C85A
 10
201.009627
 20
200.624161
 30
0.0
 40
0.5
 50
90.0
 51
270.0
  0
ARC
  8
VOLLINIE
  5
C85B
 10
201.009627
 20
199.124161
 30
0.0
 40
1.0
 50
270.0
 51
90.0
  0
ARC
  8
VOLLINIE
  5
C85C
 10
205.009627
 20
199.124161
 30
0.0
 40
0.5
 50
270.0
 51
90.0
  0
ARC
  8
VOLLINIE
  5
C85D
 10
205.009627
 20
200.624161
 30
0.0
 40
1.0
 50
90.0
 51
270.0
  0
ARC
  8
VOLLINIE
  5
C85E
 10
201.009627
 20
196.124161
 30
0.0
 40
1.0
 50
270.0
 51
90.0
  0
ARC
  8
VOLLINIE
  5
C85F
 10
201.009627
 20
197.624161
 30
0.0
 40
0.5
 50
90.0
 51
270.0
  0
ARC
  8
VOLLINIE
  5
C860
 10
205.009627
 20
197.624161
 30
0.0
 40
1.0
 50
90.0
 51
270.0
  0
ARC
  8
VOLLINIE
  5
C861
 10
205.009627
 20
196.124161
 30
0.0
 40
0.5
 50
270.0
 51
90.0
  0
ARC
  8
VOLLINIE
  5
C862
 10
205.009627
 20
202.124161
 30
0.0
 40
0.5
 50
270.0
 51
90.0
  0
ARC
  8
VOLLINIE
  5
C863
 10
205.009627
 20
203.624161
 30
0.0
 40
1.0
 50
90.0
 51
270.0
  0
ARC
  8
VOLLINIE
  5
C864
 10
201.009627
 20
203.624161
 30
0.0
 40
0.5
 50
90.0
 51
270.0
  0
ARC
  8
VOLLINIE
  5
C865
 10
201.009627
 20
202.124161
 30
0.0
 40
1.0
 50
270.0
 51
90.0
  0
ARC
  8
VOLLINIE
  5
C866
 10
205.009627
 20
206.624161
 30
0.0
 40
1.0
 50
90.0
 51
270.0
  0
ARC
  8
VOLLINIE
  5
C867
 10
205.009627
 20
205.124161
 30
0.0
 40
0.5
 50
270.0
 51
90.0
  0
ARC
  8
VOLLINIE
  5
C868
 10
201.009627
 20
205.124161
 30
0.0
 40
1.0
 50
270.0
 51
90.0
  0
ARC
  8
VOLLINIE
  5
C869
 10
201.009627
 20
206.624161
 30
0.0
 40
0.5
 50
90.0
 51
270.0
  0
ARC
  8
VOLLINIE
  5
C86A
 10
201.009627
 20
185.624161
 30
0.0
 40
0.5
 50
90.0
 51
270.0
  0
ARC
  8
VOLLINIE
  5
C86B
 10
201.009627
 20
184.124161
 30
0.0
 40
1.0
 50
270.0
 51
90.0
  0
ARC
  8
VOLLINIE
  5
C86C
 10
205.009627
 20
184.124161
 30
0.0
 40
0.5
 50
270.0
 51
90.0
  0
ARC
  8
VOLLINIE
  5
C86D
 10
205.009627
 20
185.624161
 30
0.0
 40
1.0
 50
90.0
 51
270.0
  0
ARC
  8
VOLLINIE
  5
C86E
 10
201.009627
 20
181.124161
 30
0.0
 40
1.0
 50
270.0
 51
90.0
  0
ARC
  8
VOLLINIE
  5
C86F
 10
201.009627
 20
182.624161
 30
0.0
 40
0.5
 50
90.0
 51
270.0
  0
ARC
  8
VOLLINIE
  5
C870
 10
205.009627
 20
182.624161
 30
0.0
 40
1.0
 50
90.0
 51
270.0
  0
ARC
  8
VOLLINIE
  5
C871
 10
205.009627
 20
181.124161
 30
0.0
 40
0.5
 50
270.0
 51
90.0
  0
ARC
  8
VOLLINIE
  5
C872
 10
205.009627
 20
175.124161
 30
0.0
 40
0.5
 50
270.0
 51
90.0
  0
ARC
  8
VOLLINIE
  5
C873
 10
205.009627
 20
176.624161
 30
0.0
 40
1.0
 50
90.0
 51
270.0
  0
ARC
  8
VOLLINIE
  5
C874
 10
201.009627
 20
176.624161
 30
0.0
 40
0.5
 50
90.0
 51
270.0
  0
ARC
  8
VOLLINIE
  5
C875
 10
201.009627
 20
175.124161
 30
0.0
 40
1.0
 50
270.0
 51
90.0
  0
ARC
  8
VOLLINIE
  5
C876
 10
205.009627
 20
179.624161
 30
0.0
 40
1.0
 50
90.0
 51
270.0
  0
ARC
  8
VOLLINIE
  5
C877
 10
205.009627
 20
178.124161
 30
0.0
 40
0.5
 50
270.0
 51
90.0
  0
ARC
  8
VOLLINIE
  5
C878
 10
201.009627
 20
178.124161
 30
0.0
 40
1.0
 50
270.0
 51
90.0
  0
ARC
  8
VOLLINIE
  5
C879
 10
201.009627
 20
179.624161
 30
0.0
 40
0.5
 50
90.0
 51
270.0
  0
ARC
  8
VOLLINIE
  5
C87A
 10
201.009627
 20
191.624161
 30
0.0
 40
0.5
 50
90.0
 51
270.0
  0
ARC
  8
VOLLINIE
  5
C87B
 10
201.009627
 20
190.124161
 30
0.0
 40
1.0
 50
270.0
 51
90.0
  0
ARC
  8
VOLLINIE
  5
C87C
 10
205.009627
 20
190.124161
 30
0.0
 40
0.5
 50
270.0
 51
90.0
  0
ARC
  8
VOLLINIE
  5
C87D
 10
205.009627
 20
191.624161
 30
0.0
 40
1.0
 50
90.0
 51
270.0
  0
ARC
  8
VOLLINIE
  5
C87E
 10
201.009627
 20
187.124161
 30
0.0
 40
1.0
 50
270.0
 51
90.0
  0
ARC
  8
VOLLINIE
  5
C87F
 10
201.009627
 20
188.624161
 30
0.0
 40
0.5
 50
90.0
 51
270.0
  0
ARC
  8
VOLLINIE
  5
C880
 10
205.009627
 20
188.624161
 30
0.0
 40
1.0
 50
90.0
 51
270.0
  0
ARC
  8
VOLLINIE
  5
C881
 10
205.009627
 20
193.124161
 30
0.0
 40
0.5
 50
270.0
 51
90.0
  0
ARC
  8
VOLLINIE
  5
C882
 10
205.009627
 20
194.624161
 30
0.0
 40
1.0
 50
90.0
 51
270.0
  0
ARC
  8
VOLLINIE
  5
C883
 10
201.009627
 20
194.624161
 30
0.0
 40
0.5
 50
90.0
 51
270.0
  0
ARC
  8
VOLLINIE
  5
C884
 10
201.009627
 20
193.124161
 30
0.0
 40
1.0
 50
270.0
 51
90.0
  0
ARC
  8
VOLLINIE
  5
C885
 10
201.009627
 20
170.624161
 30
0.0
 40
0.5
 50
90.0
 51
270.0
  0
ARC
  8
VOLLINIE
  5
C886
 10
201.009627
 20
169.124161
 30
0.0
 40
1.0
 50
270.0
 51
90.0
  0
ARC
  8
VOLLINIE
  5
C887
 10
205.009627
 20
169.124161
 30
0.0
 40
0.5
 50
270.0
 51
90.0
  0
ARC
  8
VOLLINIE
  5
C888
 10
205.009627
 20
170.624161
 30
0.0
 40
1.0
 50
90.0
 51
270.0
  0
ARC
  8
VOLLINIE
  5
C889
 10
201.009627
 20
166.124161
 30
0.0
 40
1.0
 50
270.0
 51
90.0
  0
ARC
  8
VOLLINIE
  5
C88A
 10
201.009627
 20
167.624161
 30
0.0
 40
0.5
 50
90.0
 51
270.0
  0
ARC
  8
VOLLINIE
  5
C88B
 10
205.009627
 20
167.624161
 30
0.0
 40
1.0
 50
90.0
 51
270.0
  0
ARC
  8
VOLLINIE
  5
C88C
 10
205.009627
 20
166.124161
 30
0.0
 40
0.5
 50
0.0
 51
90.0
  0
ARC
  8
VOLLINIE
  5
C88D
 10
205.009627
 20
172.124161
 30
0.0
 40
0.5
 50
270.0
 51
90.0
  0
ARC
  8
VOLLINIE
  5
C88E
 10
205.009627
 20
173.624161
 30
0.0
 40
1.0
 50
90.0
 51
270.0
  0
ARC
  8
VOLLINIE
  5
C88F
 10
201.009627
 20
173.624161
 30
0.0
 40
0.5
 50
90.0
 51
270.0
  0
ARC
  8
VOLLINIE
  5
C890
 10
201.009627
 20
172.124161
 30
0.0
 40
1.0
 50
270.0
 51
90.0
  0
ARC
  8
VOLLINIE
  5
C891
 10
201.009627
 20
164.624161
 30
0.0
 40
0.5
 50
90.0
 51
180.0
  0
LINE
  8
VOLLINIE
  5
C892
 10
200.891682
 20
219.110051
 30
0.0
 11
203.009627
 21
219.624161
 31
0.0
  0
ARC
  8
VOLLINIE
  5
C893
 10
203.595414
 20
219.124161
 30
0.0
 40
0.5
 50
340.528779
 51
90.0
  0
ARC
  8
VOLLINIE
  5
C894
 10
205.009627
 20
187.124161
 30
0.0
 40
0.5
 50
270.0
 51
90.0
  0
LINE
  8
VOLLINIE
  5
C895
 10
225.509627
 20
155.624161
 30
0.0
 11
223.830695
 21
155.624161
 31
0.0
  0
LINE
  8
VOLLINIE
  5
C896
 10
219.688559
 20
155.624161
 30
0.0
 11
218.009627
 21
155.624161
 31
0.0
  0
LINE
  8
VOLLINIE
  5
C897
 10
223.830695
 20
155.624161
 30
0.0
 11
221.759627
 21
150.624161
 31
0.0
  0
LINE
  8
VOLLINIE
  5
C898
 10
219.688559
 20
155.624161
 30
0.0
 11
221.759627
 21
150.624161
 31
0.0
  0
LINE
  8
VOLLINIE
  5
C899
 10
223.830695
 20
155.624161
 30
0.0
 11
225.509627
 21
155.624161
 31
0.0
  0
LINE
  8
MITTELLINIE
  5
C89A
 10
221.759627
 20
149.124161
 30
0.0
 11
221.759627
 21
157.124161
 31
0.0
  0
LINE
  8
MITTELLINIE
  5
C89B
 10
215.509627
 20
149.124161
 30
0.0
 11
215.509627
 21
221.124161
 31
0.0
  0
LINE
  8
VOLLINIE
  5
C89C
 10
218.009627
 20
150.624161
 30
0.0
 11
213.009627
 21
150.624161
 31
0.0
  0
LINE
  8
VOLLINIE
  5
C89D
 10
213.009627
 20
150.624161
 30
0.0
 11
213.009627
 21
164.624161
 31
0.0
  0
LINE
  8
VOLLINIE
  5
C89E
 10
218.009627
 20
150.624161
 30
0.0
 11
218.009627
 21
166.124161
 31
0.0
  0
LINE
  8
VOLLINIE
  5
C89F
 10
216.095414
 20
219.624161
 30
0.0
 11
215.509627
 21
219.624161
 31
0.0
  0
ARC
  8
VOLLINIE
  5
C8A0
 10
213.509627
 20
218.624161
 30
0.0
 40
0.5
 50
103.644085
 51
270.0
  0
ARC
  8
VOLLINIE
  5
C8A1
 10
213.509627
 20
217.124161
 30
0.0
 40
1.0
 50
270.0
 51
90.0
  0
ARC
  8
VOLLINIE
  5
C8A2
 10
217.509627
 20
217.124161
 30
0.0
 40
0.5
 50
270.0
 51
90.0
  0
ARC
  8
VOLLINIE
  5
C8A3
 10
217.509627
 20
218.624161
 30
0.0
 40
1.0
 50
160.528779
 51
270.0
  0
ARC
  8
VOLLINIE
  5
C8A4
 10
213.509627
 20
214.124161
 30
0.0
 40
1.0
 50
270.0
 51
90.0
  0
ARC
  8
VOLLINIE
  5
C8A5
 10
213.509627
 20
215.624161
 30
0.0
 40
0.5
 50
90.0
 51
270.0
  0
ARC
  8
VOLLINIE
  5
C8A6
 10
217.509627
 20
215.624161
 30
0.0
 40
1.0
 50
90.0
 51
270.0
  0
ARC
  8
VOLLINIE
  5
C8A7
 10
217.509627
 20
214.124161
 30
0.0
 40
0.5
 50
270.0
 51
90.0
  0
ARC
  8
VOLLINIE
  5
C8A8
 10
217.509627
 20
208.124161
 30
0.0
 40
0.5
 50
270.0
 51
90.0
  0
ARC
  8
VOLLINIE
  5
C8A9
 10
217.509627
 20
209.624161
 30
0.0
 40
1.0
 50
90.0
 51
270.0
  0
ARC
  8
VOLLINIE
  5
C8AA
 10
213.509627
 20
209.624161
 30
0.0
 40
0.5
 50
90.0
 51
270.0
  0
ARC
  8
VOLLINIE
  5
C8AB
 10
213.509627
 20
208.124161
 30
0.0
 40
1.0
 50
270.0
 51
90.0
  0
ARC
  8
VOLLINIE
  5
C8AC
 10
217.509627
 20
212.624161
 30
0.0
 40
1.0
 50
90.0
 51
270.0
  0
ARC
  8
VOLLINIE
  5
C8AD
 10
217.509627
 20
211.124161
 30
0.0
 40
0.5
 50
270.0
 51
90.0
  0
ARC
  8
VOLLINIE
  5
C8AE
 10
213.509627
 20
211.124161
 30
0.0
 40
1.0
 50
270.0
 51
90.0
  0
ARC
  8
VOLLINIE
  5
C8AF
 10
213.509627
 20
212.624161
 30
0.0
 40
0.5
 50
90.0
 51
270.0
  0
ARC
  8
VOLLINIE
  5
C8B0
 10
213.509627
 20
200.624161
 30
0.0
 40
0.5
 50
90.0
 51
270.0
  0
ARC
  8
VOLLINIE
  5
C8B1
 10
213.509627
 20
199.124161
 30
0.0
 40
1.0
 50
270.0
 51
90.0
  0
ARC
  8
VOLLINIE
  5
C8B2
 10
217.509627
 20
199.124161
 30
0.0
 40
0.5
 50
270.0
 51
90.0
  0
ARC
  8
VOLLINIE
  5
C8B3
 10
217.509627
 20
200.624161
 30
0.0
 40
1.0
 50
90.0
 51
270.0
  0
ARC
  8
VOLLINIE
  5
C8B4
 10
213.509627
 20
196.124161
 30
0.0
 40
1.0
 50
270.0
 51
90.0
  0
ARC
  8
VOLLINIE
  5
C8B5
 10
213.509627
 20
197.624161
 30
0.0
 40
0.5
 50
90.0
 51
270.0
  0
ARC
  8
VOLLINIE
  5
C8B6
 10
217.509627
 20
197.624161
 30
0.0
 40
1.0
 50
90.0
 51
270.0
  0
ARC
  8
VOLLINIE
  5
C8B7
 10
217.509627
 20
196.124161
 30
0.0
 40
0.5
 50
270.0
 51
90.0
  0
ARC
  8
VOLLINIE
  5
C8B8
 10
217.509627
 20
202.124161
 30
0.0
 40
0.5
 50
270.0
 51
90.0
  0
ARC
  8
VOLLINIE
  5
C8B9
 10
217.509627
 20
203.624161
 30
0.0
 40
1.0
 50
90.0
 51
270.0
  0
ARC
  8
VOLLINIE
  5
C8BA
 10
213.509627
 20
203.624161
 30
0.0
 40
0.5
 50
90.0
 51
270.0
  0
ARC
  8
VOLLINIE
  5
C8BB
 10
213.509627
 20
202.124161
 30
0.0
 40
1.0
 50
270.0
 51
90.0
  0
ARC
  8
VOLLINIE
  5
C8BC
 10
217.509627
 20
206.624161
 30
0.0
 40
1.0
 50
90.0
 51
270.0
  0
ARC
  8
VOLLINIE
  5
C8BD
 10
217.509627
 20
205.124161
 30
0.0
 40
0.5
 50
270.0
 51
90.0
  0
ARC
  8
VOLLINIE
  5
C8BE
 10
213.509627
 20
205.124161
 30
0.0
 40
1.0
 50
270.0
 51
90.0
  0
ARC
  8
VOLLINIE
  5
C8BF
 10
213.509627
 20
206.624161
 30
0.0
 40
0.5
 50
90.0
 51
270.0
  0
ARC
  8
VOLLINIE
  5
C8C0
 10
213.509627
 20
185.624161
 30
0.0
 40
0.5
 50
90.0
 51
270.0
  0
ARC
  8
VOLLINIE
  5
C8C1
 10
213.509627
 20
184.124161
 30
0.0
 40
1.0
 50
270.0
 51
90.0
  0
ARC
  8
VOLLINIE
  5
C8C2
 10
217.509627
 20
184.124161
 30
0.0
 40
0.5
 50
270.0
 51
90.0
  0
ARC
  8
VOLLINIE
  5
C8C3
 10
217.509627
 20
185.624161
 30
0.0
 40
1.0
 50
90.0
 51
270.0
  0
ARC
  8
VOLLINIE
  5
C8C4
 10
213.509627
 20
181.124161
 30
0.0
 40
1.0
 50
270.0
 51
90.0
  0
ARC
  8
VOLLINIE
  5
C8C5
 10
213.509627
 20
182.624161
 30
0.0
 40
0.5
 50
90.0
 51
270.0
  0
ARC
  8
VOLLINIE
  5
C8C6
 10
217.509627
 20
182.624161
 30
0.0
 40
1.0
 50
90.0
 51
270.0
  0
ARC
  8
VOLLINIE
  5
C8C7
 10
217.509627
 20
181.124161
 30
0.0
 40
0.5
 50
270.0
 51
90.0
  0
ARC
  8
VOLLINIE
  5
C8C8
 10
217.509627
 20
175.124161
 30
0.0
 40
0.5
 50
270.0
 51
90.0
  0
ARC
  8
VOLLINIE
  5
C8C9
 10
217.509627
 20
176.624161
 30
0.0
 40
1.0
 50
90.0
 51
270.0
  0
ARC
  8
VOLLINIE
  5
C8CA
 10
213.509627
 20
176.624161
 30
0.0
 40
0.5
 50
90.0
 51
270.0
  0
ARC
  8
VOLLINIE
  5
C8CB
 10
213.509627
 20
175.124161
 30
0.0
 40
1.0
 50
270.0
 51
90.0
  0
ARC
  8
VOLLINIE
  5
C8CC
 10
217.509627
 20
179.624161
 30
0.0
 40
1.0
 50
90.0
 51
270.0
  0
ARC
  8
VOLLINIE
  5
C8CD
 10
217.509627
 20
178.124161
 30
0.0
 40
0.5
 50
270.0
 51
90.0
  0
ARC
  8
VOLLINIE
  5
C8CE
 10
213.509627
 20
178.124161
 30
0.0
 40
1.0
 50
270.0
 51
90.0
  0
ARC
  8
VOLLINIE
  5
C8CF
 10
213.509627
 20
179.624161
 30
0.0
 40
0.5
 50
90.0
 51
270.0
  0
ARC
  8
VOLLINIE
  5
C8D0
 10
213.509627
 20
191.624161
 30
0.0
 40
0.5
 50
90.0
 51
270.0
  0
ARC
  8
VOLLINIE
  5
C8D1
 10
213.509627
 20
190.124161
 30
0.0
 40
1.0
 50
270.0
 51
90.0
  0
ARC
  8
VOLLINIE
  5
C8D2
 10
217.509627
 20
190.124161
 30
0.0
 40
0.5
 50
270.0
 51
90.0
  0
ARC
  8
VOLLINIE
  5
C8D3
 10
217.509627
 20
191.624161
 30
0.0
 40
1.0
 50
90.0
 51
270.0
  0
ARC
  8
VOLLINIE
  5
C8D4
 10
213.509627
 20
187.124161
 30
0.0
 40
1.0
 50
270.0
 51
90.0
  0
ARC
  8
VOLLINIE
  5
C8D5
 10
213.509627
 20
188.624161
 30
0.0
 40
0.5
 50
90.0
 51
270.0
  0
ARC
  8
VOLLINIE
  5
C8D6
 10
217.509627
 20
188.624161
 30
0.0
 40
1.0
 50
90.0
 51
270.0
  0
ARC
  8
VOLLINIE
  5
C8D7
 10
217.509627
 20
193.124161
 30
0.0
 40
0.5
 50
270.0
 51
90.0
  0
ARC
  8
VOLLINIE
  5
C8D8
 10
217.509627
 20
194.624161
 30
0.0
 40
1.0
 50
90.0
 51
270.0
  0
ARC
  8
VOLLINIE
  5
C8D9
 10
213.509627
 20
194.624161
 30
0.0
 40
0.5
 50
90.0
 51
270.0
  0
ARC
  8
VOLLINIE
  5
C8DA
 10
213.509627
 20
193.124161
 30
0.0
 40
1.0
 50
270.0
 51
90.0
  0
ARC
  8
VOLLINIE
  5
C8DB
 10
213.509627
 20
170.624161
 30
0.0
 40
0.5
 50
90.0
 51
270.0
  0
ARC
  8
VOLLINIE
  5
C8DC
 10
213.509627
 20
169.124161
 30
0.0
 40
1.0
 50
270.0
 51
90.0
  0
ARC
  8
VOLLINIE
  5
C8DD
 10
217.509627
 20
169.124161
 30
0.0
 40
0.5
 50
270.0
 51
90.0
  0
ARC
  8
VOLLINIE
  5
C8DE
 10
217.509627
 20
170.624161
 30
0.0
 40
1.0
 50
90.0
 51
270.0
  0
ARC
  8
VOLLINIE
  5
C8DF
 10
213.509627
 20
166.124161
 30
0.0
 40
1.0
 50
270.0
 51
90.0
  0
ARC
  8
VOLLINIE
  5
C8E0
 10
213.509627
 20
167.624161
 30
0.0
 40
0.5
 50
90.0
 51
270.0
  0
ARC
  8
VOLLINIE
  5
C8E1
 10
217.509627
 20
167.624161
 30
0.0
 40
1.0
 50
90.0
 51
270.0
  0
ARC
  8
VOLLINIE
  5
C8E2
 10
217.509627
 20
166.124161
 30
0.0
 40
0.5
 50
0.0
 51
90.0
  0
ARC
  8
VOLLINIE
  5
C8E3
 10
217.509627
 20
172.124161
 30
0.0
 40
0.5
 50
270.0
 51
90.0
  0
ARC
  8
VOLLINIE
  5
C8E4
 10
217.509627
 20
173.624161
 30
0.0
 40
1.0
 50
90.0
 51
270.0
  0
ARC
  8
VOLLINIE
  5
C8E5
 10
213.509627
 20
173.624161
 30
0.0
 40
0.5
 50
90.0
 51
270.0
  0
ARC
  8
VOLLINIE
  5
C8E6
 10
213.509627
 20
172.124161
 30
0.0
 40
1.0
 50
270.0
 51
90.0
  0
ARC
  8
VOLLINIE
  5
C8E7
 10
213.509627
 20
164.624161
 30
0.0
 40
0.5
 50
90.0
 51
180.0
  0
LINE
  8
VOLLINIE
  5
C8E8
 10
213.391682
 20
219.110051
 30
0.0
 11
215.509627
 21
219.624161
 31
0.0
  0
ARC
  8
VOLLINIE
  5
C8E9
 10
216.095414
 20
219.124161
 30
0.0
 40
0.5
 50
340.528779
 51
90.0
  0
ARC
  8
VOLLINIE
  5
C8EA
 10
217.509627
 20
187.124161
 30
0.0
 40
0.5
 50
270.0
 51
90.0
  0
LINE
  8
VOLLINIE
  5
C8EB
 10
238.009627
 20
155.624161
 30
0.0
 11
236.330695
 21
155.624161
 31
0.0
  0
LINE
  8
VOLLINIE
  5
C8EC
 10
232.188559
 20
155.624161
 30
0.0
 11
230.509627
 21
155.624161
 31
0.0
  0
LINE
  8
VOLLINIE
  5
C8ED
 10
236.330695
 20
155.624161
 30
0.0
 11
234.259627
 21
150.624161
 31
0.0
  0
LINE
  8
VOLLINIE
  5
C8EE
 10
232.188559
 20
155.624161
 30
0.0
 11
234.259627
 21
150.624161
 31
0.0
  0
LINE
  8
VOLLINIE
  5
C8EF
 10
236.330695
 20
155.624161
 30
0.0
 11
238.009627
 21
155.624161
 31
0.0
  0
LINE
  8
MITTELLINIE
  5
C8F0
 10
234.259627
 20
149.124161
 30
0.0
 11
234.259627
 21
157.124161
 31
0.0
  0
LINE
  8
MITTELLINIE
  5
C8F1
 10
228.009627
 20
149.124161
 30
0.0
 11
228.009627
 21
221.124161
 31
0.0
  0
LINE
  8
VOLLINIE
  5
C8F2
 10
230.509627
 20
150.624161
 30
0.0
 11
225.509627
 21
150.624161
 31
0.0
  0
LINE
  8
VOLLINIE
  5
C8F3
 10
225.509627
 20
150.624161
 30
0.0
 11
225.509627
 21
164.624161
 31
0.0
  0
LINE
  8
VOLLINIE
  5
C8F4
 10
230.509627
 20
150.624161
 30
0.0
 11
230.509627
 21
166.124161
 31
0.0
  0
LINE
  8
VOLLINIE
  5
C8F5
 10
228.595414
 20
219.624161
 30
0.0
 11
228.009627
 21
219.624161
 31
0.0
  0
ARC
  8
VOLLINIE
  5
C8F6
 10
226.009627
 20
218.624161
 30
0.0
 40
0.5
 50
103.644085
 51
270.0
  0
ARC
  8
VOLLINIE
  5
C8F7
 10
226.009627
 20
217.124161
 30
0.0
 40
1.0
 50
270.0
 51
90.0
  0
ARC
  8
VOLLINIE
  5
C8F8
 10
230.009627
 20
217.124161
 30
0.0
 40
0.5
 50
270.0
 51
90.0
  0
ARC
  8
VOLLINIE
  5
C8F9
 10
230.009627
 20
218.624161
 30
0.0
 40
1.0
 50
160.528779
 51
270.0
  0
ARC
  8
VOLLINIE
  5
C8FA
 10
226.009627
 20
214.124161
 30
0.0
 40
1.0
 50
270.0
 51
90.0
  0
ARC
  8
VOLLINIE
  5
C8FB
 10
226.009627
 20
215.624161
 30
0.0
 40
0.5
 50
90.0
 51
270.0
  0
ARC
  8
VOLLINIE
  5
C8FC
 10
230.009627
 20
215.624161
 30
0.0
 40
1.0
 50
90.0
 51
270.0
  0
ARC
  8
VOLLINIE
  5
C8FD
 10
230.009627
 20
214.124161
 30
0.0
 40
0.5
 50
270.0
 51
90.0
  0
ARC
  8
VOLLINIE
  5
C8FE
 10
230.009627
 20
208.124161
 30
0.0
 40
0.5
 50
270.0
 51
90.0
  0
ARC
  8
VOLLINIE
  5
C8FF
 10
230.009627
 20
209.624161
 30
0.0
 40
1.0
 50
90.0
 51
270.0
  0
ARC
  8
VOLLINIE
  5
C900
 10
226.009627
 20
209.624161
 30
0.0
 40
0.5
 50
90.0
 51
270.0
  0
ARC
  8
VOLLINIE
  5
C901
 10
226.009627
 20
208.124161
 30
0.0
 40
1.0
 50
270.0
 51
90.0
  0
ARC
  8
VOLLINIE
  5
C902
 10
230.009627
 20
212.624161
 30
0.0
 40
1.0
 50
90.0
 51
270.0
  0
ARC
  8
VOLLINIE
  5
C903
 10
230.009627
 20
211.124161
 30
0.0
 40
0.5
 50
270.0
 51
90.0
  0
ARC
  8
VOLLINIE
  5
C904
 10
226.009627
 20
211.124161
 30
0.0
 40
1.0
 50
270.0
 51
90.0
  0
ARC
  8
VOLLINIE
  5
C905
 10
226.009627
 20
212.624161
 30
0.0
 40
0.5
 50
90.0
 51
270.0
  0
ARC
  8
VOLLINIE
  5
C906
 10
226.009627
 20
200.624161
 30
0.0
 40
0.5
 50
90.0
 51
270.0
  0
ARC
  8
VOLLINIE
  5
C907
 10
226.009627
 20
199.124161
 30
0.0
 40
1.0
 50
270.0
 51
90.0
  0
ARC
  8
VOLLINIE
  5
C908
 10
230.009627
 20
199.124161
 30
0.0
 40
0.5
 50
270.0
 51
90.0
  0
ARC
  8
VOLLINIE
  5
C909
 10
230.009627
 20
200.624161
 30
0.0
 40
1.0
 50
90.0
 51
270.0
  0
ARC
  8
VOLLINIE
  5
C90A
 10
226.009627
 20
196.124161
 30
0.0
 40
1.0
 50
270.0
 51
90.0
  0
ARC
  8
VOLLINIE
  5
C90B
 10
226.009627
 20
197.624161
 30
0.0
 40
0.5
 50
90.0
 51
270.0
  0
ARC
  8
VOLLINIE
  5
C90C
 10
230.009627
 20
197.624161
 30
0.0
 40
1.0
 50
90.0
 51
270.0
  0
ARC
  8
VOLLINIE
  5
C90D
 10
230.009627
 20
196.124161
 30
0.0
 40
0.5
 50
270.0
 51
90.0
  0
ARC
  8
VOLLINIE
  5
C90E
 10
230.009627
 20
202.124161
 30
0.0
 40
0.5
 50
270.0
 51
90.0
  0
ARC
  8
VOLLINIE
  5
C90F
 10
230.009627
 20
203.624161
 30
0.0
 40
1.0
 50
90.0
 51
270.0
  0
ARC
  8
VOLLINIE
  5
C910
 10
226.009627
 20
203.624161
 30
0.0
 40
0.5
 50
90.0
 51
270.0
  0
ARC
  8
VOLLINIE
  5
C911
 10
226.009627
 20
202.124161
 30
0.0
 40
1.0
 50
270.0
 51
90.0
  0
ARC
  8
VOLLINIE
  5
C912
 10
230.009627
 20
206.624161
 30
0.0
 40
1.0
 50
90.0
 51
270.0
  0
ARC
  8
VOLLINIE
  5
C913
 10
230.009627
 20
205.124161
 30
0.0
 40
0.5
 50
270.0
 51
90.0
  0
ARC
  8
VOLLINIE
  5
C914
 10
226.009627
 20
205.124161
 30
0.0
 40
1.0
 50
270.0
 51
90.0
  0
ARC
  8
VOLLINIE
  5
C915
 10
226.009627
 20
206.624161
 30
0.0
 40
0.5
 50
90.0
 51
270.0
  0
ARC
  8
VOLLINIE
  5
C916
 10
226.009627
 20
185.624161
 30
0.0
 40
0.5
 50
90.0
 51
270.0
  0
ARC
  8
VOLLINIE
  5
C917
 10
226.009627
 20
184.124161
 30
0.0
 40
1.0
 50
270.0
 51
90.0
  0
ARC
  8
VOLLINIE
  5
C918
 10
230.009627
 20
184.124161
 30
0.0
 40
0.5
 50
270.0
 51
90.0
  0
ARC
  8
VOLLINIE
  5
C919
 10
230.009627
 20
185.624161
 30
0.0
 40
1.0
 50
90.0
 51
270.0
  0
ARC
  8
VOLLINIE
  5
C91A
 10
226.009627
 20
181.124161
 30
0.0
 40
1.0
 50
270.0
 51
90.0
  0
ARC
  8
VOLLINIE
  5
C91B
 10
226.009627
 20
182.624161
 30
0.0
 40
0.5
 50
90.0
 51
270.0
  0
ARC
  8
VOLLINIE
  5
C91C
 10
230.009627
 20
182.624161
 30
0.0
 40
1.0
 50
90.0
 51
270.0
  0
ARC
  8
VOLLINIE
  5
C91D
 10
230.009627
 20
181.124161
 30
0.0
 40
0.5
 50
270.0
 51
90.0
  0
ARC
  8
VOLLINIE
  5
C91E
 10
230.009627
 20
175.124161
 30
0.0
 40
0.5
 50
270.0
 51
90.0
  0
ARC
  8
VOLLINIE
  5
C91F
 10
230.009627
 20
176.624161
 30
0.0
 40
1.0
 50
90.0
 51
270.0
  0
ARC
  8
VOLLINIE
  5
C920
 10
226.009627
 20
176.624161
 30
0.0
 40
0.5
 50
90.0
 51
270.0
  0
ARC
  8
VOLLINIE
  5
C921
 10
226.009627
 20
175.124161
 30
0.0
 40
1.0
 50
270.0
 51
90.0
  0
ARC
  8
VOLLINIE
  5
C922
 10
230.009627
 20
179.624161
 30
0.0
 40
1.0
 50
90.0
 51
270.0
  0
ARC
  8
VOLLINIE
  5
C923
 10
230.009627
 20
178.124161
 30
0.0
 40
0.5
 50
270.0
 51
90.0
  0
ARC
  8
VOLLINIE
  5
C924
 10
226.009627
 20
178.124161
 30
0.0
 40
1.0
 50
270.0
 51
90.0
  0
ARC
  8
VOLLINIE
  5
C925
 10
226.009627
 20
179.624161
 30
0.0
 40
0.5
 50
90.0
 51
270.0
  0
ARC
  8
VOLLINIE
  5
C926
 10
226.009627
 20
191.624161
 30
0.0
 40
0.5
 50
90.0
 51
270.0
  0
ARC
  8
VOLLINIE
  5
C927
 10
226.009627
 20
190.124161
 30
0.0
 40
1.0
 50
270.0
 51
90.0
  0
ARC
  8
VOLLINIE
  5
C928
 10
230.009627
 20
190.124161
 30
0.0
 40
0.5
 50
270.0
 51
90.0
  0
ARC
  8
VOLLINIE
  5
C929
 10
230.009627
 20
191.624161
 30
0.0
 40
1.0
 50
90.0
 51
270.0
  0
ARC
  8
VOLLINIE
  5
C92A
 10
226.009627
 20
187.124161
 30
0.0
 40
1.0
 50
270.0
 51
90.0
  0
ARC
  8
VOLLINIE
  5
C92B
 10
226.009627
 20
188.624161
 30
0.0
 40
0.5
 50
90.0
 51
270.0
  0
ARC
  8
VOLLINIE
  5
C92C
 10
230.009627
 20
188.624161
 30
0.0
 40
1.0
 50
90.0
 51
270.0
  0
ARC
  8
VOLLINIE
  5
C92D
 10
230.009627
 20
193.124161
 30
0.0
 40
0.5
 50
270.0
 51
90.0
  0
ARC
  8
VOLLINIE
  5
C92E
 10
230.009627
 20
194.624161
 30
0.0
 40
1.0
 50
90.0
 51
270.0
  0
ARC
  8
VOLLINIE
  5
C92F
 10
226.009627
 20
194.624161
 30
0.0
 40
0.5
 50
90.0
 51
270.0
  0
ARC
  8
VOLLINIE
  5
C930
 10
226.009627
 20
193.124161
 30
0.0
 40
1.0
 50
270.0
 51
90.0
  0
ARC
  8
VOLLINIE
  5
C931
 10
226.009627
 20
170.624161
 30
0.0
 40
0.5
 50
90.0
 51
270.0
  0
ARC
  8
VOLLINIE
  5
C932
 10
226.009627
 20
169.124161
 30
0.0
 40
1.0
 50
270.0
 51
90.0
  0
ARC
  8
VOLLINIE
  5
C933
 10
230.009627
 20
169.124161
 30
0.0
 40
0.5
 50
270.0
 51
90.0
  0
ARC
  8
VOLLINIE
  5
C934
 10
230.009627
 20
170.624161
 30
0.0
 40
1.0
 50
90.0
 51
270.0
  0
ARC
  8
VOLLINIE
  5
C935
 10
226.009627
 20
166.124161
 30
0.0
 40
1.0
 50
270.0
 51
90.0
  0
ARC
  8
VOLLINIE
  5
C936
 10
226.009627
 20
167.624161
 30
0.0
 40
0.5
 50
90.0
 51
270.0
  0
ARC
  8
VOLLINIE
  5
C937
 10
230.009627
 20
167.624161
 30
0.0
 40
1.0
 50
90.0
 51
270.0
  0
ARC
  8
VOLLINIE
  5
C938
 10
230.009627
 20
166.124161
 30
0.0
 40
0.5
 50
0.0
 51
90.0
  0
ARC
  8
VOLLINIE
  5
C939
 10
230.009627
 20
172.124161
 30
0.0
 40
0.5
 50
270.0
 51
90.0
  0
ARC
  8
VOLLINIE
  5
C93A
 10
230.009627
 20
173.624161
 30
0.0
 40
1.0
 50
90.0
 51
270.0
  0
ARC
  8
VOLLINIE
  5
C93B
 10
226.009627
 20
173.624161
 30
0.0
 40
0.5
 50
90.0
 51
270.0
  0
ARC
  8
VOLLINIE
  5
C93C
 10
226.009627
 20
172.124161
 30
0.0
 40
1.0
 50
270.0
 51
90.0
  0
ARC
  8
VOLLINIE
  5
C93D
 10
226.009627
 20
164.624161
 30
0.0
 40
0.5
 50
90.0
 51
180.0
  0
LINE
  8
VOLLINIE
  5
C93E
 10
225.891682
 20
219.110051
 30
0.0
 11
228.009627
 21
219.624161
 31
0.0
  0
ARC
  8
VOLLINIE
  5
C93F
 10
228.595414
 20
219.124161
 30
0.0
 40
0.5
 50
340.528779
 51
90.0
  0
ARC
  8
VOLLINIE
  5
C940
 10
230.009627
 20
187.124161
 30
0.0
 40
0.5
 50
270.0
 51
90.0
  0
LINE
  8
VOLLINIE
  5
C941
 10
250.509627
 20
155.624161
 30
0.0
 11
248.830695
 21
155.624161
 31
0.0
  0
LINE
  8
VOLLINIE
  5
C942
 10
244.688559
 20
155.624161
 30
0.0
 11
243.009627
 21
155.624161
 31
0.0
  0
LINE
  8
VOLLINIE
  5
C943
 10
248.830695
 20
155.624161
 30
0.0
 11
246.759627
 21
150.624161
 31
0.0
  0
LINE
  8
VOLLINIE
  5
C944
 10
244.688559
 20
155.624161
 30
0.0
 11
246.759627
 21
150.624161
 31
0.0
  0
LINE
  8
VOLLINIE
  5
C945
 10
248.830695
 20
155.624161
 30
0.0
 11
250.509627
 21
155.624161
 31
0.0
  0
LINE
  8
MITTELLINIE
  5
C946
 10
246.759627
 20
149.124161
 30
0.0
 11
246.759627
 21
157.124161
 31
0.0
  0
LINE
  8
MITTELLINIE
  5
C947
 10
240.509627
 20
149.124161
 30
0.0
 11
240.509627
 21
221.124161
 31
0.0
  0
LINE
  8
VOLLINIE
  5
C948
 10
243.009627
 20
150.624161
 30
0.0
 11
238.009627
 21
150.624161
 31
0.0
  0
LINE
  8
VOLLINIE
  5
C949
 10
238.009627
 20
150.624161
 30
0.0
 11
238.009627
 21
164.624161
 31
0.0
  0
LINE
  8
VOLLINIE
  5
C94A
 10
243.009627
 20
150.624161
 30
0.0
 11
243.009627
 21
166.124161
 31
0.0
  0
LINE
  8
VOLLINIE
  5
C94B
 10
241.095414
 20
219.624161
 30
0.0
 11
240.509627
 21
219.624161
 31
0.0
  0
ARC
  8
VOLLINIE
  5
C94C
 10
238.509627
 20
218.624161
 30
0.0
 40
0.5
 50
103.644085
 51
270.0
  0
ARC
  8
VOLLINIE
  5
C94D
 10
238.509627
 20
217.124161
 30
0.0
 40
1.0
 50
270.0
 51
90.0
  0
ARC
  8
VOLLINIE
  5
C94E
 10
242.509627
 20
217.124161
 30
0.0
 40
0.5
 50
270.0
 51
90.0
  0
ARC
  8
VOLLINIE
  5
C94F
 10
242.509627
 20
218.624161
 30
0.0
 40
1.0
 50
160.528779
 51
270.0
  0
ARC
  8
VOLLINIE
  5
C950
 10
238.509627
 20
214.124161
 30
0.0
 40
1.0
 50
270.0
 51
90.0
  0
ARC
  8
VOLLINIE
  5
C951
 10
238.509627
 20
215.624161
 30
0.0
 40
0.5
 50
90.0
 51
270.0
  0
ARC
  8
VOLLINIE
  5
C952
 10
242.509627
 20
215.624161
 30
0.0
 40
1.0
 50
90.0
 51
270.0
  0
ARC
  8
VOLLINIE
  5
C953
 10
242.509627
 20
214.124161
 30
0.0
 40
0.5
 50
270.0
 51
90.0
  0
ARC
  8
VOLLINIE
  5
C954
 10
242.509627
 20
208.124161
 30
0.0
 40
0.5
 50
270.0
 51
90.0
  0
ARC
  8
VOLLINIE
  5
C955
 10
242.509627
 20
209.624161
 30
0.0
 40
1.0
 50
90.0
 51
270.0
  0
ARC
  8
VOLLINIE
  5
C956
 10
238.509627
 20
209.624161
 30
0.0
 40
0.5
 50
90.0
 51
270.0
  0
ARC
  8
VOLLINIE
  5
C957
 10
238.509627
 20
208.124161
 30
0.0
 40
1.0
 50
270.0
 51
90.0
  0
ARC
  8
VOLLINIE
  5
C958
 10
242.509627
 20
212.624161
 30
0.0
 40
1.0
 50
90.0
 51
270.0
  0
ARC
  8
VOLLINIE
  5
C959
 10
242.509627
 20
211.124161
 30
0.0
 40
0.5
 50
270.0
 51
90.0
  0
ARC
  8
VOLLINIE
  5
C95A
 10
238.509627
 20
211.124161
 30
0.0
 40
1.0
 50
270.0
 51
90.0
  0
ARC
  8
VOLLINIE
  5
C95B
 10
238.509627
 20
212.624161
 30
0.0
 40
0.5
 50
90.0
 51
270.0
  0
ARC
  8
VOLLINIE
  5
C95C
 10
238.509627
 20
200.624161
 30
0.0
 40
0.5
 50
90.0
 51
270.0
  0
ARC
  8
VOLLINIE
  5
C95D
 10
238.509627
 20
199.124161
 30
0.0
 40
1.0
 50
270.0
 51
90.0
  0
ARC
  8
VOLLINIE
  5
C95E
 10
242.509627
 20
199.124161
 30
0.0
 40
0.5
 50
270.0
 51
90.0
  0
ARC
  8
VOLLINIE
  5
C95F
 10
242.509627
 20
200.624161
 30
0.0
 40
1.0
 50
90.0
 51
270.0
  0
ARC
  8
VOLLINIE
  5
C960
 10
238.509627
 20
196.124161
 30
0.0
 40
1.0
 50
270.0
 51
90.0
  0
ARC
  8
VOLLINIE
  5
C961
 10
238.509627
 20
197.624161
 30
0.0
 40
0.5
 50
90.0
 51
270.0
  0
ARC
  8
VOLLINIE
  5
C962
 10
242.509627
 20
197.624161
 30
0.0
 40
1.0
 50
90.0
 51
270.0
  0
ARC
  8
VOLLINIE
  5
C963
 10
242.509627
 20
196.124161
 30
0.0
 40
0.5
 50
270.0
 51
90.0
  0
ARC
  8
VOLLINIE
  5
C964
 10
242.509627
 20
202.124161
 30
0.0
 40
0.5
 50
270.0
 51
90.0
  0
ARC
  8
VOLLINIE
  5
C965
 10
242.509627
 20
203.624161
 30
0.0
 40
1.0
 50
90.0
 51
270.0
  0
ARC
  8
VOLLINIE
  5
C966
 10
238.509627
 20
203.624161
 30
0.0
 40
0.5
 50
90.0
 51
270.0
  0
ARC
  8
VOLLINIE
  5
C967
 10
238.509627
 20
202.124161
 30
0.0
 40
1.0
 50
270.0
 51
90.0
  0
ARC
  8
VOLLINIE
  5
C968
 10
242.509627
 20
206.624161
 30
0.0
 40
1.0
 50
90.0
 51
270.0
  0
ARC
  8
VOLLINIE
  5
C969
 10
242.509627
 20
205.124161
 30
0.0
 40
0.5
 50
270.0
 51
90.0
  0
ARC
  8
VOLLINIE
  5
C96A
 10
238.509627
 20
205.124161
 30
0.0
 40
1.0
 50
270.0
 51
90.0
  0
ARC
  8
VOLLINIE
  5
C96B
 10
238.509627
 20
206.624161
 30
0.0
 40
0.5
 50
90.0
 51
270.0
  0
ARC
  8
VOLLINIE
  5
C96C
 10
238.509627
 20
185.624161
 30
0.0
 40
0.5
 50
90.0
 51
270.0
  0
ARC
  8
VOLLINIE
  5
C96D
 10
238.509627
 20
184.124161
 30
0.0
 40
1.0
 50
270.0
 51
90.0
  0
ARC
  8
VOLLINIE
  5
C96E
 10
242.509627
 20
184.124161
 30
0.0
 40
0.5
 50
270.0
 51
90.0
  0
ARC
  8
VOLLINIE
  5
C96F
 10
242.509627
 20
185.624161
 30
0.0
 40
1.0
 50
90.0
 51
270.0
  0
ARC
  8
VOLLINIE
  5
C970
 10
238.509627
 20
181.124161
 30
0.0
 40
1.0
 50
270.0
 51
90.0
  0
ARC
  8
VOLLINIE
  5
C971
 10
238.509627
 20
182.624161
 30
0.0
 40
0.5
 50
90.0
 51
270.0
  0
ARC
  8
VOLLINIE
  5
C972
 10
242.509627
 20
182.624161
 30
0.0
 40
1.0
 50
90.0
 51
270.0
  0
ARC
  8
VOLLINIE
  5
C973
 10
242.509627
 20
181.124161
 30
0.0
 40
0.5
 50
270.0
 51
90.0
  0
ARC
  8
VOLLINIE
  5
C974
 10
242.509627
 20
175.124161
 30
0.0
 40
0.5
 50
270.0
 51
90.0
  0
ARC
  8
VOLLINIE
  5
C975
 10
242.509627
 20
176.624161
 30
0.0
 40
1.0
 50
90.0
 51
270.0
  0
ARC
  8
VOLLINIE
  5
C976
 10
238.509627
 20
176.624161
 30
0.0
 40
0.5
 50
90.0
 51
270.0
  0
ARC
  8
VOLLINIE
  5
C977
 10
238.509627
 20
175.124161
 30
0.0
 40
1.0
 50
270.0
 51
90.0
  0
ARC
  8
VOLLINIE
  5
C978
 10
242.509627
 20
179.624161
 30
0.0
 40
1.0
 50
90.0
 51
270.0
  0
ARC
  8
VOLLINIE
  5
C979
 10
242.509627
 20
178.124161
 30
0.0
 40
0.5
 50
270.0
 51
90.0
  0
ARC
  8
VOLLINIE
  5
C97A
 10
238.509627
 20
178.124161
 30
0.0
 40
1.0
 50
270.0
 51
90.0
  0
ARC
  8
VOLLINIE
  5
C97B
 10
238.509627
 20
179.624161
 30
0.0
 40
0.5
 50
90.0
 51
270.0
  0
ARC
  8
VOLLINIE
  5
C97C
 10
238.509627
 20
191.624161
 30
0.0
 40
0.5
 50
90.0
 51
270.0
  0
ARC
  8
VOLLINIE
  5
C97D
 10
238.509627
 20
190.124161
 30
0.0
 40
1.0
 50
270.0
 51
90.0
  0
ARC
  8
VOLLINIE
  5
C97E
 10
242.509627
 20
190.124161
 30
0.0
 40
0.5
 50
270.0
 51
90.0
  0
ARC
  8
VOLLINIE
  5
C97F
 10
242.509627
 20
191.624161
 30
0.0
 40
1.0
 50
90.0
 51
270.0
  0
ARC
  8
VOLLINIE
  5
C980
 10
238.509627
 20
187.124161
 30
0.0
 40
1.0
 50
270.0
 51
90.0
  0
ARC
  8
VOLLINIE
  5
C981
 10
238.509627
 20
188.624161
 30
0.0
 40
0.5
 50
90.0
 51
270.0
  0
ARC
  8
VOLLINIE
  5
C982
 10
242.509627
 20
188.624161
 30
0.0
 40
1.0
 50
90.0
 51
270.0
  0
ARC
  8
VOLLINIE
  5
C983
 10
242.509627
 20
193.124161
 30
0.0
 40
0.5
 50
270.0
 51
90.0
  0
ARC
  8
VOLLINIE
  5
C984
 10
242.509627
 20
194.624161
 30
0.0
 40
1.0
 50
90.0
 51
270.0
  0
ARC
  8
VOLLINIE
  5
C985
 10
238.509627
 20
194.624161
 30
0.0
 40
0.5
 50
90.0
 51
270.0
  0
ARC
  8
VOLLINIE
  5
C986
 10
238.509627
 20
193.124161
 30
0.0
 40
1.0
 50
270.0
 51
90.0
  0
ARC
  8
VOLLINIE
  5
C987
 10
238.509627
 20
170.624161
 30
0.0
 40
0.5
 50
90.0
 51
270.0
  0
ARC
  8
VOLLINIE
  5
C988
 10
238.509627
 20
169.124161
 30
0.0
 40
1.0
 50
270.0
 51
90.0
  0
ARC
  8
VOLLINIE
  5
C989
 10
242.509627
 20
169.124161
 30
0.0
 40
0.5
 50
270.0
 51
90.0
  0
ARC
  8
VOLLINIE
  5
C98A
 10
242.509627
 20
170.624161
 30
0.0
 40
1.0
 50
90.0
 51
270.0
  0
ARC
  8
VOLLINIE
  5
C98B
 10
238.509627
 20
166.124161
 30
0.0
 40
1.0
 50
270.0
 51
90.0
  0
ARC
  8
VOLLINIE
  5
C98C
 10
238.509627
 20
167.624161
 30
0.0
 40
0.5
 50
90.0
 51
270.0
  0
ARC
  8
VOLLINIE
  5
C98D
 10
242.509627
 20
167.624161
 30
0.0
 40
1.0
 50
90.0
 51
270.0
  0
ARC
  8
VOLLINIE
  5
C98E
 10
242.509627
 20
166.124161
 30
0.0
 40
0.5
 50
0.0
 51
90.0
  0
ARC
  8
VOLLINIE
  5
C98F
 10
242.509627
 20
172.124161
 30
0.0
 40
0.5
 50
270.0
 51
90.0
  0
ARC
  8
VOLLINIE
  5
C990
 10
242.509627
 20
173.624161
 30
0.0
 40
1.0
 50
90.0
 51
270.0
  0
ARC
  8
VOLLINIE
  5
C991
 10
238.509627
 20
173.624161
 30
0.0
 40
0.5
 50
90.0
 51
270.0
  0
ARC
  8
VOLLINIE
  5
C992
 10
238.509627
 20
172.124161
 30
0.0
 40
1.0
 50
270.0
 51
90.0
  0
ARC
  8
VOLLINIE
  5
C993
 10
238.509627
 20
164.624161
 30
0.0
 40
0.5
 50
90.0
 51
180.0
  0
LINE
  8
VOLLINIE
  5
C994
 10
238.391682
 20
219.110051
 30
0.0
 11
240.509627
 21
219.624161
 31
0.0
  0
ARC
  8
VOLLINIE
  5
C995
 10
241.095414
 20
219.124161
 30
0.0
 40
0.5
 50
340.528779
 51
90.0
  0
ARC
  8
VOLLINIE
  5
C996
 10
242.509627
 20
187.124161
 30
0.0
 40
0.5
 50
270.0
 51
90.0
  0
LINE
  8
VOLLINIE
  5
C997
 10
263.009627
 20
155.624161
 30
0.0
 11
261.330695
 21
155.624161
 31
0.0
  0
LINE
  8
VOLLINIE
  5
C998
 10
257.188559
 20
155.624161
 30
0.0
 11
255.509627
 21
155.624161
 31
0.0
  0
LINE
  8
VOLLINIE
  5
C999
 10
261.330695
 20
155.624161
 30
0.0
 11
259.259627
 21
150.624161
 31
0.0
  0
LINE
  8
VOLLINIE
  5
C99A
 10
257.188559
 20
155.624161
 30
0.0
 11
259.259627
 21
150.624161
 31
0.0
  0
LINE
  8
VOLLINIE
  5
C99B
 10
261.330695
 20
155.624161
 30
0.0
 11
263.009627
 21
155.624161
 31
0.0
  0
LINE
  8
MITTELLINIE
  5
C99C
 10
259.259627
 20
149.124161
 30
0.0
 11
259.259627
 21
157.124161
 31
0.0
  0
LINE
  8
MITTELLINIE
  5
C99D
 10
253.009627
 20
149.124161
 30
0.0
 11
253.009627
 21
221.124161
 31
0.0
  0
LINE
  8
VOLLINIE
  5
C99E
 10
255.509627
 20
150.624161
 30
0.0
 11
250.509627
 21
150.624161
 31
0.0
  0
LINE
  8
VOLLINIE
  5
C99F
 10
250.509627
 20
150.624161
 30
0.0
 11
250.509627
 21
164.624161
 31
0.0
  0
LINE
  8
VOLLINIE
  5
C9A0
 10
255.509627
 20
150.624161
 30
0.0
 11
255.509627
 21
166.124161
 31
0.0
  0
LINE
  8
VOLLINIE
  5
C9A1
 10
253.595414
 20
219.624161
 30
0.0
 11
253.009627
 21
219.624161
 31
0.0
  0
ARC
  8
VOLLINIE
  5
C9A2
 10
251.009627
 20
218.624161
 30
0.0
 40
0.5
 50
103.644085
 51
270.0
  0
ARC
  8
VOLLINIE
  5
C9A3
 10
251.009627
 20
217.124161
 30
0.0
 40
1.0
 50
270.0
 51
90.0
  0
ARC
  8
VOLLINIE
  5
C9A4
 10
255.009627
 20
217.124161
 30
0.0
 40
0.5
 50
270.0
 51
90.0
  0
ARC
  8
VOLLINIE
  5
C9A5
 10
255.009627
 20
218.624161
 30
0.0
 40
1.0
 50
160.528779
 51
270.0
  0
ARC
  8
VOLLINIE
  5
C9A6
 10
251.009627
 20
214.124161
 30
0.0
 40
1.0
 50
270.0
 51
90.0
  0
ARC
  8
VOLLINIE
  5
C9A7
 10
251.009627
 20
215.624161
 30
0.0
 40
0.5
 50
90.0
 51
270.0
  0
ARC
  8
VOLLINIE
  5
C9A8
 10
255.009627
 20
215.624161
 30
0.0
 40
1.0
 50
90.0
 51
270.0
  0
ARC
  8
VOLLINIE
  5
C9A9
 10
255.009627
 20
214.124161
 30
0.0
 40
0.5
 50
270.0
 51
90.0
  0
ARC
  8
VOLLINIE
  5
C9AA
 10
255.009627
 20
208.124161
 30
0.0
 40
0.5
 50
270.0
 51
90.0
  0
ARC
  8
VOLLINIE
  5
C9AB
 10
255.009627
 20
209.624161
 30
0.0
 40
1.0
 50
90.0
 51
270.0
  0
ARC
  8
VOLLINIE
  5
C9AC
 10
251.009627
 20
209.624161
 30
0.0
 40
0.5
 50
90.0
 51
270.0
  0
ARC
  8
VOLLINIE
  5
C9AD
 10
251.009627
 20
208.124161
 30
0.0
 40
1.0
 50
270.0
 51
90.0
  0
ARC
  8
VOLLINIE
  5
C9AE
 10
255.009627
 20
212.624161
 30
0.0
 40
1.0
 50
90.0
 51
270.0
  0
ARC
  8
VOLLINIE
  5
C9AF
 10
255.009627
 20
211.124161
 30
0.0
 40
0.5
 50
270.0
 51
90.0
  0
ARC
  8
VOLLINIE
  5
C9B0
 10
251.009627
 20
211.124161
 30
0.0
 40
1.0
 50
270.0
 51
90.0
  0
ARC
  8
VOLLINIE
  5
C9B1
 10
251.009627
 20
212.624161
 30
0.0
 40
0.5
 50
90.0
 51
270.0
  0
ARC
  8
VOLLINIE
  5
C9B2
 10
251.009627
 20
200.624161
 30
0.0
 40
0.5
 50
90.0
 51
270.0
  0
ARC
  8
VOLLINIE
  5
C9B3
 10
251.009627
 20
199.124161
 30
0.0
 40
1.0
 50
270.0
 51
90.0
  0
ARC
  8
VOLLINIE
  5
C9B4
 10
255.009627
 20
199.124161
 30
0.0
 40
0.5
 50
270.0
 51
90.0
  0
ARC
  8
VOLLINIE
  5
C9B5
 10
255.009627
 20
200.624161
 30
0.0
 40
1.0
 50
90.0
 51
270.0
  0
ARC
  8
VOLLINIE
  5
C9B6
 10
251.009627
 20
196.124161
 30
0.0
 40
1.0
 50
270.0
 51
90.0
  0
ARC
  8
VOLLINIE
  5
C9B7
 10
251.009627
 20
197.624161
 30
0.0
 40
0.5
 50
90.0
 51
270.0
  0
ARC
  8
VOLLINIE
  5
C9B8
 10
255.009627
 20
197.624161
 30
0.0
 40
1.0
 50
90.0
 51
270.0
  0
ARC
  8
VOLLINIE
  5
C9B9
 10
255.009627
 20
196.124161
 30
0.0
 40
0.5
 50
270.0
 51
90.0
  0
ARC
  8
VOLLINIE
  5
C9BA
 10
255.009627
 20
202.124161
 30
0.0
 40
0.5
 50
270.0
 51
90.0
  0
ARC
  8
VOLLINIE
  5
C9BB
 10
255.009627
 20
203.624161
 30
0.0
 40
1.0
 50
90.0
 51
270.0
  0
ARC
  8
VOLLINIE
  5
C9BC
 10
251.009627
 20
203.624161
 30
0.0
 40
0.5
 50
90.0
 51
270.0
  0
ARC
  8
VOLLINIE
  5
C9BD
 10
251.009627
 20
202.124161
 30
0.0
 40
1.0
 50
270.0
 51
90.0
  0
ARC
  8
VOLLINIE
  5
C9BE
 10
255.009627
 20
206.624161
 30
0.0
 40
1.0
 50
90.0
 51
270.0
  0
ARC
  8
VOLLINIE
  5
C9BF
 10
255.009627
 20
205.124161
 30
0.0
 40
0.5
 50
270.0
 51
90.0
  0
ARC
  8
VOLLINIE
  5
C9C0
 10
251.009627
 20
205.124161
 30
0.0
 40
1.0
 50
270.0
 51
90.0
  0
ARC
  8
VOLLINIE
  5
C9C1
 10
251.009627
 20
206.624161
 30
0.0
 40
0.5
 50
90.0
 51
270.0
  0
ARC
  8
VOLLINIE
  5
C9C2
 10
251.009627
 20
185.624161
 30
0.0
 40
0.5
 50
90.0
 51
270.0
  0
ARC
  8
VOLLINIE
  5
C9C3
 10
251.009627
 20
184.124161
 30
0.0
 40
1.0
 50
270.0
 51
90.0
  0
ARC
  8
VOLLINIE
  5
C9C4
 10
255.009627
 20
184.124161
 30
0.0
 40
0.5
 50
270.0
 51
90.0
  0
ARC
  8
VOLLINIE
  5
C9C5
 10
255.009627
 20
185.624161
 30
0.0
 40
1.0
 50
90.0
 51
270.0
  0
ARC
  8
VOLLINIE
  5
C9C6
 10
251.009627
 20
181.124161
 30
0.0
 40
1.0
 50
270.0
 51
90.0
  0
ARC
  8
VOLLINIE
  5
C9C7
 10
251.009627
 20
182.624161
 30
0.0
 40
0.5
 50
90.0
 51
270.0
  0
ARC
  8
VOLLINIE
  5
C9C8
 10
255.009627
 20
182.624161
 30
0.0
 40
1.0
 50
90.0
 51
270.0
  0
ARC
  8
VOLLINIE
  5
C9C9
 10
255.009627
 20
181.124161
 30
0.0
 40
0.5
 50
270.0
 51
90.0
  0
ARC
  8
VOLLINIE
  5
C9CA
 10
255.009627
 20
175.124161
 30
0.0
 40
0.5
 50
270.0
 51
90.0
  0
ARC
  8
VOLLINIE
  5
C9CB
 10
255.009627
 20
176.624161
 30
0.0
 40
1.0
 50
90.0
 51
270.0
  0
ARC
  8
VOLLINIE
  5
C9CC
 10
251.009627
 20
176.624161
 30
0.0
 40
0.5
 50
90.0
 51
270.0
  0
ARC
  8
VOLLINIE
  5
C9CD
 10
251.009627
 20
175.124161
 30
0.0
 40
1.0
 50
270.0
 51
90.0
  0
ARC
  8
VOLLINIE
  5
C9CE
 10
255.009627
 20
179.624161
 30
0.0
 40
1.0
 50
90.0
 51
270.0
  0
ARC
  8
VOLLINIE
  5
C9CF
 10
255.009627
 20
178.124161
 30
0.0
 40
0.5
 50
270.0
 51
90.0
  0
ARC
  8
VOLLINIE
  5
C9D0
 10
251.009627
 20
178.124161
 30
0.0
 40
1.0
 50
270.0
 51
90.0
  0
ARC
  8
VOLLINIE
  5
C9D1
 10
251.009627
 20
179.624161
 30
0.0
 40
0.5
 50
90.0
 51
270.0
  0
ARC
  8
VOLLINIE
  5
C9D2
 10
251.009627
 20
191.624161
 30
0.0
 40
0.5
 50
90.0
 51
270.0
  0
ARC
  8
VOLLINIE
  5
C9D3
 10
251.009627
 20
190.124161
 30
0.0
 40
1.0
 50
270.0
 51
90.0
  0
ARC
  8
VOLLINIE
  5
C9D4
 10
255.009627
 20
190.124161
 30
0.0
 40
0.5
 50
270.0
 51
90.0
  0
ARC
  8
VOLLINIE
  5
C9D5
 10
255.009627
 20
191.624161
 30
0.0
 40
1.0
 50
90.0
 51
270.0
  0
ARC
  8
VOLLINIE
  5
C9D6
 10
251.009627
 20
187.124161
 30
0.0
 40
1.0
 50
270.0
 51
90.0
  0
ARC
  8
VOLLINIE
  5
C9D7
 10
251.009627
 20
188.624161
 30
0.0
 40
0.5
 50
90.0
 51
270.0
  0
ARC
  8
VOLLINIE
  5
C9D8
 10
255.009627
 20
188.624161
 30
0.0
 40
1.0
 50
90.0
 51
270.0
  0
ARC
  8
VOLLINIE
  5
C9D9
 10
255.009627
 20
193.124161
 30
0.0
 40
0.5
 50
270.0
 51
90.0
  0
ARC
  8
VOLLINIE
  5
C9DA
 10
255.009627
 20
194.624161
 30
0.0
 40
1.0
 50
90.0
 51
270.0
  0
ARC
  8
VOLLINIE
  5
C9DB
 10
251.009627
 20
194.624161
 30
0.0
 40
0.5
 50
90.0
 51
270.0
  0
ARC
  8
VOLLINIE
  5
C9DC
 10
251.009627
 20
193.124161
 30
0.0
 40
1.0
 50
270.0
 51
90.0
  0
ARC
  8
VOLLINIE
  5
C9DD
 10
251.009627
 20
170.624161
 30
0.0
 40
0.5
 50
90.0
 51
270.0
  0
ARC
  8
VOLLINIE
  5
C9DE
 10
251.009627
 20
169.124161
 30
0.0
 40
1.0
 50
270.0
 51
90.0
  0
ARC
  8
VOLLINIE
  5
C9DF
 10
255.009627
 20
169.124161
 30
0.0
 40
0.5
 50
270.0
 51
90.0
  0
ARC
  8
VOLLINIE
  5
C9E0
 10
255.009627
 20
170.624161
 30
0.0
 40
1.0
 50
90.0
 51
270.0
  0
ARC
  8
VOLLINIE
  5
C9E1
 10
251.009627
 20
166.124161
 30
0.0
 40
1.0
 50
270.0
 51
90.0
  0
ARC
  8
VOLLINIE
  5
C9E2
 10
251.009627
 20
167.624161
 30
0.0
 40
0.5
 50
90.0
 51
270.0
  0
ARC
  8
VOLLINIE
  5
C9E3
 10
255.009627
 20
167.624161
 30
0.0
 40
1.0
 50
90.0
 51
270.0
  0
ARC
  8
VOLLINIE
  5
C9E4
 10
255.009627
 20
166.124161
 30
0.0
 40
0.5
 50
0.0
 51
90.0
  0
ARC
  8
VOLLINIE
  5
C9E5
 10
255.009627
 20
172.124161
 30
0.0
 40
0.5
 50
270.0
 51
90.0
  0
ARC
  8
VOLLINIE
  5
C9E6
 10
255.009627
 20
173.624161
 30
0.0
 40
1.0
 50
90.0
 51
270.0
  0
ARC
  8
VOLLINIE
  5
C9E7
 10
251.009627
 20
173.624161
 30
0.0
 40
0.5
 50
90.0
 51
270.0
  0
ARC
  8
VOLLINIE
  5
C9E8
 10
251.009627
 20
172.124161
 30
0.0
 40
1.0
 50
270.0
 51
90.0
  0
ARC
  8
VOLLINIE
  5
C9E9
 10
251.009627
 20
164.624161
 30
0.0
 40
0.5
 50
90.0
 51
180.0
  0
LINE
  8
VOLLINIE
  5
C9EA
 10
250.891682
 20
219.110051
 30
0.0
 11
253.009627
 21
219.624161
 31
0.0
  0
ARC
  8
VOLLINIE
  5
C9EB
 10
253.595414
 20
219.124161
 30
0.0
 40
0.5
 50
340.528779
 51
90.0
  0
ARC
  8
VOLLINIE
  5
C9EC
 10
255.009627
 20
187.124161
 30
0.0
 40
0.5
 50
270.0
 51
90.0
  0
LINE
  8
VOLLINIE
  5
C9ED
 10
275.509627
 20
155.624161
 30
0.0
 11
273.830695
 21
155.624161
 31
0.0
  0
LINE
  8
VOLLINIE
  5
C9EE
 10
269.688559
 20
155.624161
 30
0.0
 11
268.009627
 21
155.624161
 31
0.0
  0
LINE
  8
VOLLINIE
  5
C9EF
 10
273.830695
 20
155.624161
 30
0.0
 11
271.759627
 21
150.624161
 31
0.0
  0
LINE
  8
VOLLINIE
  5
C9F0
 10
269.688559
 20
155.624161
 30
0.0
 11
271.759627
 21
150.624161
 31
0.0
  0
LINE
  8
VOLLINIE
  5
C9F1
 10
273.830695
 20
155.624161
 30
0.0
 11
275.509627
 21
155.624161
 31
0.0
  0
LINE
  8
MITTELLINIE
  5
C9F2
 10
271.759627
 20
149.124161
 30
0.0
 11
271.759627
 21
157.124161
 31
0.0
  0
LINE
  8
MITTELLINIE
  5
C9F3
 10
265.509627
 20
149.124161
 30
0.0
 11
265.509627
 21
221.124161
 31
0.0
  0
LINE
  8
VOLLINIE
  5
C9F4
 10
268.009627
 20
150.624161
 30
0.0
 11
263.009627
 21
150.624161
 31
0.0
  0
LINE
  8
VOLLINIE
  5
C9F5
 10
263.009627
 20
150.624161
 30
0.0
 11
263.009627
 21
164.624161
 31
0.0
  0
LINE
  8
VOLLINIE
  5
C9F6
 10
268.009627
 20
150.624161
 30
0.0
 11
268.009627
 21
166.124161
 31
0.0
  0
LINE
  8
VOLLINIE
  5
C9F7
 10
266.095414
 20
219.624161
 30
0.0
 11
265.509627
 21
219.624161
 31
0.0
  0
ARC
  8
VOLLINIE
  5
C9F8
 10
263.509627
 20
218.624161
 30
0.0
 40
0.5
 50
103.644085
 51
270.0
  0
ARC
  8
VOLLINIE
  5
C9F9
 10
263.509627
 20
217.124161
 30
0.0
 40
1.0
 50
270.0
 51
90.0
  0
ARC
  8
VOLLINIE
  5
C9FA
 10
267.509627
 20
217.124161
 30
0.0
 40
0.5
 50
270.0
 51
90.0
  0
ARC
  8
VOLLINIE
  5
C9FB
 10
267.509627
 20
218.624161
 30
0.0
 40
1.0
 50
160.528779
 51
270.0
  0
ARC
  8
VOLLINIE
  5
C9FC
 10
263.509627
 20
214.124161
 30
0.0
 40
1.0
 50
270.0
 51
90.0
  0
ARC
  8
VOLLINIE
  5
C9FD
 10
263.509627
 20
215.624161
 30
0.0
 40
0.5
 50
90.0
 51
270.0
  0
ARC
  8
VOLLINIE
  5
C9FE
 10
267.509627
 20
215.624161
 30
0.0
 40
1.0
 50
90.0
 51
270.0
  0
ARC
  8
VOLLINIE
  5
C9FF
 10
267.509627
 20
214.124161
 30
0.0
 40
0.5
 50
270.0
 51
90.0
  0
ARC
  8
VOLLINIE
  5
CA00
 10
267.509627
 20
208.124161
 30
0.0
 40
0.5
 50
270.0
 51
90.0
  0
ARC
  8
VOLLINIE
  5
CA01
 10
267.509627
 20
209.624161
 30
0.0
 40
1.0
 50
90.0
 51
270.0
  0
ARC
  8
VOLLINIE
  5
CA02
 10
263.509627
 20
209.624161
 30
0.0
 40
0.5
 50
90.0
 51
270.0
  0
ARC
  8
VOLLINIE
  5
CA03
 10
263.509627
 20
208.124161
 30
0.0
 40
1.0
 50
270.0
 51
90.0
  0
ARC
  8
VOLLINIE
  5
CA04
 10
267.509627
 20
212.624161
 30
0.0
 40
1.0
 50
90.0
 51
270.0
  0
ARC
  8
VOLLINIE
  5
CA05
 10
267.509627
 20
211.124161
 30
0.0
 40
0.5
 50
270.0
 51
90.0
  0
ARC
  8
VOLLINIE
  5
CA06
 10
263.509627
 20
211.124161
 30
0.0
 40
1.0
 50
270.0
 51
90.0
  0
ARC
  8
VOLLINIE
  5
CA07
 10
263.509627
 20
212.624161
 30
0.0
 40
0.5
 50
90.0
 51
270.0
  0
ARC
  8
VOLLINIE
  5
CA08
 10
263.509627
 20
200.624161
 30
0.0
 40
0.5
 50
90.0
 51
270.0
  0
ARC
  8
VOLLINIE
  5
CA09
 10
263.509627
 20
199.124161
 30
0.0
 40
1.0
 50
270.0
 51
90.0
  0
ARC
  8
VOLLINIE
  5
CA0A
 10
267.509627
 20
199.124161
 30
0.0
 40
0.5
 50
270.0
 51
90.0
  0
ARC
  8
VOLLINIE
  5
CA0B
 10
267.509627
 20
200.624161
 30
0.0
 40
1.0
 50
90.0
 51
270.0
  0
ARC
  8
VOLLINIE
  5
CA0C
 10
263.509627
 20
196.124161
 30
0.0
 40
1.0
 50
270.0
 51
90.0
  0
ARC
  8
VOLLINIE
  5
CA0D
 10
263.509627
 20
197.624161
 30
0.0
 40
0.5
 50
90.0
 51
270.0
  0
ARC
  8
VOLLINIE
  5
CA0E
 10
267.509627
 20
197.624161
 30
0.0
 40
1.0
 50
90.0
 51
270.0
  0
ARC
  8
VOLLINIE
  5
CA0F
 10
267.509627
 20
196.124161
 30
0.0
 40
0.5
 50
270.0
 51
90.0
  0
ARC
  8
VOLLINIE
  5
CA10
 10
267.509627
 20
202.124161
 30
0.0
 40
0.5
 50
270.0
 51
90.0
  0
ARC
  8
VOLLINIE
  5
CA11
 10
267.509627
 20
203.624161
 30
0.0
 40
1.0
 50
90.0
 51
270.0
  0
ARC
  8
VOLLINIE
  5
CA12
 10
263.509627
 20
203.624161
 30
0.0
 40
0.5
 50
90.0
 51
270.0
  0
ARC
  8
VOLLINIE
  5
CA13
 10
263.509627
 20
202.124161
 30
0.0
 40
1.0
 50
270.0
 51
90.0
  0
ARC
  8
VOLLINIE
  5
CA14
 10
267.509627
 20
206.624161
 30
0.0
 40
1.0
 50
90.0
 51
270.0
  0
ARC
  8
VOLLINIE
  5
CA15
 10
267.509627
 20
205.124161
 30
0.0
 40
0.5
 50
270.0
 51
90.0
  0
ARC
  8
VOLLINIE
  5
CA16
 10
263.509627
 20
205.124161
 30
0.0
 40
1.0
 50
270.0
 51
90.0
  0
ARC
  8
VOLLINIE
  5
CA17
 10
263.509627
 20
206.624161
 30
0.0
 40
0.5
 50
90.0
 51
270.0
  0
ARC
  8
VOLLINIE
  5
CA18
 10
263.509627
 20
185.624161
 30
0.0
 40
0.5
 50
90.0
 51
270.0
  0
ARC
  8
VOLLINIE
  5
CA19
 10
263.509627
 20
184.124161
 30
0.0
 40
1.0
 50
270.0
 51
90.0
  0
ARC
  8
VOLLINIE
  5
CA1A
 10
267.509627
 20
184.124161
 30
0.0
 40
0.5
 50
270.0
 51
90.0
  0
ARC
  8
VOLLINIE
  5
CA1B
 10
267.509627
 20
185.624161
 30
0.0
 40
1.0
 50
90.0
 51
270.0
  0
ARC
  8
VOLLINIE
  5
CA1C
 10
263.509627
 20
181.124161
 30
0.0
 40
1.0
 50
270.0
 51
90.0
  0
ARC
  8
VOLLINIE
  5
CA1D
 10
263.509627
 20
182.624161
 30
0.0
 40
0.5
 50
90.0
 51
270.0
  0
ARC
  8
VOLLINIE
  5
CA1E
 10
267.509627
 20
182.624161
 30
0.0
 40
1.0
 50
90.0
 51
270.0
  0
ARC
  8
VOLLINIE
  5
CA1F
 10
267.509627
 20
181.124161
 30
0.0
 40
0.5
 50
270.0
 51
90.0
  0
ARC
  8
VOLLINIE
  5
CA20
 10
267.509627
 20
175.124161
 30
0.0
 40
0.5
 50
270.0
 51
90.0
  0
ARC
  8
VOLLINIE
  5
CA21
 10
267.509627
 20
176.624161
 30
0.0
 40
1.0
 50
90.0
 51
270.0
  0
ARC
  8
VOLLINIE
  5
CA22
 10
263.509627
 20
176.624161
 30
0.0
 40
0.5
 50
90.0
 51
270.0
  0
ARC
  8
VOLLINIE
  5
CA23
 10
263.509627
 20
175.124161
 30
0.0
 40
1.0
 50
270.0
 51
90.0
  0
ARC
  8
VOLLINIE
  5
CA24
 10
267.509627
 20
179.624161
 30
0.0
 40
1.0
 50
90.0
 51
270.0
  0
ARC
  8
VOLLINIE
  5
CA25
 10
267.509627
 20
178.124161
 30
0.0
 40
0.5
 50
270.0
 51
90.0
  0
ARC
  8
VOLLINIE
  5
CA26
 10
263.509627
 20
178.124161
 30
0.0
 40
1.0
 50
270.0
 51
90.0
  0
ARC
  8
VOLLINIE
  5
CA27
 10
263.509627
 20
179.624161
 30
0.0
 40
0.5
 50
90.0
 51
270.0
  0
ARC
  8
VOLLINIE
  5
CA28
 10
263.509627
 20
191.624161
 30
0.0
 40
0.5
 50
90.0
 51
270.0
  0
ARC
  8
VOLLINIE
  5
CA29
 10
263.509627
 20
190.124161
 30
0.0
 40
1.0
 50
270.0
 51
90.0
  0
ARC
  8
VOLLINIE
  5
CA2A
 10
267.509627
 20
190.124161
 30
0.0
 40
0.5
 50
270.0
 51
90.0
  0
ARC
  8
VOLLINIE
  5
CA2B
 10
267.509627
 20
191.624161
 30
0.0
 40
1.0
 50
90.0
 51
270.0
  0
ARC
  8
VOLLINIE
  5
CA2C
 10
263.509627
 20
187.124161
 30
0.0
 40
1.0
 50
270.0
 51
90.0
  0
ARC
  8
VOLLINIE
  5
CA2D
 10
263.509627
 20
188.624161
 30
0.0
 40
0.5
 50
90.0
 51
270.0
  0
ARC
  8
VOLLINIE
  5
CA2E
 10
267.509627
 20
188.624161
 30
0.0
 40
1.0
 50
90.0
 51
270.0
  0
ARC
  8
VOLLINIE
  5
CA2F
 10
267.509627
 20
193.124161
 30
0.0
 40
0.5
 50
270.0
 51
90.0
  0
ARC
  8
VOLLINIE
  5
CA30
 10
267.509627
 20
194.624161
 30
0.0
 40
1.0
 50
90.0
 51
270.0
  0
ARC
  8
VOLLINIE
  5
CA31
 10
263.509627
 20
194.624161
 30
0.0
 40
0.5
 50
90.0
 51
270.0
  0
ARC
  8
VOLLINIE
  5
CA32
 10
263.509627
 20
193.124161
 30
0.0
 40
1.0
 50
270.0
 51
90.0
  0
ARC
  8
VOLLINIE
  5
CA33
 10
263.509627
 20
170.624161
 30
0.0
 40
0.5
 50
90.0
 51
270.0
  0
ARC
  8
VOLLINIE
  5
CA34
 10
263.509627
 20
169.124161
 30
0.0
 40
1.0
 50
270.0
 51
90.0
  0
ARC
  8
VOLLINIE
  5
CA35
 10
267.509627
 20
169.124161
 30
0.0
 40
0.5
 50
270.0
 51
90.0
  0
ARC
  8
VOLLINIE
  5
CA36
 10
267.509627
 20
170.624161
 30
0.0
 40
1.0
 50
90.0
 51
270.0
  0
ARC
  8
VOLLINIE
  5
CA37
 10
263.509627
 20
166.124161
 30
0.0
 40
1.0
 50
270.0
 51
90.0
  0
ARC
  8
VOLLINIE
  5
CA38
 10
263.509627
 20
167.624161
 30
0.0
 40
0.5
 50
90.0
 51
270.0
  0
ARC
  8
VOLLINIE
  5
CA39
 10
267.509627
 20
167.624161
 30
0.0
 40
1.0
 50
90.0
 51
270.0
  0
ARC
  8
VOLLINIE
  5
CA3A
 10
267.509627
 20
166.124161
 30
0.0
 40
0.5
 50
0.0
 51
90.0
  0
ARC
  8
VOLLINIE
  5
CA3B
 10
267.509627
 20
172.124161
 30
0.0
 40
0.5
 50
270.0
 51
90.0
  0
ARC
  8
VOLLINIE
  5
CA3C
 10
267.509627
 20
173.624161
 30
0.0
 40
1.0
 50
90.0
 51
270.0
  0
ARC
  8
VOLLINIE
  5
CA3D
 10
263.509627
 20
173.624161
 30
0.0
 40
0.5
 50
90.0
 51
270.0
  0
ARC
  8
VOLLINIE
  5
CA3E
 10
263.509627
 20
172.124161
 30
0.0
 40
1.0
 50
270.0
 51
90.0
  0
ARC
  8
VOLLINIE
  5
CA3F
 10
263.509627
 20
164.624161
 30
0.0
 40
0.5
 50
90.0
 51
180.0
  0
LINE
  8
VOLLINIE
  5
CA40
 10
263.391682
 20
219.110051
 30
0.0
 11
265.509627
 21
219.624161
 31
0.0
  0
ARC
  8
VOLLINIE
  5
CA41
 10
266.095414
 20
219.124161
 30
0.0
 40
0.5
 50
340.528779
 51
90.0
  0
ARC
  8
VOLLINIE
  5
CA42
 10
267.509627
 20
187.124161
 30
0.0
 40
0.5
 50
270.0
 51
90.0
  0
LINE
  8
VOLLINIE
  5
CA43
 10
288.009627
 20
155.624161
 30
0.0
 11
286.330695
 21
155.624161
 31
0.0
  0
LINE
  8
VOLLINIE
  5
CA44
 10
282.188559
 20
155.624161
 30
0.0
 11
280.509627
 21
155.624161
 31
0.0
  0
LINE
  8
VOLLINIE
  5
CA45
 10
286.330695
 20
155.624161
 30
0.0
 11
284.259627
 21
150.624161
 31
0.0
  0
LINE
  8
VOLLINIE
  5
CA46
 10
282.188559
 20
155.624161
 30
0.0
 11
284.259627
 21
150.624161
 31
0.0
  0
LINE
  8
VOLLINIE
  5
CA47
 10
286.330695
 20
155.624161
 30
0.0
 11
288.009627
 21
155.624161
 31
0.0
  0
LINE
  8
MITTELLINIE
  5
CA48
 10
284.259627
 20
149.124161
 30
0.0
 11
284.259627
 21
157.124161
 31
0.0
  0
LINE
  8
MITTELLINIE
  5
CA49
 10
278.009627
 20
149.124161
 30
0.0
 11
278.009627
 21
221.124161
 31
0.0
  0
LINE
  8
VOLLINIE
  5
CA4A
 10
280.509627
 20
150.624161
 30
0.0
 11
275.509627
 21
150.624161
 31
0.0
  0
LINE
  8
VOLLINIE
  5
CA4B
 10
275.509627
 20
150.624161
 30
0.0
 11
275.509627
 21
164.624161
 31
0.0
  0
LINE
  8
VOLLINIE
  5
CA4C
 10
280.509627
 20
150.624161
 30
0.0
 11
280.509627
 21
166.124161
 31
0.0
  0
LINE
  8
VOLLINIE
  5
CA4D
 10
278.595414
 20
219.624161
 30
0.0
 11
278.009627
 21
219.624161
 31
0.0
  0
ARC
  8
VOLLINIE
  5
CA4E
 10
276.009627
 20
218.624161
 30
0.0
 40
0.5
 50
103.644085
 51
270.0
  0
ARC
  8
VOLLINIE
  5
CA4F
 10
276.009627
 20
217.124161
 30
0.0
 40
1.0
 50
270.0
 51
90.0
  0
ARC
  8
VOLLINIE
  5
CA50
 10
280.009627
 20
217.124161
 30
0.0
 40
0.5
 50
270.0
 51
90.0
  0
ARC
  8
VOLLINIE
  5
CA51
 10
280.009627
 20
218.624161
 30
0.0
 40
1.0
 50
160.528779
 51
270.0
  0
ARC
  8
VOLLINIE
  5
CA52
 10
276.009627
 20
214.124161
 30
0.0
 40
1.0
 50
270.0
 51
90.0
  0
ARC
  8
VOLLINIE
  5
CA53
 10
276.009627
 20
215.624161
 30
0.0
 40
0.5
 50
90.0
 51
270.0
  0
ARC
  8
VOLLINIE
  5
CA54
 10
280.009627
 20
215.624161
 30
0.0
 40
1.0
 50
90.0
 51
270.0
  0
ARC
  8
VOLLINIE
  5
CA55
 10
280.009627
 20
214.124161
 30
0.0
 40
0.5
 50
270.0
 51
90.0
  0
ARC
  8
VOLLINIE
  5
CA56
 10
280.009627
 20
208.124161
 30
0.0
 40
0.5
 50
270.0
 51
90.0
  0
ARC
  8
VOLLINIE
  5
CA57
 10
280.009627
 20
209.624161
 30
0.0
 40
1.0
 50
90.0
 51
270.0
  0
ARC
  8
VOLLINIE
  5
CA58
 10
276.009627
 20
209.624161
 30
0.0
 40
0.5
 50
90.0
 51
270.0
  0
ARC
  8
VOLLINIE
  5
CA59
 10
276.009627
 20
208.124161
 30
0.0
 40
1.0
 50
270.0
 51
90.0
  0
ARC
  8
VOLLINIE
  5
CA5A
 10
280.009627
 20
212.624161
 30
0.0
 40
1.0
 50
90.0
 51
270.0
  0
ARC
  8
VOLLINIE
  5
CA5B
 10
280.009627
 20
211.124161
 30
0.0
 40
0.5
 50
270.0
 51
90.0
  0
ARC
  8
VOLLINIE
  5
CA5C
 10
276.009627
 20
211.124161
 30
0.0
 40
1.0
 50
270.0
 51
90.0
  0
ARC
  8
VOLLINIE
  5
CA5D
 10
276.009627
 20
212.624161
 30
0.0
 40
0.5
 50
90.0
 51
270.0
  0
ARC
  8
VOLLINIE
  5
CA5E
 10
276.009627
 20
200.624161
 30
0.0
 40
0.5
 50
90.0
 51
270.0
  0
ARC
  8
VOLLINIE
  5
CA5F
 10
276.009627
 20
199.124161
 30
0.0
 40
1.0
 50
270.0
 51
90.0
  0
ARC
  8
VOLLINIE
  5
CA60
 10
280.009627
 20
199.124161
 30
0.0
 40
0.5
 50
270.0
 51
90.0
  0
ARC
  8
VOLLINIE
  5
CA61
 10
280.009627
 20
200.624161
 30
0.0
 40
1.0
 50
90.0
 51
270.0
  0
ARC
  8
VOLLINIE
  5
CA62
 10
276.009627
 20
196.124161
 30
0.0
 40
1.0
 50
270.0
 51
90.0
  0
ARC
  8
VOLLINIE
  5
CA63
 10
276.009627
 20
197.624161
 30
0.0
 40
0.5
 50
90.0
 51
270.0
  0
ARC
  8
VOLLINIE
  5
CA64
 10
280.009627
 20
197.624161
 30
0.0
 40
1.0
 50
90.0
 51
270.0
  0
ARC
  8
VOLLINIE
  5
CA65
 10
280.009627
 20
196.124161
 30
0.0
 40
0.5
 50
270.0
 51
90.0
  0
ARC
  8
VOLLINIE
  5
CA66
 10
280.009627
 20
202.124161
 30
0.0
 40
0.5
 50
270.0
 51
90.0
  0
ARC
  8
VOLLINIE
  5
CA67
 10
280.009627
 20
203.624161
 30
0.0
 40
1.0
 50
90.0
 51
270.0
  0
ARC
  8
VOLLINIE
  5
CA68
 10
276.009627
 20
203.624161
 30
0.0
 40
0.5
 50
90.0
 51
270.0
  0
ARC
  8
VOLLINIE
  5
CA69
 10
276.009627
 20
202.124161
 30
0.0
 40
1.0
 50
270.0
 51
90.0
  0
ARC
  8
VOLLINIE
  5
CA6A
 10
280.009627
 20
206.624161
 30
0.0
 40
1.0
 50
90.0
 51
270.0
  0
ARC
  8
VOLLINIE
  5
CA6B
 10
280.009627
 20
205.124161
 30
0.0
 40
0.5
 50
270.0
 51
90.0
  0
ARC
  8
VOLLINIE
  5
CA6C
 10
276.009627
 20
205.124161
 30
0.0
 40
1.0
 50
270.0
 51
90.0
  0
ARC
  8
VOLLINIE
  5
CA6D
 10
276.009627
 20
206.624161
 30
0.0
 40
0.5
 50
90.0
 51
270.0
  0
ARC
  8
VOLLINIE
  5
CA6E
 10
276.009627
 20
185.624161
 30
0.0
 40
0.5
 50
90.0
 51
270.0
  0
ARC
  8
VOLLINIE
  5
CA6F
 10
276.009627
 20
184.124161
 30
0.0
 40
1.0
 50
270.0
 51
90.0
  0
ARC
  8
VOLLINIE
  5
CA70
 10
280.009627
 20
184.124161
 30
0.0
 40
0.5
 50
270.0
 51
90.0
  0
ARC
  8
VOLLINIE
  5
CA71
 10
280.009627
 20
185.624161
 30
0.0
 40
1.0
 50
90.0
 51
270.0
  0
ARC
  8
VOLLINIE
  5
CA72
 10
276.009627
 20
181.124161
 30
0.0
 40
1.0
 50
270.0
 51
90.0
  0
ARC
  8
VOLLINIE
  5
CA73
 10
276.009627
 20
182.624161
 30
0.0
 40
0.5
 50
90.0
 51
270.0
  0
ARC
  8
VOLLINIE
  5
CA74
 10
280.009627
 20
182.624161
 30
0.0
 40
1.0
 50
90.0
 51
270.0
  0
ARC
  8
VOLLINIE
  5
CA75
 10
280.009627
 20
181.124161
 30
0.0
 40
0.5
 50
270.0
 51
90.0
  0
ARC
  8
VOLLINIE
  5
CA76
 10
280.009627
 20
175.124161
 30
0.0
 40
0.5
 50
270.0
 51
90.0
  0
ARC
  8
VOLLINIE
  5
CA77
 10
280.009627
 20
176.624161
 30
0.0
 40
1.0
 50
90.0
 51
270.0
  0
ARC
  8
VOLLINIE
  5
CA78
 10
276.009627
 20
176.624161
 30
0.0
 40
0.5
 50
90.0
 51
270.0
  0
ARC
  8
VOLLINIE
  5
CA79
 10
276.009627
 20
175.124161
 30
0.0
 40
1.0
 50
270.0
 51
90.0
  0
ARC
  8
VOLLINIE
  5
CA7A
 10
280.009627
 20
179.624161
 30
0.0
 40
1.0
 50
90.0
 51
270.0
  0
ARC
  8
VOLLINIE
  5
CA7B
 10
280.009627
 20
178.124161
 30
0.0
 40
0.5
 50
270.0
 51
90.0
  0
ARC
  8
VOLLINIE
  5
CA7C
 10
276.009627
 20
178.124161
 30
0.0
 40
1.0
 50
270.0
 51
90.0
  0
ARC
  8
VOLLINIE
  5
CA7D
 10
276.009627
 20
179.624161
 30
0.0
 40
0.5
 50
90.0
 51
270.0
  0
ARC
  8
VOLLINIE
  5
CA7E
 10
276.009627
 20
191.624161
 30
0.0
 40
0.5
 50
90.0
 51
270.0
  0
ARC
  8
VOLLINIE
  5
CA7F
 10
276.009627
 20
190.124161
 30
0.0
 40
1.0
 50
270.0
 51
90.0
  0
ARC
  8
VOLLINIE
  5
CA80
 10
280.009627
 20
190.124161
 30
0.0
 40
0.5
 50
270.0
 51
90.0
  0
ARC
  8
VOLLINIE
  5
CA81
 10
280.009627
 20
191.624161
 30
0.0
 40
1.0
 50
90.0
 51
270.0
  0
ARC
  8
VOLLINIE
  5
CA82
 10
276.009627
 20
187.124161
 30
0.0
 40
1.0
 50
270.0
 51
90.0
  0
ARC
  8
VOLLINIE
  5
CA83
 10
276.009627
 20
188.624161
 30
0.0
 40
0.5
 50
90.0
 51
270.0
  0
ARC
  8
VOLLINIE
  5
CA84
 10
280.009627
 20
188.624161
 30
0.0
 40
1.0
 50
90.0
 51
270.0
  0
ARC
  8
VOLLINIE
  5
CA85
 10
280.009627
 20
193.124161
 30
0.0
 40
0.5
 50
270.0
 51
90.0
  0
ARC
  8
VOLLINIE
  5
CA86
 10
280.009627
 20
194.624161
 30
0.0
 40
1.0
 50
90.0
 51
270.0
  0
ARC
  8
VOLLINIE
  5
CA87
 10
276.009627
 20
194.624161
 30
0.0
 40
0.5
 50
90.0
 51
270.0
  0
ARC
  8
VOLLINIE
  5
CA88
 10
276.009627
 20
193.124161
 30
0.0
 40
1.0
 50
270.0
 51
90.0
  0
ARC
  8
VOLLINIE
  5
CA89
 10
276.009627
 20
170.624161
 30
0.0
 40
0.5
 50
90.0
 51
270.0
  0
ARC
  8
VOLLINIE
  5
CA8A
 10
276.009627
 20
169.124161
 30
0.0
 40
1.0
 50
270.0
 51
90.0
  0
ARC
  8
VOLLINIE
  5
CA8B
 10
280.009627
 20
169.124161
 30
0.0
 40
0.5
 50
270.0
 51
90.0
  0
ARC
  8
VOLLINIE
  5
CA8C
 10
280.009627
 20
170.624161
 30
0.0
 40
1.0
 50
90.0
 51
270.0
  0
ARC
  8
VOLLINIE
  5
CA8D
 10
276.009627
 20
166.124161
 30
0.0
 40
1.0
 50
270.0
 51
90.0
  0
ARC
  8
VOLLINIE
  5
CA8E
 10
276.009627
 20
167.624161
 30
0.0
 40
0.5
 50
90.0
 51
270.0
  0
ARC
  8
VOLLINIE
  5
CA8F
 10
280.009627
 20
167.624161
 30
0.0
 40
1.0
 50
90.0
 51
270.0
  0
ARC
  8
VOLLINIE
  5
CA90
 10
280.009627
 20
166.124161
 30
0.0
 40
0.5
 50
0.0
 51
90.0
  0
ARC
  8
VOLLINIE
  5
CA91
 10
280.009627
 20
172.124161
 30
0.0
 40
0.5
 50
270.0
 51
90.0
  0
ARC
  8
VOLLINIE
  5
CA92
 10
280.009627
 20
173.624161
 30
0.0
 40
1.0
 50
90.0
 51
270.0
  0
ARC
  8
VOLLINIE
  5
CA93
 10
276.009627
 20
173.624161
 30
0.0
 40
0.5
 50
90.0
 51
270.0
  0
ARC
  8
VOLLINIE
  5
CA94
 10
276.009627
 20
172.124161
 30
0.0
 40
1.0
 50
270.0
 51
90.0
  0
ARC
  8
VOLLINIE
  5
CA95
 10
276.009627
 20
164.624161
 30
0.0
 40
0.5
 50
90.0
 51
180.0
  0
LINE
  8
VOLLINIE
  5
CA96
 10
275.891682
 20
219.110051
 30
0.0
 11
278.009627
 21
219.624161
 31
0.0
  0
ARC
  8
VOLLINIE
  5
CA97
 10
278.595414
 20
219.124161
 30
0.0
 40
0.5
 50
340.528779
 51
90.0
  0
ARC
  8
VOLLINIE
  5
CA98
 10
280.009627
 20
187.124161
 30
0.0
 40
0.5
 50
270.0
 51
90.0
  0
LINE
  8
VOLLINIE
  5
CA99
 10
300.509627
 20
155.624161
 30
0.0
 11
298.830695
 21
155.624161
 31
0.0
  0
LINE
  8
VOLLINIE
  5
CA9A
 10
294.688559
 20
155.624161
 30
0.0
 11
293.009627
 21
155.624161
 31
0.0
  0
LINE
  8
VOLLINIE
  5
CA9B
 10
298.830695
 20
155.624161
 30
0.0
 11
296.759627
 21
150.624161
 31
0.0
  0
LINE
  8
VOLLINIE
  5
CA9C
 10
294.688559
 20
155.624161
 30
0.0
 11
296.759627
 21
150.624161
 31
0.0
  0
LINE
  8
VOLLINIE
  5
CA9D
 10
298.830695
 20
155.624161
 30
0.0
 11
300.509627
 21
155.624161
 31
0.0
  0
LINE
  8
MITTELLINIE
  5
CA9E
 10
296.759627
 20
149.124161
 30
0.0
 11
296.759627
 21
157.124161
 31
0.0
  0
LINE
  8
MITTELLINIE
  5
CA9F
 10
290.509627
 20
149.124161
 30
0.0
 11
290.509627
 21
221.124161
 31
0.0
  0
LINE
  8
VOLLINIE
  5
CAA0
 10
293.009627
 20
150.624161
 30
0.0
 11
288.009627
 21
150.624161
 31
0.0
  0
LINE
  8
VOLLINIE
  5
CAA1
 10
288.009627
 20
150.624161
 30
0.0
 11
288.009627
 21
164.624161
 31
0.0
  0
LINE
  8
VOLLINIE
  5
CAA2
 10
293.009627
 20
150.624161
 30
0.0
 11
293.009627
 21
166.124161
 31
0.0
  0
LINE
  8
VOLLINIE
  5
CAA3
 10
291.095414
 20
219.624161
 30
0.0
 11
290.509627
 21
219.624161
 31
0.0
  0
ARC
  8
VOLLINIE
  5
CAA4
 10
288.509627
 20
218.624161
 30
0.0
 40
0.5
 50
103.644085
 51
270.0
  0
ARC
  8
VOLLINIE
  5
CAA5
 10
288.509627
 20
217.124161
 30
0.0
 40
1.0
 50
270.0
 51
90.0
  0
ARC
  8
VOLLINIE
  5
CAA6
 10
292.509627
 20
217.124161
 30
0.0
 40
0.5
 50
270.0
 51
90.0
  0
ARC
  8
VOLLINIE
  5
CAA7
 10
292.509627
 20
218.624161
 30
0.0
 40
1.0
 50
160.528779
 51
270.0
  0
ARC
  8
VOLLINIE
  5
CAA8
 10
288.509627
 20
214.124161
 30
0.0
 40
1.0
 50
270.0
 51
90.0
  0
ARC
  8
VOLLINIE
  5
CAA9
 10
288.509627
 20
215.624161
 30
0.0
 40
0.5
 50
90.0
 51
270.0
  0
ARC
  8
VOLLINIE
  5
CAAA
 10
292.509627
 20
215.624161
 30
0.0
 40
1.0
 50
90.0
 51
270.0
  0
ARC
  8
VOLLINIE
  5
CAAB
 10
292.509627
 20
214.124161
 30
0.0
 40
0.5
 50
270.0
 51
90.0
  0
ARC
  8
VOLLINIE
  5
CAAC
 10
292.509627
 20
208.124161
 30
0.0
 40
0.5
 50
270.0
 51
90.0
  0
ARC
  8
VOLLINIE
  5
CAAD
 10
292.509627
 20
209.624161
 30
0.0
 40
1.0
 50
90.0
 51
270.0
  0
ARC
  8
VOLLINIE
  5
CAAE
 10
288.509627
 20
209.624161
 30
0.0
 40
0.5
 50
90.0
 51
270.0
  0
ARC
  8
VOLLINIE
  5
CAAF
 10
288.509627
 20
208.124161
 30
0.0
 40
1.0
 50
270.0
 51
90.0
  0
ARC
  8
VOLLINIE
  5
CAB0
 10
292.509627
 20
212.624161
 30
0.0
 40
1.0
 50
90.0
 51
270.0
  0
ARC
  8
VOLLINIE
  5
CAB1
 10
292.509627
 20
211.124161
 30
0.0
 40
0.5
 50
270.0
 51
90.0
  0
ARC
  8
VOLLINIE
  5
CAB2
 10
288.509627
 20
211.124161
 30
0.0
 40
1.0
 50
270.0
 51
90.0
  0
ARC
  8
VOLLINIE
  5
CAB3
 10
288.509627
 20
212.624161
 30
0.0
 40
0.5
 50
90.0
 51
270.0
  0
ARC
  8
VOLLINIE
  5
CAB4
 10
288.509627
 20
200.624161
 30
0.0
 40
0.5
 50
90.0
 51
270.0
  0
ARC
  8
VOLLINIE
  5
CAB5
 10
288.509627
 20
199.124161
 30
0.0
 40
1.0
 50
270.0
 51
90.0
  0
ARC
  8
VOLLINIE
  5
CAB6
 10
292.509627
 20
199.124161
 30
0.0
 40
0.5
 50
270.0
 51
90.0
  0
ARC
  8
VOLLINIE
  5
CAB7
 10
292.509627
 20
200.624161
 30
0.0
 40
1.0
 50
90.0
 51
270.0
  0
ARC
  8
VOLLINIE
  5
CAB8
 10
288.509627
 20
196.124161
 30
0.0
 40
1.0
 50
270.0
 51
90.0
  0
ARC
  8
VOLLINIE
  5
CAB9
 10
288.509627
 20
197.624161
 30
0.0
 40
0.5
 50
90.0
 51
270.0
  0
ARC
  8
VOLLINIE
  5
CABA
 10
292.509627
 20
197.624161
 30
0.0
 40
1.0
 50
90.0
 51
270.0
  0
ARC
  8
VOLLINIE
  5
CABB
 10
292.509627
 20
196.124161
 30
0.0
 40
0.5
 50
270.0
 51
90.0
  0
ARC
  8
VOLLINIE
  5
CABC
 10
292.509627
 20
202.124161
 30
0.0
 40
0.5
 50
270.0
 51
90.0
  0
ARC
  8
VOLLINIE
  5
CABD
 10
292.509627
 20
203.624161
 30
0.0
 40
1.0
 50
90.0
 51
270.0
  0
ARC
  8
VOLLINIE
  5
CABE
 10
288.509627
 20
203.624161
 30
0.0
 40
0.5
 50
90.0
 51
270.0
  0
ARC
  8
VOLLINIE
  5
CABF
 10
288.509627
 20
202.124161
 30
0.0
 40
1.0
 50
270.0
 51
90.0
  0
ARC
  8
VOLLINIE
  5
CAC0
 10
292.509627
 20
206.624161
 30
0.0
 40
1.0
 50
90.0
 51
270.0
  0
ARC
  8
VOLLINIE
  5
CAC1
 10
292.509627
 20
205.124161
 30
0.0
 40
0.5
 50
270.0
 51
90.0
  0
ARC
  8
VOLLINIE
  5
CAC2
 10
288.509627
 20
205.124161
 30
0.0
 40
1.0
 50
270.0
 51
90.0
  0
ARC
  8
VOLLINIE
  5
CAC3
 10
288.509627
 20
206.624161
 30
0.0
 40
0.5
 50
90.0
 51
270.0
  0
ARC
  8
VOLLINIE
  5
CAC4
 10
288.509627
 20
185.624161
 30
0.0
 40
0.5
 50
90.0
 51
270.0
  0
ARC
  8
VOLLINIE
  5
CAC5
 10
288.509627
 20
184.124161
 30
0.0
 40
1.0
 50
270.0
 51
90.0
  0
ARC
  8
VOLLINIE
  5
CAC6
 10
292.509627
 20
184.124161
 30
0.0
 40
0.5
 50
270.0
 51
90.0
  0
ARC
  8
VOLLINIE
  5
CAC7
 10
292.509627
 20
185.624161
 30
0.0
 40
1.0
 50
90.0
 51
270.0
  0
ARC
  8
VOLLINIE
  5
CAC8
 10
288.509627
 20
181.124161
 30
0.0
 40
1.0
 50
270.0
 51
90.0
  0
ARC
  8
VOLLINIE
  5
CAC9
 10
288.509627
 20
182.624161
 30
0.0
 40
0.5
 50
90.0
 51
270.0
  0
ARC
  8
VOLLINIE
  5
CACA
 10
292.509627
 20
182.624161
 30
0.0
 40
1.0
 50
90.0
 51
270.0
  0
ARC
  8
VOLLINIE
  5
CACB
 10
292.509627
 20
181.124161
 30
0.0
 40
0.5
 50
270.0
 51
90.0
  0
ARC
  8
VOLLINIE
  5
CACC
 10
292.509627
 20
175.124161
 30
0.0
 40
0.5
 50
270.0
 51
90.0
  0
ARC
  8
VOLLINIE
  5
CACD
 10
292.509627
 20
176.624161
 30
0.0
 40
1.0
 50
90.0
 51
270.0
  0
ARC
  8
VOLLINIE
  5
CACE
 10
288.509627
 20
176.624161
 30
0.0
 40
0.5
 50
90.0
 51
270.0
  0
ARC
  8
VOLLINIE
  5
CACF
 10
288.509627
 20
175.124161
 30
0.0
 40
1.0
 50
270.0
 51
90.0
  0
ARC
  8
VOLLINIE
  5
CAD0
 10
292.509627
 20
179.624161
 30
0.0
 40
1.0
 50
90.0
 51
270.0
  0
ARC
  8
VOLLINIE
  5
CAD1
 10
292.509627
 20
178.124161
 30
0.0
 40
0.5
 50
270.0
 51
90.0
  0
ARC
  8
VOLLINIE
  5
CAD2
 10
288.509627
 20
178.124161
 30
0.0
 40
1.0
 50
270.0
 51
90.0
  0
ARC
  8
VOLLINIE
  5
CAD3
 10
288.509627
 20
179.624161
 30
0.0
 40
0.5
 50
90.0
 51
270.0
  0
ARC
  8
VOLLINIE
  5
CAD4
 10
288.509627
 20
191.624161
 30
0.0
 40
0.5
 50
90.0
 51
270.0
  0
ARC
  8
VOLLINIE
  5
CAD5
 10
288.509627
 20
190.124161
 30
0.0
 40
1.0
 50
270.0
 51
90.0
  0
ARC
  8
VOLLINIE
  5
CAD6
 10
292.509627
 20
190.124161
 30
0.0
 40
0.5
 50
270.0
 51
90.0
  0
ARC
  8
VOLLINIE
  5
CAD7
 10
292.509627
 20
191.624161
 30
0.0
 40
1.0
 50
90.0
 51
270.0
  0
ARC
  8
VOLLINIE
  5
CAD8
 10
288.509627
 20
187.124161
 30
0.0
 40
1.0
 50
270.0
 51
90.0
  0
ARC
  8
VOLLINIE
  5
CAD9
 10
288.509627
 20
188.624161
 30
0.0
 40
0.5
 50
90.0
 51
270.0
  0
ARC
  8
VOLLINIE
  5
CADA
 10
292.509627
 20
188.624161
 30
0.0
 40
1.0
 50
90.0
 51
270.0
  0
ARC
  8
VOLLINIE
  5
CADB
 10
292.509627
 20
193.124161
 30
0.0
 40
0.5
 50
270.0
 51
90.0
  0
ARC
  8
VOLLINIE
  5
CADC
 10
292.509627
 20
194.624161
 30
0.0
 40
1.0
 50
90.0
 51
270.0
  0
ARC
  8
VOLLINIE
  5
CADD
 10
288.509627
 20
194.624161
 30
0.0
 40
0.5
 50
90.0
 51
270.0
  0
ARC
  8
VOLLINIE
  5
CADE
 10
288.509627
 20
193.124161
 30
0.0
 40
1.0
 50
270.0
 51
90.0
  0
ARC
  8
VOLLINIE
  5
CADF
 10
288.509627
 20
170.624161
 30
0.0
 40
0.5
 50
90.0
 51
270.0
  0
ARC
  8
VOLLINIE
  5
CAE0
 10
288.509627
 20
169.124161
 30
0.0
 40
1.0
 50
270.0
 51
90.0
  0
ARC
  8
VOLLINIE
  5
CAE1
 10
292.509627
 20
169.124161
 30
0.0
 40
0.5
 50
270.0
 51
90.0
  0
ARC
  8
VOLLINIE
  5
CAE2
 10
292.509627
 20
170.624161
 30
0.0
 40
1.0
 50
90.0
 51
270.0
  0
ARC
  8
VOLLINIE
  5
CAE3
 10
288.509627
 20
166.124161
 30
0.0
 40
1.0
 50
270.0
 51
90.0
  0
ARC
  8
VOLLINIE
  5
CAE4
 10
288.509627
 20
167.624161
 30
0.0
 40
0.5
 50
90.0
 51
270.0
  0
ARC
  8
VOLLINIE
  5
CAE5
 10
292.509627
 20
167.624161
 30
0.0
 40
1.0
 50
90.0
 51
270.0
  0
ARC
  8
VOLLINIE
  5
CAE6
 10
292.509627
 20
166.124161
 30
0.0
 40
0.5
 50
0.0
 51
90.0
  0
ARC
  8
VOLLINIE
  5
CAE7
 10
292.509627
 20
172.124161
 30
0.0
 40
0.5
 50
270.0
 51
90.0
  0
ARC
  8
VOLLINIE
  5
CAE8
 10
292.509627
 20
173.624161
 30
0.0
 40
1.0
 50
90.0
 51
270.0
  0
ARC
  8
VOLLINIE
  5
CAE9
 10
288.509627
 20
173.624161
 30
0.0
 40
0.5
 50
90.0
 51
270.0
  0
ARC
  8
VOLLINIE
  5
CAEA
 10
288.509627
 20
172.124161
 30
0.0
 40
1.0
 50
270.0
 51
90.0
  0
ARC
  8
VOLLINIE
  5
CAEB
 10
288.509627
 20
164.624161
 30
0.0
 40
0.5
 50
90.0
 51
180.0
  0
LINE
  8
VOLLINIE
  5
CAEC
 10
288.391682
 20
219.110051
 30
0.0
 11
290.509627
 21
219.624161
 31
0.0
  0
ARC
  8
VOLLINIE
  5
CAED
 10
291.095414
 20
219.124161
 30
0.0
 40
0.5
 50
340.528779
 51
90.0
  0
ARC
  8
VOLLINIE
  5
CAEE
 10
292.509627
 20
187.124161
 30
0.0
 40
0.5
 50
270.0
 51
90.0
  0
LINE
  8
VOLLINIE
  5
CAEF
 10
313.009627
 20
155.624161
 30
0.0
 11
311.330695
 21
155.624161
 31
0.0
  0
LINE
  8
VOLLINIE
  5
CAF0
 10
307.188559
 20
155.624161
 30
0.0
 11
305.509627
 21
155.624161
 31
0.0
  0
LINE
  8
VOLLINIE
  5
CAF1
 10
311.330695
 20
155.624161
 30
0.0
 11
309.259627
 21
150.624161
 31
0.0
  0
LINE
  8
VOLLINIE
  5
CAF2
 10
307.188559
 20
155.624161
 30
0.0
 11
309.259627
 21
150.624161
 31
0.0
  0
LINE
  8
VOLLINIE
  5
CAF3
 10
311.330695
 20
155.624161
 30
0.0
 11
313.009627
 21
155.624161
 31
0.0
  0
LINE
  8
MITTELLINIE
  5
CAF4
 10
309.259627
 20
149.124161
 30
0.0
 11
309.259627
 21
157.124161
 31
0.0
  0
LINE
  8
MITTELLINIE
  5
CAF5
 10
303.009627
 20
149.124161
 30
0.0
 11
303.009627
 21
221.124161
 31
0.0
  0
LINE
  8
VOLLINIE
  5
CAF6
 10
305.509627
 20
150.624161
 30
0.0
 11
300.509627
 21
150.624161
 31
0.0
  0
LINE
  8
VOLLINIE
  5
CAF7
 10
300.509627
 20
150.624161
 30
0.0
 11
300.509627
 21
164.624161
 31
0.0
  0
LINE
  8
VOLLINIE
  5
CAF8
 10
305.509627
 20
150.624161
 30
0.0
 11
305.509627
 21
166.124161
 31
0.0
  0
LINE
  8
VOLLINIE
  5
CAF9
 10
303.595414
 20
219.624161
 30
0.0
 11
303.009627
 21
219.624161
 31
0.0
  0
ARC
  8
VOLLINIE
  5
CAFA
 10
301.009627
 20
218.624161
 30
0.0
 40
0.5
 50
103.644085
 51
270.0
  0
ARC
  8
VOLLINIE
  5
CAFB
 10
301.009627
 20
217.124161
 30
0.0
 40
1.0
 50
270.0
 51
90.0
  0
ARC
  8
VOLLINIE
  5
CAFC
 10
305.009627
 20
217.124161
 30
0.0
 40
0.5
 50
270.0
 51
90.0
  0
ARC
  8
VOLLINIE
  5
CAFD
 10
305.009627
 20
218.624161
 30
0.0
 40
1.0
 50
160.528779
 51
270.0
  0
ARC
  8
VOLLINIE
  5
CAFE
 10
301.009627
 20
214.124161
 30
0.0
 40
1.0
 50
270.0
 51
90.0
  0
ARC
  8
VOLLINIE
  5
CAFF
 10
301.009627
 20
215.624161
 30
0.0
 40
0.5
 50
90.0
 51
270.0
  0
ARC
  8
VOLLINIE
  5
CB00
 10
305.009627
 20
215.624161
 30
0.0
 40
1.0
 50
90.0
 51
270.0
  0
ARC
  8
VOLLINIE
  5
CB01
 10
305.009627
 20
214.124161
 30
0.0
 40
0.5
 50
270.0
 51
90.0
  0
ARC
  8
VOLLINIE
  5
CB02
 10
305.009627
 20
208.124161
 30
0.0
 40
0.5
 50
270.0
 51
90.0
  0
ARC
  8
VOLLINIE
  5
CB03
 10
305.009627
 20
209.624161
 30
0.0
 40
1.0
 50
90.0
 51
270.0
  0
ARC
  8
VOLLINIE
  5
CB04
 10
301.009627
 20
209.624161
 30
0.0
 40
0.5
 50
90.0
 51
270.0
  0
ARC
  8
VOLLINIE
  5
CB05
 10
301.009627
 20
208.124161
 30
0.0
 40
1.0
 50
270.0
 51
90.0
  0
ARC
  8
VOLLINIE
  5
CB06
 10
305.009627
 20
212.624161
 30
0.0
 40
1.0
 50
90.0
 51
270.0
  0
ARC
  8
VOLLINIE
  5
CB07
 10
305.009627
 20
211.124161
 30
0.0
 40
0.5
 50
270.0
 51
90.0
  0
ARC
  8
VOLLINIE
  5
CB08
 10
301.009627
 20
211.124161
 30
0.0
 40
1.0
 50
270.0
 51
90.0
  0
ARC
  8
VOLLINIE
  5
CB09
 10
301.009627
 20
212.624161
 30
0.0
 40
0.5
 50
90.0
 51
270.0
  0
ARC
  8
VOLLINIE
  5
CB0A
 10
301.009627
 20
200.624161
 30
0.0
 40
0.5
 50
90.0
 51
270.0
  0
ARC
  8
VOLLINIE
  5
CB0B
 10
301.009627
 20
199.124161
 30
0.0
 40
1.0
 50
270.0
 51
90.0
  0
ARC
  8
VOLLINIE
  5
CB0C
 10
305.009627
 20
199.124161
 30
0.0
 40
0.5
 50
270.0
 51
90.0
  0
ARC
  8
VOLLINIE
  5
CB0D
 10
305.009627
 20
200.624161
 30
0.0
 40
1.0
 50
90.0
 51
270.0
  0
ARC
  8
VOLLINIE
  5
CB0E
 10
301.009627
 20
196.124161
 30
0.0
 40
1.0
 50
270.0
 51
90.0
  0
ARC
  8
VOLLINIE
  5
CB0F
 10
301.009627
 20
197.624161
 30
0.0
 40
0.5
 50
90.0
 51
270.0
  0
ARC
  8
VOLLINIE
  5
CB10
 10
305.009627
 20
197.624161
 30
0.0
 40
1.0
 50
90.0
 51
270.0
  0
ARC
  8
VOLLINIE
  5
CB11
 10
305.009627
 20
196.124161
 30
0.0
 40
0.5
 50
270.0
 51
90.0
  0
ARC
  8
VOLLINIE
  5
CB12
 10
305.009627
 20
202.124161
 30
0.0
 40
0.5
 50
270.0
 51
90.0
  0
ARC
  8
VOLLINIE
  5
CB13
 10
305.009627
 20
203.624161
 30
0.0
 40
1.0
 50
90.0
 51
270.0
  0
ARC
  8
VOLLINIE
  5
CB14
 10
301.009627
 20
203.624161
 30
0.0
 40
0.5
 50
90.0
 51
270.0
  0
ARC
  8
VOLLINIE
  5
CB15
 10
301.009627
 20
202.124161
 30
0.0
 40
1.0
 50
270.0
 51
90.0
  0
ARC
  8
VOLLINIE
  5
CB16
 10
305.009627
 20
206.624161
 30
0.0
 40
1.0
 50
90.0
 51
270.0
  0
ARC
  8
VOLLINIE
  5
CB17
 10
305.009627
 20
205.124161
 30
0.0
 40
0.5
 50
270.0
 51
90.0
  0
ARC
  8
VOLLINIE
  5
CB18
 10
301.009627
 20
205.124161
 30
0.0
 40
1.0
 50
270.0
 51
90.0
  0
ARC
  8
VOLLINIE
  5
CB19
 10
301.009627
 20
206.624161
 30
0.0
 40
0.5
 50
90.0
 51
270.0
  0
ARC
  8
VOLLINIE
  5
CB1A
 10
301.009627
 20
185.624161
 30
0.0
 40
0.5
 50
90.0
 51
270.0
  0
ARC
  8
VOLLINIE
  5
CB1B
 10
301.009627
 20
184.124161
 30
0.0
 40
1.0
 50
270.0
 51
90.0
  0
ARC
  8
VOLLINIE
  5
CB1C
 10
305.009627
 20
184.124161
 30
0.0
 40
0.5
 50
270.0
 51
90.0
  0
ARC
  8
VOLLINIE
  5
CB1D
 10
305.009627
 20
185.624161
 30
0.0
 40
1.0
 50
90.0
 51
270.0
  0
ARC
  8
VOLLINIE
  5
CB1E
 10
301.009627
 20
181.124161
 30
0.0
 40
1.0
 50
270.0
 51
90.0
  0
ARC
  8
VOLLINIE
  5
CB1F
 10
301.009627
 20
182.624161
 30
0.0
 40
0.5
 50
90.0
 51
270.0
  0
ARC
  8
VOLLINIE
  5
CB20
 10
305.009627
 20
182.624161
 30
0.0
 40
1.0
 50
90.0
 51
270.0
  0
ARC
  8
VOLLINIE
  5
CB21
 10
305.009627
 20
181.124161
 30
0.0
 40
0.5
 50
270.0
 51
90.0
  0
ARC
  8
VOLLINIE
  5
CB22
 10
305.009627
 20
175.124161
 30
0.0
 40
0.5
 50
270.0
 51
90.0
  0
ARC
  8
VOLLINIE
  5
CB23
 10
305.009627
 20
176.624161
 30
0.0
 40
1.0
 50
90.0
 51
270.0
  0
ARC
  8
VOLLINIE
  5
CB24
 10
301.009627
 20
176.624161
 30
0.0
 40
0.5
 50
90.0
 51
270.0
  0
ARC
  8
VOLLINIE
  5
CB25
 10
301.009627
 20
175.124161
 30
0.0
 40
1.0
 50
270.0
 51
90.0
  0
ARC
  8
VOLLINIE
  5
CB26
 10
305.009627
 20
179.624161
 30
0.0
 40
1.0
 50
90.0
 51
270.0
  0
ARC
  8
VOLLINIE
  5
CB27
 10
305.009627
 20
178.124161
 30
0.0
 40
0.5
 50
270.0
 51
90.0
  0
ARC
  8
VOLLINIE
  5
CB28
 10
301.009627
 20
178.124161
 30
0.0
 40
1.0
 50
270.0
 51
90.0
  0
ARC
  8
VOLLINIE
  5
CB29
 10
301.009627
 20
179.624161
 30
0.0
 40
0.5
 50
90.0
 51
270.0
  0
ARC
  8
VOLLINIE
  5
CB2A
 10
301.009627
 20
191.624161
 30
0.0
 40
0.5
 50
90.0
 51
270.0
  0
ARC
  8
VOLLINIE
  5
CB2B
 10
301.009627
 20
190.124161
 30
0.0
 40
1.0
 50
270.0
 51
90.0
  0
ARC
  8
VOLLINIE
  5
CB2C
 10
305.009627
 20
190.124161
 30
0.0
 40
0.5
 50
270.0
 51
90.0
  0
ARC
  8
VOLLINIE
  5
CB2D
 10
305.009627
 20
191.624161
 30
0.0
 40
1.0
 50
90.0
 51
270.0
  0
ARC
  8
VOLLINIE
  5
CB2E
 10
301.009627
 20
187.124161
 30
0.0
 40
1.0
 50
270.0
 51
90.0
  0
ARC
  8
VOLLINIE
  5
CB2F
 10
301.009627
 20
188.624161
 30
0.0
 40
0.5
 50
90.0
 51
270.0
  0
ARC
  8
VOLLINIE
  5
CB30
 10
305.009627
 20
188.624161
 30
0.0
 40
1.0
 50
90.0
 51
270.0
  0
ARC
  8
VOLLINIE
  5
CB31
 10
305.009627
 20
193.124161
 30
0.0
 40
0.5
 50
270.0
 51
90.0
  0
ARC
  8
VOLLINIE
  5
CB32
 10
305.009627
 20
194.624161
 30
0.0
 40
1.0
 50
90.0
 51
270.0
  0
ARC
  8
VOLLINIE
  5
CB33
 10
301.009627
 20
194.624161
 30
0.0
 40
0.5
 50
90.0
 51
270.0
  0
ARC
  8
VOLLINIE
  5
CB34
 10
301.009627
 20
193.124161
 30
0.0
 40
1.0
 50
270.0
 51
90.0
  0
ARC
  8
VOLLINIE
  5
CB35
 10
301.009627
 20
170.624161
 30
0.0
 40
0.5
 50
90.0
 51
270.0
  0
ARC
  8
VOLLINIE
  5
CB36
 10
301.009627
 20
169.124161
 30
0.0
 40
1.0
 50
270.0
 51
90.0
  0
ARC
  8
VOLLINIE
  5
CB37
 10
305.009627
 20
169.124161
 30
0.0
 40
0.5
 50
270.0
 51
90.0
  0
ARC
  8
VOLLINIE
  5
CB38
 10
305.009627
 20
170.624161
 30
0.0
 40
1.0
 50
90.0
 51
270.0
  0
ARC
  8
VOLLINIE
  5
CB39
 10
301.009627
 20
166.124161
 30
0.0
 40
1.0
 50
270.0
 51
90.0
  0
ARC
  8
VOLLINIE
  5
CB3A
 10
301.009627
 20
167.624161
 30
0.0
 40
0.5
 50
90.0
 51
270.0
  0
ARC
  8
VOLLINIE
  5
CB3B
 10
305.009627
 20
167.624161
 30
0.0
 40
1.0
 50
90.0
 51
270.0
  0
ARC
  8
VOLLINIE
  5
CB3C
 10
305.009627
 20
166.124161
 30
0.0
 40
0.5
 50
0.0
 51
90.0
  0
ARC
  8
VOLLINIE
  5
CB3D
 10
305.009627
 20
172.124161
 30
0.0
 40
0.5
 50
270.0
 51
90.0
  0
ARC
  8
VOLLINIE
  5
CB3E
 10
305.009627
 20
173.624161
 30
0.0
 40
1.0
 50
90.0
 51
270.0
  0
ARC
  8
VOLLINIE
  5
CB3F
 10
301.009627
 20
173.624161
 30
0.0
 40
0.5
 50
90.0
 51
270.0
  0
ARC
  8
VOLLINIE
  5
CB40
 10
301.009627
 20
172.124161
 30
0.0
 40
1.0
 50
270.0
 51
90.0
  0
ARC
  8
VOLLINIE
  5
CB41
 10
301.009627
 20
164.624161
 30
0.0
 40
0.5
 50
90.0
 51
180.0
  0
LINE
  8
VOLLINIE
  5
CB42
 10
300.891682
 20
219.110051
 30
0.0
 11
303.009627
 21
219.624161
 31
0.0
  0
ARC
  8
VOLLINIE
  5
CB43
 10
303.595414
 20
219.124161
 30
0.0
 40
0.5
 50
340.528779
 51
90.0
  0
ARC
  8
VOLLINIE
  5
CB44
 10
305.009627
 20
187.124161
 30
0.0
 40
0.5
 50
270.0
 51
90.0
  0
LINE
  8
VOLLINIE
  5
CB45
 10
325.509627
 20
155.624161
 30
0.0
 11
323.830695
 21
155.624161
 31
0.0
  0
LINE
  8
VOLLINIE
  5
CB46
 10
319.688559
 20
155.624161
 30
0.0
 11
318.009627
 21
155.624161
 31
0.0
  0
LINE
  8
VOLLINIE
  5
CB47
 10
323.830695
 20
155.624161
 30
0.0
 11
321.759627
 21
150.624161
 31
0.0
  0
LINE
  8
VOLLINIE
  5
CB48
 10
319.688559
 20
155.624161
 30
0.0
 11
321.759627
 21
150.624161
 31
0.0
  0
LINE
  8
VOLLINIE
  5
CB49
 10
323.830695
 20
155.624161
 30
0.0
 11
325.509627
 21
155.624161
 31
0.0
  0
LINE
  8
MITTELLINIE
  5
CB4A
 10
321.759627
 20
149.124161
 30
0.0
 11
321.759627
 21
157.124161
 31
0.0
  0
LINE
  8
MITTELLINIE
  5
CB4B
 10
315.509627
 20
149.124161
 30
0.0
 11
315.509627
 21
221.124161
 31
0.0
  0
LINE
  8
VOLLINIE
  5
CB4C
 10
318.009627
 20
150.624161
 30
0.0
 11
313.009627
 21
150.624161
 31
0.0
  0
LINE
  8
VOLLINIE
  5
CB4D
 10
313.009627
 20
150.624161
 30
0.0
 11
313.009627
 21
164.624161
 31
0.0
  0
LINE
  8
VOLLINIE
  5
CB4E
 10
318.009627
 20
150.624161
 30
0.0
 11
318.009627
 21
166.124161
 31
0.0
  0
LINE
  8
VOLLINIE
  5
CB4F
 10
316.095414
 20
219.624161
 30
0.0
 11
315.509627
 21
219.624161
 31
0.0
  0
ARC
  8
VOLLINIE
  5
CB50
 10
313.509627
 20
218.624161
 30
0.0
 40
0.5
 50
103.644085
 51
270.0
  0
ARC
  8
VOLLINIE
  5
CB51
 10
313.509627
 20
217.124161
 30
0.0
 40
1.0
 50
270.0
 51
90.0
  0
ARC
  8
VOLLINIE
  5
CB52
 10
317.509627
 20
217.124161
 30
0.0
 40
0.5
 50
270.0
 51
90.0
  0
ARC
  8
VOLLINIE
  5
CB53
 10
317.509627
 20
218.624161
 30
0.0
 40
1.0
 50
160.528779
 51
270.0
  0
ARC
  8
VOLLINIE
  5
CB54
 10
313.509627
 20
214.124161
 30
0.0
 40
1.0
 50
270.0
 51
90.0
  0
ARC
  8
VOLLINIE
  5
CB55
 10
313.509627
 20
215.624161
 30
0.0
 40
0.5
 50
90.0
 51
270.0
  0
ARC
  8
VOLLINIE
  5
CB56
 10
317.509627
 20
215.624161
 30
0.0
 40
1.0
 50
90.0
 51
270.0
  0
ARC
  8
VOLLINIE
  5
CB57
 10
317.509627
 20
214.124161
 30
0.0
 40
0.5
 50
270.0
 51
90.0
  0
ARC
  8
VOLLINIE
  5
CB58
 10
317.509627
 20
208.124161
 30
0.0
 40
0.5
 50
270.0
 51
90.0
  0
ARC
  8
VOLLINIE
  5
CB59
 10
317.509627
 20
209.624161
 30
0.0
 40
1.0
 50
90.0
 51
270.0
  0
ARC
  8
VOLLINIE
  5
CB5A
 10
313.509627
 20
209.624161
 30
0.0
 40
0.5
 50
90.0
 51
270.0
  0
ARC
  8
VOLLINIE
  5
CB5B
 10
313.509627
 20
208.124161
 30
0.0
 40
1.0
 50
270.0
 51
90.0
  0
ARC
  8
VOLLINIE
  5
CB5C
 10
317.509627
 20
212.624161
 30
0.0
 40
1.0
 50
90.0
 51
270.0
  0
ARC
  8
VOLLINIE
  5
CB5D
 10
317.509627
 20
211.124161
 30
0.0
 40
0.5
 50
270.0
 51
90.0
  0
ARC
  8
VOLLINIE
  5
CB5E
 10
313.509627
 20
211.124161
 30
0.0
 40
1.0
 50
270.0
 51
90.0
  0
ARC
  8
VOLLINIE
  5
CB5F
 10
313.509627
 20
212.624161
 30
0.0
 40
0.5
 50
90.0
 51
270.0
  0
ARC
  8
VOLLINIE
  5
CB60
 10
313.509627
 20
200.624161
 30
0.0
 40
0.5
 50
90.0
 51
270.0
  0
ARC
  8
VOLLINIE
  5
CB61
 10
313.509627
 20
199.124161
 30
0.0
 40
1.0
 50
270.0
 51
90.0
  0
ARC
  8
VOLLINIE
  5
CB62
 10
317.509627
 20
199.124161
 30
0.0
 40
0.5
 50
270.0
 51
90.0
  0
ARC
  8
VOLLINIE
  5
CB63
 10
317.509627
 20
200.624161
 30
0.0
 40
1.0
 50
90.0
 51
270.0
  0
ARC
  8
VOLLINIE
  5
CB64
 10
313.509627
 20
196.124161
 30
0.0
 40
1.0
 50
270.0
 51
90.0
  0
ARC
  8
VOLLINIE
  5
CB65
 10
313.509627
 20
197.624161
 30
0.0
 40
0.5
 50
90.0
 51
270.0
  0
ARC
  8
VOLLINIE
  5
CB66
 10
317.509627
 20
197.624161
 30
0.0
 40
1.0
 50
90.0
 51
270.0
  0
ARC
  8
VOLLINIE
  5
CB67
 10
317.509627
 20
196.124161
 30
0.0
 40
0.5
 50
270.0
 51
90.0
  0
ARC
  8
VOLLINIE
  5
CB68
 10
317.509627
 20
202.124161
 30
0.0
 40
0.5
 50
270.0
 51
90.0
  0
ARC
  8
VOLLINIE
  5
CB69
 10
317.509627
 20
203.624161
 30
0.0
 40
1.0
 50
90.0
 51
270.0
  0
ARC
  8
VOLLINIE
  5
CB6A
 10
313.509627
 20
203.624161
 30
0.0
 40
0.5
 50
90.0
 51
270.0
  0
ARC
  8
VOLLINIE
  5
CB6B
 10
313.509627
 20
202.124161
 30
0.0
 40
1.0
 50
270.0
 51
90.0
  0
ARC
  8
VOLLINIE
  5
CB6C
 10
317.509627
 20
206.624161
 30
0.0
 40
1.0
 50
90.0
 51
270.0
  0
ARC
  8
VOLLINIE
  5
CB6D
 10
317.509627
 20
205.124161
 30
0.0
 40
0.5
 50
270.0
 51
90.0
  0
ARC
  8
VOLLINIE
  5
CB6E
 10
313.509627
 20
205.124161
 30
0.0
 40
1.0
 50
270.0
 51
90.0
  0
ARC
  8
VOLLINIE
  5
CB6F
 10
313.509627
 20
206.624161
 30
0.0
 40
0.5
 50
90.0
 51
270.0
  0
ARC
  8
VOLLINIE
  5
CB70
 10
313.509627
 20
185.624161
 30
0.0
 40
0.5
 50
90.0
 51
270.0
  0
ARC
  8
VOLLINIE
  5
CB71
 10
313.509627
 20
184.124161
 30
0.0
 40
1.0
 50
270.0
 51
90.0
  0
ARC
  8
VOLLINIE
  5
CB72
 10
317.509627
 20
184.124161
 30
0.0
 40
0.5
 50
270.0
 51
90.0
  0
ARC
  8
VOLLINIE
  5
CB73
 10
317.509627
 20
185.624161
 30
0.0
 40
1.0
 50
90.0
 51
270.0
  0
ARC
  8
VOLLINIE
  5
CB74
 10
313.509627
 20
181.124161
 30
0.0
 40
1.0
 50
270.0
 51
90.0
  0
ARC
  8
VOLLINIE
  5
CB75
 10
313.509627
 20
182.624161
 30
0.0
 40
0.5
 50
90.0
 51
270.0
  0
ARC
  8
VOLLINIE
  5
CB76
 10
317.509627
 20
182.624161
 30
0.0
 40
1.0
 50
90.0
 51
270.0
  0
ARC
  8
VOLLINIE
  5
CB77
 10
317.509627
 20
181.124161
 30
0.0
 40
0.5
 50
270.0
 51
90.0
  0
ARC
  8
VOLLINIE
  5
CB78
 10
317.509627
 20
175.124161
 30
0.0
 40
0.5
 50
270.0
 51
90.0
  0
ARC
  8
VOLLINIE
  5
CB79
 10
317.509627
 20
176.624161
 30
0.0
 40
1.0
 50
90.0
 51
270.0
  0
ARC
  8
VOLLINIE
  5
CB7A
 10
313.509627
 20
176.624161
 30
0.0
 40
0.5
 50
90.0
 51
270.0
  0
ARC
  8
VOLLINIE
  5
CB7B
 10
313.509627
 20
175.124161
 30
0.0
 40
1.0
 50
270.0
 51
90.0
  0
ARC
  8
VOLLINIE
  5
CB7C
 10
317.509627
 20
179.624161
 30
0.0
 40
1.0
 50
90.0
 51
270.0
  0
ARC
  8
VOLLINIE
  5
CB7D
 10
317.509627
 20
178.124161
 30
0.0
 40
0.5
 50
270.0
 51
90.0
  0
ARC
  8
VOLLINIE
  5
CB7E
 10
313.509627
 20
178.124161
 30
0.0
 40
1.0
 50
270.0
 51
90.0
  0
ARC
  8
VOLLINIE
  5
CB7F
 10
313.509627
 20
179.624161
 30
0.0
 40
0.5
 50
90.0
 51
270.0
  0
ARC
  8
VOLLINIE
  5
CB80
 10
313.509627
 20
191.624161
 30
0.0
 40
0.5
 50
90.0
 51
270.0
  0
ARC
  8
VOLLINIE
  5
CB81
 10
313.509627
 20
190.124161
 30
0.0
 40
1.0
 50
270.0
 51
90.0
  0
ARC
  8
VOLLINIE
  5
CB82
 10
317.509627
 20
190.124161
 30
0.0
 40
0.5
 50
270.0
 51
90.0
  0
ARC
  8
VOLLINIE
  5
CB83
 10
317.509627
 20
191.624161
 30
0.0
 40
1.0
 50
90.0
 51
270.0
  0
ARC
  8
VOLLINIE
  5
CB84
 10
313.509627
 20
187.124161
 30
0.0
 40
1.0
 50
270.0
 51
90.0
  0
ARC
  8
VOLLINIE
  5
CB85
 10
313.509627
 20
188.624161
 30
0.0
 40
0.5
 50
90.0
 51
270.0
  0
ARC
  8
VOLLINIE
  5
CB86
 10
317.509627
 20
188.624161
 30
0.0
 40
1.0
 50
90.0
 51
270.0
  0
ARC
  8
VOLLINIE
  5
CB87
 10
317.509627
 20
193.124161
 30
0.0
 40
0.5
 50
270.0
 51
90.0
  0
ARC
  8
VOLLINIE
  5
CB88
 10
317.509627
 20
194.624161
 30
0.0
 40
1.0
 50
90.0
 51
270.0
  0
ARC
  8
VOLLINIE
  5
CB89
 10
313.509627
 20
194.624161
 30
0.0
 40
0.5
 50
90.0
 51
270.0
  0
ARC
  8
VOLLINIE
  5
CB8A
 10
313.509627
 20
193.124161
 30
0.0
 40
1.0
 50
270.0
 51
90.0
  0
ARC
  8
VOLLINIE
  5
CB8B
 10
313.509627
 20
170.624161
 30
0.0
 40
0.5
 50
90.0
 51
270.0
  0
ARC
  8
VOLLINIE
  5
CB8C
 10
313.509627
 20
169.124161
 30
0.0
 40
1.0
 50
270.0
 51
90.0
  0
ARC
  8
VOLLINIE
  5
CB8D
 10
317.509627
 20
169.124161
 30
0.0
 40
0.5
 50
270.0
 51
90.0
  0
ARC
  8
VOLLINIE
  5
CB8E
 10
317.509627
 20
170.624161
 30
0.0
 40
1.0
 50
90.0
 51
270.0
  0
ARC
  8
VOLLINIE
  5
CB8F
 10
313.509627
 20
166.124161
 30
0.0
 40
1.0
 50
270.0
 51
90.0
  0
ARC
  8
VOLLINIE
  5
CB90
 10
313.509627
 20
167.624161
 30
0.0
 40
0.5
 50
90.0
 51
270.0
  0
ARC
  8
VOLLINIE
  5
CB91
 10
317.509627
 20
167.624161
 30
0.0
 40
1.0
 50
90.0
 51
270.0
  0
ARC
  8
VOLLINIE
  5
CB92
 10
317.509627
 20
166.124161
 30
0.0
 40
0.5
 50
0.0
 51
90.0
  0
ARC
  8
VOLLINIE
  5
CB93
 10
317.509627
 20
172.124161
 30
0.0
 40
0.5
 50
270.0
 51
90.0
  0
ARC
  8
VOLLINIE
  5
CB94
 10
317.509627
 20
173.624161
 30
0.0
 40
1.0
 50
90.0
 51
270.0
  0
ARC
  8
VOLLINIE
  5
CB95
 10
313.509627
 20
173.624161
 30
0.0
 40
0.5
 50
90.0
 51
270.0
  0
ARC
  8
VOLLINIE
  5
CB96
 10
313.509627
 20
172.124161
 30
0.0
 40
1.0
 50
270.0
 51
90.0
  0
ARC
  8
VOLLINIE
  5
CB97
 10
313.509627
 20
164.624161
 30
0.0
 40
0.5
 50
90.0
 51
180.0
  0
LINE
  8
VOLLINIE
  5
CB98
 10
313.391682
 20
219.110051
 30
0.0
 11
315.509627
 21
219.624161
 31
0.0
  0
ARC
  8
VOLLINIE
  5
CB99
 10
316.095414
 20
219.124161
 30
0.0
 40
0.5
 50
340.528779
 51
90.0
  0
ARC
  8
VOLLINIE
  5
CB9A
 10
317.509627
 20
187.124161
 30
0.0
 40
0.5
 50
270.0
 51
90.0
  0
ARC
  8
VOLLINIE
  5
CB9B
 10
330.009627
 20
187.124161
 30
0.0
 40
0.5
 50
270.0
 51
90.0
  0
ARC
  8
VOLLINIE
  5
CB9C
 10
328.595414
 20
219.124161
 30
0.0
 40
0.5
 50
340.528779
 51
90.0
  0
LINE
  8
VOLLINIE
  5
CB9D
 10
325.891682
 20
219.110051
 30
0.0
 11
328.009627
 21
219.624161
 31
0.0
  0
ARC
  8
VOLLINIE
  5
CB9E
 10
326.009627
 20
164.624161
 30
0.0
 40
0.5
 50
90.0
 51
180.0
  0
ARC
  8
VOLLINIE
  5
CB9F
 10
326.009627
 20
172.124161
 30
0.0
 40
1.0
 50
270.0
 51
90.0
  0
ARC
  8
VOLLINIE
  5
CBA0
 10
326.009627
 20
173.624161
 30
0.0
 40
0.5
 50
90.0
 51
270.0
  0
ARC
  8
VOLLINIE
  5
CBA1
 10
330.009627
 20
173.624161
 30
0.0
 40
1.0
 50
90.0
 51
270.0
  0
ARC
  8
VOLLINIE
  5
CBA2
 10
330.009627
 20
172.124161
 30
0.0
 40
0.5
 50
270.0
 51
90.0
  0
ARC
  8
VOLLINIE
  5
CBA3
 10
330.009627
 20
166.124161
 30
0.0
 40
0.5
 50
0.0
 51
90.0
  0
ARC
  8
VOLLINIE
  5
CBA4
 10
330.009627
 20
167.624161
 30
0.0
 40
1.0
 50
90.0
 51
270.0
  0
ARC
  8
VOLLINIE
  5
CBA5
 10
326.009627
 20
167.624161
 30
0.0
 40
0.5
 50
90.0
 51
270.0
  0
ARC
  8
VOLLINIE
  5
CBA6
 10
326.009627
 20
166.124161
 30
0.0
 40
1.0
 50
270.0
 51
90.0
  0
ARC
  8
VOLLINIE
  5
CBA7
 10
330.009627
 20
170.624161
 30
0.0
 40
1.0
 50
90.0
 51
270.0
  0
ARC
  8
VOLLINIE
  5
CBA8
 10
330.009627
 20
169.124161
 30
0.0
 40
0.5
 50
270.0
 51
90.0
  0
ARC
  8
VOLLINIE
  5
CBA9
 10
326.009627
 20
169.124161
 30
0.0
 40
1.0
 50
270.0
 51
90.0
  0
ARC
  8
VOLLINIE
  5
CBAA
 10
326.009627
 20
170.624161
 30
0.0
 40
0.5
 50
90.0
 51
270.0
  0
ARC
  8
VOLLINIE
  5
CBAB
 10
326.009627
 20
193.124161
 30
0.0
 40
1.0
 50
270.0
 51
90.0
  0
ARC
  8
VOLLINIE
  5
CBAC
 10
326.009627
 20
194.624161
 30
0.0
 40
0.5
 50
90.0
 51
270.0
  0
ARC
  8
VOLLINIE
  5
CBAD
 10
330.009627
 20
194.624161
 30
0.0
 40
1.0
 50
90.0
 51
270.0
  0
ARC
  8
VOLLINIE
  5
CBAE
 10
330.009627
 20
193.124161
 30
0.0
 40
0.5
 50
270.0
 51
90.0
  0
ARC
  8
VOLLINIE
  5
CBAF
 10
330.009627
 20
188.624161
 30
0.0
 40
1.0
 50
90.0
 51
270.0
  0
ARC
  8
VOLLINIE
  5
CBB0
 10
326.009627
 20
188.624161
 30
0.0
 40
0.5
 50
90.0
 51
270.0
  0
ARC
  8
VOLLINIE
  5
CBB1
 10
326.009627
 20
187.124161
 30
0.0
 40
1.0
 50
270.0
 51
90.0
  0
ARC
  8
VOLLINIE
  5
CBB2
 10
330.009627
 20
191.624161
 30
0.0
 40
1.0
 50
90.0
 51
270.0
  0
ARC
  8
VOLLINIE
  5
CBB3
 10
330.009627
 20
190.124161
 30
0.0
 40
0.5
 50
270.0
 51
90.0
  0
ARC
  8
VOLLINIE
  5
CBB4
 10
326.009627
 20
190.124161
 30
0.0
 40
1.0
 50
270.0
 51
90.0
  0
ARC
  8
VOLLINIE
  5
CBB5
 10
326.009627
 20
191.624161
 30
0.0
 40
0.5
 50
90.0
 51
270.0
  0
ARC
  8
VOLLINIE
  5
CBB6
 10
326.009627
 20
179.624161
 30
0.0
 40
0.5
 50
90.0
 51
270.0
  0
ARC
  8
VOLLINIE
  5
CBB7
 10
326.009627
 20
178.124161
 30
0.0
 40
1.0
 50
270.0
 51
90.0
  0
ARC
  8
VOLLINIE
  5
CBB8
 10
330.009627
 20
178.124161
 30
0.0
 40
0.5
 50
270.0
 51
90.0
  0
ARC
  8
VOLLINIE
  5
CBB9
 10
330.009627
 20
179.624161
 30
0.0
 40
1.0
 50
90.0
 51
270.0
  0
ARC
  8
VOLLINIE
  5
CBBA
 10
326.009627
 20
175.124161
 30
0.0
 40
1.0
 50
270.0
 51
90.0
  0
ARC
  8
VOLLINIE
  5
CBBB
 10
326.009627
 20
176.624161
 30
0.0
 40
0.5
 50
90.0
 51
270.0
  0
ARC
  8
VOLLINIE
  5
CBBC
 10
330.009627
 20
176.624161
 30
0.0
 40
1.0
 50
90.0
 51
270.0
  0
ARC
  8
VOLLINIE
  5
CBBD
 10
330.009627
 20
175.124161
 30
0.0
 40
0.5
 50
270.0
 51
90.0
  0
ARC
  8
VOLLINIE
  5
CBBE
 10
330.009627
 20
181.124161
 30
0.0
 40
0.5
 50
270.0
 51
90.0
  0
ARC
  8
VOLLINIE
  5
CBBF
 10
330.009627
 20
182.624161
 30
0.0
 40
1.0
 50
90.0
 51
270.0
  0
ARC
  8
VOLLINIE
  5
CBC0
 10
326.009627
 20
182.624161
 30
0.0
 40
0.5
 50
90.0
 51
270.0
  0
ARC
  8
VOLLINIE
  5
CBC1
 10
326.009627
 20
181.124161
 30
0.0
 40
1.0
 50
270.0
 51
90.0
  0
ARC
  8
VOLLINIE
  5
CBC2
 10
330.009627
 20
185.624161
 30
0.0
 40
1.0
 50
90.0
 51
270.0
  0
ARC
  8
VOLLINIE
  5
CBC3
 10
330.009627
 20
184.124161
 30
0.0
 40
0.5
 50
270.0
 51
90.0
  0
ARC
  8
VOLLINIE
  5
CBC4
 10
326.009627
 20
184.124161
 30
0.0
 40
1.0
 50
270.0
 51
90.0
  0
ARC
  8
VOLLINIE
  5
CBC5
 10
326.009627
 20
185.624161
 30
0.0
 40
0.5
 50
90.0
 51
270.0
  0
ARC
  8
VOLLINIE
  5
CBC6
 10
326.009627
 20
206.624161
 30
0.0
 40
0.5
 50
90.0
 51
270.0
  0
ARC
  8
VOLLINIE
  5
CBC7
 10
326.009627
 20
205.124161
 30
0.0
 40
1.0
 50
270.0
 51
90.0
  0
ARC
  8
VOLLINIE
  5
CBC8
 10
330.009627
 20
205.124161
 30
0.0
 40
0.5
 50
270.0
 51
90.0
  0
ARC
  8
VOLLINIE
  5
CBC9
 10
330.009627
 20
206.624161
 30
0.0
 40
1.0
 50
90.0
 51
270.0
  0
ARC
  8
VOLLINIE
  5
CBCA
 10
326.009627
 20
202.124161
 30
0.0
 40
1.0
 50
270.0
 51
90.0
  0
ARC
  8
VOLLINIE
  5
CBCB
 10
326.009627
 20
203.624161
 30
0.0
 40
0.5
 50
90.0
 51
270.0
  0
ARC
  8
VOLLINIE
  5
CBCC
 10
330.009627
 20
203.624161
 30
0.0
 40
1.0
 50
90.0
 51
270.0
  0
ARC
  8
VOLLINIE
  5
CBCD
 10
330.009627
 20
202.124161
 30
0.0
 40
0.5
 50
270.0
 51
90.0
  0
ARC
  8
VOLLINIE
  5
CBCE
 10
330.009627
 20
196.124161
 30
0.0
 40
0.5
 50
270.0
 51
90.0
  0
ARC
  8
VOLLINIE
  5
CBCF
 10
330.009627
 20
197.624161
 30
0.0
 40
1.0
 50
90.0
 51
270.0
  0
ARC
  8
VOLLINIE
  5
CBD0
 10
326.009627
 20
197.624161
 30
0.0
 40
0.5
 50
90.0
 51
270.0
  0
ARC
  8
VOLLINIE
  5
CBD1
 10
326.009627
 20
196.124161
 30
0.0
 40
1.0
 50
270.0
 51
90.0
  0
ARC
  8
VOLLINIE
  5
CBD2
 10
330.009627
 20
200.624161
 30
0.0
 40
1.0
 50
90.0
 51
270.0
  0
ARC
  8
VOLLINIE
  5
CBD3
 10
330.009627
 20
199.124161
 30
0.0
 40
0.5
 50
270.0
 51
90.0
  0
ARC
  8
VOLLINIE
  5
CBD4
 10
326.009627
 20
199.124161
 30
0.0
 40
1.0
 50
270.0
 51
90.0
  0
ARC
  8
VOLLINIE
  5
CBD5
 10
326.009627
 20
200.624161
 30
0.0
 40
0.5
 50
90.0
 51
270.0
  0
ARC
  8
VOLLINIE
  5
CBD6
 10
326.009627
 20
212.624161
 30
0.0
 40
0.5
 50
90.0
 51
270.0
  0
ARC
  8
VOLLINIE
  5
CBD7
 10
326.009627
 20
211.124161
 30
0.0
 40
1.0
 50
270.0
 51
90.0
  0
ARC
  8
VOLLINIE
  5
CBD8
 10
330.009627
 20
211.124161
 30
0.0
 40
0.5
 50
270.0
 51
90.0
  0
ARC
  8
VOLLINIE
  5
CBD9
 10
330.009627
 20
212.624161
 30
0.0
 40
1.0
 50
90.0
 51
270.0
  0
ARC
  8
VOLLINIE
  5
CBDA
 10
326.009627
 20
208.124161
 30
0.0
 40
1.0
 50
270.0
 51
90.0
  0
ARC
  8
VOLLINIE
  5
CBDB
 10
326.009627
 20
209.624161
 30
0.0
 40
0.5
 50
90.0
 51
270.0
  0
ARC
  8
VOLLINIE
  5
CBDC
 10
330.009627
 20
209.624161
 30
0.0
 40
1.0
 50
90.0
 51
270.0
  0
ARC
  8
VOLLINIE
  5
CBDD
 10
330.009627
 20
208.124161
 30
0.0
 40
0.5
 50
270.0
 51
90.0
  0
ARC
  8
VOLLINIE
  5
CBDE
 10
330.009627
 20
214.124161
 30
0.0
 40
0.5
 50
270.0
 51
90.0
  0
ARC
  8
VOLLINIE
  5
CBDF
 10
330.009627
 20
215.624161
 30
0.0
 40
1.0
 50
90.0
 51
270.0
  0
ARC
  8
VOLLINIE
  5
CBE0
 10
326.009627
 20
215.624161
 30
0.0
 40
0.5
 50
90.0
 51
270.0
  0
ARC
  8
VOLLINIE
  5
CBE1
 10
326.009627
 20
214.124161
 30
0.0
 40
1.0
 50
270.0
 51
90.0
  0
ARC
  8
VOLLINIE
  5
CBE2
 10
330.009627
 20
218.624161
 30
0.0
 40
1.0
 50
160.528779
 51
270.0
  0
ARC
  8
VOLLINIE
  5
CBE3
 10
330.009627
 20
217.124161
 30
0.0
 40
0.5
 50
270.0
 51
90.0
  0
ARC
  8
VOLLINIE
  5
CBE4
 10
326.009627
 20
217.124161
 30
0.0
 40
1.0
 50
270.0
 51
90.0
  0
ARC
  8
VOLLINIE
  5
CBE5
 10
326.009627
 20
218.624161
 30
0.0
 40
0.5
 50
103.644085
 51
270.0
  0
LINE
  8
VOLLINIE
  5
CBE6
 10
328.595414
 20
219.624161
 30
0.0
 11
328.009627
 21
219.624161
 31
0.0
  0
LINE
  8
VOLLINIE
  5
CBE7
 10
330.509627
 20
150.624161
 30
0.0
 11
330.509627
 21
166.124161
 31
0.0
  0
LINE
  8
VOLLINIE
  5
CBE8
 10
325.509627
 20
150.624161
 30
0.0
 11
325.509627
 21
164.624161
 31
0.0
  0
LINE
  8
VOLLINIE
  5
CBE9
 10
330.509627
 20
150.624161
 30
0.0
 11
325.509627
 21
150.624161
 31
0.0
  0
LINE
  8
MITTELLINIE
  5
CBEA
 10
328.009627
 20
149.124161
 30
0.0
 11
328.009627
 21
221.124161
 31
0.0
  0
DIMENSION
  8
BEMASSUNG
  5
CBF8
  2
*D11
 10
46.759627
 20
234.685435
 30
0.0
 11
35.745341
 21
234.685435
 31
0.0
 70
   128
 13
65.509627
 23
221.124161
 33
0.0
 14
46.759627
 24
219.624161
 34
0.0
  3
RBBEM
1001
ACAD
1000
DSTYLE
1002
{
1070
    78
1070
     0
1070
   287
1070
     2
1070
     4
1000
BEMASSO EIN
1002
}
  0
DIMENSION
  8
BEMASSUNG
  5
CC07
  2
*D12
 10
65.509627
 20
240.648236
 30
0.0
 11
54.495341
 21
240.648236
 31
0.0
 70
   128
 13
78.009627
 23
221.124161
 33
0.0
 14
65.509627
 24
221.124161
 34
0.0
  3
RBBEM
1001
ACAD
1000
DSTYLE
1002
{
1070
    78
1070
     0
1070
   287
1070
     2
1070
   271
1070
     1
1070
     4
1000
BEMASSO EIN
1002
}
  0
DIMENSION
  8
BEMASSUNG
  5
CC3B
  2
*D13
 10
328.009627
 20
246.626325
 30
0.0
 11
196.876762
 21
246.626325
 31
0.0
 70
   128
  1
21x12.5 (=262.5)
 13
65.509627
 23
234.185435
 33
0.0
 14
328.009627
 24
221.124161
 34
0.0
  3
RBBEM
1001
ACAD
1000
DSTYLE
1002
{
1070
    78
1070
     0
1070
   287
1070
     2
1070
     4
1000
BEMASSO EIN
1002
}
  0
DIMENSION
  8
BEMASSUNG
  5
CC62
  2
*D14
 10
346.759627
 20
233.629285
 30
0.0
 11
357.773913
 21
233.629285
 31
0.0
 70
   128
 13
328.009627
 23
221.124161
 33
0.0
 14
346.759627
 24
219.624161
 34
0.0
  3
RBBEM
1001
ACAD
1000
DSTYLE
1002
{
1070
    78
1070
     0
1070
   287
1070
     2
1070
     4
1000
BEMASSO EIN
1002
}
  0
DIMENSION
  8
BEMASSUNG
  5
CC6F
  2
*D15
 10
360.359872
 20
135.624161
 30
0.0
 11
357.959872
 21
177.624161
 31
0.0
 13
346.759627
 23
219.624161
 33
0.0
 14
346.759627
 24
135.624161
 34
0.0
 50
90.0
  3
RBBEM
1001
ACAD
1000
DSTYLE
1002
{
1070
    78
1070
     0
1070
   287
1070
     2
1070
   271
1070
     0
1070
     4
1000
BEMASSO EIN
1002
}
  0
DIMENSION
  8
BEMASSUNG
  5
CC8B
  2
*D16
 10
354.918621
 20
135.624161
 30
0.0
 11
352.518621
 21
143.124161
 31
0.0
 13
330.509627
 23
150.624161
 33
0.0
 14
346.759627
 24
135.624161
 34
0.0
 50
90.0
  3
RBBEM
1001
ACAD
1000
DSTYLE
1002
{
1070
    78
1070
     0
1070
   287
1070
     2
1070
   271
1070
     0
1070
     4
1000
BEMASSO EIN
1002
}
  0
DIMENSION
  8
BEMASSUNG
  5
CD0E
  2
*D17
 10
93.009627
 20
128.876114
 30
0.0
 11
101.452484
 21
128.876114
 31
0.0
 70
   128
 13
88.009627
 23
150.624161
 33
0.0
 14
93.009627
 24
150.624161
 34
0.0
  3
RBBEM
1001
ACAD
1000
DSTYLE
1002
{
1070
    78
1070
     0
1070
   287
1070
     2
1070
   271
1070
     1
1070
     4
1000
BEMASSO EIN
1002
}
  0
DIMENSION
  8
BEMASSUNG
  5
CD1D
  2
*D18
 10
88.009627
 20
123.254477
 30
0.0
 11
96.452484
 21
123.254477
 31
0.0
 70
   128
 13
80.509627
 23
150.624161
 33
0.0
 14
88.009627
 24
150.624161
 34
0.0
  3
RBBEM
1001
ACAD
1000
DSTYLE
1002
{
1070
    78
1070
     0
1070
   287
1070
     2
1070
   271
1070
     1
1070
     4
1000
BEMASSO EIN
1002
}
  0
LINE
  8
BEMASSUNG
  5
CD50
 10
56.259627
 20
155.624161
 30
0.0
 11
56.229353
 21
156.592927
 31
0.0
  0
DIMENSION
  8
BEMASSUNG
  5
CD5F
  2
*D19
 10
46.759627
 20
228.315641
 30
0.0
 11
38.31677
 21
228.315641
 31
0.0
 70
   128
 13
54.259627
 23
219.624161
 33
0.0
 14
46.759627
 24
219.624161
 34
0.0
  3
RBBEM
1001
ACAD
1000
DSTYLE
1002
{
1070
    78
1070
     0
1070
   287
1070
     2
1070
   271
1070
     1
1070
     4
1000
BEMASSO EIN
1002
}
  0
LINE
  8
BEMASSUNG
  5
CD60
 10
56.1746
 20
158.345023
 30
0.0
 11
54.259627
 21
219.624161
 31
0.0
  0
LINE
  8
BEMASSUNG
  5
CD61
 10
57.228865
 20
155.624161
 30
0.0
 11
56.259627
 21
155.624161
 31
0.0
  0
LINE
  8
VOLLINIE
  5
CD62
 10
51.415633
 20
219.624161
 30
0.0
 11
46.759627
 21
219.624161
 31
0.0
  0
DIMENSION
  8
BEMASSUNG
  5
CD71
  2
*D20
 10
46.759627
 20
128.63575
 30
0.0
 11
38.31677
 21
128.63575
 31
0.0
 70
   128
 13
56.259627
 23
155.624161
 33
0.0
 14
46.759627
 24
135.624161
 34
0.0
  3
RBBEM
1001
ACAD
1000
DSTYLE
1002
{
1070
    78
1070
     0
1070
   287
1070
     2
1070
   271
1070
     1
1070
     4
1000
BEMASSO EIN
1002
}
  0
DIMENSION
  8
BEMASSUNG
  5
CD98
  2
*D21
 10
346.759627
 20
117.489176
 30
0.0
 11
196.396876
 21
117.489176
 31
0.0
 70
   128
 13
46.759627
 23
135.624161
 33
0.0
 14
346.759627
 24
135.624161
 34
0.0
  3
RBBEM
1001
ACAD
1000
DSTYLE
1002
{
1070
    78
1070
     0
1070
   287
1070
     2
1070
   271
1070
     0
1070
     4
1000
BEMASSO EIN
1002
}
  0
DIMENSION
  8
BEMASSUNG
  5
CDBB
  2
*D22
 10
354.916934
 20
150.624161
 30
0.0
 11
352.516934
 21
185.124161
 31
0.0
 13
328.009627
 23
219.624161
 33
0.0
 14
330.509627
 24
150.624161
 34
0.0
 50
90.0
  3
RBBEM
1001
ACAD
1000
DSTYLE
1002
{
1070
    78
1070
     0
1070
   287
1070
     2
1070
   271
1070
     0
1070
     4
1000
BEMASSO EIN
1002
}
  0
DIMENSION
  8
BEMASSUNG
  5
CDD3
  2
*D23
 10
39.953502
 20
155.624161
 30
0.0
 11
39.953502
 21
147.100835
 31
0.0
 70
   128
 13
46.759627
 23
135.624161
 33
0.0
 14
56.259627
 24
155.624161
 34
0.0
 50
90.0
  3
RBBEM
1001
ACAD
1000
DSTYLE
1002
{
1070
    78
1070
     0
1070
   287
1070
     2
1070
   271
1070
     0
1070
     4
1000
BEMASSO EIN
1002
}
  0
VIEWPORT
  8
0
  5
233
 67
     1
 68
     2
 10
210.0
 20
161.446443
 30
0.0
 40
450.0
 41
352.892885
 69
     1
1001
ACAD
1000
MVIEW
1002
{
1070
    16
1010
0.0
1020
0.0
1030
0.0
1010
0.0
1020
0.0
1030
1.0
1040
0.0
1040
352.892885
1040
210.0
1040
161.446443
1040
50.0
1040
0.0
1040
0.0
1070
     0
1070
 20000
1070
     1
1070
     1
1070
     0
1070
     0
1070
     0
1070
     0
1040
0.0
1040
0.0
1040
0.0
1040
1.0
1040
1.0
1040
0.0
1040
0.0
1070
     0
1002
{
1002
}
1002
}
  0
INSERT
  8
0_-PSPAC_
  5
C243
 67
     1
  2
BORDER
 10
-10.0
 20
-10.0
 30
0.0
 41
440.0
 42
317.0
 43
440.0
  0
VIEWPORT
  8
0_-PSPAC_
  5
C245
 67
     1
 68
     1
 10
210.0
 20
148.5
 30
0.0
 40
430.0
 41
307.0
 69
     2
1001
ACAD
1000
MVIEW
1002
{
1070
    16
1010
0.0
1020
0.0
1030
0.0
1010
0.0
1020
0.0
1030
1.0
1040
0.0
1040
317.000001
1040
210.000001
1040
148.5
1040
50.0
1040
0.0
1040
0.0
1070
     0
1070
 20000
1070
     1
1070
     0
1070
     0
1070
     0
1070
     0
1070
     0
1040
0.0
1040
0.0
1040
0.0
1040
1.0
1040
1.0
1040
10.0
1040
10.0
1070
     0
1002
{
1002
}
1002
}
  0
ENDSEC
  0
EOF
