  0
SECTION
  2
HEADER
  9
$ACADVER
  1
AC1015
  9
$ACADMAINTVER
 70
     6
  9
$DWGCODEPAGE
  3
ANSI_1252
  9
$INSBASE
 10
0.0
 20
0.0
 30
0.0
  9
$EXTMIN
 10
0.0
 20
0.0
 30
0.0
  9
$EXTMAX
 10
420.0
 20
297.0
 30
0.0
  9
$LIMMIN
 10
0.0
 20
0.0
  9
$LIMMAX
 10
420.0
 20
297.0
  9
$ORTHOMODE
 70
     0
  9
$REGENMODE
 70
     1
  9
$FILLMODE
 70
     1
  9
$QTEXTMODE
 70
     0
  9
$MIRRTEXT
 70
     1
  9
$LTSCALE
 40
1.0
  9
$ATTMODE
 70
     1
  9
$TEXTSIZE
 40
3.5
  9
$TRACEWID
 40
1.0
  9
$TEXTSTYLE
  7
Standard
  9
$CLAYER
  8
0
  9
$CELTYPE
  6
ByLayer
  9
$CECOLOR
 62
   256
  9
$CELTSCALE
 40
1.0
  9
$DISPSILH
 70
     0
  9
$DIMSCALE
 40
1.0
  9
$DIMASZ
 40
3.302
  9
$DIMEXO
 40
1.0
  9
$DIMDLI
 40
3.75
  9
$DIMRND
 40
0.0
  9
$DIMDLE
 40
0.0
  9
$DIMEXE
 40
1.0
  9
$DIMTP
 40
0.0
  9
$DIMTM
 40
0.0
  9
$DIMTXT
 40
3.5
  9
$DIMCEN
 40
2.5
  9
$DIMTSZ
 40
0.0
  9
$DIMTOL
 70
     0
  9
$DIMLIM
 70
     0
  9
$DIMTIH
 70
     1
  9
$DIMTOH
 70
     1
  9
$DIMSE1
 70
     0
  9
$DIMSE2
 70
     0
  9
$DIMTAD
 70
     1
  9
$DIMZIN
 70
     0
  9
$DIMBLK
  1

  9
$DIMASO
 70
     1
  9
$DIMSHO
 70
     1
  9
$DIMPOST
  1

  9
$DIMAPOST
  1

  9
$DIMALT
 70
     0
  9
$DIMALTD
 70
     3
  9
$DIMALTF
 40
0.0393700787
  9
$DIMLFAC
 40
2.0
  9
$DIMTOFL
 70
     1
  9
$DIMTVP
 40
0.0
  9
$DIMTIX
 70
     0
  9
$DIMSOXD
 70
     0
  9
$DIMSAH
 70
     0
  9
$DIMBLK1
  1

  9
$DIMBLK2
  1

  9
$DIMSTYLE
  2
ISO-25
  9
$DIMCLRD
 70
     0
  9
$DIMCLRE
 70
     0
  9
$DIMCLRT
 70
     0
  9
$DIMTFAC
 40
1.0
  9
$DIMGAP
 40
1.524
  9
$DIMJUST
 70
     0
  9
$DIMSD1
 70
     0
  9
$DIMSD2
 70
     0
  9
$DIMTOLJ
 70
     0
  9
$DIMTZIN
 70
     0
  9
$DIMALTZ
 70
     0
  9
$DIMALTTZ
 70
     0
  9
$DIMUPT
 70
     0
  9
$DIMDEC
 70
     2
  9
$DIMTDEC
 70
     2
  9
$DIMALTU
 70
     2
  9
$DIMALTTD
 70
     3
  9
$DIMTXSTY
  7
Standard
  9
$DIMAUNIT
 70
     0
  9
$DIMADEC
 70
     2
  9
$DIMALTRND
 40
0.0
  9
$DIMAZIN
 70
     0
  9
$DIMDSEP
 70
    44
  9
$DIMATFIT
 70
     3
  9
$DIMFRAC
 70
     0
  9
$DIMLDRBLK
  1

  9
$DIMLUNIT
 70
     2
  9
$DIMLWD
 70
    -2
  9
$DIMLWE
 70
    -2
  9
$DIMTMOVE
 70
     0
  9
$LUNITS
 70
     2
  9
$LUPREC
 70
     2
  9
$SKETCHINC
 40
1.0
  9
$FILLETRAD
 40
10.0
  9
$AUNITS
 70
     0
  9
$AUPREC
 70
     2
  9
$MENU
  1
.
  9
$ELEVATION
 40
0.0
  9
$PELEVATION
 40
0.0
  9
$THICKNESS
 40
0.0
  9
$LIMCHECK
 70
     0
  9
$CHAMFERA
 40
10.0
  9
$CHAMFERB
 40
10.0
  9
$CHAMFERC
 40
20.0
  9
$CHAMFERD
 40
0.0
  9
$SKPOLY
 70
     0
  9
$TDCREATE
 40
2456457.822230926
  9
$TDUCREATE
 40
2456457.738897593
  9
$TDUPDATE
 40
2456457.82223147
  9
$TDUUPDATE
 40
2456457.738898137
  9
$TDINDWG
 40
0.0000000116
  9
$TDUSRTIMER
 40
0.0000000116
  9
$USRTIMER
 70
     1
  9
$ANGBASE
 50
0.0
  9
$ANGDIR
 70
     0
  9
$PDMODE
 70
     0
  9
$PDSIZE
 40
-1.0
  9
$PLINEWID
 40
0.0
  9
$SPLFRAME
 70
     0
  9
$SPLINETYPE
 70
     6
  9
$SPLINESEGS
 70
     8
  9
$HANDSEED
  5
362
  9
$SURFTAB1
 70
     6
  9
$SURFTAB2
 70
     6
  9
$SURFTYPE
 70
     6
  9
$SURFU
 70
     6
  9
$SURFV
 70
     6
  9
$UCSBASE
  2

  9
$UCSNAME
  2

  9
$UCSORG
 10
0.0
 20
0.0
 30
0.0
  9
$UCSXDIR
 10
1.0
 20
0.0
 30
0.0
  9
$UCSYDIR
 10
0.0
 20
1.0
 30
0.0
  9
$UCSORTHOREF
  2

  9
$UCSORTHOVIEW
 70
     0
  9
$UCSORGTOP
 10
0.0
 20
0.0
 30
0.0
  9
$UCSORGBOTTOM
 10
0.0
 20
0.0
 30
0.0
  9
$UCSORGLEFT
 10
0.0
 20
0.0
 30
0.0
  9
$UCSORGRIGHT
 10
0.0
 20
0.0
 30
0.0
  9
$UCSORGFRONT
 10
0.0
 20
0.0
 30
0.0
  9
$UCSORGBACK
 10
0.0
 20
0.0
 30
0.0
  9
$PUCSBASE
  2

  9
$PUCSNAME
  2

  9
$PUCSORG
 10
0.0
 20
0.0
 30
0.0
  9
$PUCSXDIR
 10
1.0
 20
0.0
 30
0.0
  9
$PUCSYDIR
 10
0.0
 20
1.0
 30
0.0
  9
$PUCSORTHOREF
  2

  9
$PUCSORTHOVIEW
 70
     0
  9
$PUCSORGTOP
 10
0.0
 20
0.0
 30
0.0
  9
$PUCSORGBOTTOM
 10
0.0
 20
0.0
 30
0.0
  9
$PUCSORGLEFT
 10
0.0
 20
0.0
 30
0.0
  9
$PUCSORGRIGHT
 10
0.0
 20
0.0
 30
0.0
  9
$PUCSORGFRONT
 10
0.0
 20
0.0
 30
0.0
  9
$PUCSORGBACK
 10
0.0
 20
0.0
 30
0.0
  9
$USERI1
 70
     0
  9
$USERI2
 70
     0
  9
$USERI3
 70
     0
  9
$USERI4
 70
     0
  9
$USERI5
 70
     0
  9
$USERR1
 40
0.0
  9
$USERR2
 40
0.0
  9
$USERR3
 40
0.0
  9
$USERR4
 40
0.0
  9
$USERR5
 40
0.0
  9
$WORLDVIEW
 70
     1
  9
$SHADEDGE
 70
     3
  9
$SHADEDIF
 70
    70
  9
$TILEMODE
 70
     1
  9
$MAXACTVP
 70
    64
  9
$PINSBASE
 10
0.0
 20
0.0
 30
0.0
  9
$PLIMCHECK
 70
     0
  9
$PEXTMIN
 10
1.0000000000E+20
 20
1.0000000000E+20
 30
1.0000000000E+20
  9
$PEXTMAX
 10
-1.0000000000E+20
 20
-1.0000000000E+20
 30
-1.0000000000E+20
  9
$PLIMMIN
 10
0.0
 20
0.0
  9
$PLIMMAX
 10
420.0
 20
297.0
  9
$UNITMODE
 70
     0
  9
$VISRETAIN
 70
     1
  9
$PLINEGEN
 70
     0
  9
$PSLTSCALE
 70
     1
  9
$TREEDEPTH
 70
  3020
  9
$CMLSTYLE
  2
Standard
  9
$CMLJUST
 70
     0
  9
$CMLSCALE
 40
20.0
  9
$PROXYGRAPHICS
 70
     1
  9
$MEASUREMENT
 70
     1
  9
$CELWEIGHT
370
    -1
  9
$ENDCAPS
280
     0
  9
$JOINSTYLE
280
     0
  9
$LWDISPLAY
290
     1
  9
$INSUNITS
 70
     4
  9
$HYPERLINKBASE
  1

  9
$STYLESHEET
  1

  9
$XEDIT
290
     1
  9
$CEPSNTYPE
380
     0
  9
$PSTYLEMODE
290
     1
  9
$FINGERPRINTGUID
  2
{E2686FDB-9A0A-4C42-8973-F79DBA305B23}
  9
$VERSIONGUID
  2
{FAEB1C32-E019-11D5-929B-00C0DF256EC4}
  9
$EXTNAMES
290
     1
  9
$PSVPSCALE
 40
0.0
  9
$OLESTARTUP
290
     0
  0
ENDSEC
  0
SECTION
  2
CLASSES
  0
CLASS
  1
ACDBDICTIONARYWDFLT
  2
AcDbDictionaryWithDefault
  3
ObjectDBX Classes
 90
        0
280
     0
281
     0
  0
CLASS
  1
VISUALSTYLE
  2
AcDbVisualStyle
  3
ObjectDBX Classes
 90
     4095
280
     0
281
     0
  0
CLASS
  1
MATERIAL
  2
AcDbMaterial
  3
ObjectDBX Classes
 90
     1153
280
     0
281
     0
  0
CLASS
  1
ACDBPLACEHOLDER
  2
AcDbPlaceHolder
  3
ObjectDBX Classes
 90
        0
280
     0
281
     0
  0
CLASS
  1
LAYOUT
  2
AcDbLayout
  3
ObjectDBX Classes
 90
        0
280
     0
281
     0
  0
ENDSEC
  0
SECTION
  2
TABLES
  0
TABLE
  2
VPORT
  5
8
330
0
100
AcDbSymbolTable
 70
     1
  0
VPORT
  5
29
330
8
100
AcDbSymbolTableRecord
100
AcDbViewportTableRecord
  2
*Active
 70
     0
 10
0.0
 20
0.0
 11
1.0
 21
1.0
 12
210.0
 22
148.5
 13
0.0
 23
0.0
 14
10.0
 24
10.0
 15
10.0
 25
10.0
 16
0.0
 26
0.0
 36
1.0
 17
0.0
 27
0.0
 37
0.0
 40
297.0
 41
1.4141414141
 42
50.0
 43
0.0
 44
0.0
 50
0.0
 51
0.0
 71
     0
 72
  2000
 73
     1
 74
     3
 75
     0
 76
     0
 77
     0
 78
     0
281
     0
 65
     1
110
0.0
120
0.0
130
0.0
111
1.0
121
0.0
131
0.0
112
0.0
122
1.0
132
0.0
 79
     0
146
0.0
  0
ENDTAB
  0
TABLE
  2
LTYPE
  5
5
330
0
100
AcDbSymbolTable
 70
     6
  0
LTYPE
  5
14
330
5
100
AcDbSymbolTableRecord
100
AcDbLinetypeTableRecord
  2
ByBlock
 70
     0
  3

 72
    65
 73
     0
 40
0.0
  0
LTYPE
  5
15
330
5
100
AcDbSymbolTableRecord
100
AcDbLinetypeTableRecord
  2
ByLayer
 70
     0
  3

 72
    65
 73
     0
 40
0.0
  0
LTYPE
  5
16
330
5
100
AcDbSymbolTableRecord
100
AcDbLinetypeTableRecord
  2
Continuous
 70
     0
  3
Solid line
 72
    65
 73
     0
 40
0.0
  0
LTYPE
  5
3F
330
5
100
AcDbSymbolTableRecord
100
AcDbLinetypeTableRecord
  2
HIDDEN
 70
     0
  3
Hidden __ __ __ __ __ __ __ __ __ __ __ __ __ __
 72
    65
 73
     2
 40
1.905
 49
1.27
 74
     0
 49
-0.635
 74
     0
  0
LTYPE
  5
40
330
5
100
AcDbSymbolTableRecord
100
AcDbLinetypeTableRecord
  2
PHANTOM
 70
     0
  3
Phantom ______  __  __  ______  __  __  ______
 72
    65
 73
     6
 40
12.7
 49
6.35
 74
     0
 49
-1.27
 74
     0
 49
1.27
 74
     0
 49
-1.27
 74
     0
 49
1.27
 74
     0
 49
-1.27
 74
     0
  0
LTYPE
  5
41
330
5
100
AcDbSymbolTableRecord
100
AcDbLinetypeTableRecord
  2
CENTER
 70
     0
  3
Center ____ _ ____ _ ____ _ ____ _ ____ _ ____
 72
    65
 73
     4
 40
10.16
 49
6.35
 74
     0
 49
-1.27
 74
     0
 49
1.27
 74
     0
 49
-1.27
 74
     0
  0
LTYPE
  5
42
330
5
100
AcDbSymbolTableRecord
100
AcDbLinetypeTableRecord
  2
CENTERX2
 70
     0
  3
Center (2x) ________  __  ________  __  _____
 72
    65
 73
     4
 40
20.32
 49
12.7
 74
     0
 49
-2.54
 74
     0
 49
2.54
 74
     0
 49
-2.54
 74
     0
  0
LTYPE
  5
43
330
5
100
AcDbSymbolTableRecord
100
AcDbLinetypeTableRecord
  2
DOT2
 70
     0
  3
Dot (.5x) ........................................
 72
    65
 73
     2
 40
0.635
 49
0.0
 74
     0
 49
-0.635
 74
     0
  0
ENDTAB
  0
TABLE
  2
LAYER
  5
2
330
0
100
AcDbSymbolTable
 70
     1
  0
LAYER
  5
10
330
2
100
AcDbSymbolTableRecord
100
AcDbLayerTableRecord
  2
0
 70
     0
 62
     7
  6
Continuous
370
    -3
390
F
  0
ENDTAB
  0
TABLE
  2
STYLE
  5
3
330
0
100
AcDbSymbolTable
 70
     2
  0
STYLE
  5
11
330
3
100
AcDbSymbolTableRecord
100
AcDbTextStyleTableRecord
  2
Standard
 70
     0
 40
0.0
 41
1.0
 50
0.0
 71
     0
 42
3.5
  3
txt
  4

  0
STYLE
  5
333
330
3
100
AcDbSymbolTableRecord
100
AcDbTextStyleTableRecord
  2
SLDTEXTSTYLE0
 70
     0
 40
0.0
 41
0.75
 50
0.0
 71
     0
 42
0.2
  3
TXT
  4

  0
ENDTAB
  0
TABLE
  2
VIEW
  5
6
330
0
100
AcDbSymbolTable
 70
     0
  0
ENDTAB
  0
TABLE
  2
UCS
  5
7
330
0
100
AcDbSymbolTable
 70
     0
  0
ENDTAB
  0
TABLE
  2
APPID
  5
9
330
0
100
AcDbSymbolTable
 70
     1
  0
APPID
  5
12
330
9
100
AcDbSymbolTableRecord
100
AcDbRegAppTableRecord
  2
ACAD
 70
     0
  0
ENDTAB
  0
TABLE
  2
DIMSTYLE
  5
A
330
0
100
AcDbSymbolTable
 70
     4
100
AcDbDimStyleTable
  0
DIMSTYLE
105
27
330
A
100
AcDbSymbolTableRecord
100
AcDbDimStyleTableRecord
  2
ISO-25
 70
     0
 41
2.5
 42
0.625
 43
3.75
 44
1.25
 73
     0
 74
     0
 77
     1
 78
     8
140
2.5
141
2.5
143
0.0393700787
147
0.625
171
     3
172
     1
178
     0
271
     2
272
     2
274
     3
278
    44
283
     0
284
     8
340
11
  0
DIMSTYLE
105
334
102
{ACAD_REACTORS
330
332
102
}
330
A
100
AcDbSymbolTableRecord
100
AcDbDimStyleTableRecord
  2
SLDDIMSTYLE0
 70
     0
 41
3.302
 44
0.0
 45
0.000000001
 73
     0
 74
     0
 77
     1
 78
    12
 79
     3
140
3.5
147
0.875
172
     1
173
     1
178
     0
271
     0
272
     0
276
     2
284
    12
289
     0
340
333
  0
DIMSTYLE
105
341
102
{ACAD_REACTORS
330
340
330
358
102
}
330
A
100
AcDbSymbolTableRecord
100
AcDbDimStyleTableRecord
  2
SLDDIMSTYLE1
 70
     0
 41
3.302
 44
0.0
 45
0.000000001
 73
     0
 74
     0
 77
     1
 78
    12
 79
     3
140
3.5
147
0.875
173
     1
178
     0
271
     2
272
     2
276
     2
284
    12
340
333
  0
DIMSTYLE
105
34C
102
{ACAD_REACTORS
330
34B
102
}
330
A
100
AcDbSymbolTableRecord
100
AcDbDimStyleTableRecord
  2
SLDDIMSTYLE2
 70
     0
 41
3.302
 44
0.0
 45
0.000000001
 73
     0
 74
     0
 77
     1
 78
    12
 79
     3
140
3.5
147
0.875
172
     1
173
     1
178
     0
271
     2
272
     2
276
     2
284
    12
289
     0
340
333
  0
ENDTAB
  0
TABLE
  2
BLOCK_RECORD
  5
1
330
0
100
AcDbSymbolTable
 70
     5
  0
BLOCK_RECORD
  5
1F
330
1
100
AcDbSymbolTableRecord
100
AcDbBlockTableRecord
  2
*Model_Space
340
22
  0
BLOCK_RECORD
  5
1B
330
1
100
AcDbSymbolTableRecord
100
AcDbBlockTableRecord
  2
*Paper_Space
340
1E
  0
BLOCK_RECORD
  5
23
330
1
100
AcDbSymbolTableRecord
100
AcDbBlockTableRecord
  2
*Paper_Space0
340
26
  0
BLOCK_RECORD
  5
335
330
1
100
AcDbSymbolTableRecord
100
AcDbBlockTableRecord
  2
_D
340
0
  0
BLOCK_RECORD
  5
342
330
1
100
AcDbSymbolTableRecord
100
AcDbBlockTableRecord
  2
_D_1
340
0
  0
BLOCK_RECORD
  5
34D
330
1
100
AcDbSymbolTableRecord
100
AcDbBlockTableRecord
  2
_D_2
340
0
  0
BLOCK_RECORD
  5
359
330
1
100
AcDbSymbolTableRecord
100
AcDbBlockTableRecord
  2
_D_3
340
0
  0
ENDTAB
  0
ENDSEC
  0
SECTION
  2
BLOCKS
  0
BLOCK
  5
20
330
1F
100
AcDbEntity
  8
0
100
AcDbBlockBegin
  2
*Model_Space
 70
     0
 10
0.0
 20
0.0
 30
0.0
  3
*Model_Space
  1

  0
ENDBLK
  5
21
330
1F
100
AcDbEntity
  8
0
100
AcDbBlockEnd
  0
BLOCK
  5
1C
330
1B
100
AcDbEntity
 67
     1
  8
0
100
AcDbBlockBegin
  2
*Paper_Space
 70
     0
 10
0.0
 20
0.0
 30
0.0
  3
*Paper_Space
  1

  0
ENDBLK
  5
1D
330
1B
100
AcDbEntity
 67
     1
  8
0
100
AcDbBlockEnd
  0
BLOCK
  5
24
330
23
100
AcDbEntity
  8
0
100
AcDbBlockBegin
  2
*Paper_Space0
 70
     0
 10
0.0
 20
0.0
 30
0.0
  3
*Paper_Space0
  1

  0
ENDBLK
  5
25
330
23
100
AcDbEntity
  8
0
100
AcDbBlockEnd
  0
BLOCK
  5
336
330
335
100
AcDbEntity
  8
0
100
AcDbBlockBegin
  2
_D
 70
     0
 10
0.0
 20
0.0
 30
0.0
  3
_D
  1

  0
SOLID
  5
338
330
335
100
AcDbEntity
  8
0
  6
Continuous
 62
     7
370
     0
100
AcDbTrace
 10
101.71323667
 20
190.925005906
 30
0.0
 11
105.01523667
 21
190.417005906
 31
0.0
 12
105.01523667
 22
191.433005906
 32
0.0
 13
105.01523667
 23
191.433005906
 33
0.0
  0
SOLID
  5
339
330
335
100
AcDbEntity
  8
0
  6
Continuous
 62
     7
370
     0
100
AcDbTrace
 10
97.6996519722
 20
190.925005906
 30
0.0
 11
94.3976519722
 21
191.433005906
 31
0.0
 12
94.3976519722
 22
190.417005906
 32
0.0
 13
94.3976519722
 23
190.417005906
 33
0.0
  0
LINE
  5
33A
330
335
100
AcDbEntity
  8
0
  6
Continuous
 62
     7
370
     0
100
AcDbLine
 10
101.71323667
 20
184.1258258481
 30
0.0
 11
101.71323667
 21
191.925005906
 31
0.0
  0
LINE
  5
33B
330
335
100
AcDbEntity
  8
0
  6
Continuous
 62
     7
370
     0
100
AcDbLine
 10
97.6996519722
 20
184.1118561485
 30
0.0
 11
97.6996519722
 21
191.925005906
 31
0.0
  0
LINE
  5
33C
330
335
100
AcDbEntity
  8
0
  6
Continuous
 62
     7
370
     0
100
AcDbLine
 10
101.71323667
 20
190.925005906
 30
0.0
 11
108.06323667
 21
190.925005906
 31
0.0
  0
LINE
  5
33D
330
335
100
AcDbEntity
  8
0
  6
Continuous
 62
     7
370
     0
100
AcDbLine
 10
101.71323667
 20
190.925005906
 30
0.0
 11
97.6996519722
 21
190.925005906
 31
0.0
  0
LINE
  5
33E
330
335
100
AcDbEntity
  8
0
  6
Continuous
 62
     7
370
     0
100
AcDbLine
 10
97.6996519722
 20
190.925005906
 30
0.0
 11
91.3496519722
 21
190.925005906
 31
0.0
  0
MTEXT
  5
33F
330
335
100
AcDbEntity
  8
0
  6
Continuous
 62
     7
370
     0
100
AcDbMText
 10
96.8870569167
 20
195.4367428206
 30
-49.9
 40
3.5
 41
0.0
 71
     1
 72
     1
  1
4
  7
SLDTEXTSTYLE0
 73
     1
 44
1.0
  0
ENDBLK
  5
337
330
335
100
AcDbEntity
  8
0
100
AcDbBlockEnd
  0
BLOCK
  5
343
330
342
100
AcDbEntity
  8
0
100
AcDbBlockBegin
  2
_D_1
 70
     0
 10
0.0
 20
0.0
 30
0.0
  3
_D_1
  1

  0
SOLID
  5
345
330
342
100
AcDbEntity
  8
0
  6
Continuous
 62
     7
370
     0
100
AcDbTrace
 10
87.6996519722
 20
183.6118561485
 30
0.0
 11
87.1916519722
 21
180.3098561485
 31
0.0
 12
88.2076519722
 22
180.3098561485
 32
0.0
 13
88.2076519722
 23
180.3098561485
 33
0.0
  0
SOLID
  5
346
330
342
100
AcDbEntity
  8
0
  6
Continuous
 62
     7
370
     0
100
AcDbTrace
 10
87.6996519722
 20
143.6118561485
 30
0.0
 11
88.2076519722
 21
146.9138561485
 31
0.0
 12
87.1916519722
 22
146.9138561485
 32
0.0
 13
87.1916519722
 23
146.9138561485
 33
0.0
  0
LINE
  5
347
330
342
100
AcDbEntity
  8
0
  6
Continuous
 62
     7
370
     0
100
AcDbLine
 10
97.1996519722
 20
183.6118561485
 30
0.0
 11
86.6996519722
 21
183.6118561485
 31
0.0
  0
LINE
  5
348
330
342
100
AcDbEntity
  8
0
  6
Continuous
 62
     7
370
     0
100
AcDbLine
 10
97.1996519722
 20
143.6118561485
 30
0.0
 11
86.6996519722
 21
143.6118561485
 31
0.0
  0
LINE
  5
349
330
342
100
AcDbEntity
  8
0
  6
Continuous
 62
     7
370
     0
100
AcDbLine
 10
87.6996519722
 20
183.6118561485
 30
0.0
 11
87.6996519722
 21
143.6118561485
 31
0.0
  0
MTEXT
  5
34A
330
342
100
AcDbEntity
  8
0
  6
Continuous
 62
     7
370
     0
100
AcDbMText
 10
83.1879150576
 20
160.246250239
 30
-49.9
 40
3.5
 41
0.0
 71
     1
 72
     1
  1
40
  7
SLDTEXTSTYLE0
 11
-7.044195017643634E-15
 21
1.0
 31
0.0
 73
     1
 44
1.0
  0
ENDBLK
  5
344
330
342
100
AcDbEntity
  8
0
100
AcDbBlockEnd
  0
BLOCK
  5
34E
330
34D
100
AcDbEntity
  8
0
100
AcDbBlockBegin
  2
_D_2
 70
     0
 10
0.0
 20
0.0
 30
0.0
  3
_D_2
  1

  0
SOLID
  5
350
330
34D
100
AcDbEntity
  8
0
  6
Continuous
 62
     7
370
     0
100
AcDbTrace
 10
307.6996519722
 20
151.4118561485
 30
0.0
 11
308.2076519722
 21
154.7138561485
 31
0.0
 12
307.1916519722
 22
154.7138561485
 32
0.0
 13
307.1916519722
 23
154.7138561485
 33
0.0
  0
SOLID
  5
351
330
34D
100
AcDbEntity
  8
0
  6
Continuous
 62
     7
370
     0
100
AcDbTrace
 10
307.6996519722
 20
143.6118561485
 30
0.0
 11
307.1916519722
 21
140.3098561485
 31
0.0
 12
308.2076519722
 22
140.3098561485
 32
0.0
 13
308.2076519722
 23
140.3098561485
 33
0.0
  0
LINE
  5
352
330
34D
100
AcDbEntity
  8
0
  6
Continuous
 62
     7
370
     0
100
AcDbLine
 10
291.6602834813
 20
151.4118561485
 30
0.0
 11
308.6996519722
 21
151.4118561485
 31
0.0
  0
LINE
  5
353
330
34D
100
AcDbEntity
  8
0
  6
Continuous
 62
     7
370
     0
100
AcDbLine
 10
298.1996519722
 20
143.6118561485
 30
0.0
 11
308.6996519722
 21
143.6118561485
 31
0.0
  0
LINE
  5
354
330
34D
100
AcDbEntity
  8
0
  6
Continuous
 62
     7
370
     0
100
AcDbLine
 10
307.6996519722
 20
151.4118561485
 30
0.0
 11
307.6996519722
 21
167.7092091426
 31
0.0
  0
LINE
  5
355
330
34D
100
AcDbEntity
  8
0
  6
Continuous
 62
     7
370
     0
100
AcDbLine
 10
307.6996519722
 20
151.4118561485
 30
0.0
 11
307.6996519722
 21
143.6118561485
 31
0.0
  0
LINE
  5
356
330
34D
100
AcDbEntity
  8
0
  6
Continuous
 62
     7
370
     0
100
AcDbLine
 10
307.6996519722
 20
143.6118561485
 30
0.0
 11
307.6996519722
 21
137.2618561485
 31
0.0
  0
MTEXT
  5
357
330
34D
100
AcDbEntity
  8
0
  6
Continuous
 62
     7
370
     0
100
AcDbMText
 10
303.1879150576
 20
155.8140703722
 30
-49.9
 40
3.5
 41
0.0
 71
     1
 72
     1
  1
7,80
  7
SLDTEXTSTYLE0
 11
-7.044195017643634E-15
 21
1.0
 31
0.0
 73
     1
 44
1.0
  0
ENDBLK
  5
34F
330
34D
100
AcDbEntity
  8
0
100
AcDbBlockEnd
  0
BLOCK
  5
35A
330
359
100
AcDbEntity
  8
0
100
AcDbBlockBegin
  2
_D_3
 70
     0
 10
0.0
 20
0.0
 30
0.0
  3
_D_3
  1

  0
SOLID
  5
35C
330
359
100
AcDbEntity
  8
0
  6
Continuous
 62
     7
370
     0
100
AcDbTrace
 10
97.6996519722
 20
121.6118561485
 30
0.0
 11
101.0016519722
 21
121.1038561485
 31
0.0
 12
101.0016519722
 22
122.1198561485
 32
0.0
 13
101.0016519722
 23
122.1198561485
 33
0.0
  0
SOLID
  5
35D
330
359
100
AcDbEntity
  8
0
  6
Continuous
 62
     7
370
     0
100
AcDbTrace
 10
297.6996519722
 20
121.6118561485
 30
0.0
 11
294.3976519722
 21
122.1198561485
 31
0.0
 12
294.3976519722
 22
121.1038561485
 32
0.0
 13
294.3976519722
 23
121.1038561485
 33
0.0
  0
LINE
  5
35E
330
359
100
AcDbEntity
  8
0
  6
Continuous
 62
     7
370
     0
100
AcDbLine
 10
97.6996519722
 20
143.1118561485
 30
0.0
 11
97.6996519722
 21
120.6118561485
 31
0.0
  0
LINE
  5
35F
330
359
100
AcDbEntity
  8
0
  6
Continuous
 62
     7
370
     0
100
AcDbLine
 10
297.6996519722
 20
143.1118561485
 30
0.0
 11
297.6996519722
 21
120.6118561485
 31
0.0
  0
LINE
  5
360
330
359
100
AcDbEntity
  8
0
  6
Continuous
 62
     7
370
     0
100
AcDbLine
 10
97.6996519722
 20
121.6118561485
 30
0.0
 11
297.6996519722
 21
121.6118561485
 31
0.0
  0
MTEXT
  5
361
330
359
100
AcDbEntity
  8
0
  6
Continuous
 62
     7
370
     0
100
AcDbMText
 10
195.263366161
 20
126.1235930631
 30
-49.9
 40
3.5
 41
0.0
 71
     1
 72
     1
  1
200
  7
SLDTEXTSTYLE0
 73
     1
 44
1.0
  0
ENDBLK
  5
35B
330
359
100
AcDbEntity
  8
0
100
AcDbBlockEnd
  0
ENDSEC
  0
SECTION
  2
ENTITIES
  0
LINE
  5
44
330
1F
100
AcDbEntity
  8
0
  6
Continuous
 62
     7
370
    15
100
AcDbLine
 10
97.6996504852
 20
183.1118495455
 30
0.0
 11
97.6996504852
 21
144.1118599167
 31
0.0
  0
ARC
  5
45
330
1F
100
AcDbEntity
  8
0
  6
Continuous
 62
     7
370
    15
100
AcDbCircle
 10
98.1996519722
 20
183.1118561485
 30
0.0
 40
0.5
100
AcDbArc
 50
90.0
 51
180.0
  0
LINE
  5
46
330
1F
100
AcDbEntity
  8
0
  6
Continuous
 62
     7
370
    15
100
AcDbLine
 10
101.2134337017
 20
183.6118580094
 30
0.0
 11
98.1996514985
 21
183.6118580094
 31
0.0
  0
ARC
  5
47
330
1F
100
AcDbEntity
  8
0
  6
Continuous
 62
     7
370
    15
100
AcDbCircle
 10
101.2134318606
 20
183.1118561485
 30
0.0
 40
0.5000000000000284
100
AcDbArc
 50
1.6010180022
 51
90.0
  0
LINE
  5
48
330
1F
100
AcDbEntity
  8
0
  6
Continuous
 62
     7
370
    15
100
AcDbLine
 10
101.8462375888
 20
178.3673049202
 30
0.0
 11
101.7132372746
 21
183.1258268347
 31
0.0
  0
ARC
  5
49
330
1F
100
AcDbEntity
  8
0
  6
Continuous
 62
     7
370
    15
100
AcDbCircle
 10
101.0465512672
 20
178.3449478719
 30
0.0
 40
0.7999999999996988
100
AcDbArc
 50
301.6010180022
 51
1.6010180022
  0
ARC
  5
4A
330
1F
100
AcDbEntity
  8
0
  6
Continuous
 62
     7
370
    15
100
AcDbCircle
 10
101.9897531373
 20
176.8118561485
 30
0.0
 40
1.000000000000284
100
AcDbArc
 50
121.6010180022
 51
238.234005033
  0
ARC
  5
4B
330
1F
100
AcDbEntity
  8
0
  6
Continuous
 62
     7
370
    15
100
AcDbCircle
 10
100.9368505542
 20
175.1114455656
 30
0.0
 40
1.000000000000008
100
AcDbArc
 50
304.9680309715
 51
58.234005033
  0
ARC
  5
4C
330
1F
100
AcDbEntity
  8
0
  6
Continuous
 62
     7
370
    15
100
AcDbCircle
 10
102.0830891323
 20
173.4725016612
 30
0.0
 40
0.9999999999999607
100
AcDbArc
 50
124.9680309715
 51
238.234005033
  0
ARC
  5
4D
330
1F
100
AcDbEntity
  8
0
  6
Continuous
 62
     7
370
    15
100
AcDbCircle
 10
101.0301865491
 20
171.7720910783
 30
0.0
 40
1.000000000000057
100
AcDbArc
 50
304.9680309715
 51
58.234005033
  0
ARC
  5
4E
330
1F
100
AcDbEntity
  8
0
  6
Continuous
 62
     7
370
    15
100
AcDbCircle
 10
102.1764251273
 20
170.1331471738
 30
0.0
 40
0.9999999999999849
100
AcDbArc
 50
124.9680309715
 51
238.234005033
  0
ARC
  5
4F
330
1F
100
AcDbEntity
  8
0
  6
Continuous
 62
     7
370
    15
100
AcDbCircle
 10
101.1235225441
 20
168.432736591
 30
0.0
 40
1.0
100
AcDbArc
 50
304.9680309715
 51
58.234005033
  0
ARC
  5
50
330
1F
100
AcDbEntity
  8
0
  6
Continuous
 62
     7
370
    15
100
AcDbCircle
 10
102.2697611223
 20
166.7937926865
 30
0.0
 40
1.0
100
AcDbArc
 50
124.9680309715
 51
238.234005033
  0
ARC
  5
51
330
1F
100
AcDbEntity
  8
0
  6
Continuous
 62
     7
370
    15
100
AcDbCircle
 10
101.2168585391
 20
165.0933821036
 30
0.0
 40
1.0
100
AcDbArc
 50
304.9680309715
 51
58.234005033
  0
ARC
  5
52
330
1F
100
AcDbEntity
  8
0
  6
Continuous
 62
     7
370
    15
100
AcDbCircle
 10
102.3630971173
 20
163.4544381992
 30
0.0
 40
0.9999999999999849
100
AcDbArc
 50
124.9680309715
 51
238.234005033
  0
ARC
  5
53
330
1F
100
AcDbEntity
  8
0
  6
Continuous
 62
     7
370
    15
100
AcDbCircle
 10
101.3101945341
 20
161.7540276163
 30
0.0
 40
1.000000000000008
100
AcDbArc
 50
304.9680309715
 51
58.234005033
  0
ARC
  5
54
330
1F
100
AcDbEntity
  8
0
  6
Continuous
 62
     7
370
    15
100
AcDbCircle
 10
102.4564331123
 20
160.1150837119
 30
0.0
 40
0.9999999999999688
100
AcDbArc
 50
124.9680309715
 51
238.234005033
  0
ARC
  5
55
330
1F
100
AcDbEntity
  8
0
  6
Continuous
 62
     7
370
    15
100
AcDbCircle
 10
101.4035305291
 20
158.414673129
 30
0.0
 40
1.000000000000033
100
AcDbArc
 50
304.9680309715
 51
58.234005033
  0
ARC
  5
56
330
1F
100
AcDbEntity
  8
0
  6
Continuous
 62
     7
370
    15
100
AcDbCircle
 10
102.5497691073
 20
156.7757292245
 30
0.0
 40
0.9999999999999849
100
AcDbArc
 50
124.9680309715
 51
238.234005033
  0
ARC
  5
57
330
1F
100
AcDbEntity
  8
0
  6
Continuous
 62
     7
370
    15
100
AcDbCircle
 10
101.4968665241
 20
155.0753186416
 30
0.0
 40
0.9999999999999923
100
AcDbArc
 50
1.6010180022
 51
58.234005033
  0
LINE
  5
58
330
1F
100
AcDbEntity
  8
0
  6
Continuous
 62
     7
370
    15
100
AcDbLine
 10
102.5398791918
 20
153.5503895274
 30
0.0
 11
102.4964758345
 21
155.1032544365
 31
0.0
  0
ARC
  5
59
330
1F
100
AcDbEntity
  8
0
  6
Continuous
 62
     7
370
    15
100
AcDbCircle
 10
104.739020463
 20
153.6118561485
 30
0.0
 40
2.200000000000017
100
AcDbArc
 50
181.6010180022
 51
270.0
  0
LINE
  5
5A
330
1F
100
AcDbEntity
  8
0
  6
Continuous
 62
     7
370
    15
100
AcDbLine
 10
108.9582898804
 20
151.4118493786
 30
0.0
 11
104.7390186378
 21
151.4118493786
 31
0.0
  0
ARC
  5
5B
330
1F
100
AcDbEntity
  8
0
  6
Continuous
 62
     7
370
    15
100
AcDbCircle
 10
108.9582894436
 20
153.6118561485
 30
0.0
 40
2.200000000000017
100
AcDbArc
 50
270.0
 51
358.4523405585
  0
LINE
  5
5C
330
1F
100
AcDbEntity
  8
0
  6
Continuous
 62
     7
370
    15
100
AcDbLine
 10
111.181677241
 20
154.4478119603
 30
0.0
 11
111.1574852058
 21
153.5524309864
 31
0.0
  0
ARC
  5
5D
330
1F
100
AcDbEntity
  8
0
  6
Continuous
 62
     7
370
    15
100
AcDbCircle
 10
110.3819701193
 20
154.4694139924
 30
0.0
 40
0.8000000000008416
100
AcDbArc
 50
358.4523405585
 51
58.4526785457
  0
ARC
  5
5E
330
1F
100
AcDbEntity
  8
0
  6
Continuous
 62
     7
370
    15
100
AcDbCircle
 10
111.3237347901
 20
156.0033889937
 30
0.0
 40
1.000000000000017
100
AcDbArc
 50
118.4522594415
 51
238.4526785457
  0
ARC
  5
5F
330
1F
100
AcDbEntity
  8
0
  6
Continuous
 62
     7
370
    15
100
AcDbCircle
 10
110.3708833589
 20
157.7618184493
 30
0.0
 40
0.9999999999999905
100
AcDbArc
 50
298.4521783245
 51
58.4524216755
  0
ARC
  5
60
330
1F
100
AcDbEntity
  8
0
  6
Continuous
 62
     7
370
    15
100
AcDbCircle
 10
111.41729619
 20
159.4662304262
 30
0.0
 40
1.000000000000028
100
AcDbArc
 50
118.4522594415
 51
238.4524216755
  0
ARC
  5
61
330
1F
100
AcDbEntity
  8
0
  6
Continuous
 62
     7
370
    15
100
AcDbCircle
 10
110.4644447588
 20
161.2246598817
 30
0.0
 40
0.9999999999999662
100
AcDbArc
 50
298.4521783245
 51
58.4524216755
  0
ARC
  5
62
330
1F
100
AcDbEntity
  8
0
  6
Continuous
 62
     7
370
    15
100
AcDbCircle
 10
111.5108575898
 20
162.9290718586
 30
0.0
 40
1.000000000000028
100
AcDbArc
 50
118.4522594415
 51
238.4524216755
  0
ARC
  5
63
330
1F
100
AcDbEntity
  8
0
  6
Continuous
 62
     7
370
    15
100
AcDbCircle
 10
110.5580061586
 20
164.6875013141
 30
0.0
 40
0.9999999999999905
100
AcDbArc
 50
298.4521783245
 51
58.4524216755
  0
ARC
  5
64
330
1F
100
AcDbEntity
  8
0
  6
Continuous
 62
     7
370
    15
100
AcDbCircle
 10
111.6044189897
 20
166.391913291
 30
0.0
 40
1.000000000000028
100
AcDbArc
 50
118.4522594415
 51
238.4524216755
  0
ARC
  5
65
330
1F
100
AcDbEntity
  8
0
  6
Continuous
 62
     7
370
    15
100
AcDbCircle
 10
110.6515675584
 20
168.1503427465
 30
0.0
 40
0.9999999999999662
100
AcDbArc
 50
298.4521783245
 51
58.4524216755
  0
ARC
  5
66
330
1F
100
AcDbEntity
  8
0
  6
Continuous
 62
     7
370
    15
100
AcDbCircle
 10
111.6979803895
 20
169.8547547234
 30
0.0
 40
1.000000000000017
100
AcDbArc
 50
118.4522594415
 51
238.4524216755
  0
ARC
  5
67
330
1F
100
AcDbEntity
  8
0
  6
Continuous
 62
     7
370
    15
100
AcDbCircle
 10
110.7451289583
 20
171.6131841789
 30
0.0
 40
0.9999999999999905
100
AcDbArc
 50
298.4521783245
 51
58.4524216755
  0
ARC
  5
68
330
1F
100
AcDbEntity
  8
0
  6
Continuous
 62
     7
370
    15
100
AcDbCircle
 10
111.7915417894
 20
173.3175961558
 30
0.0
 40
1.000000000000052
100
AcDbArc
 50
118.4522594415
 51
238.4524216755
  0
ARC
  5
69
330
1F
100
AcDbEntity
  8
0
  6
Continuous
 62
     7
370
    15
100
AcDbCircle
 10
110.8386903581
 20
175.0760256114
 30
0.0
 40
1.000000000000003
100
AcDbArc
 50
298.4521783245
 51
58.4524216755
  0
ARC
  5
6A
330
1F
100
AcDbEntity
  8
0
  6
Continuous
 62
     7
370
    15
100
AcDbCircle
 10
111.8851031892
 20
176.7804375883
 30
0.0
 40
1.000000000000017
100
AcDbArc
 50
118.4522594415
 51
238.4524216755
  0
ARC
  5
6B
330
1F
100
AcDbEntity
  8
0
  6
Continuous
 62
     7
370
    15
100
AcDbCircle
 10
110.9322505132
 20
178.5388663693
 30
0.0
 40
1.000000000000024
100
AcDbArc
 50
298.4522594415
 51
17.6405363837
  0
ARC
  5
6C
330
1F
100
AcDbEntity
  8
0
  6
Continuous
 62
     7
370
    15
100
AcDbCircle
 10
112.6476082215
 20
179.0843459132
 30
0.0
 40
0.8000000000002891
100
AcDbArc
 50
178.4523405584
 51
197.6405363836
  0
LINE
  5
6D
330
1F
100
AcDbEntity
  8
0
  6
Continuous
 62
     7
370
    15
100
AcDbLine
 10
111.9499252328
 20
182.8821183434
 30
0.0
 11
111.8479007074
 21
179.1059554806
 31
0.0
  0
ARC
  5
6E
330
1F
100
AcDbEntity
  8
0
  6
Continuous
 62
     7
370
    15
100
AcDbCircle
 10
112.6996519722
 20
182.8618561485
 30
0.0
 40
0.7500000000000003
100
AcDbArc
 50
1.5476594415
 51
178.4523405585
  0
LINE
  5
6F
330
1F
100
AcDbEntity
  8
0
  6
Continuous
 62
     7
370
    15
100
AcDbLine
 10
113.5252797195
 20
180.0728322258
 30
0.0
 11
113.4493769297
 21
182.8821183434
 31
0.0
  0
ARC
  5
70
330
1F
100
AcDbEntity
  8
0
  6
Continuous
 62
     7
370
    15
100
AcDbCircle
 10
114.3249885358
 20
180.0944408373
 30
0.0
 40
0.8000000000003402
100
AcDbArc
 50
181.5476594415
 51
241.5476594415
  0
ARC
  5
71
330
1F
100
AcDbEntity
  8
0
  6
Continuous
 62
     7
370
    15
100
AcDbCircle
 10
113.4674188869
 20
178.5118561485
 30
0.0
 40
1.000000000000002
100
AcDbArc
 50
301.5476594415
 51
61.5476594415
  0
ARC
  5
72
330
1F
100
AcDbEntity
  8
0
  6
Continuous
 62
     7
370
    15
100
AcDbCircle
 10
114.513834131
 20
176.8074456531
 30
0.0
 40
1.000000000000003
100
AcDbArc
 50
121.5476594415
 51
241.5477405585
  0
ARC
  5
73
330
1F
100
AcDbEntity
  8
0
  6
Continuous
 62
     7
370
    15
100
AcDbCircle
 10
113.560981455
 20
175.049016872
 30
0.0
 40
1.00000000000001
100
AcDbArc
 50
301.5475783245
 51
61.5477405585
  0
ARC
  5
74
330
1F
100
AcDbEntity
  8
0
  6
Continuous
 62
     7
370
    15
100
AcDbCircle
 10
114.6073942861
 20
173.3446048951
 30
0.0
 40
1.00000000000001
100
AcDbArc
 50
121.5475783245
 51
241.5478216755
  0
ARC
  5
75
330
1F
100
AcDbEntity
  8
0
  6
Continuous
 62
     7
370
    15
100
AcDbCircle
 10
113.6545428549
 20
171.5861754396
 30
0.0
 40
0.9999999999999886
100
AcDbArc
 50
301.5475783245
 51
61.5477405585
  0
ARC
  5
76
330
1F
100
AcDbEntity
  8
0
  6
Continuous
 62
     7
370
    15
100
AcDbCircle
 10
114.7009556859
 20
169.8817634627
 30
0.0
 40
1.000000000000054
100
AcDbArc
 50
121.5475783245
 51
241.5478216755
  0
ARC
  5
77
330
1F
100
AcDbEntity
  8
0
  6
Continuous
 62
     7
370
    15
100
AcDbCircle
 10
113.7481042547
 20
168.1233340072
 30
0.0
 40
1.00000000000002
100
AcDbArc
 50
301.5475783245
 51
61.5477405585
  0
ARC
  5
78
330
1F
100
AcDbEntity
  8
0
  6
Continuous
 62
     7
370
    15
100
AcDbCircle
 10
114.7945170858
 20
166.4189220303
 30
0.0
 40
0.9999999999999979
100
AcDbArc
 50
121.5475783245
 51
241.5478216755
  0
ARC
  5
79
330
1F
100
AcDbEntity
  8
0
  6
Continuous
 62
     7
370
    15
100
AcDbCircle
 10
113.8416656546
 20
164.6604925748
 30
0.0
 40
0.999999999999996
100
AcDbArc
 50
301.5475783245
 51
61.5477405585
  0
ARC
  5
7A
330
1F
100
AcDbEntity
  8
0
  6
Continuous
 62
     7
370
    15
100
AcDbCircle
 10
114.8880784856
 20
162.9560805979
 30
0.0
 40
1.00000000000001
100
AcDbArc
 50
121.5475783245
 51
241.5478216755
  0
ARC
  5
7B
330
1F
100
AcDbEntity
  8
0
  6
Continuous
 62
     7
370
    15
100
AcDbCircle
 10
113.9352270544
 20
161.1976511424
 30
0.0
 40
0.999999999999996
100
AcDbArc
 50
301.5475783245
 51
61.5477405585
  0
ARC
  5
7C
330
1F
100
AcDbEntity
  8
0
  6
Continuous
 62
     7
370
    15
100
AcDbCircle
 10
114.9816398855
 20
159.4932391655
 30
0.0
 40
1.00000000000001
100
AcDbArc
 50
121.5475783245
 51
241.5478216755
  0
ARC
  5
7D
330
1F
100
AcDbEntity
  8
0
  6
Continuous
 62
     7
370
    15
100
AcDbCircle
 10
114.0287884543
 20
157.7348097099
 30
0.0
 40
0.999999999999967
100
AcDbArc
 50
301.5473439867
 51
61.5477405585
  0
ARC
  5
7E
330
1F
100
AcDbEntity
  8
0
  6
Continuous
 62
     7
370
    15
100
AcDbCircle
 10
114.9705537283
 20
156.2008350789
 30
0.0
 40
0.8000000000000286
100
AcDbArc
 50
121.5473439867
 51
181.5476594415
  0
LINE
  5
7F
330
1F
100
AcDbEntity
  8
0
  6
Continuous
 62
     7
370
    15
100
AcDbLine
 10
114.2418169567
 20
153.5524309864
 30
0.0
 11
114.1708464512
 21
156.1792225829
 31
0.0
  0
ARC
  5
80
330
1F
100
AcDbEntity
  8
0
  6
Continuous
 62
     7
370
    15
100
AcDbCircle
 10
116.4410145007
 20
153.6118561485
 30
0.0
 40
2.200000000000017
100
AcDbArc
 50
181.5476594415
 51
270.0
  0
LINE
  5
81
330
1F
100
AcDbEntity
  8
0
  6
Continuous
 62
     7
370
    15
100
AcDbLine
 10
118.9582877943
 20
151.4118493786
 30
0.0
 11
116.4410160073
 21
151.4118493786
 31
0.0
  0
ARC
  5
82
330
1F
100
AcDbEntity
  8
0
  6
Continuous
 62
     7
370
    15
100
AcDbCircle
 10
118.9582894436
 20
153.6118561485
 30
0.0
 40
2.200000000000017
100
AcDbArc
 50
270.0
 51
358.4523405585
  0
LINE
  5
83
330
1F
100
AcDbEntity
  8
0
  6
Continuous
 62
     7
370
    15
100
AcDbLine
 10
121.1816788801
 20
154.4478119603
 30
0.0
 11
121.1574868449
 21
153.5524309864
 31
0.0
  0
ARC
  5
84
330
1F
100
AcDbEntity
  8
0
  6
Continuous
 62
     7
370
    15
100
AcDbCircle
 10
120.3819701193
 20
154.4694139924
 30
0.0
 40
0.8000000000008416
100
AcDbArc
 50
358.4523405585
 51
58.4526785457
  0
ARC
  5
85
330
1F
100
AcDbEntity
  8
0
  6
Continuous
 62
     7
370
    15
100
AcDbCircle
 10
121.3237347901
 20
156.0033889937
 30
0.0
 40
1.000000000000003
100
AcDbArc
 50
118.4522594415
 51
238.4526785457
  0
ARC
  5
86
330
1F
100
AcDbEntity
  8
0
  6
Continuous
 62
     7
370
    15
100
AcDbCircle
 10
120.3708833589
 20
157.7618184493
 30
0.0
 40
0.9999999999999979
100
AcDbArc
 50
298.4521783245
 51
58.4524216755
  0
ARC
  5
87
330
1F
100
AcDbEntity
  8
0
  6
Continuous
 62
     7
370
    15
100
AcDbCircle
 10
121.41729619
 20
159.4662304262
 30
0.0
 40
1.000000000000013
100
AcDbArc
 50
118.4522594415
 51
238.4524216755
  0
ARC
  5
88
330
1F
100
AcDbEntity
  8
0
  6
Continuous
 62
     7
370
    15
100
AcDbCircle
 10
120.4644447588
 20
161.2246598817
 30
0.0
 40
0.9999999999999737
100
AcDbArc
 50
298.4521783245
 51
58.4524216755
  0
ARC
  5
89
330
1F
100
AcDbEntity
  8
0
  6
Continuous
 62
     7
370
    15
100
AcDbCircle
 10
121.5108575898
 20
162.9290718586
 30
0.0
 40
1.000000000000013
100
AcDbArc
 50
118.4522594415
 51
238.4524216755
  0
ARC
  5
8A
330
1F
100
AcDbEntity
  8
0
  6
Continuous
 62
     7
370
    15
100
AcDbCircle
 10
120.5580061586
 20
164.6875013141
 30
0.0
 40
0.9999999999999979
100
AcDbArc
 50
298.4521783245
 51
58.4524216755
  0
ARC
  5
8B
330
1F
100
AcDbEntity
  8
0
  6
Continuous
 62
     7
370
    15
100
AcDbCircle
 10
121.6044189897
 20
166.391913291
 30
0.0
 40
1.000000000000013
100
AcDbArc
 50
118.4522594415
 51
238.4524216755
  0
ARC
  5
8C
330
1F
100
AcDbEntity
  8
0
  6
Continuous
 62
     7
370
    15
100
AcDbCircle
 10
120.6515675584
 20
168.1503427465
 30
0.0
 40
0.9999999999999811
100
AcDbArc
 50
298.4521783245
 51
58.4524216755
  0
ARC
  5
8D
330
1F
100
AcDbEntity
  8
0
  6
Continuous
 62
     7
370
    15
100
AcDbCircle
 10
121.6979803895
 20
169.8547547234
 30
0.0
 40
1.000000000000003
100
AcDbArc
 50
118.4522594415
 51
238.4524216755
  0
ARC
  5
8E
330
1F
100
AcDbEntity
  8
0
  6
Continuous
 62
     7
370
    15
100
AcDbCircle
 10
120.7451289583
 20
171.6131841789
 30
0.0
 40
1.000000000000005
100
AcDbArc
 50
298.4521783245
 51
58.4524216755
  0
ARC
  5
8F
330
1F
100
AcDbEntity
  8
0
  6
Continuous
 62
     7
370
    15
100
AcDbCircle
 10
121.7915417894
 20
173.3175961558
 30
0.0
 40
1.000000000000037
100
AcDbArc
 50
118.4522594415
 51
238.4524216755
  0
ARC
  5
90
330
1F
100
AcDbEntity
  8
0
  6
Continuous
 62
     7
370
    15
100
AcDbCircle
 10
120.8386903581
 20
175.0760256114
 30
0.0
 40
1.00000000000001
100
AcDbArc
 50
298.4521783245
 51
58.4524216755
  0
ARC
  5
91
330
1F
100
AcDbEntity
  8
0
  6
Continuous
 62
     7
370
    15
100
AcDbCircle
 10
121.8851031892
 20
176.7804375883
 30
0.0
 40
1.000000000000003
100
AcDbArc
 50
118.4522594415
 51
238.4524216755
  0
ARC
  5
92
330
1F
100
AcDbEntity
  8
0
  6
Continuous
 62
     7
370
    15
100
AcDbCircle
 10
120.9322505132
 20
178.5388663693
 30
0.0
 40
1.000000000000003
100
AcDbArc
 50
298.4522594415
 51
17.6405363837
  0
ARC
  5
93
330
1F
100
AcDbEntity
  8
0
  6
Continuous
 62
     7
370
    15
100
AcDbCircle
 10
122.6476082215
 20
179.0843459132
 30
0.0
 40
0.8000000000002891
100
AcDbArc
 50
178.4523405584
 51
197.6405363836
  0
LINE
  5
94
330
1F
100
AcDbEntity
  8
0
  6
Continuous
 62
     7
370
    15
100
AcDbLine
 10
121.9499268719
 20
182.8821183434
 30
0.0
 11
121.8478986212
 21
179.1059554806
 31
0.0
  0
ARC
  5
95
330
1F
100
AcDbEntity
  8
0
  6
Continuous
 62
     7
370
    15
100
AcDbCircle
 10
122.6996519722
 20
182.8618561485
 30
0.0
 40
0.7500000000000003
100
AcDbArc
 50
1.5476594415
 51
178.4523405585
  0
LINE
  5
96
330
1F
100
AcDbEntity
  8
0
  6
Continuous
 62
     7
370
    15
100
AcDbLine
 10
123.5252813586
 20
180.0728322258
 30
0.0
 11
123.4493785688
 21
182.8821183434
 31
0.0
  0
ARC
  5
97
330
1F
100
AcDbEntity
  8
0
  6
Continuous
 62
     7
370
    15
100
AcDbCircle
 10
124.3249885358
 20
180.0944408373
 30
0.0
 40
0.8000000000003402
100
AcDbArc
 50
181.5476594415
 51
241.5476594415
  0
ARC
  5
98
330
1F
100
AcDbEntity
  8
0
  6
Continuous
 62
     7
370
    15
100
AcDbCircle
 10
123.4674188869
 20
178.5118561485
 30
0.0
 40
1.000000000000002
100
AcDbArc
 50
301.5476594415
 51
61.5476594415
  0
ARC
  5
99
330
1F
100
AcDbEntity
  8
0
  6
Continuous
 62
     7
370
    15
100
AcDbCircle
 10
124.513834131
 20
176.8074456531
 30
0.0
 40
1.000000000000003
100
AcDbArc
 50
121.5476594415
 51
241.5477405585
  0
ARC
  5
9A
330
1F
100
AcDbEntity
  8
0
  6
Continuous
 62
     7
370
    15
100
AcDbCircle
 10
123.560981455
 20
175.049016872
 30
0.0
 40
1.000000000000017
100
AcDbArc
 50
301.5475783245
 51
61.5477405585
  0
ARC
  5
9B
330
1F
100
AcDbEntity
  8
0
  6
Continuous
 62
     7
370
    15
100
AcDbCircle
 10
124.6073942861
 20
173.3446048951
 30
0.0
 40
1.000000000000003
100
AcDbArc
 50
121.5475783245
 51
241.5478216755
  0
ARC
  5
9C
330
1F
100
AcDbEntity
  8
0
  6
Continuous
 62
     7
370
    15
100
AcDbCircle
 10
123.6545428549
 20
171.5861754396
 30
0.0
 40
0.999999999999996
100
AcDbArc
 50
301.5475783245
 51
61.5477405585
  0
ARC
  5
9D
330
1F
100
AcDbEntity
  8
0
  6
Continuous
 62
     7
370
    15
100
AcDbCircle
 10
124.7009556859
 20
169.8817634627
 30
0.0
 40
1.000000000000046
100
AcDbArc
 50
121.5475783245
 51
241.5478216755
  0
ARC
  5
9E
330
1F
100
AcDbEntity
  8
0
  6
Continuous
 62
     7
370
    15
100
AcDbCircle
 10
123.7481042547
 20
168.1233340072
 30
0.0
 40
1.000000000000028
100
AcDbArc
 50
301.5475783245
 51
61.5477405585
  0
ARC
  5
9F
330
1F
100
AcDbEntity
  8
0
  6
Continuous
 62
     7
370
    15
100
AcDbCircle
 10
124.7945170858
 20
166.4189220303
 30
0.0
 40
0.9999999999999905
100
AcDbArc
 50
121.5475783245
 51
241.5478216755
  0
ARC
  5
A0
330
1F
100
AcDbEntity
  8
0
  6
Continuous
 62
     7
370
    15
100
AcDbCircle
 10
123.8416656546
 20
164.6604925748
 30
0.0
 40
1.000000000000003
100
AcDbArc
 50
301.5475783245
 51
61.5477405585
  0
ARC
  5
A1
330
1F
100
AcDbEntity
  8
0
  6
Continuous
 62
     7
370
    15
100
AcDbCircle
 10
124.8880784856
 20
162.9560805979
 30
0.0
 40
1.000000000000003
100
AcDbArc
 50
121.5475783245
 51
241.5478216755
  0
ARC
  5
A2
330
1F
100
AcDbEntity
  8
0
  6
Continuous
 62
     7
370
    15
100
AcDbCircle
 10
123.9352270544
 20
161.1976511424
 30
0.0
 40
1.000000000000003
100
AcDbArc
 50
301.5475783245
 51
61.5477405585
  0
ARC
  5
A3
330
1F
100
AcDbEntity
  8
0
  6
Continuous
 62
     7
370
    15
100
AcDbCircle
 10
124.9816398855
 20
159.4932391655
 30
0.0
 40
1.000000000000003
100
AcDbArc
 50
121.5475783245
 51
241.5478216755
  0
ARC
  5
A4
330
1F
100
AcDbEntity
  8
0
  6
Continuous
 62
     7
370
    15
100
AcDbCircle
 10
124.0287884543
 20
157.7348097099
 30
0.0
 40
0.9999999999999745
100
AcDbArc
 50
301.5473439867
 51
61.5477405585
  0
ARC
  5
A5
330
1F
100
AcDbEntity
  8
0
  6
Continuous
 62
     7
370
    15
100
AcDbCircle
 10
124.9705537283
 20
156.2008350789
 30
0.0
 40
0.8000000000000359
100
AcDbArc
 50
121.5473439867
 51
181.5476594415
  0
LINE
  5
A6
330
1F
100
AcDbEntity
  8
0
  6
Continuous
 62
     7
370
    15
100
AcDbLine
 10
124.2418185958
 20
153.5524309864
 30
0.0
 11
124.170844365
 21
156.1792225829
 31
0.0
  0
ARC
  5
A7
330
1F
100
AcDbEntity
  8
0
  6
Continuous
 62
     7
370
    15
100
AcDbCircle
 10
126.4410145007
 20
153.6118561485
 30
0.0
 40
2.200000000000023
100
AcDbArc
 50
181.5476594415
 51
270.0
  0
LINE
  5
A8
330
1F
100
AcDbEntity
  8
0
  6
Continuous
 62
     7
370
    15
100
AcDbLine
 10
128.9582931587
 20
151.4118493786
 30
0.0
 11
126.4410176465
 21
151.4118493786
 31
0.0
  0
ARC
  5
A9
330
1F
100
AcDbEntity
  8
0
  6
Continuous
 62
     7
370
    15
100
AcDbCircle
 10
128.9582894436
 20
153.6118561485
 30
0.0
 40
2.200000000000009
100
AcDbArc
 50
270.0
 51
358.4523405585
  0
LINE
  5
AA
330
1F
100
AcDbEntity
  8
0
  6
Continuous
 62
     7
370
    15
100
AcDbLine
 10
131.1816805193
 20
154.4478119603
 30
0.0
 11
131.1574884841
 21
153.5524309864
 31
0.0
  0
ARC
  5
AB
330
1F
100
AcDbEntity
  8
0
  6
Continuous
 62
     7
370
    15
100
AcDbCircle
 10
130.3819701193
 20
154.4694139924
 30
0.0
 40
0.8000000000008558
100
AcDbArc
 50
358.4523405585
 51
58.4526785457
  0
ARC
  5
AC
330
1F
100
AcDbEntity
  8
0
  6
Continuous
 62
     7
370
    15
100
AcDbCircle
 10
131.3237347901
 20
156.0033889937
 30
0.0
 40
1.00000000000001
100
AcDbArc
 50
118.4522594415
 51
238.4526785457
  0
ARC
  5
AD
330
1F
100
AcDbEntity
  8
0
  6
Continuous
 62
     7
370
    15
100
AcDbCircle
 10
130.3708833589
 20
157.7618184493
 30
0.0
 40
0.9999999999999905
100
AcDbArc
 50
298.4521783245
 51
58.4524216755
  0
ARC
  5
AE
330
1F
100
AcDbEntity
  8
0
  6
Continuous
 62
     7
370
    15
100
AcDbCircle
 10
131.41729619
 20
159.4662304262
 30
0.0
 40
1.000000000000035
100
AcDbArc
 50
118.4522594415
 51
238.4524216755
  0
ARC
  5
AF
330
1F
100
AcDbEntity
  8
0
  6
Continuous
 62
     7
370
    15
100
AcDbCircle
 10
130.4644447588
 20
161.2246598817
 30
0.0
 40
0.9999999999999811
100
AcDbArc
 50
298.4521783245
 51
58.4524216755
  0
ARC
  5
B0
330
1F
100
AcDbEntity
  8
0
  6
Continuous
 62
     7
370
    15
100
AcDbCircle
 10
131.5108575898
 20
162.9290718586
 30
0.0
 40
1.00000000000001
100
AcDbArc
 50
118.4522594415
 51
238.4524216755
  0
ARC
  5
B1
330
1F
100
AcDbEntity
  8
0
  6
Continuous
 62
     7
370
    15
100
AcDbCircle
 10
130.5580061586
 20
164.6875013141
 30
0.0
 40
0.9999999999999905
100
AcDbArc
 50
298.4521783245
 51
58.4524216755
  0
ARC
  5
B2
330
1F
100
AcDbEntity
  8
0
  6
Continuous
 62
     7
370
    15
100
AcDbCircle
 10
131.6044189897
 20
166.391913291
 30
0.0
 40
1.000000000000035
100
AcDbArc
 50
118.4522594415
 51
238.4524216755
  0
ARC
  5
B3
330
1F
100
AcDbEntity
  8
0
  6
Continuous
 62
     7
370
    15
100
AcDbCircle
 10
130.6515675584
 20
168.1503427465
 30
0.0
 40
0.9999999999999811
100
AcDbArc
 50
298.4521783245
 51
58.4524216755
  0
ARC
  5
B4
330
1F
100
AcDbEntity
  8
0
  6
Continuous
 62
     7
370
    15
100
AcDbCircle
 10
131.6979803895
 20
169.8547547234
 30
0.0
 40
1.00000000000001
100
AcDbArc
 50
118.4522594415
 51
238.4524216755
  0
ARC
  5
B5
330
1F
100
AcDbEntity
  8
0
  6
Continuous
 62
     7
370
    15
100
AcDbCircle
 10
130.7451289583
 20
171.6131841789
 30
0.0
 40
0.9999999999999905
100
AcDbArc
 50
298.4521783245
 51
58.4524216755
  0
ARC
  5
B6
330
1F
100
AcDbEntity
  8
0
  6
Continuous
 62
     7
370
    15
100
AcDbCircle
 10
131.7915417894
 20
173.3175961558
 30
0.0
 40
1.000000000000059
100
AcDbArc
 50
118.4522594415
 51
238.4524216755
  0
ARC
  5
B7
330
1F
100
AcDbEntity
  8
0
  6
Continuous
 62
     7
370
    15
100
AcDbCircle
 10
130.8386903581
 20
175.0760256114
 30
0.0
 40
1.000000000000005
100
AcDbArc
 50
298.4521783245
 51
58.4524216755
  0
ARC
  5
B8
330
1F
100
AcDbEntity
  8
0
  6
Continuous
 62
     7
370
    15
100
AcDbCircle
 10
131.8851031892
 20
176.7804375883
 30
0.0
 40
1.000000000000023
100
AcDbArc
 50
118.4522594415
 51
238.4524216755
  0
ARC
  5
B9
330
1F
100
AcDbEntity
  8
0
  6
Continuous
 62
     7
370
    15
100
AcDbCircle
 10
130.9322505132
 20
178.5388663693
 30
0.0
 40
0.9999999999999963
100
AcDbArc
 50
298.4522594415
 51
17.6405363837
  0
ARC
  5
BA
330
1F
100
AcDbEntity
  8
0
  6
Continuous
 62
     7
370
    15
100
AcDbCircle
 10
132.6476082215
 20
179.0843459132
 30
0.0
 40
0.8000000000003176
100
AcDbArc
 50
178.4523405584
 51
197.6405363836
  0
LINE
  5
BB
330
1F
100
AcDbEntity
  8
0
  6
Continuous
 62
     7
370
    15
100
AcDbLine
 10
131.9499247858
 20
182.8821183434
 30
0.0
 11
131.8478965351
 21
179.1059554806
 31
0.0
  0
ARC
  5
BC
330
1F
100
AcDbEntity
  8
0
  6
Continuous
 62
     7
370
    15
100
AcDbCircle
 10
132.6996519722
 20
182.8618561485
 30
0.0
 40
0.7500000000000003
100
AcDbArc
 50
1.5476594415
 51
178.4523405585
  0
LINE
  5
BD
330
1F
100
AcDbEntity
  8
0
  6
Continuous
 62
     7
370
    15
100
AcDbLine
 10
133.5252829978
 20
180.0728322258
 30
0.0
 11
133.4493764826
 21
182.8821183434
 31
0.0
  0
ARC
  5
BE
330
1F
100
AcDbEntity
  8
0
  6
Continuous
 62
     7
370
    15
100
AcDbCircle
 10
134.3249885358
 20
180.0944408373
 30
0.0
 40
0.8000000000003261
100
AcDbArc
 50
181.5476594415
 51
241.5476594415
  0
ARC
  5
BF
330
1F
100
AcDbEntity
  8
0
  6
Continuous
 62
     7
370
    15
100
AcDbCircle
 10
133.4674188869
 20
178.5118561485
 30
0.0
 40
0.9999999999999942
100
AcDbArc
 50
301.5476594415
 51
61.5476594415
  0
ARC
  5
C0
330
1F
100
AcDbEntity
  8
0
  6
Continuous
 62
     7
370
    15
100
AcDbCircle
 10
134.513834131
 20
176.8074456531
 30
0.0
 40
0.9999999999999963
100
AcDbArc
 50
121.5476594415
 51
241.5477405585
  0
ARC
  5
C1
330
1F
100
AcDbEntity
  8
0
  6
Continuous
 62
     7
370
    15
100
AcDbCircle
 10
133.560981455
 20
175.049016872
 30
0.0
 40
1.00000000000001
100
AcDbArc
 50
301.5475783245
 51
61.5477405585
  0
ARC
  5
C2
330
1F
100
AcDbEntity
  8
0
  6
Continuous
 62
     7
370
    15
100
AcDbCircle
 10
134.6073942861
 20
173.3446048951
 30
0.0
 40
1.000000000000023
100
AcDbArc
 50
121.5475783245
 51
241.5478216755
  0
ARC
  5
C3
330
1F
100
AcDbEntity
  8
0
  6
Continuous
 62
     7
370
    15
100
AcDbCircle
 10
133.6545428549
 20
171.5861754396
 30
0.0
 40
0.999999999999996
100
AcDbArc
 50
301.5475783245
 51
61.5477405585
  0
ARC
  5
C4
330
1F
100
AcDbEntity
  8
0
  6
Continuous
 62
     7
370
    15
100
AcDbCircle
 10
134.7009556859
 20
169.8817634627
 30
0.0
 40
1.000000000000054
100
AcDbArc
 50
121.5475783245
 51
241.5478216755
  0
ARC
  5
C5
330
1F
100
AcDbEntity
  8
0
  6
Continuous
 62
     7
370
    15
100
AcDbCircle
 10
133.7481042547
 20
168.1233340072
 30
0.0
 40
1.00000000000002
100
AcDbArc
 50
301.5475783245
 51
61.5477405585
  0
ARC
  5
C6
330
1F
100
AcDbEntity
  8
0
  6
Continuous
 62
     7
370
    15
100
AcDbCircle
 10
134.7945170858
 20
166.4189220303
 30
0.0
 40
1.000000000000005
100
AcDbArc
 50
121.5475783245
 51
241.5478216755
  0
ARC
  5
C7
330
1F
100
AcDbEntity
  8
0
  6
Continuous
 62
     7
370
    15
100
AcDbCircle
 10
133.8416656546
 20
164.6604925748
 30
0.0
 40
1.000000000000011
100
AcDbArc
 50
301.5475783245
 51
61.5477405585
  0
ARC
  5
C8
330
1F
100
AcDbEntity
  8
0
  6
Continuous
 62
     7
370
    15
100
AcDbCircle
 10
134.8880784856
 20
162.9560805979
 30
0.0
 40
0.9999999999999961
100
AcDbArc
 50
121.5475783245
 51
241.5478216755
  0
ARC
  5
C9
330
1F
100
AcDbEntity
  8
0
  6
Continuous
 62
     7
370
    15
100
AcDbCircle
 10
133.9352270544
 20
161.1976511424
 30
0.0
 40
0.9999999999999984
100
AcDbArc
 50
301.5475783245
 51
61.5477405585
  0
ARC
  5
CA
330
1F
100
AcDbEntity
  8
0
  6
Continuous
 62
     7
370
    15
100
AcDbCircle
 10
134.9816398855
 20
159.4932391655
 30
0.0
 40
1.000000000000023
100
AcDbArc
 50
121.5475783245
 51
241.5478216755
  0
ARC
  5
CB
330
1F
100
AcDbEntity
  8
0
  6
Continuous
 62
     7
370
    15
100
AcDbCircle
 10
134.0287884543
 20
157.7348097099
 30
0.0
 40
0.9999999999999689
100
AcDbArc
 50
301.5473439867
 51
61.5477405585
  0
ARC
  5
CC
330
1F
100
AcDbEntity
  8
0
  6
Continuous
 62
     7
370
    15
100
AcDbCircle
 10
134.9705537283
 20
156.2008350789
 30
0.0
 40
0.8000000000000117
100
AcDbArc
 50
121.5473439867
 51
181.5476594415
  0
LINE
  5
CD
330
1F
100
AcDbEntity
  8
0
  6
Continuous
 62
     7
370
    15
100
AcDbLine
 10
134.2418202349
 20
153.5524309864
 30
0.0
 11
134.1708460042
 21
156.1792225829
 31
0.0
  0
ARC
  5
CE
330
1F
100
AcDbEntity
  8
0
  6
Continuous
 62
     7
370
    15
100
AcDbCircle
 10
136.4410145007
 20
153.6118561485
 30
0.0
 40
2.199999999999989
100
AcDbArc
 50
181.5476594415
 51
270.0
  0
LINE
  5
CF
330
1F
100
AcDbEntity
  8
0
  6
Continuous
 62
     7
370
    15
100
AcDbLine
 10
138.9582910725
 20
151.4118493786
 30
0.0
 11
136.4410155603
 21
151.4118493786
 31
0.0
  0
ARC
  5
D0
330
1F
100
AcDbEntity
  8
0
  6
Continuous
 62
     7
370
    15
100
AcDbCircle
 10
138.9582894436
 20
153.6118561485
 30
0.0
 40
2.199999999999989
100
AcDbArc
 50
270.0
 51
358.4523405585
  0
LINE
  5
D1
330
1F
100
AcDbEntity
  8
0
  6
Continuous
 62
     7
370
    15
100
AcDbLine
 10
141.1816784331
 20
154.4478119603
 30
0.0
 11
141.1574863979
 21
153.5524309864
 31
0.0
  0
ARC
  5
D2
330
1F
100
AcDbEntity
  8
0
  6
Continuous
 62
     7
370
    15
100
AcDbCircle
 10
140.3819701193
 20
154.4694139924
 30
0.0
 40
0.8000000000008274
100
AcDbArc
 50
358.4523405585
 51
58.4526785457
  0
ARC
  5
D3
330
1F
100
AcDbEntity
  8
0
  6
Continuous
 62
     7
370
    15
100
AcDbCircle
 10
141.3237347901
 20
156.0033889937
 30
0.0
 40
1.000000000000023
100
AcDbArc
 50
118.4522594415
 51
238.4526785457
  0
ARC
  5
D4
330
1F
100
AcDbEntity
  8
0
  6
Continuous
 62
     7
370
    15
100
AcDbCircle
 10
140.3708833589
 20
157.7618184493
 30
0.0
 40
0.9999999999999756
100
AcDbArc
 50
298.4521783245
 51
58.4524216755
  0
ARC
  5
D5
330
1F
100
AcDbEntity
  8
0
  6
Continuous
 62
     7
370
    15
100
AcDbCircle
 10
141.41729619
 20
159.4662304262
 30
0.0
 40
1.00000000000002
100
AcDbArc
 50
118.4522594415
 51
238.4524216755
  0
ARC
  5
D6
330
1F
100
AcDbEntity
  8
0
  6
Continuous
 62
     7
370
    15
100
AcDbCircle
 10
140.4644447588
 20
161.2246598817
 30
0.0
 40
0.9999999999999731
100
AcDbArc
 50
298.4521783245
 51
58.4524216755
  0
ARC
  5
D7
330
1F
100
AcDbEntity
  8
0
  6
Continuous
 62
     7
370
    15
100
AcDbCircle
 10
141.5108575898
 20
162.9290718586
 30
0.0
 40
1.000000000000035
100
AcDbArc
 50
118.4522594415
 51
238.4524216755
  0
ARC
  5
D8
330
1F
100
AcDbEntity
  8
0
  6
Continuous
 62
     7
370
    15
100
AcDbCircle
 10
140.5580061586
 20
164.6875013141
 30
0.0
 40
0.9999999999999756
100
AcDbArc
 50
298.4521783245
 51
58.4524216755
  0
ARC
  5
D9
330
1F
100
AcDbEntity
  8
0
  6
Continuous
 62
     7
370
    15
100
AcDbCircle
 10
141.6044189897
 20
166.391913291
 30
0.0
 40
1.00000000000002
100
AcDbArc
 50
118.4522594415
 51
238.4524216755
  0
ARC
  5
DA
330
1F
100
AcDbEntity
  8
0
  6
Continuous
 62
     7
370
    15
100
AcDbCircle
 10
140.6515675584
 20
168.1503427465
 30
0.0
 40
0.999999999999996
100
AcDbArc
 50
298.4521783245
 51
58.4524216755
  0
ARC
  5
DB
330
1F
100
AcDbEntity
  8
0
  6
Continuous
 62
     7
370
    15
100
AcDbCircle
 10
141.6979803895
 20
169.8547547234
 30
0.0
 40
1.000000000000023
100
AcDbArc
 50
118.4522594415
 51
238.4524216755
  0
ARC
  5
DC
330
1F
100
AcDbEntity
  8
0
  6
Continuous
 62
     7
370
    15
100
AcDbCircle
 10
140.7451289583
 20
171.6131841789
 30
0.0
 40
0.9999999999999905
100
AcDbArc
 50
298.4521783245
 51
58.4524216755
  0
ARC
  5
DD
330
1F
100
AcDbEntity
  8
0
  6
Continuous
 62
     7
370
    15
100
AcDbCircle
 10
141.7915417894
 20
173.3175961558
 30
0.0
 40
1.00000000000003
100
AcDbArc
 50
118.4522594415
 51
238.4524216755
  0
ARC
  5
DE
330
1F
100
AcDbEntity
  8
0
  6
Continuous
 62
     7
370
    15
100
AcDbCircle
 10
140.8386903581
 20
175.0760256114
 30
0.0
 40
1.00000000000002
100
AcDbArc
 50
298.4521783245
 51
58.4524216755
  0
ARC
  5
DF
330
1F
100
AcDbEntity
  8
0
  6
Continuous
 62
     7
370
    15
100
AcDbCircle
 10
141.8851031892
 20
176.7804375883
 30
0.0
 40
1.000000000000023
100
AcDbArc
 50
118.4522594415
 51
238.4524216755
  0
ARC
  5
E0
330
1F
100
AcDbEntity
  8
0
  6
Continuous
 62
     7
370
    15
100
AcDbCircle
 10
140.9322505132
 20
178.5388663693
 30
0.0
 40
0.9999999999999838
100
AcDbArc
 50
298.4522594415
 51
17.6405363837
  0
ARC
  5
E1
330
1F
100
AcDbEntity
  8
0
  6
Continuous
 62
     7
370
    15
100
AcDbCircle
 10
142.6476082215
 20
179.0843459132
 30
0.0
 40
0.8000000000002891
100
AcDbArc
 50
178.4523405584
 51
197.6405363836
  0
LINE
  5
E2
330
1F
100
AcDbEntity
  8
0
  6
Continuous
 62
     7
370
    15
100
AcDbLine
 10
141.9499226996
 20
182.8821183434
 30
0.0
 11
141.8479018995
 21
179.1059554806
 31
0.0
  0
ARC
  5
E3
330
1F
100
AcDbEntity
  8
0
  6
Continuous
 62
     7
370
    15
100
AcDbCircle
 10
142.6996519722
 20
182.8618561485
 30
0.0
 40
0.7500000000000003
100
AcDbArc
 50
1.5476594415
 51
178.4523405585
  0
LINE
  5
E4
330
1F
100
AcDbEntity
  8
0
  6
Continuous
 62
     7
370
    15
100
AcDbLine
 10
143.5252809116
 20
180.0728322258
 30
0.0
 11
143.4493818471
 21
182.8821183434
 31
0.0
  0
ARC
  5
E5
330
1F
100
AcDbEntity
  8
0
  6
Continuous
 62
     7
370
    15
100
AcDbCircle
 10
144.3249885358
 20
180.0944408373
 30
0.0
 40
0.8000000000003544
100
AcDbArc
 50
181.5476594415
 51
241.5476594415
  0
ARC
  5
E6
330
1F
100
AcDbEntity
  8
0
  6
Continuous
 62
     7
370
    15
100
AcDbCircle
 10
143.4674188869
 20
178.5118561485
 30
0.0
 40
0.9999999999999942
100
AcDbArc
 50
301.5476594415
 51
61.5476594415
  0
ARC
  5
E7
330
1F
100
AcDbEntity
  8
0
  6
Continuous
 62
     7
370
    15
100
AcDbCircle
 10
144.513834131
 20
176.8074456531
 30
0.0
 40
0.9999999999999963
100
AcDbArc
 50
121.5476594415
 51
241.5477405585
  0
ARC
  5
E8
330
1F
100
AcDbEntity
  8
0
  6
Continuous
 62
     7
370
    15
100
AcDbCircle
 10
143.560981455
 20
175.049016872
 30
0.0
 40
1.00000000000001
100
AcDbArc
 50
301.5475783245
 51
61.5477405585
  0
ARC
  5
E9
330
1F
100
AcDbEntity
  8
0
  6
Continuous
 62
     7
370
    15
100
AcDbCircle
 10
144.6073942861
 20
173.3446048951
 30
0.0
 40
1.00000000000001
100
AcDbArc
 50
121.5475783245
 51
241.5478216755
  0
ARC
  5
EA
330
1F
100
AcDbEntity
  8
0
  6
Continuous
 62
     7
370
    15
100
AcDbCircle
 10
143.6545428549
 20
171.5861754396
 30
0.0
 40
1.000000000000011
100
AcDbArc
 50
301.5475783245
 51
61.5477405585
  0
ARC
  5
EB
330
1F
100
AcDbEntity
  8
0
  6
Continuous
 62
     7
370
    15
100
AcDbCircle
 10
144.7009556859
 20
169.8817634627
 30
0.0
 40
1.000000000000039
100
AcDbArc
 50
121.5475783245
 51
241.5478216755
  0
ARC
  5
EC
330
1F
100
AcDbEntity
  8
0
  6
Continuous
 62
     7
370
    15
100
AcDbCircle
 10
143.7481042547
 20
168.1233340072
 30
0.0
 40
1.00000000000002
100
AcDbArc
 50
301.5475783245
 51
61.5477405585
  0
ARC
  5
ED
330
1F
100
AcDbEntity
  8
0
  6
Continuous
 62
     7
370
    15
100
AcDbCircle
 10
144.7945170858
 20
166.4189220303
 30
0.0
 40
0.9999999999999905
100
AcDbArc
 50
121.5475783245
 51
241.5478216755
  0
ARC
  5
EE
330
1F
100
AcDbEntity
  8
0
  6
Continuous
 62
     7
370
    15
100
AcDbCircle
 10
143.8416656546
 20
164.6604925748
 30
0.0
 40
1.000000000000011
100
AcDbArc
 50
301.5475783245
 51
61.5477405585
  0
ARC
  5
EF
330
1F
100
AcDbEntity
  8
0
  6
Continuous
 62
     7
370
    15
100
AcDbCircle
 10
144.8880784856
 20
162.9560805979
 30
0.0
 40
1.00000000000001
100
AcDbArc
 50
121.5475783245
 51
241.5478216755
  0
ARC
  5
F0
330
1F
100
AcDbEntity
  8
0
  6
Continuous
 62
     7
370
    15
100
AcDbCircle
 10
143.9352270544
 20
161.1976511424
 30
0.0
 40
0.999999999999996
100
AcDbArc
 50
301.5475783245
 51
61.5477405585
  0
ARC
  5
F1
330
1F
100
AcDbEntity
  8
0
  6
Continuous
 62
     7
370
    15
100
AcDbCircle
 10
144.9816398855
 20
159.4932391655
 30
0.0
 40
1.00000000000001
100
AcDbArc
 50
121.5475783245
 51
241.5478216755
  0
ARC
  5
F2
330
1F
100
AcDbEntity
  8
0
  6
Continuous
 62
     7
370
    15
100
AcDbCircle
 10
144.0287884543
 20
157.7348097099
 30
0.0
 40
0.9999999999999599
100
AcDbArc
 50
301.5473439867
 51
61.5477405585
  0
ARC
  5
F3
330
1F
100
AcDbEntity
  8
0
  6
Continuous
 62
     7
370
    15
100
AcDbCircle
 10
144.9705537283
 20
156.2008350789
 30
0.0
 40
0.8000000000000508
100
AcDbArc
 50
121.5473439867
 51
181.5476594415
  0
LINE
  5
F4
330
1F
100
AcDbEntity
  8
0
  6
Continuous
 62
     7
370
    15
100
AcDbLine
 10
144.2418181488
 20
153.5524309864
 30
0.0
 11
144.170843918
 21
156.1792225829
 31
0.0
  0
ARC
  5
F5
330
1F
100
AcDbEntity
  8
0
  6
Continuous
 62
     7
370
    15
100
AcDbCircle
 10
146.4410145007
 20
153.6118561485
 30
0.0
 40
2.199999999999989
100
AcDbArc
 50
181.5476594415
 51
270.0
  0
LINE
  5
F6
330
1F
100
AcDbEntity
  8
0
  6
Continuous
 62
     7
370
    15
100
AcDbLine
 10
148.9582889864
 20
151.4118493786
 30
0.0
 11
146.4410134741
 21
151.4118493786
 31
0.0
  0
ARC
  5
F7
330
1F
100
AcDbEntity
  8
0
  6
Continuous
 62
     7
370
    15
100
AcDbCircle
 10
148.9582894436
 20
153.6118561485
 30
0.0
 40
2.199999999999989
100
AcDbArc
 50
270.0
 51
358.4523405585
  0
LINE
  5
F8
330
1F
100
AcDbEntity
  8
0
  6
Continuous
 62
     7
370
    15
100
AcDbLine
 10
151.1816763469
 20
154.4478119603
 30
0.0
 11
151.1574843117
 21
153.5524309864
 31
0.0
  0
ARC
  5
F9
330
1F
100
AcDbEntity
  8
0
  6
Continuous
 62
     7
370
    15
100
AcDbCircle
 10
150.3819701193
 20
154.4694139924
 30
0.0
 40
0.8000000000008274
100
AcDbArc
 50
358.4523405585
 51
58.4526785457
  0
ARC
  5
FA
330
1F
100
AcDbEntity
  8
0
  6
Continuous
 62
     7
370
    15
100
AcDbCircle
 10
151.3237347901
 20
156.0033889937
 30
0.0
 40
1.000000000000023
100
AcDbArc
 50
118.4522594415
 51
238.4526785457
  0
ARC
  5
FB
330
1F
100
AcDbEntity
  8
0
  6
Continuous
 62
     7
370
    15
100
AcDbCircle
 10
150.3708833589
 20
157.7618184493
 30
0.0
 40
0.9999999999999905
100
AcDbArc
 50
298.4521783245
 51
58.4524216755
  0
ARC
  5
FC
330
1F
100
AcDbEntity
  8
0
  6
Continuous
 62
     7
370
    15
100
AcDbCircle
 10
151.41729619
 20
159.4662304262
 30
0.0
 40
1.00000000000002
100
AcDbArc
 50
118.4522594415
 51
238.4524216755
  0
ARC
  5
FD
330
1F
100
AcDbEntity
  8
0
  6
Continuous
 62
     7
370
    15
100
AcDbCircle
 10
150.4644447588
 20
161.2246598817
 30
0.0
 40
0.9999999999999731
100
AcDbArc
 50
298.4521783245
 51
58.4524216755
  0
ARC
  5
FE
330
1F
100
AcDbEntity
  8
0
  6
Continuous
 62
     7
370
    15
100
AcDbCircle
 10
151.5108575898
 20
162.9290718586
 30
0.0
 40
1.00000000000005
100
AcDbArc
 50
118.4522594415
 51
238.4524216755
  0
ARC
  5
FF
330
1F
100
AcDbEntity
  8
0
  6
Continuous
 62
     7
370
    15
100
AcDbCircle
 10
150.5580061586
 20
164.6875013141
 30
0.0
 40
0.9999999999999905
100
AcDbArc
 50
298.4521783245
 51
58.4524216755
  0
ARC
  5
100
330
1F
100
AcDbEntity
  8
0
  6
Continuous
 62
     7
370
    15
100
AcDbCircle
 10
151.6044189897
 20
166.391913291
 30
0.0
 40
1.00000000000002
100
AcDbArc
 50
118.4522594415
 51
238.4524216755
  0
ARC
  5
101
330
1F
100
AcDbEntity
  8
0
  6
Continuous
 62
     7
370
    15
100
AcDbCircle
 10
150.6515675584
 20
168.1503427465
 30
0.0
 40
0.9999999999999811
100
AcDbArc
 50
298.4521783245
 51
58.4524216755
  0
ARC
  5
102
330
1F
100
AcDbEntity
  8
0
  6
Continuous
 62
     7
370
    15
100
AcDbCircle
 10
151.6979803895
 20
169.8547547234
 30
0.0
 40
1.000000000000023
100
AcDbArc
 50
118.4522594415
 51
238.4524216755
  0
ARC
  5
103
330
1F
100
AcDbEntity
  8
0
  6
Continuous
 62
     7
370
    15
100
AcDbCircle
 10
150.7451289583
 20
171.6131841789
 30
0.0
 40
0.9999999999999905
100
AcDbArc
 50
298.4521783245
 51
58.4524216755
  0
ARC
  5
104
330
1F
100
AcDbEntity
  8
0
  6
Continuous
 62
     7
370
    15
100
AcDbCircle
 10
151.7915417894
 20
173.3175961558
 30
0.0
 40
1.000000000000044
100
AcDbArc
 50
118.4522594415
 51
238.4524216755
  0
ARC
  5
105
330
1F
100
AcDbEntity
  8
0
  6
Continuous
 62
     7
370
    15
100
AcDbCircle
 10
150.8386903581
 20
175.0760256114
 30
0.0
 40
0.9999999999999961
100
AcDbArc
 50
298.4521783245
 51
58.4524216755
  0
ARC
  5
106
330
1F
100
AcDbEntity
  8
0
  6
Continuous
 62
     7
370
    15
100
AcDbCircle
 10
151.8851031892
 20
176.7804375883
 30
0.0
 40
1.000000000000011
100
AcDbArc
 50
118.4522594415
 51
238.4524216755
  0
ARC
  5
107
330
1F
100
AcDbEntity
  8
0
  6
Continuous
 62
     7
370
    15
100
AcDbCircle
 10
150.9322505132
 20
178.5388663693
 30
0.0
 40
1.000000000000011
100
AcDbArc
 50
298.4522594415
 51
17.6405363837
  0
ARC
  5
108
330
1F
100
AcDbEntity
  8
0
  6
Continuous
 62
     7
370
    15
100
AcDbCircle
 10
152.6476082215
 20
179.0843459132
 30
0.0
 40
0.8000000000002607
100
AcDbArc
 50
178.4523405584
 51
197.6405363836
  0
LINE
  5
109
330
1F
100
AcDbEntity
  8
0
  6
Continuous
 62
     7
370
    15
100
AcDbLine
 10
151.949928064
 20
182.8821183434
 30
0.0
 11
151.8478998133
 21
179.1059554806
 31
0.0
  0
ARC
  5
10A
330
1F
100
AcDbEntity
  8
0
  6
Continuous
 62
     7
370
    15
100
AcDbCircle
 10
152.6996519722
 20
182.8618561485
 30
0.0
 40
0.7500000000000003
100
AcDbArc
 50
1.5476594415
 51
178.4523405585
  0
LINE
  5
10B
330
1F
100
AcDbEntity
  8
0
  6
Continuous
 62
     7
370
    15
100
AcDbLine
 10
153.5252788254
 20
180.0728322258
 30
0.0
 11
153.4493797609
 21
182.8821183434
 31
0.0
  0
ARC
  5
10C
330
1F
100
AcDbEntity
  8
0
  6
Continuous
 62
     7
370
    15
100
AcDbCircle
 10
154.3249885358
 20
180.0944408373
 30
0.0
 40
0.8000000000003544
100
AcDbArc
 50
181.5476594415
 51
241.5476594415
  0
ARC
  5
10D
330
1F
100
AcDbEntity
  8
0
  6
Continuous
 62
     7
370
    15
100
AcDbCircle
 10
153.4674188869
 20
178.5118561485
 30
0.0
 40
0.9999999999999793
100
AcDbArc
 50
301.5476594415
 51
61.5476594415
  0
ARC
  5
10E
330
1F
100
AcDbEntity
  8
0
  6
Continuous
 62
     7
370
    15
100
AcDbCircle
 10
154.513834131
 20
176.8074456531
 30
0.0
 40
1.00000000000001
100
AcDbArc
 50
121.5476594415
 51
241.5477405585
  0
ARC
  5
10F
330
1F
100
AcDbEntity
  8
0
  6
Continuous
 62
     7
370
    15
100
AcDbCircle
 10
153.560981455
 20
175.049016872
 30
0.0
 40
0.9999999999999963
100
AcDbArc
 50
301.5475783245
 51
61.5477405585
  0
ARC
  5
110
330
1F
100
AcDbEntity
  8
0
  6
Continuous
 62
     7
370
    15
100
AcDbCircle
 10
154.6073942861
 20
173.3446048951
 30
0.0
 40
0.9999999999999961
100
AcDbArc
 50
121.5475783245
 51
241.5478216755
  0
ARC
  5
111
330
1F
100
AcDbEntity
  8
0
  6
Continuous
 62
     7
370
    15
100
AcDbCircle
 10
153.6545428549
 20
171.5861754396
 30
0.0
 40
0.999999999999996
100
AcDbArc
 50
301.5475783245
 51
61.5477405585
  0
ARC
  5
112
330
1F
100
AcDbEntity
  8
0
  6
Continuous
 62
     7
370
    15
100
AcDbCircle
 10
154.7009556859
 20
169.8817634627
 30
0.0
 40
1.000000000000054
100
AcDbArc
 50
121.5475783245
 51
241.5478216755
  0
ARC
  5
113
330
1F
100
AcDbEntity
  8
0
  6
Continuous
 62
     7
370
    15
100
AcDbCircle
 10
153.7481042547
 20
168.1233340072
 30
0.0
 40
0.9999999999999811
100
AcDbArc
 50
301.5475783245
 51
61.5477405585
  0
ARC
  5
114
330
1F
100
AcDbEntity
  8
0
  6
Continuous
 62
     7
370
    15
100
AcDbCircle
 10
154.7945170858
 20
166.4189220303
 30
0.0
 40
1.000000000000015
100
AcDbArc
 50
121.5475783245
 51
241.5478216755
  0
ARC
  5
115
330
1F
100
AcDbEntity
  8
0
  6
Continuous
 62
     7
370
    15
100
AcDbCircle
 10
153.8416656546
 20
164.6604925748
 30
0.0
 40
1.000000000000011
100
AcDbArc
 50
301.5475783245
 51
61.5477405585
  0
ARC
  5
116
330
1F
100
AcDbEntity
  8
0
  6
Continuous
 62
     7
370
    15
100
AcDbCircle
 10
154.8880784856
 20
162.9560805979
 30
0.0
 40
1.000000000000023
100
AcDbArc
 50
121.5475783245
 51
241.5478216755
  0
ARC
  5
117
330
1F
100
AcDbEntity
  8
0
  6
Continuous
 62
     7
370
    15
100
AcDbCircle
 10
153.9352270544
 20
161.1976511424
 30
0.0
 40
0.9999999999999811
100
AcDbArc
 50
301.5475783245
 51
61.5477405585
  0
ARC
  5
118
330
1F
100
AcDbEntity
  8
0
  6
Continuous
 62
     7
370
    15
100
AcDbCircle
 10
154.9816398855
 20
159.4932391655
 30
0.0
 40
1.00000000000001
100
AcDbArc
 50
121.5475783245
 51
241.5478216755
  0
ARC
  5
119
330
1F
100
AcDbEntity
  8
0
  6
Continuous
 62
     7
370
    15
100
AcDbCircle
 10
154.0287884543
 20
157.7348097099
 30
0.0
 40
0.9999999999999599
100
AcDbArc
 50
301.5473439867
 51
61.5477405585
  0
ARC
  5
11A
330
1F
100
AcDbEntity
  8
0
  6
Continuous
 62
     7
370
    15
100
AcDbCircle
 10
154.9705537283
 20
156.2008350789
 30
0.0
 40
0.8000000000000508
100
AcDbArc
 50
121.5473439867
 51
181.5476594415
  0
LINE
  5
11B
330
1F
100
AcDbEntity
  8
0
  6
Continuous
 62
     7
370
    15
100
AcDbLine
 10
154.2418160626
 20
153.5524309864
 30
0.0
 11
154.1708492824
 21
156.1792225829
 31
0.0
  0
ARC
  5
11C
330
1F
100
AcDbEntity
  8
0
  6
Continuous
 62
     7
370
    15
100
AcDbCircle
 10
156.4410145007
 20
153.6118561485
 30
0.0
 40
2.200000000000009
100
AcDbArc
 50
181.5476594415
 51
270.0
  0
LINE
  5
11D
330
1F
100
AcDbEntity
  8
0
  6
Continuous
 62
     7
370
    15
100
AcDbLine
 10
158.9582869002
 20
151.4118493786
 30
0.0
 11
156.441011388
 21
151.4118493786
 31
0.0
  0
ARC
  5
11E
330
1F
100
AcDbEntity
  8
0
  6
Continuous
 62
     7
370
    15
100
AcDbCircle
 10
158.9582894436
 20
153.6118561485
 30
0.0
 40
2.199999999999989
100
AcDbArc
 50
270.0
 51
358.4523405585
  0
LINE
  5
11F
330
1F
100
AcDbEntity
  8
0
  6
Continuous
 62
     7
370
    15
100
AcDbLine
 10
161.1816817113
 20
154.4478119603
 30
0.0
 11
161.1574896761
 21
153.5524309864
 31
0.0
  0
ARC
  5
120
330
1F
100
AcDbEntity
  8
0
  6
Continuous
 62
     7
370
    15
100
AcDbCircle
 10
160.3819701193
 20
154.4694139924
 30
0.0
 40
0.8000000000008842
100
AcDbArc
 50
358.4523405585
 51
58.4526785457
  0
ARC
  5
121
330
1F
100
AcDbEntity
  8
0
  6
Continuous
 62
     7
370
    15
100
AcDbCircle
 10
161.3237347901
 20
156.0033889937
 30
0.0
 40
0.9999999999999963
100
AcDbArc
 50
118.4522594415
 51
238.4526785457
  0
ARC
  5
122
330
1F
100
AcDbEntity
  8
0
  6
Continuous
 62
     7
370
    15
100
AcDbCircle
 10
160.3708833589
 20
157.7618184493
 30
0.0
 40
1.00000000000002
100
AcDbArc
 50
298.4521783245
 51
58.4524216755
  0
ARC
  5
123
330
1F
100
AcDbEntity
  8
0
  6
Continuous
 62
     7
370
    15
100
AcDbCircle
 10
161.41729619
 20
159.4662304262
 30
0.0
 40
1.000000000000023
100
AcDbArc
 50
118.4522594415
 51
238.4524216755
  0
ARC
  5
124
330
1F
100
AcDbEntity
  8
0
  6
Continuous
 62
     7
370
    15
100
AcDbCircle
 10
160.4644447588
 20
161.2246598817
 30
0.0
 40
0.9999999999999811
100
AcDbArc
 50
298.4521783245
 51
58.4524216755
  0
ARC
  5
125
330
1F
100
AcDbEntity
  8
0
  6
Continuous
 62
     7
370
    15
100
AcDbCircle
 10
161.5108575898
 20
162.9290718586
 30
0.0
 40
1.00000000000002
100
AcDbArc
 50
118.4522594415
 51
238.4524216755
  0
ARC
  5
126
330
1F
100
AcDbEntity
  8
0
  6
Continuous
 62
     7
370
    15
100
AcDbCircle
 10
160.5580061586
 20
164.6875013141
 30
0.0
 40
0.9999999999999905
100
AcDbArc
 50
298.4521783245
 51
58.4524216755
  0
ARC
  5
127
330
1F
100
AcDbEntity
  8
0
  6
Continuous
 62
     7
370
    15
100
AcDbCircle
 10
161.6044189897
 20
166.391913291
 30
0.0
 40
1.000000000000023
100
AcDbArc
 50
118.4522594415
 51
238.4524216755
  0
ARC
  5
128
330
1F
100
AcDbEntity
  8
0
  6
Continuous
 62
     7
370
    15
100
AcDbCircle
 10
160.6515675584
 20
168.1503427465
 30
0.0
 40
0.9999999999999662
100
AcDbArc
 50
298.4521783245
 51
58.4524216755
  0
ARC
  5
129
330
1F
100
AcDbEntity
  8
0
  6
Continuous
 62
     7
370
    15
100
AcDbCircle
 10
161.6979803895
 20
169.8547547234
 30
0.0
 40
0.9999999999999963
100
AcDbArc
 50
118.4522594415
 51
238.4524216755
  0
ARC
  5
12A
330
1F
100
AcDbEntity
  8
0
  6
Continuous
 62
     7
370
    15
100
AcDbCircle
 10
160.7451289583
 20
171.6131841789
 30
0.0
 40
1.00000000000002
100
AcDbArc
 50
298.4521783245
 51
58.4524216755
  0
ARC
  5
12B
330
1F
100
AcDbEntity
  8
0
  6
Continuous
 62
     7
370
    15
100
AcDbCircle
 10
161.7915417894
 20
173.3175961558
 30
0.0
 40
1.000000000000044
100
AcDbArc
 50
118.4522594415
 51
238.4524216755
  0
ARC
  5
12C
330
1F
100
AcDbEntity
  8
0
  6
Continuous
 62
     7
370
    15
100
AcDbCircle
 10
160.8386903581
 20
175.0760256114
 30
0.0
 40
1.00000000000002
100
AcDbArc
 50
298.4521783245
 51
58.4524216755
  0
ARC
  5
12D
330
1F
100
AcDbEntity
  8
0
  6
Continuous
 62
     7
370
    15
100
AcDbCircle
 10
161.8851031892
 20
176.7804375883
 30
0.0
 40
1.00000000000001
100
AcDbArc
 50
118.4522594415
 51
238.4524216755
  0
ARC
  5
12E
330
1F
100
AcDbEntity
  8
0
  6
Continuous
 62
     7
370
    15
100
AcDbCircle
 10
160.9322505132
 20
178.5388663693
 30
0.0
 40
1.000000000000023
100
AcDbArc
 50
298.4522594415
 51
17.6405363837
  0
ARC
  5
12F
330
1F
100
AcDbEntity
  8
0
  6
Continuous
 62
     7
370
    15
100
AcDbCircle
 10
162.6476082215
 20
179.0843459132
 30
0.0
 40
0.8000000000002891
100
AcDbArc
 50
178.4523405584
 51
197.6405363836
  0
LINE
  5
130
330
1F
100
AcDbEntity
  8
0
  6
Continuous
 62
     7
370
    15
100
AcDbLine
 10
161.9499259779
 20
182.8821183434
 30
0.0
 11
161.8478977272
 21
179.1059554806
 31
0.0
  0
ARC
  5
131
330
1F
100
AcDbEntity
  8
0
  6
Continuous
 62
     7
370
    15
100
AcDbCircle
 10
162.6996519722
 20
182.8618561485
 30
0.0
 40
0.7500000000000003
100
AcDbArc
 50
1.5476594415
 51
178.4523405585
  0
LINE
  5
132
330
1F
100
AcDbEntity
  8
0
  6
Continuous
 62
     7
370
    15
100
AcDbLine
 10
163.5252767393
 20
180.0728322258
 30
0.0
 11
163.4493776747
 21
182.8821183434
 31
0.0
  0
ARC
  5
133
330
1F
100
AcDbEntity
  8
0
  6
Continuous
 62
     7
370
    15
100
AcDbCircle
 10
164.3249885358
 20
180.0944408373
 30
0.0
 40
0.8000000000003261
100
AcDbArc
 50
181.5476594415
 51
241.5476594415
  0
ARC
  5
134
330
1F
100
AcDbEntity
  8
0
  6
Continuous
 62
     7
370
    15
100
AcDbCircle
 10
163.4674188869
 20
178.5118561485
 30
0.0
 40
1.000000000000009
100
AcDbArc
 50
301.5476594415
 51
61.5476594415
  0
ARC
  5
135
330
1F
100
AcDbEntity
  8
0
  6
Continuous
 62
     7
370
    15
100
AcDbCircle
 10
164.513834131
 20
176.8074456531
 30
0.0
 40
1.00000000000001
100
AcDbArc
 50
121.5476594415
 51
241.5477405585
  0
ARC
  5
136
330
1F
100
AcDbEntity
  8
0
  6
Continuous
 62
     7
370
    15
100
AcDbCircle
 10
163.560981455
 20
175.049016872
 30
0.0
 40
1.000000000000011
100
AcDbArc
 50
301.5475783245
 51
61.5477405585
  0
ARC
  5
137
330
1F
100
AcDbEntity
  8
0
  6
Continuous
 62
     7
370
    15
100
AcDbCircle
 10
164.6073942861
 20
173.3446048951
 30
0.0
 40
1.00000000000001
100
AcDbArc
 50
121.5475783245
 51
241.5478216755
  0
ARC
  5
138
330
1F
100
AcDbEntity
  8
0
  6
Continuous
 62
     7
370
    15
100
AcDbCircle
 10
163.6545428549
 20
171.5861754396
 30
0.0
 40
0.999999999999996
100
AcDbArc
 50
301.5475783245
 51
61.5477405585
  0
ARC
  5
139
330
1F
100
AcDbEntity
  8
0
  6
Continuous
 62
     7
370
    15
100
AcDbCircle
 10
164.7009556859
 20
169.8817634627
 30
0.0
 40
1.000000000000054
100
AcDbArc
 50
121.5475783245
 51
241.5478216755
  0
ARC
  5
13A
330
1F
100
AcDbEntity
  8
0
  6
Continuous
 62
     7
370
    15
100
AcDbCircle
 10
163.7481042547
 20
168.1233340072
 30
0.0
 40
1.000000000000011
100
AcDbArc
 50
301.5475783245
 51
61.5477405585
  0
ARC
  5
13B
330
1F
100
AcDbEntity
  8
0
  6
Continuous
 62
     7
370
    15
100
AcDbCircle
 10
164.7945170858
 20
166.4189220303
 30
0.0
 40
1.000000000000015
100
AcDbArc
 50
121.5475783245
 51
241.5478216755
  0
ARC
  5
13C
330
1F
100
AcDbEntity
  8
0
  6
Continuous
 62
     7
370
    15
100
AcDbCircle
 10
163.8416656546
 20
164.6604925748
 30
0.0
 40
0.9999999999999984
100
AcDbArc
 50
301.5475783245
 51
61.5477405585
  0
ARC
  5
13D
330
1F
100
AcDbEntity
  8
0
  6
Continuous
 62
     7
370
    15
100
AcDbCircle
 10
164.8880784856
 20
162.9560805979
 30
0.0
 40
1.00000000000001
100
AcDbArc
 50
121.5475783245
 51
241.5478216755
  0
ARC
  5
13E
330
1F
100
AcDbEntity
  8
0
  6
Continuous
 62
     7
370
    15
100
AcDbCircle
 10
163.9352270544
 20
161.1976511424
 30
0.0
 40
0.999999999999996
100
AcDbArc
 50
301.5475783245
 51
61.5477405585
  0
ARC
  5
13F
330
1F
100
AcDbEntity
  8
0
  6
Continuous
 62
     7
370
    15
100
AcDbCircle
 10
164.9816398855
 20
159.4932391655
 30
0.0
 40
1.000000000000023
100
AcDbArc
 50
121.5475783245
 51
241.5478216755
  0
ARC
  5
140
330
1F
100
AcDbEntity
  8
0
  6
Continuous
 62
     7
370
    15
100
AcDbCircle
 10
164.0287884543
 20
157.7348097099
 30
0.0
 40
0.9999999999999745
100
AcDbArc
 50
301.5473439867
 51
61.5477405585
  0
ARC
  5
141
330
1F
100
AcDbEntity
  8
0
  6
Continuous
 62
     7
370
    15
100
AcDbCircle
 10
164.9705537283
 20
156.2008350789
 30
0.0
 40
0.8000000000000359
100
AcDbArc
 50
121.5473439867
 51
181.5476594415
  0
LINE
  5
142
330
1F
100
AcDbEntity
  8
0
  6
Continuous
 62
     7
370
    15
100
AcDbLine
 10
164.2418139764
 20
153.5524309864
 30
0.0
 11
164.1708471963
 21
156.1792225829
 31
0.0
  0
ARC
  5
143
330
1F
100
AcDbEntity
  8
0
  6
Continuous
 62
     7
370
    15
100
AcDbCircle
 10
166.4410145007
 20
153.6118561485
 30
0.0
 40
2.200000000000009
100
AcDbArc
 50
181.5476594415
 51
270.0
  0
LINE
  5
144
330
1F
100
AcDbEntity
  8
0
  6
Continuous
 62
     7
370
    15
100
AcDbLine
 10
168.9582922646
 20
151.4118493786
 30
0.0
 11
166.4410167524
 21
151.4118493786
 31
0.0
  0
ARC
  5
145
330
1F
100
AcDbEntity
  8
0
  6
Continuous
 62
     7
370
    15
100
AcDbCircle
 10
168.9582894436
 20
153.6118561485
 30
0.0
 40
2.199999999999989
100
AcDbArc
 50
270.0
 51
358.4523405585
  0
LINE
  5
146
330
1F
100
AcDbEntity
  8
0
  6
Continuous
 62
     7
370
    15
100
AcDbLine
 10
171.1816796252
 20
154.4478119603
 30
0.0
 11
171.15748759
 21
153.5524309864
 31
0.0
  0
ARC
  5
147
330
1F
100
AcDbEntity
  8
0
  6
Continuous
 62
     7
370
    15
100
AcDbCircle
 10
170.3819701193
 20
154.4694139924
 30
0.0
 40
0.8000000000008558
100
AcDbArc
 50
358.4523405585
 51
58.4526785457
  0
ARC
  5
148
330
1F
100
AcDbEntity
  8
0
  6
Continuous
 62
     7
370
    15
100
AcDbCircle
 10
171.3237347901
 20
156.0033889937
 30
0.0
 40
1.00000000000001
100
AcDbArc
 50
118.4522594415
 51
238.4526785457
  0
ARC
  5
149
330
1F
100
AcDbEntity
  8
0
  6
Continuous
 62
     7
370
    15
100
AcDbCircle
 10
170.3708833589
 20
157.7618184493
 30
0.0
 40
0.9999999999999905
100
AcDbArc
 50
298.4521783245
 51
58.4524216755
  0
ARC
  5
14A
330
1F
100
AcDbEntity
  8
0
  6
Continuous
 62
     7
370
    15
100
AcDbCircle
 10
171.41729619
 20
159.4662304262
 30
0.0
 40
1.000000000000035
100
AcDbArc
 50
118.4522594415
 51
238.4524216755
  0
ARC
  5
14B
330
1F
100
AcDbEntity
  8
0
  6
Continuous
 62
     7
370
    15
100
AcDbCircle
 10
170.4644447588
 20
161.2246598817
 30
0.0
 40
0.9999999999999662
100
AcDbArc
 50
298.4521783245
 51
58.4524216755
  0
ARC
  5
14C
330
1F
100
AcDbEntity
  8
0
  6
Continuous
 62
     7
370
    15
100
AcDbCircle
 10
171.5108575898
 20
162.9290718586
 30
0.0
 40
1.00000000000005
100
AcDbArc
 50
118.4522594415
 51
238.4524216755
  0
ARC
  5
14D
330
1F
100
AcDbEntity
  8
0
  6
Continuous
 62
     7
370
    15
100
AcDbCircle
 10
170.5580061586
 20
164.6875013141
 30
0.0
 40
0.999999999999985
100
AcDbArc
 50
298.4521783245
 51
58.4524216755
  0
ARC
  5
14E
330
1F
100
AcDbEntity
  8
0
  6
Continuous
 62
     7
370
    15
100
AcDbCircle
 10
171.6044189897
 20
166.391913291
 30
0.0
 40
1.000000000000011
100
AcDbArc
 50
118.4522594415
 51
238.4524216755
  0
ARC
  5
14F
330
1F
100
AcDbEntity
  8
0
  6
Continuous
 62
     7
370
    15
100
AcDbCircle
 10
170.6515675584
 20
168.1503427465
 30
0.0
 40
0.9999999999999662
100
AcDbArc
 50
298.4521783245
 51
58.4524216755
  0
ARC
  5
150
330
1F
100
AcDbEntity
  8
0
  6
Continuous
 62
     7
370
    15
100
AcDbCircle
 10
171.6979803895
 20
169.8547547234
 30
0.0
 40
1.00000000000001
100
AcDbArc
 50
118.4522594415
 51
238.4524216755
  0
ARC
  5
151
330
1F
100
AcDbEntity
  8
0
  6
Continuous
 62
     7
370
    15
100
AcDbCircle
 10
170.7451289583
 20
171.6131841789
 30
0.0
 40
0.9999999999999905
100
AcDbArc
 50
298.4521783245
 51
58.4524216755
  0
ARC
  5
152
330
1F
100
AcDbEntity
  8
0
  6
Continuous
 62
     7
370
    15
100
AcDbCircle
 10
171.7915417894
 20
173.3175961558
 30
0.0
 40
1.000000000000059
100
AcDbArc
 50
118.4522594415
 51
238.4524216755
  0
ARC
  5
153
330
1F
100
AcDbEntity
  8
0
  6
Continuous
 62
     7
370
    15
100
AcDbCircle
 10
170.8386903581
 20
175.0760256114
 30
0.0
 40
1.00000000000001
100
AcDbArc
 50
298.4521783245
 51
58.4524216755
  0
ARC
  5
154
330
1F
100
AcDbEntity
  8
0
  6
Continuous
 62
     7
370
    15
100
AcDbCircle
 10
171.8851031892
 20
176.7804375883
 30
0.0
 40
1.00000000000001
100
AcDbArc
 50
118.4522594415
 51
238.4524216755
  0
ARC
  5
155
330
1F
100
AcDbEntity
  8
0
  6
Continuous
 62
     7
370
    15
100
AcDbCircle
 10
170.9322505132
 20
178.5388663693
 30
0.0
 40
1.000000000000011
100
AcDbArc
 50
298.4522594415
 51
17.6405363837
  0
ARC
  5
156
330
1F
100
AcDbEntity
  8
0
  6
Continuous
 62
     7
370
    15
100
AcDbCircle
 10
172.6476082215
 20
179.0843459132
 30
0.0
 40
0.8000000000002607
100
AcDbArc
 50
178.4523405584
 51
197.6405363836
  0
LINE
  5
157
330
1F
100
AcDbEntity
  8
0
  6
Continuous
 62
     7
370
    15
100
AcDbLine
 10
171.9499238917
 20
182.8821183434
 30
0.0
 11
171.8479030916
 21
179.1059554806
 31
0.0
  0
ARC
  5
158
330
1F
100
AcDbEntity
  8
0
  6
Continuous
 62
     7
370
    15
100
AcDbCircle
 10
172.6996519722
 20
182.8618561485
 30
0.0
 40
0.7500000000000003
100
AcDbArc
 50
1.5476594415
 51
178.4523405585
  0
LINE
  5
159
330
1F
100
AcDbEntity
  8
0
  6
Continuous
 62
     7
370
    15
100
AcDbLine
 10
173.5252821037
 20
180.0728322258
 30
0.0
 11
173.4493755886
 21
182.8821183434
 31
0.0
  0
ARC
  5
15A
330
1F
100
AcDbEntity
  8
0
  6
Continuous
 62
     7
370
    15
100
AcDbCircle
 10
174.3249885358
 20
180.0944408373
 30
0.0
 40
0.8000000000003261
100
AcDbArc
 50
181.5476594415
 51
241.5476594415
  0
ARC
  5
15B
330
1F
100
AcDbEntity
  8
0
  6
Continuous
 62
     7
370
    15
100
AcDbCircle
 10
173.4674188869
 20
178.5118561485
 30
0.0
 40
0.9999999999999942
100
AcDbArc
 50
301.5476594415
 51
61.5476594415
  0
ARC
  5
15C
330
1F
100
AcDbEntity
  8
0
  6
Continuous
 62
     7
370
    15
100
AcDbCircle
 10
174.513834131
 20
176.8074456531
 30
0.0
 40
1.00000000000001
100
AcDbArc
 50
121.5476594415
 51
241.5477405585
  0
ARC
  5
15D
330
1F
100
AcDbEntity
  8
0
  6
Continuous
 62
     7
370
    15
100
AcDbCircle
 10
173.560981455
 20
175.049016872
 30
0.0
 40
1.00000000000001
100
AcDbArc
 50
301.5475783245
 51
61.5477405585
  0
ARC
  5
15E
330
1F
100
AcDbEntity
  8
0
  6
Continuous
 62
     7
370
    15
100
AcDbCircle
 10
174.6073942861
 20
173.3446048951
 30
0.0
 40
1.000000000000023
100
AcDbArc
 50
121.5475783245
 51
241.5478216755
  0
ARC
  5
15F
330
1F
100
AcDbEntity
  8
0
  6
Continuous
 62
     7
370
    15
100
AcDbCircle
 10
173.6545428549
 20
171.5861754396
 30
0.0
 40
0.999999999999996
100
AcDbArc
 50
301.5475783245
 51
61.5477405585
  0
ARC
  5
160
330
1F
100
AcDbEntity
  8
0
  6
Continuous
 62
     7
370
    15
100
AcDbCircle
 10
174.7009556859
 20
169.8817634627
 30
0.0
 40
1.000000000000039
100
AcDbArc
 50
121.5475783245
 51
241.5478216755
  0
ARC
  5
161
330
1F
100
AcDbEntity
  8
0
  6
Continuous
 62
     7
370
    15
100
AcDbCircle
 10
173.7481042547
 20
168.1233340072
 30
0.0
 40
1.000000000000026
100
AcDbArc
 50
301.5475783245
 51
61.5477405585
  0
ARC
  5
162
330
1F
100
AcDbEntity
  8
0
  6
Continuous
 62
     7
370
    15
100
AcDbCircle
 10
174.7945170858
 20
166.4189220303
 30
0.0
 40
1.000000000000015
100
AcDbArc
 50
121.5475783245
 51
241.5478216755
  0
ARC
  5
163
330
1F
100
AcDbEntity
  8
0
  6
Continuous
 62
     7
370
    15
100
AcDbCircle
 10
173.8416656546
 20
164.6604925748
 30
0.0
 40
0.999999999999996
100
AcDbArc
 50
301.5475783245
 51
61.5477405585
  0
ARC
  5
164
330
1F
100
AcDbEntity
  8
0
  6
Continuous
 62
     7
370
    15
100
AcDbCircle
 10
174.8880784856
 20
162.9560805979
 30
0.0
 40
0.9999999999999961
100
AcDbArc
 50
121.5475783245
 51
241.5478216755
  0
ARC
  5
165
330
1F
100
AcDbEntity
  8
0
  6
Continuous
 62
     7
370
    15
100
AcDbCircle
 10
173.9352270544
 20
161.1976511424
 30
0.0
 40
1.000000000000011
100
AcDbArc
 50
301.5475783245
 51
61.5477405585
  0
ARC
  5
166
330
1F
100
AcDbEntity
  8
0
  6
Continuous
 62
     7
370
    15
100
AcDbCircle
 10
174.9816398855
 20
159.4932391655
 30
0.0
 40
1.000000000000023
100
AcDbArc
 50
121.5475783245
 51
241.5478216755
  0
ARC
  5
167
330
1F
100
AcDbEntity
  8
0
  6
Continuous
 62
     7
370
    15
100
AcDbCircle
 10
174.0287884543
 20
157.7348097099
 30
0.0
 40
0.9999999999999745
100
AcDbArc
 50
301.5473439867
 51
61.5477405585
  0
ARC
  5
168
330
1F
100
AcDbEntity
  8
0
  6
Continuous
 62
     7
370
    15
100
AcDbCircle
 10
174.9705537283
 20
156.2008350789
 30
0.0
 40
0.8000000000000508
100
AcDbArc
 50
121.5473439867
 51
181.5476594415
  0
LINE
  5
169
330
1F
100
AcDbEntity
  8
0
  6
Continuous
 62
     7
370
    15
100
AcDbLine
 10
174.2418193409
 20
153.5524309864
 30
0.0
 11
174.1708451101
 21
156.1792225829
 31
0.0
  0
ARC
  5
16A
330
1F
100
AcDbEntity
  8
0
  6
Continuous
 62
     7
370
    15
100
AcDbCircle
 10
176.4410145007
 20
153.6118561485
 30
0.0
 40
2.199999999999989
100
AcDbArc
 50
181.5476594415
 51
270.0
  0
LINE
  5
16B
330
1F
100
AcDbEntity
  8
0
  6
Continuous
 62
     7
370
    15
100
AcDbLine
 10
178.9582901784
 20
151.4118493786
 30
0.0
 11
176.4410146662
 21
151.4118493786
 31
0.0
  0
ARC
  5
16C
330
1F
100
AcDbEntity
  8
0
  6
Continuous
 62
     7
370
    15
100
AcDbCircle
 10
178.9582894436
 20
153.6118561485
 30
0.0
 40
2.199999999999989
100
AcDbArc
 50
270.0
 51
358.4523405585
  0
LINE
  5
16D
330
1F
100
AcDbEntity
  8
0
  6
Continuous
 62
     7
370
    15
100
AcDbLine
 10
181.181677539
 20
154.4478119603
 30
0.0
 11
181.1574855038
 21
153.5524309864
 31
0.0
  0
ARC
  5
16E
330
1F
100
AcDbEntity
  8
0
  6
Continuous
 62
     7
370
    15
100
AcDbCircle
 10
180.3819701193
 20
154.4694139924
 30
0.0
 40
0.8000000000008274
100
AcDbArc
 50
358.4523405585
 51
58.4526785457
  0
ARC
  5
16F
330
1F
100
AcDbEntity
  8
0
  6
Continuous
 62
     7
370
    15
100
AcDbCircle
 10
181.3237347901
 20
156.0033889937
 30
0.0
 40
1.000000000000023
100
AcDbArc
 50
118.4522594415
 51
238.4526785457
  0
ARC
  5
170
330
1F
100
AcDbEntity
  8
0
  6
Continuous
 62
     7
370
    15
100
AcDbCircle
 10
180.3708833589
 20
157.7618184493
 30
0.0
 40
0.9999999999999905
100
AcDbArc
 50
298.4521783245
 51
58.4524216755
  0
ARC
  5
171
330
1F
100
AcDbEntity
  8
0
  6
Continuous
 62
     7
370
    15
100
AcDbCircle
 10
181.41729619
 20
159.4662304262
 30
0.0
 40
1.000000000000035
100
AcDbArc
 50
118.4522594415
 51
238.4524216755
  0
ARC
  5
172
330
1F
100
AcDbEntity
  8
0
  6
Continuous
 62
     7
370
    15
100
AcDbCircle
 10
180.4644447588
 20
161.2246598817
 30
0.0
 40
0.9999999999999662
100
AcDbArc
 50
298.4521783245
 51
58.4524216755
  0
ARC
  5
173
330
1F
100
AcDbEntity
  8
0
  6
Continuous
 62
     7
370
    15
100
AcDbCircle
 10
181.5108575898
 20
162.9290718586
 30
0.0
 40
1.000000000000035
100
AcDbArc
 50
118.4522594415
 51
238.4524216755
  0
ARC
  5
174
330
1F
100
AcDbEntity
  8
0
  6
Continuous
 62
     7
370
    15
100
AcDbCircle
 10
180.5580061586
 20
164.6875013141
 30
0.0
 40
0.9999999999999999
100
AcDbArc
 50
298.4521783245
 51
58.4524216755
  0
ARC
  5
175
330
1F
100
AcDbEntity
  8
0
  6
Continuous
 62
     7
370
    15
100
AcDbCircle
 10
181.6044189897
 20
166.391913291
 30
0.0
 40
1.000000000000026
100
AcDbArc
 50
118.4522594415
 51
238.4524216755
  0
ARC
  5
176
330
1F
100
AcDbEntity
  8
0
  6
Continuous
 62
     7
370
    15
100
AcDbCircle
 10
180.6515675584
 20
168.1503427465
 30
0.0
 40
0.9999999999999662
100
AcDbArc
 50
298.4521783245
 51
58.4524216755
  0
ARC
  5
177
330
1F
100
AcDbEntity
  8
0
  6
Continuous
 62
     7
370
    15
100
AcDbCircle
 10
181.6979803895
 20
169.8547547234
 30
0.0
 40
1.000000000000023
100
AcDbArc
 50
118.4522594415
 51
238.4524216755
  0
ARC
  5
178
330
1F
100
AcDbEntity
  8
0
  6
Continuous
 62
     7
370
    15
100
AcDbCircle
 10
180.7451289583
 20
171.6131841789
 30
0.0
 40
0.9999999999999905
100
AcDbArc
 50
298.4521783245
 51
58.4524216755
  0
ARC
  5
179
330
1F
100
AcDbEntity
  8
0
  6
Continuous
 62
     7
370
    15
100
AcDbCircle
 10
181.7915417894
 20
173.3175961558
 30
0.0
 40
1.000000000000074
100
AcDbArc
 50
118.4522594415
 51
238.4524216755
  0
ARC
  5
17A
330
1F
100
AcDbEntity
  8
0
  6
Continuous
 62
     7
370
    15
100
AcDbCircle
 10
180.8386903581
 20
175.0760256114
 30
0.0
 40
1.00000000000001
100
AcDbArc
 50
298.4521783245
 51
58.4524216755
  0
ARC
  5
17B
330
1F
100
AcDbEntity
  8
0
  6
Continuous
 62
     7
370
    15
100
AcDbCircle
 10
181.8851031892
 20
176.7804375883
 30
0.0
 40
1.000000000000023
100
AcDbArc
 50
118.4522594415
 51
238.4524216755
  0
ARC
  5
17C
330
1F
100
AcDbEntity
  8
0
  6
Continuous
 62
     7
370
    15
100
AcDbCircle
 10
180.9322505132
 20
178.5388663693
 30
0.0
 40
0.9999999999999963
100
AcDbArc
 50
298.4522594415
 51
17.6405363837
  0
ARC
  5
17D
330
1F
100
AcDbEntity
  8
0
  6
Continuous
 62
     7
370
    15
100
AcDbCircle
 10
182.6476082215
 20
179.0843459132
 30
0.0
 40
0.8000000000002891
100
AcDbArc
 50
178.4523405584
 51
197.6405363836
  0
LINE
  5
17E
330
1F
100
AcDbEntity
  8
0
  6
Continuous
 62
     7
370
    15
100
AcDbLine
 10
181.9499292561
 20
182.8821183434
 30
0.0
 11
181.8479010054
 21
179.1059554806
 31
0.0
  0
ARC
  5
17F
330
1F
100
AcDbEntity
  8
0
  6
Continuous
 62
     7
370
    15
100
AcDbCircle
 10
182.6996519722
 20
182.8618561485
 30
0.0
 40
0.7500000000000003
100
AcDbArc
 50
1.5476594415
 51
178.4523405585
  0
LINE
  5
180
330
1F
100
AcDbEntity
  8
0
  6
Continuous
 62
     7
370
    15
100
AcDbLine
 10
183.5252800175
 20
180.0728322258
 30
0.0
 11
183.449380953
 21
182.8821183434
 31
0.0
  0
ARC
  5
181
330
1F
100
AcDbEntity
  8
0
  6
Continuous
 62
     7
370
    15
100
AcDbCircle
 10
184.3249885358
 20
180.0944408373
 30
0.0
 40
0.8000000000003261
100
AcDbArc
 50
181.5476594415
 51
241.5476594415
  0
ARC
  5
182
330
1F
100
AcDbEntity
  8
0
  6
Continuous
 62
     7
370
    15
100
AcDbCircle
 10
183.4674188869
 20
178.5118561485
 30
0.0
 40
0.9999999999999942
100
AcDbArc
 50
301.5476594415
 51
61.5476594415
  0
ARC
  5
183
330
1F
100
AcDbEntity
  8
0
  6
Continuous
 62
     7
370
    15
100
AcDbCircle
 10
184.513834131
 20
176.8074456531
 30
0.0
 40
1.00000000000001
100
AcDbArc
 50
121.5476594415
 51
241.5477405585
  0
ARC
  5
184
330
1F
100
AcDbEntity
  8
0
  6
Continuous
 62
     7
370
    15
100
AcDbCircle
 10
183.560981455
 20
175.049016872
 30
0.0
 40
1.00000000000001
100
AcDbArc
 50
301.5475783245
 51
61.5477405585
  0
ARC
  5
185
330
1F
100
AcDbEntity
  8
0
  6
Continuous
 62
     7
370
    15
100
AcDbCircle
 10
184.6073942861
 20
173.3446048951
 30
0.0
 40
1.00000000000001
100
AcDbArc
 50
121.5475783245
 51
241.5478216755
  0
ARC
  5
186
330
1F
100
AcDbEntity
  8
0
  6
Continuous
 62
     7
370
    15
100
AcDbCircle
 10
183.6545428549
 20
171.5861754396
 30
0.0
 40
1.000000000000011
100
AcDbArc
 50
301.5475783245
 51
61.5477405585
  0
ARC
  5
187
330
1F
100
AcDbEntity
  8
0
  6
Continuous
 62
     7
370
    15
100
AcDbCircle
 10
184.7009556859
 20
169.8817634627
 30
0.0
 40
1.000000000000039
100
AcDbArc
 50
121.5475783245
 51
241.5478216755
  0
ARC
  5
188
330
1F
100
AcDbEntity
  8
0
  6
Continuous
 62
     7
370
    15
100
AcDbCircle
 10
183.7481042547
 20
168.1233340072
 30
0.0
 40
1.00000000000002
100
AcDbArc
 50
301.5475783245
 51
61.5477405585
  0
ARC
  5
189
330
1F
100
AcDbEntity
  8
0
  6
Continuous
 62
     7
370
    15
100
AcDbCircle
 10
184.7945170858
 20
166.4189220303
 30
0.0
 40
1.000000000000005
100
AcDbArc
 50
121.5475783245
 51
241.5478216755
  0
ARC
  5
18A
330
1F
100
AcDbEntity
  8
0
  6
Continuous
 62
     7
370
    15
100
AcDbCircle
 10
183.8416656546
 20
164.6604925748
 30
0.0
 40
0.9999999999999984
100
AcDbArc
 50
301.5475783245
 51
61.5477405585
  0
ARC
  5
18B
330
1F
100
AcDbEntity
  8
0
  6
Continuous
 62
     7
370
    15
100
AcDbCircle
 10
184.8880784856
 20
162.9560805979
 30
0.0
 40
1.00000000000001
100
AcDbArc
 50
121.5475783245
 51
241.5478216755
  0
ARC
  5
18C
330
1F
100
AcDbEntity
  8
0
  6
Continuous
 62
     7
370
    15
100
AcDbCircle
 10
183.9352270544
 20
161.1976511424
 30
0.0
 40
0.9999999999999849
100
AcDbArc
 50
301.5475783245
 51
61.5477405585
  0
ARC
  5
18D
330
1F
100
AcDbEntity
  8
0
  6
Continuous
 62
     7
370
    15
100
AcDbCircle
 10
184.9816398855
 20
159.4932391655
 30
0.0
 40
0.9999999999999961
100
AcDbArc
 50
121.5475783245
 51
241.5478216755
  0
ARC
  5
18E
330
1F
100
AcDbEntity
  8
0
  6
Continuous
 62
     7
370
    15
100
AcDbCircle
 10
184.0287884543
 20
157.7348097099
 30
0.0
 40
0.9999999999999599
100
AcDbArc
 50
301.5473439867
 51
61.5477405585
  0
ARC
  5
18F
330
1F
100
AcDbEntity
  8
0
  6
Continuous
 62
     7
370
    15
100
AcDbCircle
 10
184.9705537283
 20
156.2008350789
 30
0.0
 40
0.8000000000000508
100
AcDbArc
 50
121.5473439867
 51
181.5476594415
  0
LINE
  5
190
330
1F
100
AcDbEntity
  8
0
  6
Continuous
 62
     7
370
    15
100
AcDbLine
 10
184.2418172547
 20
153.5524309864
 30
0.0
 11
184.1708430239
 21
156.1792225829
 31
0.0
  0
ARC
  5
191
330
1F
100
AcDbEntity
  8
0
  6
Continuous
 62
     7
370
    15
100
AcDbCircle
 10
186.4410145007
 20
153.6118561485
 30
0.0
 40
2.199999999999989
100
AcDbArc
 50
181.5476594415
 51
270.0
  0
LINE
  5
192
330
1F
100
AcDbEntity
  8
0
  6
Continuous
 62
     7
370
    15
100
AcDbLine
 10
188.9582955429
 20
151.4118493786
 30
0.0
 11
186.4410125801
 21
151.4118493786
 31
0.0
  0
ARC
  5
193
330
1F
100
AcDbEntity
  8
0
  6
Continuous
 62
     7
370
    15
100
AcDbCircle
 10
188.9582894436
 20
153.6118561485
 30
0.0
 40
2.200000000000009
100
AcDbArc
 50
270.0
 51
358.4523405585
  0
LINE
  5
194
330
1F
100
AcDbEntity
  8
0
  6
Continuous
 62
     7
370
    15
100
AcDbLine
 10
191.1816829034
 20
154.4478119603
 30
0.0
 11
191.1574834177
 21
153.5524309864
 31
0.0
  0
ARC
  5
195
330
1F
100
AcDbEntity
  8
0
  6
Continuous
 62
     7
370
    15
100
AcDbCircle
 10
190.3819701193
 20
154.4694139924
 30
0.0
 40
0.8000000000008558
100
AcDbArc
 50
358.4523405585
 51
58.4526785457
  0
ARC
  5
196
330
1F
100
AcDbEntity
  8
0
  6
Continuous
 62
     7
370
    15
100
AcDbCircle
 10
191.3237347901
 20
156.0033889937
 30
0.0
 40
1.00000000000001
100
AcDbArc
 50
118.4522594415
 51
238.4526785457
  0
ARC
  5
197
330
1F
100
AcDbEntity
  8
0
  6
Continuous
 62
     7
370
    15
100
AcDbCircle
 10
190.3708833589
 20
157.7618184493
 30
0.0
 40
1.000000000000005
100
AcDbArc
 50
298.4521783245
 51
58.4524216755
  0
ARC
  5
198
330
1F
100
AcDbEntity
  8
0
  6
Continuous
 62
     7
370
    15
100
AcDbCircle
 10
191.41729619
 20
159.4662304262
 30
0.0
 40
1.00000000000002
100
AcDbArc
 50
118.4522594415
 51
238.4524216755
  0
ARC
  5
199
330
1F
100
AcDbEntity
  8
0
  6
Continuous
 62
     7
370
    15
100
AcDbCircle
 10
190.4644447588
 20
161.2246598817
 30
0.0
 40
0.9999999999999811
100
AcDbArc
 50
298.4521783245
 51
58.4524216755
  0
ARC
  5
19A
330
1F
100
AcDbEntity
  8
0
  6
Continuous
 62
     7
370
    15
100
AcDbCircle
 10
191.5108575898
 20
162.9290718586
 30
0.0
 40
1.00000000000002
100
AcDbArc
 50
118.4522594415
 51
238.4524216755
  0
ARC
  5
19B
330
1F
100
AcDbEntity
  8
0
  6
Continuous
 62
     7
370
    15
100
AcDbCircle
 10
190.5580061586
 20
164.6875013141
 30
0.0
 40
0.9999999999999905
100
AcDbArc
 50
298.4521783245
 51
58.4524216755
  0
ARC
  5
19C
330
1F
100
AcDbEntity
  8
0
  6
Continuous
 62
     7
370
    15
100
AcDbCircle
 10
191.6044189897
 20
166.391913291
 30
0.0
 40
1.00000000000002
100
AcDbArc
 50
118.4522594415
 51
238.4524216755
  0
ARC
  5
19D
330
1F
100
AcDbEntity
  8
0
  6
Continuous
 62
     7
370
    15
100
AcDbCircle
 10
190.6515675584
 20
168.1503427465
 30
0.0
 40
0.9999999999999662
100
AcDbArc
 50
298.4521783245
 51
58.4524216755
  0
ARC
  5
19E
330
1F
100
AcDbEntity
  8
0
  6
Continuous
 62
     7
370
    15
100
AcDbCircle
 10
191.6979803895
 20
169.8547547234
 30
0.0
 40
1.00000000000001
100
AcDbArc
 50
118.4522594415
 51
238.4524216755
  0
ARC
  5
19F
330
1F
100
AcDbEntity
  8
0
  6
Continuous
 62
     7
370
    15
100
AcDbCircle
 10
190.7451289583
 20
171.6131841789
 30
0.0
 40
1.000000000000005
100
AcDbArc
 50
298.4521783245
 51
58.4524216755
  0
ARC
  5
1A0
330
1F
100
AcDbEntity
  8
0
  6
Continuous
 62
     7
370
    15
100
AcDbCircle
 10
191.7915417894
 20
173.3175961558
 30
0.0
 40
1.000000000000044
100
AcDbArc
 50
118.4522594415
 51
238.4524216755
  0
ARC
  5
1A1
330
1F
100
AcDbEntity
  8
0
  6
Continuous
 62
     7
370
    15
100
AcDbCircle
 10
190.8386903581
 20
175.0760256114
 30
0.0
 40
1.00000000000001
100
AcDbArc
 50
298.4521783245
 51
58.4524216755
  0
ARC
  5
1A2
330
1F
100
AcDbEntity
  8
0
  6
Continuous
 62
     7
370
    15
100
AcDbCircle
 10
191.8851031892
 20
176.7804375883
 30
0.0
 40
1.000000000000023
100
AcDbArc
 50
118.4522594415
 51
238.4524216755
  0
ARC
  5
1A3
330
1F
100
AcDbEntity
  8
0
  6
Continuous
 62
     7
370
    15
100
AcDbCircle
 10
190.9322505132
 20
178.5388663693
 30
0.0
 40
0.9999999999999963
100
AcDbArc
 50
298.4522594415
 51
17.6405363837
  0
ARC
  5
1A4
330
1F
100
AcDbEntity
  8
0
  6
Continuous
 62
     7
370
    15
100
AcDbCircle
 10
192.6476082215
 20
179.0843459132
 30
0.0
 40
0.8000000000002607
100
AcDbArc
 50
178.4523405584
 51
197.6405363836
  0
LINE
  5
1A5
330
1F
100
AcDbEntity
  8
0
  6
Continuous
 62
     7
370
    15
100
AcDbLine
 10
191.9499271699
 20
182.8821183434
 30
0.0
 11
191.8478989193
 21
179.1059554806
 31
0.0
  0
ARC
  5
1A6
330
1F
100
AcDbEntity
  8
0
  6
Continuous
 62
     7
370
    15
100
AcDbCircle
 10
192.6996519722
 20
182.8618561485
 30
0.0
 40
0.7500000000000003
100
AcDbArc
 50
1.5476594415
 51
178.4523405585
  0
LINE
  5
1A7
330
1F
100
AcDbEntity
  8
0
  6
Continuous
 62
     7
370
    15
100
AcDbLine
 10
193.5252779314
 20
180.0728322258
 30
0.0
 11
193.4493714162
 21
182.8821183434
 31
0.0
  0
ARC
  5
1A8
330
1F
100
AcDbEntity
  8
0
  6
Continuous
 62
     7
370
    15
100
AcDbCircle
 10
194.3249885358
 20
180.0944408373
 30
0.0
 40
0.8000000000003261
100
AcDbArc
 50
181.5476594415
 51
241.5476594415
  0
ARC
  5
1A9
330
1F
100
AcDbEntity
  8
0
  6
Continuous
 62
     7
370
    15
100
AcDbCircle
 10
193.4674188869
 20
178.5118561485
 30
0.0
 40
0.9999999999999942
100
AcDbArc
 50
301.5476594415
 51
61.5476594415
  0
ARC
  5
1AA
330
1F
100
AcDbEntity
  8
0
  6
Continuous
 62
     7
370
    15
100
AcDbCircle
 10
194.513834131
 20
176.8074456531
 30
0.0
 40
0.9999999999999963
100
AcDbArc
 50
121.5476594415
 51
241.5477405585
  0
ARC
  5
1AB
330
1F
100
AcDbEntity
  8
0
  6
Continuous
 62
     7
370
    15
100
AcDbCircle
 10
193.560981455
 20
175.049016872
 30
0.0
 40
1.000000000000023
100
AcDbArc
 50
301.5475783245
 51
61.5477405585
  0
ARC
  5
1AC
330
1F
100
AcDbEntity
  8
0
  6
Continuous
 62
     7
370
    15
100
AcDbCircle
 10
194.6073942861
 20
173.3446048951
 30
0.0
 40
0.9999999999999961
100
AcDbArc
 50
121.5475783245
 51
241.5478216755
  0
ARC
  5
1AD
330
1F
100
AcDbEntity
  8
0
  6
Continuous
 62
     7
370
    15
100
AcDbCircle
 10
193.6545428549
 20
171.5861754396
 30
0.0
 40
0.999999999999996
100
AcDbArc
 50
301.5475783245
 51
61.5477405585
  0
ARC
  5
1AE
330
1F
100
AcDbEntity
  8
0
  6
Continuous
 62
     7
370
    15
100
AcDbCircle
 10
194.7009556859
 20
169.8817634627
 30
0.0
 40
1.000000000000054
100
AcDbArc
 50
121.5475783245
 51
241.5478216755
  0
ARC
  5
1AF
330
1F
100
AcDbEntity
  8
0
  6
Continuous
 62
     7
370
    15
100
AcDbCircle
 10
193.7481042547
 20
168.1233340072
 30
0.0
 40
1.000000000000011
100
AcDbArc
 50
301.5475783245
 51
61.5477405585
  0
ARC
  5
1B0
330
1F
100
AcDbEntity
  8
0
  6
Continuous
 62
     7
370
    15
100
AcDbCircle
 10
194.7945170858
 20
166.4189220303
 30
0.0
 40
0.9999999999999999
100
AcDbArc
 50
121.5475783245
 51
241.5478216755
  0
ARC
  5
1B1
330
1F
100
AcDbEntity
  8
0
  6
Continuous
 62
     7
370
    15
100
AcDbCircle
 10
193.8416656546
 20
164.6604925748
 30
0.0
 40
0.999999999999996
100
AcDbArc
 50
301.5475783245
 51
61.5477405585
  0
ARC
  5
1B2
330
1F
100
AcDbEntity
  8
0
  6
Continuous
 62
     7
370
    15
100
AcDbCircle
 10
194.8880784856
 20
162.9560805979
 30
0.0
 40
1.00000000000001
100
AcDbArc
 50
121.5475783245
 51
241.5478216755
  0
ARC
  5
1B3
330
1F
100
AcDbEntity
  8
0
  6
Continuous
 62
     7
370
    15
100
AcDbCircle
 10
193.9352270544
 20
161.1976511424
 30
0.0
 40
0.999999999999996
100
AcDbArc
 50
301.5475783245
 51
61.5477405585
  0
ARC
  5
1B4
330
1F
100
AcDbEntity
  8
0
  6
Continuous
 62
     7
370
    15
100
AcDbCircle
 10
194.9816398855
 20
159.4932391655
 30
0.0
 40
1.00000000000001
100
AcDbArc
 50
121.5475783245
 51
241.5478216755
  0
ARC
  5
1B5
330
1F
100
AcDbEntity
  8
0
  6
Continuous
 62
     7
370
    15
100
AcDbCircle
 10
194.0287884543
 20
157.7348097099
 30
0.0
 40
0.9999999999999893
100
AcDbArc
 50
301.5473439867
 51
61.5477405585
  0
ARC
  5
1B6
330
1F
100
AcDbEntity
  8
0
  6
Continuous
 62
     7
370
    15
100
AcDbCircle
 10
194.9705537283
 20
156.2008350789
 30
0.0
 40
0.8000000000000359
100
AcDbArc
 50
121.5473439867
 51
181.5476594415
  0
LINE
  5
1B7
330
1F
100
AcDbEntity
  8
0
  6
Continuous
 62
     7
370
    15
100
AcDbLine
 10
194.2418151685
 20
153.5524309864
 30
0.0
 11
194.1708409378
 21
156.1792225829
 31
0.0
  0
ARC
  5
1B8
330
1F
100
AcDbEntity
  8
0
  6
Continuous
 62
     7
370
    15
100
AcDbCircle
 10
196.4410145007
 20
153.6118561485
 30
0.0
 40
2.200000000000009
100
AcDbArc
 50
181.5476594415
 51
270.0
  0
LINE
  5
1B9
330
1F
100
AcDbEntity
  8
0
  6
Continuous
 62
     7
370
    15
100
AcDbLine
 10
198.9582860061
 20
151.4118493786
 30
0.0
 11
196.4410179445
 21
151.4118493786
 31
0.0
  0
ARC
  5
1BA
330
1F
100
AcDbEntity
  8
0
  6
Continuous
 62
     7
370
    15
100
AcDbCircle
 10
198.9582894436
 20
153.6118561485
 30
0.0
 40
2.199999999999989
100
AcDbArc
 50
270.0
 51
358.4523405585
  0
LINE
  5
1BB
330
1F
100
AcDbEntity
  8
0
  6
Continuous
 62
     7
370
    15
100
AcDbLine
 10
201.1816733667
 20
154.4478119603
 30
0.0
 11
201.1574887821
 21
153.5524309864
 31
0.0
  0
ARC
  5
1BC
330
1F
100
AcDbEntity
  8
0
  6
Continuous
 62
     7
370
    15
100
AcDbCircle
 10
200.3819701193
 20
154.4694139924
 30
0.0
 40
0.8000000000008558
100
AcDbArc
 50
358.4523405585
 51
58.4526785457
  0
ARC
  5
1BD
330
1F
100
AcDbEntity
  8
0
  6
Continuous
 62
     7
370
    15
100
AcDbCircle
 10
201.3237347901
 20
156.0033889937
 30
0.0
 40
1.00000000000001
100
AcDbArc
 50
118.4522594415
 51
238.4526785457
  0
ARC
  5
1BE
330
1F
100
AcDbEntity
  8
0
  6
Continuous
 62
     7
370
    15
100
AcDbCircle
 10
200.3708833589
 20
157.7618184493
 30
0.0
 40
1.000000000000005
100
AcDbArc
 50
298.4521783245
 51
58.4524216755
  0
ARC
  5
1BF
330
1F
100
AcDbEntity
  8
0
  6
Continuous
 62
     7
370
    15
100
AcDbCircle
 10
201.41729619
 20
159.4662304262
 30
0.0
 40
1.00000000000002
100
AcDbArc
 50
118.4522594415
 51
238.4524216755
  0
ARC
  5
1C0
330
1F
100
AcDbEntity
  8
0
  6
Continuous
 62
     7
370
    15
100
AcDbCircle
 10
200.4644447588
 20
161.2246598817
 30
0.0
 40
0.9999999999999811
100
AcDbArc
 50
298.4521783245
 51
58.4524216755
  0
ARC
  5
1C1
330
1F
100
AcDbEntity
  8
0
  6
Continuous
 62
     7
370
    15
100
AcDbCircle
 10
201.5108575898
 20
162.9290718586
 30
0.0
 40
1.00000000000002
100
AcDbArc
 50
118.4522594415
 51
238.4524216755
  0
ARC
  5
1C2
330
1F
100
AcDbEntity
  8
0
  6
Continuous
 62
     7
370
    15
100
AcDbCircle
 10
200.5580061586
 20
164.6875013141
 30
0.0
 40
0.9999999999999905
100
AcDbArc
 50
298.4521783245
 51
58.4524216755
  0
ARC
  5
1C3
330
1F
100
AcDbEntity
  8
0
  6
Continuous
 62
     7
370
    15
100
AcDbCircle
 10
201.6044189897
 20
166.391913291
 30
0.0
 40
1.00000000000002
100
AcDbArc
 50
118.4522594415
 51
238.4524216755
  0
ARC
  5
1C4
330
1F
100
AcDbEntity
  8
0
  6
Continuous
 62
     7
370
    15
100
AcDbCircle
 10
200.6515675584
 20
168.1503427465
 30
0.0
 40
0.9999999999999662
100
AcDbArc
 50
298.4521783245
 51
58.4524216755
  0
ARC
  5
1C5
330
1F
100
AcDbEntity
  8
0
  6
Continuous
 62
     7
370
    15
100
AcDbCircle
 10
201.6979803895
 20
169.8547547234
 30
0.0
 40
1.00000000000001
100
AcDbArc
 50
118.4522594415
 51
238.4524216755
  0
ARC
  5
1C6
330
1F
100
AcDbEntity
  8
0
  6
Continuous
 62
     7
370
    15
100
AcDbCircle
 10
200.7451289583
 20
171.6131841789
 30
0.0
 40
1.000000000000005
100
AcDbArc
 50
298.4521783245
 51
58.4524216755
  0
ARC
  5
1C7
330
1F
100
AcDbEntity
  8
0
  6
Continuous
 62
     7
370
    15
100
AcDbCircle
 10
201.7915417894
 20
173.3175961558
 30
0.0
 40
1.000000000000044
100
AcDbArc
 50
118.4522594415
 51
238.4524216755
  0
ARC
  5
1C8
330
1F
100
AcDbEntity
  8
0
  6
Continuous
 62
     7
370
    15
100
AcDbCircle
 10
200.8386903581
 20
175.0760256114
 30
0.0
 40
1.00000000000001
100
AcDbArc
 50
298.4521783245
 51
58.4524216755
  0
ARC
  5
1C9
330
1F
100
AcDbEntity
  8
0
  6
Continuous
 62
     7
370
    15
100
AcDbCircle
 10
201.8851031892
 20
176.7804375883
 30
0.0
 40
1.000000000000023
100
AcDbArc
 50
118.4522594415
 51
238.4524216755
  0
ARC
  5
1CA
330
1F
100
AcDbEntity
  8
0
  6
Continuous
 62
     7
370
    15
100
AcDbCircle
 10
200.9322505132
 20
178.5388663693
 30
0.0
 40
1.000000000000038
100
AcDbArc
 50
298.4522594415
 51
17.6405363837
  0
ARC
  5
1CB
330
1F
100
AcDbEntity
  8
0
  6
Continuous
 62
     7
370
    15
100
AcDbCircle
 10
202.6476082215
 20
179.0843459132
 30
0.0
 40
0.8000000000002891
100
AcDbArc
 50
178.4523405584
 51
197.6405363836
  0
LINE
  5
1CC
330
1F
100
AcDbEntity
  8
0
  6
Continuous
 62
     7
370
    15
100
AcDbLine
 10
201.9499325344
 20
182.8821183434
 30
0.0
 11
201.8479042837
 21
179.1059554806
 31
0.0
  0
ARC
  5
1CD
330
1F
100
AcDbEntity
  8
0
  6
Continuous
 62
     7
370
    15
100
AcDbCircle
 10
202.6996519722
 20
182.8618561485
 30
0.0
 40
0.7500000000000003
100
AcDbArc
 50
1.5476594415
 51
178.4523405585
  0
LINE
  5
1CE
330
1F
100
AcDbEntity
  8
0
  6
Continuous
 62
     7
370
    15
100
AcDbLine
 10
203.5252832958
 20
180.0728322258
 30
0.0
 11
203.4493767807
 21
182.8821183434
 31
0.0
  0
ARC
  5
1CF
330
1F
100
AcDbEntity
  8
0
  6
Continuous
 62
     7
370
    15
100
AcDbCircle
 10
204.3249885358
 20
180.0944408373
 30
0.0
 40
0.8000000000003261
100
AcDbArc
 50
181.5476594415
 51
241.5476594415
  0
ARC
  5
1D0
330
1F
100
AcDbEntity
  8
0
  6
Continuous
 62
     7
370
    15
100
AcDbCircle
 10
203.4674188869
 20
178.5118561485
 30
0.0
 40
0.9999999999999942
100
AcDbArc
 50
301.5476594415
 51
61.5476594415
  0
ARC
  5
1D1
330
1F
100
AcDbEntity
  8
0
  6
Continuous
 62
     7
370
    15
100
AcDbCircle
 10
204.513834131
 20
176.8074456531
 30
0.0
 40
0.9999999999999963
100
AcDbArc
 50
121.5476594415
 51
241.5477405585
  0
ARC
  5
1D2
330
1F
100
AcDbEntity
  8
0
  6
Continuous
 62
     7
370
    15
100
AcDbCircle
 10
203.560981455
 20
175.049016872
 30
0.0
 40
1.000000000000023
100
AcDbArc
 50
301.5475783245
 51
61.5477405585
  0
ARC
  5
1D3
330
1F
100
AcDbEntity
  8
0
  6
Continuous
 62
     7
370
    15
100
AcDbCircle
 10
204.6073942861
 20
173.3446048951
 30
0.0
 40
1.00000000000001
100
AcDbArc
 50
121.5475783245
 51
241.5478216755
  0
ARC
  5
1D4
330
1F
100
AcDbEntity
  8
0
  6
Continuous
 62
     7
370
    15
100
AcDbCircle
 10
203.6545428549
 20
171.5861754396
 30
0.0
 40
0.999999999999996
100
AcDbArc
 50
301.5475783245
 51
61.5477405585
  0
ARC
  5
1D5
330
1F
100
AcDbEntity
  8
0
  6
Continuous
 62
     7
370
    15
100
AcDbCircle
 10
204.7009556859
 20
169.8817634627
 30
0.0
 40
1.000000000000054
100
AcDbArc
 50
121.5475783245
 51
241.5478216755
  0
ARC
  5
1D6
330
1F
100
AcDbEntity
  8
0
  6
Continuous
 62
     7
370
    15
100
AcDbCircle
 10
203.7481042547
 20
168.1233340072
 30
0.0
 40
1.000000000000011
100
AcDbArc
 50
301.5475783245
 51
61.5477405585
  0
ARC
  5
1D7
330
1F
100
AcDbEntity
  8
0
  6
Continuous
 62
     7
370
    15
100
AcDbCircle
 10
204.7945170858
 20
166.4189220303
 30
0.0
 40
1.000000000000015
100
AcDbArc
 50
121.5475783245
 51
241.5478216755
  0
ARC
  5
1D8
330
1F
100
AcDbEntity
  8
0
  6
Continuous
 62
     7
370
    15
100
AcDbCircle
 10
203.8416656546
 20
164.6604925748
 30
0.0
 40
0.9999999999999849
100
AcDbArc
 50
301.5475783245
 51
61.5477405585
  0
ARC
  5
1D9
330
1F
100
AcDbEntity
  8
0
  6
Continuous
 62
     7
370
    15
100
AcDbCircle
 10
204.8880784856
 20
162.9560805979
 30
0.0
 40
1.00000000000001
100
AcDbArc
 50
121.5475783245
 51
241.5478216755
  0
ARC
  5
1DA
330
1F
100
AcDbEntity
  8
0
  6
Continuous
 62
     7
370
    15
100
AcDbCircle
 10
203.9352270544
 20
161.1976511424
 30
0.0
 40
0.999999999999996
100
AcDbArc
 50
301.5475783245
 51
61.5477405585
  0
ARC
  5
1DB
330
1F
100
AcDbEntity
  8
0
  6
Continuous
 62
     7
370
    15
100
AcDbCircle
 10
204.9816398855
 20
159.4932391655
 30
0.0
 40
1.00000000000001
100
AcDbArc
 50
121.5475783245
 51
241.5478216755
  0
ARC
  5
1DC
330
1F
100
AcDbEntity
  8
0
  6
Continuous
 62
     7
370
    15
100
AcDbCircle
 10
204.0287884543
 20
157.7348097099
 30
0.0
 40
0.9999999999999745
100
AcDbArc
 50
301.5473439867
 51
61.5477405585
  0
ARC
  5
1DD
330
1F
100
AcDbEntity
  8
0
  6
Continuous
 62
     7
370
    15
100
AcDbCircle
 10
204.9705537283
 20
156.2008350789
 30
0.0
 40
0.8000000000000359
100
AcDbArc
 50
121.5473439867
 51
181.5476594415
  0
LINE
  5
1DE
330
1F
100
AcDbEntity
  8
0
  6
Continuous
 62
     7
370
    15
100
AcDbLine
 10
204.2418205329
 20
153.5524309864
 30
0.0
 11
204.1708463022
 21
156.1792225829
 31
0.0
  0
ARC
  5
1DF
330
1F
100
AcDbEntity
  8
0
  6
Continuous
 62
     7
370
    15
100
AcDbCircle
 10
206.4410145007
 20
153.6118561485
 30
0.0
 40
2.200000000000017
100
AcDbArc
 50
181.5476594415
 51
270.0
  0
LINE
  5
1E0
330
1F
100
AcDbEntity
  8
0
  6
Continuous
 62
     7
370
    15
100
AcDbLine
 10
208.9582913705
 20
151.4118493786
 30
0.0
 11
206.4410084077
 21
151.4118493786
 31
0.0
  0
ARC
  5
1E1
330
1F
100
AcDbEntity
  8
0
  6
Continuous
 62
     7
370
    15
100
AcDbCircle
 10
208.9582894436
 20
153.6118561485
 30
0.0
 40
2.200000000000009
100
AcDbArc
 50
270.0
 51
358.4523405585
  0
LINE
  5
1E2
330
1F
100
AcDbEntity
  8
0
  6
Continuous
 62
     7
370
    15
100
AcDbLine
 10
211.1816787311
 20
154.4478119603
 30
0.0
 11
211.1574941465
 21
153.5524309864
 31
0.0
  0
ARC
  5
1E3
330
1F
100
AcDbEntity
  8
0
  6
Continuous
 62
     7
370
    15
100
AcDbCircle
 10
210.3819701193
 20
154.4694139924
 30
0.0
 40
0.8000000000008558
100
AcDbArc
 50
358.4523405585
 51
58.4526785457
  0
ARC
  5
1E4
330
1F
100
AcDbEntity
  8
0
  6
Continuous
 62
     7
370
    15
100
AcDbCircle
 10
211.3237347901
 20
156.0033889937
 30
0.0
 40
1.00000000000001
100
AcDbArc
 50
118.4522594415
 51
238.4526785457
  0
ARC
  5
1E5
330
1F
100
AcDbEntity
  8
0
  6
Continuous
 62
     7
370
    15
100
AcDbCircle
 10
210.3708833589
 20
157.7618184493
 30
0.0
 40
1.000000000000005
100
AcDbArc
 50
298.4521783245
 51
58.4524216755
  0
ARC
  5
1E6
330
1F
100
AcDbEntity
  8
0
  6
Continuous
 62
     7
370
    15
100
AcDbCircle
 10
211.41729619
 20
159.4662304262
 30
0.0
 40
1.00000000000002
100
AcDbArc
 50
118.4522594415
 51
238.4524216755
  0
ARC
  5
1E7
330
1F
100
AcDbEntity
  8
0
  6
Continuous
 62
     7
370
    15
100
AcDbCircle
 10
210.4644447588
 20
161.2246598817
 30
0.0
 40
0.9999999999999811
100
AcDbArc
 50
298.4521783245
 51
58.4524216755
  0
ARC
  5
1E8
330
1F
100
AcDbEntity
  8
0
  6
Continuous
 62
     7
370
    15
100
AcDbCircle
 10
211.5108575898
 20
162.9290718586
 30
0.0
 40
1.00000000000002
100
AcDbArc
 50
118.4522594415
 51
238.4524216755
  0
ARC
  5
1E9
330
1F
100
AcDbEntity
  8
0
  6
Continuous
 62
     7
370
    15
100
AcDbCircle
 10
210.5580061586
 20
164.6875013141
 30
0.0
 40
1.000000000000015
100
AcDbArc
 50
298.4521783245
 51
58.4524216755
  0
ARC
  5
1EA
330
1F
100
AcDbEntity
  8
0
  6
Continuous
 62
     7
370
    15
100
AcDbCircle
 10
211.6044189897
 20
166.391913291
 30
0.0
 40
1.00000000000001
100
AcDbArc
 50
118.4522594415
 51
238.4524216755
  0
ARC
  5
1EB
330
1F
100
AcDbEntity
  8
0
  6
Continuous
 62
     7
370
    15
100
AcDbCircle
 10
210.6515675584
 20
168.1503427465
 30
0.0
 40
0.9999999999999662
100
AcDbArc
 50
298.4521783245
 51
58.4524216755
  0
ARC
  5
1EC
330
1F
100
AcDbEntity
  8
0
  6
Continuous
 62
     7
370
    15
100
AcDbCircle
 10
211.6979803895
 20
169.8547547234
 30
0.0
 40
1.00000000000001
100
AcDbArc
 50
118.4522594415
 51
238.4524216755
  0
ARC
  5
1ED
330
1F
100
AcDbEntity
  8
0
  6
Continuous
 62
     7
370
    15
100
AcDbCircle
 10
210.7451289583
 20
171.6131841789
 30
0.0
 40
1.000000000000005
100
AcDbArc
 50
298.4521783245
 51
58.4524216755
  0
ARC
  5
1EE
330
1F
100
AcDbEntity
  8
0
  6
Continuous
 62
     7
370
    15
100
AcDbCircle
 10
211.7915417894
 20
173.3175961558
 30
0.0
 40
1.000000000000044
100
AcDbArc
 50
118.4522594415
 51
238.4524216755
  0
ARC
  5
1EF
330
1F
100
AcDbEntity
  8
0
  6
Continuous
 62
     7
370
    15
100
AcDbCircle
 10
210.8386903581
 20
175.0760256114
 30
0.0
 40
1.00000000000001
100
AcDbArc
 50
298.4521783245
 51
58.4524216755
  0
ARC
  5
1F0
330
1F
100
AcDbEntity
  8
0
  6
Continuous
 62
     7
370
    15
100
AcDbCircle
 10
211.8851031892
 20
176.7804375883
 30
0.0
 40
1.000000000000023
100
AcDbArc
 50
118.4522594415
 51
238.4524216755
  0
ARC
  5
1F1
330
1F
100
AcDbEntity
  8
0
  6
Continuous
 62
     7
370
    15
100
AcDbCircle
 10
210.9322505132
 20
178.5388663693
 30
0.0
 40
1.000000000000011
100
AcDbArc
 50
298.4522594415
 51
17.6405363837
  0
ARC
  5
1F2
330
1F
100
AcDbEntity
  8
0
  6
Continuous
 62
     7
370
    15
100
AcDbCircle
 10
212.6476082215
 20
179.0843459132
 30
0.0
 40
0.8000000000002891
100
AcDbArc
 50
178.4523405584
 51
197.6405363836
  0
LINE
  5
1F3
330
1F
100
AcDbEntity
  8
0
  6
Continuous
 62
     7
370
    15
100
AcDbLine
 10
211.9499229976
 20
182.8821183434
 30
0.0
 11
211.8478947469
 21
179.1059554806
 31
0.0
  0
ARC
  5
1F4
330
1F
100
AcDbEntity
  8
0
  6
Continuous
 62
     7
370
    15
100
AcDbCircle
 10
212.6996519722
 20
182.8618561485
 30
0.0
 40
0.7500000000000003
100
AcDbArc
 50
1.5476594415
 51
178.4523405585
  0
LINE
  5
1F5
330
1F
100
AcDbEntity
  8
0
  6
Continuous
 62
     7
370
    15
100
AcDbLine
 10
213.525273759
 20
180.0728322258
 30
0.0
 11
213.4493821451
 21
182.8821183434
 31
0.0
  0
ARC
  5
1F6
330
1F
100
AcDbEntity
  8
0
  6
Continuous
 62
     7
370
    15
100
AcDbCircle
 10
214.3249885358
 20
180.0944408373
 30
0.0
 40
0.8000000000003261
100
AcDbArc
 50
181.5476594415
 51
241.5476594415
  0
ARC
  5
1F7
330
1F
100
AcDbEntity
  8
0
  6
Continuous
 62
     7
370
    15
100
AcDbCircle
 10
213.4674188869
 20
178.5118561485
 30
0.0
 40
0.9999999999999942
100
AcDbArc
 50
301.5476594415
 51
61.5476594415
  0
ARC
  5
1F8
330
1F
100
AcDbEntity
  8
0
  6
Continuous
 62
     7
370
    15
100
AcDbCircle
 10
214.513834131
 20
176.8074456531
 30
0.0
 40
0.9999999999999963
100
AcDbArc
 50
121.5476594415
 51
241.5477405585
  0
ARC
  5
1F9
330
1F
100
AcDbEntity
  8
0
  6
Continuous
 62
     7
370
    15
100
AcDbCircle
 10
213.560981455
 20
175.049016872
 30
0.0
 40
1.000000000000023
100
AcDbArc
 50
301.5475783245
 51
61.5477405585
  0
ARC
  5
1FA
330
1F
100
AcDbEntity
  8
0
  6
Continuous
 62
     7
370
    15
100
AcDbCircle
 10
214.6073942861
 20
173.3446048951
 30
0.0
 40
1.00000000000001
100
AcDbArc
 50
121.5475783245
 51
241.5478216755
  0
ARC
  5
1FB
330
1F
100
AcDbEntity
  8
0
  6
Continuous
 62
     7
370
    15
100
AcDbCircle
 10
213.6545428549
 20
171.5861754396
 30
0.0
 40
0.999999999999996
100
AcDbArc
 50
301.5475783245
 51
61.5477405585
  0
ARC
  5
1FC
330
1F
100
AcDbEntity
  8
0
  6
Continuous
 62
     7
370
    15
100
AcDbCircle
 10
214.7009556859
 20
169.8817634627
 30
0.0
 40
1.000000000000054
100
AcDbArc
 50
121.5475783245
 51
241.5478216755
  0
ARC
  5
1FD
330
1F
100
AcDbEntity
  8
0
  6
Continuous
 62
     7
370
    15
100
AcDbCircle
 10
213.7481042547
 20
168.1233340072
 30
0.0
 40
1.000000000000011
100
AcDbArc
 50
301.5475783245
 51
61.5477405585
  0
ARC
  5
1FE
330
1F
100
AcDbEntity
  8
0
  6
Continuous
 62
     7
370
    15
100
AcDbCircle
 10
214.7945170858
 20
166.4189220303
 30
0.0
 40
1.000000000000015
100
AcDbArc
 50
121.5475783245
 51
241.5478216755
  0
ARC
  5
1FF
330
1F
100
AcDbEntity
  8
0
  6
Continuous
 62
     7
370
    15
100
AcDbCircle
 10
213.8416656546
 20
164.6604925748
 30
0.0
 40
0.999999999999996
100
AcDbArc
 50
301.5475783245
 51
61.5477405585
  0
ARC
  5
200
330
1F
100
AcDbEntity
  8
0
  6
Continuous
 62
     7
370
    15
100
AcDbCircle
 10
214.8880784856
 20
162.9560805979
 30
0.0
 40
1.00000000000001
100
AcDbArc
 50
121.5475783245
 51
241.5478216755
  0
ARC
  5
201
330
1F
100
AcDbEntity
  8
0
  6
Continuous
 62
     7
370
    15
100
AcDbCircle
 10
213.9352270544
 20
161.1976511424
 30
0.0
 40
0.999999999999996
100
AcDbArc
 50
301.5475783245
 51
61.5477405585
  0
ARC
  5
202
330
1F
100
AcDbEntity
  8
0
  6
Continuous
 62
     7
370
    15
100
AcDbCircle
 10
214.9816398855
 20
159.4932391655
 30
0.0
 40
1.00000000000001
100
AcDbArc
 50
121.5475783245
 51
241.5478216755
  0
ARC
  5
203
330
1F
100
AcDbEntity
  8
0
  6
Continuous
 62
     7
370
    15
100
AcDbCircle
 10
214.0287884543
 20
157.7348097099
 30
0.0
 40
0.9999999999999599
100
AcDbArc
 50
301.5473439867
 51
61.5477405585
  0
ARC
  5
204
330
1F
100
AcDbEntity
  8
0
  6
Continuous
 62
     7
370
    15
100
AcDbCircle
 10
214.9705537283
 20
156.2008350789
 30
0.0
 40
0.8000000000000508
100
AcDbArc
 50
121.5473439867
 51
181.5476594415
  0
LINE
  5
205
330
1F
100
AcDbEntity
  8
0
  6
Continuous
 62
     7
370
    15
100
AcDbLine
 10
214.2418109962
 20
153.5524309864
 30
0.0
 11
214.1708516666
 21
156.1792225829
 31
0.0
  0
ARC
  5
206
330
1F
100
AcDbEntity
  8
0
  6
Continuous
 62
     7
370
    15
100
AcDbCircle
 10
216.4410145007
 20
153.6118561485
 30
0.0
 40
2.200000000000009
100
AcDbArc
 50
181.5476594415
 51
270.0
  0
LINE
  5
207
330
1F
100
AcDbEntity
  8
0
  6
Continuous
 62
     7
370
    15
100
AcDbLine
 10
218.958296735
 20
151.4118493786
 30
0.0
 11
216.4410137722
 21
151.4118493786
 31
0.0
  0
ARC
  5
208
330
1F
100
AcDbEntity
  8
0
  6
Continuous
 62
     7
370
    15
100
AcDbCircle
 10
218.9582894436
 20
153.6118561485
 30
0.0
 40
2.200000000000009
100
AcDbArc
 50
270.0
 51
358.4523405585
  0
LINE
  5
209
330
1F
100
AcDbEntity
  8
0
  6
Continuous
 62
     7
370
    15
100
AcDbLine
 10
221.1816840955
 20
154.4478119603
 30
0.0
 11
221.1574846098
 21
153.5524309864
 31
0.0
  0
ARC
  5
20A
330
1F
100
AcDbEntity
  8
0
  6
Continuous
 62
     7
370
    15
100
AcDbCircle
 10
220.3819701193
 20
154.4694139924
 30
0.0
 40
0.8000000000008558
100
AcDbArc
 50
358.4523405585
 51
58.4526785457
  0
ARC
  5
20B
330
1F
100
AcDbEntity
  8
0
  6
Continuous
 62
     7
370
    15
100
AcDbCircle
 10
221.3237347901
 20
156.0033889937
 30
0.0
 40
1.00000000000001
100
AcDbArc
 50
118.4522594415
 51
238.4526785457
  0
ARC
  5
20C
330
1F
100
AcDbEntity
  8
0
  6
Continuous
 62
     7
370
    15
100
AcDbCircle
 10
220.3708833589
 20
157.7618184493
 30
0.0
 40
1.000000000000005
100
AcDbArc
 50
298.4521783245
 51
58.4524216755
  0
ARC
  5
20D
330
1F
100
AcDbEntity
  8
0
  6
Continuous
 62
     7
370
    15
100
AcDbCircle
 10
221.41729619
 20
159.4662304262
 30
0.0
 40
1.00000000000002
100
AcDbArc
 50
118.4522594415
 51
238.4524216755
  0
ARC
  5
20E
330
1F
100
AcDbEntity
  8
0
  6
Continuous
 62
     7
370
    15
100
AcDbCircle
 10
220.4644447588
 20
161.2246598817
 30
0.0
 40
0.9999999999999662
100
AcDbArc
 50
298.4521783245
 51
58.4524216755
  0
ARC
  5
20F
330
1F
100
AcDbEntity
  8
0
  6
Continuous
 62
     7
370
    15
100
AcDbCircle
 10
221.5108575898
 20
162.9290718586
 30
0.0
 40
1.000000000000035
100
AcDbArc
 50
118.4522594415
 51
238.4524216755
  0
ARC
  5
210
330
1F
100
AcDbEntity
  8
0
  6
Continuous
 62
     7
370
    15
100
AcDbCircle
 10
220.5580061586
 20
164.6875013141
 30
0.0
 40
0.9999999999999905
100
AcDbArc
 50
298.4521783245
 51
58.4524216755
  0
ARC
  5
211
330
1F
100
AcDbEntity
  8
0
  6
Continuous
 62
     7
370
    15
100
AcDbCircle
 10
221.6044189897
 20
166.391913291
 30
0.0
 40
1.00000000000002
100
AcDbArc
 50
118.4522594415
 51
238.4524216755
  0
ARC
  5
212
330
1F
100
AcDbEntity
  8
0
  6
Continuous
 62
     7
370
    15
100
AcDbCircle
 10
220.6515675584
 20
168.1503427465
 30
0.0
 40
0.9999999999999662
100
AcDbArc
 50
298.4521783245
 51
58.4524216755
  0
ARC
  5
213
330
1F
100
AcDbEntity
  8
0
  6
Continuous
 62
     7
370
    15
100
AcDbCircle
 10
221.6979803895
 20
169.8547547234
 30
0.0
 40
1.00000000000001
100
AcDbArc
 50
118.4522594415
 51
238.4524216755
  0
ARC
  5
214
330
1F
100
AcDbEntity
  8
0
  6
Continuous
 62
     7
370
    15
100
AcDbCircle
 10
220.7451289583
 20
171.6131841789
 30
0.0
 40
1.000000000000005
100
AcDbArc
 50
298.4521783245
 51
58.4524216755
  0
ARC
  5
215
330
1F
100
AcDbEntity
  8
0
  6
Continuous
 62
     7
370
    15
100
AcDbCircle
 10
221.7915417894
 20
173.3175961558
 30
0.0
 40
1.000000000000044
100
AcDbArc
 50
118.4522594415
 51
238.4524216755
  0
ARC
  5
216
330
1F
100
AcDbEntity
  8
0
  6
Continuous
 62
     7
370
    15
100
AcDbCircle
 10
220.8386903581
 20
175.0760256114
 30
0.0
 40
1.00000000000001
100
AcDbArc
 50
298.4521783245
 51
58.4524216755
  0
ARC
  5
217
330
1F
100
AcDbEntity
  8
0
  6
Continuous
 62
     7
370
    15
100
AcDbCircle
 10
221.8851031892
 20
176.7804375883
 30
0.0
 40
1.000000000000023
100
AcDbArc
 50
118.4522594415
 51
238.4524216755
  0
ARC
  5
218
330
1F
100
AcDbEntity
  8
0
  6
Continuous
 62
     7
370
    15
100
AcDbCircle
 10
220.9322505132
 20
178.5388663693
 30
0.0
 40
0.9999999999999963
100
AcDbArc
 50
298.4522594415
 51
17.6405363837
  0
ARC
  5
219
330
1F
100
AcDbEntity
  8
0
  6
Continuous
 62
     7
370
    15
100
AcDbCircle
 10
222.6476082215
 20
179.0843459132
 30
0.0
 40
0.8000000000002891
100
AcDbArc
 50
178.4523405584
 51
197.6405363836
  0
LINE
  5
21A
330
1F
100
AcDbEntity
  8
0
  6
Continuous
 62
     7
370
    15
100
AcDbLine
 10
221.949928362
 20
182.8821183434
 30
0.0
 11
221.8479001113
 21
179.1059554806
 31
0.0
  0
ARC
  5
21B
330
1F
100
AcDbEntity
  8
0
  6
Continuous
 62
     7
370
    15
100
AcDbCircle
 10
222.6996519722
 20
182.8618561485
 30
0.0
 40
0.7500000000000003
100
AcDbArc
 50
1.5476594415
 51
178.4523405585
  0
LINE
  5
21C
330
1F
100
AcDbEntity
  8
0
  6
Continuous
 62
     7
370
    15
100
AcDbLine
 10
223.5252791235
 20
180.0728322258
 30
0.0
 11
223.4493726083
 21
182.8821183434
 31
0.0
  0
ARC
  5
21D
330
1F
100
AcDbEntity
  8
0
  6
Continuous
 62
     7
370
    15
100
AcDbCircle
 10
224.3249885358
 20
180.0944408373
 30
0.0
 40
0.8000000000003261
100
AcDbArc
 50
181.5476594415
 51
241.5476594415
  0
ARC
  5
21E
330
1F
100
AcDbEntity
  8
0
  6
Continuous
 62
     7
370
    15
100
AcDbCircle
 10
223.4674188869
 20
178.5118561485
 30
0.0
 40
0.9999999999999942
100
AcDbArc
 50
301.5476594415
 51
61.5476594415
  0
ARC
  5
21F
330
1F
100
AcDbEntity
  8
0
  6
Continuous
 62
     7
370
    15
100
AcDbCircle
 10
224.513834131
 20
176.8074456531
 30
0.0
 40
0.9999999999999963
100
AcDbArc
 50
121.5476594415
 51
241.5477405585
  0
ARC
  5
220
330
1F
100
AcDbEntity
  8
0
  6
Continuous
 62
     7
370
    15
100
AcDbCircle
 10
223.560981455
 20
175.049016872
 30
0.0
 40
1.000000000000023
100
AcDbArc
 50
301.5475783245
 51
61.5477405585
  0
ARC
  5
221
330
1F
100
AcDbEntity
  8
0
  6
Continuous
 62
     7
370
    15
100
AcDbCircle
 10
224.6073942861
 20
173.3446048951
 30
0.0
 40
1.00000000000001
100
AcDbArc
 50
121.5475783245
 51
241.5478216755
  0
ARC
  5
222
330
1F
100
AcDbEntity
  8
0
  6
Continuous
 62
     7
370
    15
100
AcDbCircle
 10
223.6545428549
 20
171.5861754396
 30
0.0
 40
0.999999999999996
100
AcDbArc
 50
301.5475783245
 51
61.5477405585
  0
ARC
  5
223
330
1F
100
AcDbEntity
  8
0
  6
Continuous
 62
     7
370
    15
100
AcDbCircle
 10
224.7009556859
 20
169.8817634627
 30
0.0
 40
1.000000000000054
100
AcDbArc
 50
121.5475783245
 51
241.5478216755
  0
ARC
  5
224
330
1F
100
AcDbEntity
  8
0
  6
Continuous
 62
     7
370
    15
100
AcDbCircle
 10
223.7481042547
 20
168.1233340072
 30
0.0
 40
1.000000000000035
100
AcDbArc
 50
301.5475783245
 51
61.5477405585
  0
ARC
  5
225
330
1F
100
AcDbEntity
  8
0
  6
Continuous
 62
     7
370
    15
100
AcDbCircle
 10
224.7945170858
 20
166.4189220303
 30
0.0
 40
0.9999999999999905
100
AcDbArc
 50
121.5475783245
 51
241.5478216755
  0
ARC
  5
226
330
1F
100
AcDbEntity
  8
0
  6
Continuous
 62
     7
370
    15
100
AcDbCircle
 10
223.8416656546
 20
164.6604925748
 30
0.0
 40
0.999999999999996
100
AcDbArc
 50
301.5475783245
 51
61.5477405585
  0
ARC
  5
227
330
1F
100
AcDbEntity
  8
0
  6
Continuous
 62
     7
370
    15
100
AcDbCircle
 10
224.8880784856
 20
162.9560805979
 30
0.0
 40
1.00000000000001
100
AcDbArc
 50
121.5475783245
 51
241.5478216755
  0
ARC
  5
228
330
1F
100
AcDbEntity
  8
0
  6
Continuous
 62
     7
370
    15
100
AcDbCircle
 10
223.9352270544
 20
161.1976511424
 30
0.0
 40
0.999999999999996
100
AcDbArc
 50
301.5475783245
 51
61.5477405585
  0
ARC
  5
229
330
1F
100
AcDbEntity
  8
0
  6
Continuous
 62
     7
370
    15
100
AcDbCircle
 10
224.9816398855
 20
159.4932391655
 30
0.0
 40
1.00000000000001
100
AcDbArc
 50
121.5475783245
 51
241.5478216755
  0
ARC
  5
22A
330
1F
100
AcDbEntity
  8
0
  6
Continuous
 62
     7
370
    15
100
AcDbCircle
 10
224.0287884543
 20
157.7348097099
 30
0.0
 40
0.9999999999999745
100
AcDbArc
 50
301.5473439867
 51
61.5477405585
  0
ARC
  5
22B
330
1F
100
AcDbEntity
  8
0
  6
Continuous
 62
     7
370
    15
100
AcDbCircle
 10
224.9705537283
 20
156.2008350789
 30
0.0
 40
0.8000000000000359
100
AcDbArc
 50
121.5473439867
 51
181.5476594415
  0
LINE
  5
22C
330
1F
100
AcDbEntity
  8
0
  6
Continuous
 62
     7
370
    15
100
AcDbLine
 10
224.2418163606
 20
153.5524309864
 30
0.0
 11
224.1708421299
 21
156.1792225829
 31
0.0
  0
ARC
  5
22D
330
1F
100
AcDbEntity
  8
0
  6
Continuous
 62
     7
370
    15
100
AcDbCircle
 10
226.4410145007
 20
153.6118561485
 30
0.0
 40
2.200000000000009
100
AcDbArc
 50
181.5476594415
 51
270.0
  0
LINE
  5
22E
330
1F
100
AcDbEntity
  8
0
  6
Continuous
 62
     7
370
    15
100
AcDbLine
 10
228.9582871982
 20
151.4118493786
 30
0.0
 11
226.4410191366
 21
151.4118493786
 31
0.0
  0
ARC
  5
22F
330
1F
100
AcDbEntity
  8
0
  6
Continuous
 62
     7
370
    15
100
AcDbCircle
 10
228.9582894436
 20
153.6118561485
 30
0.0
 40
2.199999999999989
100
AcDbArc
 50
270.0
 51
358.4523405585
  0
LINE
  5
230
330
1F
100
AcDbEntity
  8
0
  6
Continuous
 62
     7
370
    15
100
AcDbLine
 10
231.1816745588
 20
154.4478119603
 30
0.0
 11
231.1574899742
 21
153.5524309864
 31
0.0
  0
ARC
  5
231
330
1F
100
AcDbEntity
  8
0
  6
Continuous
 62
     7
370
    15
100
AcDbCircle
 10
230.3819701193
 20
154.4694139924
 30
0.0
 40
0.8000000000008558
100
AcDbArc
 50
358.4523405585
 51
58.4526785457
  0
ARC
  5
232
330
1F
100
AcDbEntity
  8
0
  6
Continuous
 62
     7
370
    15
100
AcDbCircle
 10
231.3237347901
 20
156.0033889937
 30
0.0
 40
1.00000000000001
100
AcDbArc
 50
118.4522594415
 51
238.4526785457
  0
ARC
  5
233
330
1F
100
AcDbEntity
  8
0
  6
Continuous
 62
     7
370
    15
100
AcDbCircle
 10
230.3708833589
 20
157.7618184493
 30
0.0
 40
1.00000000000002
100
AcDbArc
 50
298.4521783245
 51
58.4524216755
  0
ARC
  5
234
330
1F
100
AcDbEntity
  8
0
  6
Continuous
 62
     7
370
    15
100
AcDbCircle
 10
231.41729619
 20
159.4662304262
 30
0.0
 40
1.00000000000002
100
AcDbArc
 50
118.4522594415
 51
238.4524216755
  0
ARC
  5
235
330
1F
100
AcDbEntity
  8
0
  6
Continuous
 62
     7
370
    15
100
AcDbCircle
 10
230.4644447588
 20
161.2246598817
 30
0.0
 40
0.9999999999999811
100
AcDbArc
 50
298.4521783245
 51
58.4524216755
  0
ARC
  5
236
330
1F
100
AcDbEntity
  8
0
  6
Continuous
 62
     7
370
    15
100
AcDbCircle
 10
231.5108575898
 20
162.9290718586
 30
0.0
 40
1.00000000000002
100
AcDbArc
 50
118.4522594415
 51
238.4524216755
  0
ARC
  5
237
330
1F
100
AcDbEntity
  8
0
  6
Continuous
 62
     7
370
    15
100
AcDbCircle
 10
230.5580061586
 20
164.6875013141
 30
0.0
 40
0.9999999999999905
100
AcDbArc
 50
298.4521783245
 51
58.4524216755
  0
ARC
  5
238
330
1F
100
AcDbEntity
  8
0
  6
Continuous
 62
     7
370
    15
100
AcDbCircle
 10
231.6044189897
 20
166.391913291
 30
0.0
 40
1.00000000000002
100
AcDbArc
 50
118.4522594415
 51
238.4524216755
  0
ARC
  5
239
330
1F
100
AcDbEntity
  8
0
  6
Continuous
 62
     7
370
    15
100
AcDbCircle
 10
230.6515675584
 20
168.1503427465
 30
0.0
 40
0.9999999999999662
100
AcDbArc
 50
298.4521783245
 51
58.4524216755
  0
ARC
  5
23A
330
1F
100
AcDbEntity
  8
0
  6
Continuous
 62
     7
370
    15
100
AcDbCircle
 10
231.6979803895
 20
169.8547547234
 30
0.0
 40
1.00000000000001
100
AcDbArc
 50
118.4522594415
 51
238.4524216755
  0
ARC
  5
23B
330
1F
100
AcDbEntity
  8
0
  6
Continuous
 62
     7
370
    15
100
AcDbCircle
 10
230.7451289583
 20
171.6131841789
 30
0.0
 40
1.000000000000005
100
AcDbArc
 50
298.4521783245
 51
58.4524216755
  0
ARC
  5
23C
330
1F
100
AcDbEntity
  8
0
  6
Continuous
 62
     7
370
    15
100
AcDbCircle
 10
231.7915417894
 20
173.3175961558
 30
0.0
 40
1.000000000000044
100
AcDbArc
 50
118.4522594415
 51
238.4524216755
  0
ARC
  5
23D
330
1F
100
AcDbEntity
  8
0
  6
Continuous
 62
     7
370
    15
100
AcDbCircle
 10
230.8386903581
 20
175.0760256114
 30
0.0
 40
1.00000000000001
100
AcDbArc
 50
298.4521783245
 51
58.4524216755
  0
ARC
  5
23E
330
1F
100
AcDbEntity
  8
0
  6
Continuous
 62
     7
370
    15
100
AcDbCircle
 10
231.8851031892
 20
176.7804375883
 30
0.0
 40
1.000000000000023
100
AcDbArc
 50
118.4522594415
 51
238.4524216755
  0
ARC
  5
23F
330
1F
100
AcDbEntity
  8
0
  6
Continuous
 62
     7
370
    15
100
AcDbCircle
 10
230.9322505132
 20
178.5388663693
 30
0.0
 40
1.000000000000011
100
AcDbArc
 50
298.4522594415
 51
17.6405363837
  0
ARC
  5
240
330
1F
100
AcDbEntity
  8
0
  6
Continuous
 62
     7
370
    15
100
AcDbCircle
 10
232.6476082215
 20
179.0843459132
 30
0.0
 40
0.8000000000002891
100
AcDbArc
 50
178.4523405584
 51
197.6405363836
  0
LINE
  5
241
330
1F
100
AcDbEntity
  8
0
  6
Continuous
 62
     7
370
    15
100
AcDbLine
 10
231.9499188253
 20
182.8821183434
 30
0.0
 11
231.8479054758
 21
179.1059554806
 31
0.0
  0
ARC
  5
242
330
1F
100
AcDbEntity
  8
0
  6
Continuous
 62
     7
370
    15
100
AcDbCircle
 10
232.6996519722
 20
182.8618561485
 30
0.0
 40
0.7500000000000003
100
AcDbArc
 50
1.5476594415
 51
178.4523405585
  0
LINE
  5
243
330
1F
100
AcDbEntity
  8
0
  6
Continuous
 62
     7
370
    15
100
AcDbLine
 10
233.5252844879
 20
180.0728322258
 30
0.0
 11
233.4493779728
 21
182.8821183434
 31
0.0
  0
ARC
  5
244
330
1F
100
AcDbEntity
  8
0
  6
Continuous
 62
     7
370
    15
100
AcDbCircle
 10
234.3249885358
 20
180.0944408373
 30
0.0
 40
0.8000000000003261
100
AcDbArc
 50
181.5476594415
 51
241.5476594415
  0
ARC
  5
245
330
1F
100
AcDbEntity
  8
0
  6
Continuous
 62
     7
370
    15
100
AcDbCircle
 10
233.4674188869
 20
178.5118561485
 30
0.0
 40
0.9999999999999942
100
AcDbArc
 50
301.5476594415
 51
61.5476594415
  0
ARC
  5
246
330
1F
100
AcDbEntity
  8
0
  6
Continuous
 62
     7
370
    15
100
AcDbCircle
 10
234.513834131
 20
176.8074456531
 30
0.0
 40
0.9999999999999963
100
AcDbArc
 50
121.5476594415
 51
241.5477405585
  0
ARC
  5
247
330
1F
100
AcDbEntity
  8
0
  6
Continuous
 62
     7
370
    15
100
AcDbCircle
 10
233.560981455
 20
175.049016872
 30
0.0
 40
1.000000000000023
100
AcDbArc
 50
301.5475783245
 51
61.5477405585
  0
ARC
  5
248
330
1F
100
AcDbEntity
  8
0
  6
Continuous
 62
     7
370
    15
100
AcDbCircle
 10
234.6073942861
 20
173.3446048951
 30
0.0
 40
1.00000000000001
100
AcDbArc
 50
121.5475783245
 51
241.5478216755
  0
ARC
  5
249
330
1F
100
AcDbEntity
  8
0
  6
Continuous
 62
     7
370
    15
100
AcDbCircle
 10
233.6545428549
 20
171.5861754396
 30
0.0
 40
0.999999999999996
100
AcDbArc
 50
301.5475783245
 51
61.5477405585
  0
ARC
  5
24A
330
1F
100
AcDbEntity
  8
0
  6
Continuous
 62
     7
370
    15
100
AcDbCircle
 10
234.7009556859
 20
169.8817634627
 30
0.0
 40
1.000000000000054
100
AcDbArc
 50
121.5475783245
 51
241.5478216755
  0
ARC
  5
24B
330
1F
100
AcDbEntity
  8
0
  6
Continuous
 62
     7
370
    15
100
AcDbCircle
 10
233.7481042547
 20
168.1233340072
 30
0.0
 40
1.000000000000011
100
AcDbArc
 50
301.5475783245
 51
61.5477405585
  0
ARC
  5
24C
330
1F
100
AcDbEntity
  8
0
  6
Continuous
 62
     7
370
    15
100
AcDbCircle
 10
234.7945170858
 20
166.4189220303
 30
0.0
 40
1.000000000000015
100
AcDbArc
 50
121.5475783245
 51
241.5478216755
  0
ARC
  5
24D
330
1F
100
AcDbEntity
  8
0
  6
Continuous
 62
     7
370
    15
100
AcDbCircle
 10
233.8416656546
 20
164.6604925748
 30
0.0
 40
0.999999999999996
100
AcDbArc
 50
301.5475783245
 51
61.5477405585
  0
ARC
  5
24E
330
1F
100
AcDbEntity
  8
0
  6
Continuous
 62
     7
370
    15
100
AcDbCircle
 10
234.8880784856
 20
162.9560805979
 30
0.0
 40
1.00000000000001
100
AcDbArc
 50
121.5475783245
 51
241.5478216755
  0
ARC
  5
24F
330
1F
100
AcDbEntity
  8
0
  6
Continuous
 62
     7
370
    15
100
AcDbCircle
 10
233.9352270544
 20
161.1976511424
 30
0.0
 40
0.999999999999996
100
AcDbArc
 50
301.5475783245
 51
61.5477405585
  0
ARC
  5
250
330
1F
100
AcDbEntity
  8
0
  6
Continuous
 62
     7
370
    15
100
AcDbCircle
 10
234.9816398855
 20
159.4932391655
 30
0.0
 40
1.00000000000001
100
AcDbArc
 50
121.5475783245
 51
241.5478216755
  0
ARC
  5
251
330
1F
100
AcDbEntity
  8
0
  6
Continuous
 62
     7
370
    15
100
AcDbCircle
 10
234.0287884543
 20
157.7348097099
 30
0.0
 40
0.9999999999999745
100
AcDbArc
 50
301.5473439867
 51
61.5477405585
  0
ARC
  5
252
330
1F
100
AcDbEntity
  8
0
  6
Continuous
 62
     7
370
    15
100
AcDbCircle
 10
234.9705537283
 20
156.2008350789
 30
0.0
 40
0.8000000000000359
100
AcDbArc
 50
121.5473439867
 51
181.5476594415
  0
LINE
  5
253
330
1F
100
AcDbEntity
  8
0
  6
Continuous
 62
     7
370
    15
100
AcDbLine
 10
234.241821725
 20
153.5524309864
 30
0.0
 11
234.1708474943
 21
156.1792225829
 31
0.0
  0
ARC
  5
254
330
1F
100
AcDbEntity
  8
0
  6
Continuous
 62
     7
370
    15
100
AcDbCircle
 10
236.4410145007
 20
153.6118561485
 30
0.0
 40
2.200000000000017
100
AcDbArc
 50
181.5476594415
 51
270.0
  0
LINE
  5
255
330
1F
100
AcDbEntity
  8
0
  6
Continuous
 62
     7
370
    15
100
AcDbLine
 10
238.9582925626
 20
151.4118493786
 30
0.0
 11
236.4410095998
 21
151.4118493786
 31
0.0
  0
ARC
  5
256
330
1F
100
AcDbEntity
  8
0
  6
Continuous
 62
     7
370
    15
100
AcDbCircle
 10
238.9582894436
 20
153.6118561485
 30
0.0
 40
2.200000000000009
100
AcDbArc
 50
270.0
 51
358.4523405585
  0
LINE
  5
257
330
1F
100
AcDbEntity
  8
0
  6
Continuous
 62
     7
370
    15
100
AcDbLine
 10
241.1816799232
 20
154.4478119603
 30
0.0
 11
241.1574804374
 21
153.5524309864
 31
0.0
  0
ARC
  5
258
330
1F
100
AcDbEntity
  8
0
  6
Continuous
 62
     7
370
    15
100
AcDbCircle
 10
240.3819701193
 20
154.4694139924
 30
0.0
 40
0.8000000000008558
100
AcDbArc
 50
358.4523405585
 51
58.4526785457
  0
ARC
  5
259
330
1F
100
AcDbEntity
  8
0
  6
Continuous
 62
     7
370
    15
100
AcDbCircle
 10
241.3237347901
 20
156.0033889937
 30
0.0
 40
1.00000000000001
100
AcDbArc
 50
118.4522594415
 51
238.4526785457
  0
ARC
  5
25A
330
1F
100
AcDbEntity
  8
0
  6
Continuous
 62
     7
370
    15
100
AcDbCircle
 10
240.3708833589
 20
157.7618184493
 30
0.0
 40
1.000000000000005
100
AcDbArc
 50
298.4521783245
 51
58.4524216755
  0
ARC
  5
25B
330
1F
100
AcDbEntity
  8
0
  6
Continuous
 62
     7
370
    15
100
AcDbCircle
 10
241.41729619
 20
159.4662304262
 30
0.0
 40
1.00000000000002
100
AcDbArc
 50
118.4522594415
 51
238.4524216755
  0
ARC
  5
25C
330
1F
100
AcDbEntity
  8
0
  6
Continuous
 62
     7
370
    15
100
AcDbCircle
 10
240.4644447588
 20
161.2246598817
 30
0.0
 40
0.9999999999999811
100
AcDbArc
 50
298.4521783245
 51
58.4524216755
  0
ARC
  5
25D
330
1F
100
AcDbEntity
  8
0
  6
Continuous
 62
     7
370
    15
100
AcDbCircle
 10
241.5108575898
 20
162.9290718586
 30
0.0
 40
1.00000000000002
100
AcDbArc
 50
118.4522594415
 51
238.4524216755
  0
ARC
  5
25E
330
1F
100
AcDbEntity
  8
0
  6
Continuous
 62
     7
370
    15
100
AcDbCircle
 10
240.5580061586
 20
164.6875013141
 30
0.0
 40
1.000000000000015
100
AcDbArc
 50
298.4521783245
 51
58.4524216755
  0
ARC
  5
25F
330
1F
100
AcDbEntity
  8
0
  6
Continuous
 62
     7
370
    15
100
AcDbCircle
 10
241.6044189897
 20
166.391913291
 30
0.0
 40
1.00000000000001
100
AcDbArc
 50
118.4522594415
 51
238.4524216755
  0
ARC
  5
260
330
1F
100
AcDbEntity
  8
0
  6
Continuous
 62
     7
370
    15
100
AcDbCircle
 10
240.6515675584
 20
168.1503427465
 30
0.0
 40
0.9999999999999662
100
AcDbArc
 50
298.4521783245
 51
58.4524216755
  0
ARC
  5
261
330
1F
100
AcDbEntity
  8
0
  6
Continuous
 62
     7
370
    15
100
AcDbCircle
 10
241.6979803895
 20
169.8547547234
 30
0.0
 40
1.00000000000001
100
AcDbArc
 50
118.4522594415
 51
238.4524216755
  0
ARC
  5
262
330
1F
100
AcDbEntity
  8
0
  6
Continuous
 62
     7
370
    15
100
AcDbCircle
 10
240.7451289583
 20
171.6131841789
 30
0.0
 40
1.000000000000005
100
AcDbArc
 50
298.4521783245
 51
58.4524216755
  0
ARC
  5
263
330
1F
100
AcDbEntity
  8
0
  6
Continuous
 62
     7
370
    15
100
AcDbCircle
 10
241.7915417894
 20
173.3175961558
 30
0.0
 40
1.000000000000044
100
AcDbArc
 50
118.4522594415
 51
238.4524216755
  0
ARC
  5
264
330
1F
100
AcDbEntity
  8
0
  6
Continuous
 62
     7
370
    15
100
AcDbCircle
 10
240.8386903581
 20
175.0760256114
 30
0.0
 40
1.00000000000001
100
AcDbArc
 50
298.4521783245
 51
58.4524216755
  0
ARC
  5
265
330
1F
100
AcDbEntity
  8
0
  6
Continuous
 62
     7
370
    15
100
AcDbCircle
 10
241.8851031892
 20
176.7804375883
 30
0.0
 40
1.000000000000023
100
AcDbArc
 50
118.4522594415
 51
238.4524216755
  0
ARC
  5
266
330
1F
100
AcDbEntity
  8
0
  6
Continuous
 62
     7
370
    15
100
AcDbCircle
 10
240.9322505132
 20
178.5388663693
 30
0.0
 40
1.000000000000011
100
AcDbArc
 50
298.4522594415
 51
17.6405363837
  0
ARC
  5
267
330
1F
100
AcDbEntity
  8
0
  6
Continuous
 62
     7
370
    15
100
AcDbCircle
 10
242.6476082215
 20
179.0843459132
 30
0.0
 40
0.8000000000002891
100
AcDbArc
 50
178.4523405584
 51
197.6405363836
  0
LINE
  5
268
330
1F
100
AcDbEntity
  8
0
  6
Continuous
 62
     7
370
    15
100
AcDbLine
 10
241.9499241897
 20
182.8821183434
 30
0.0
 11
241.847895939
 21
179.1059554806
 31
0.0
  0
ARC
  5
269
330
1F
100
AcDbEntity
  8
0
  6
Continuous
 62
     7
370
    15
100
AcDbCircle
 10
242.6996519722
 20
182.8618561485
 30
0.0
 40
0.7500000000000003
100
AcDbArc
 50
1.5476594415
 51
178.4523405585
  0
LINE
  5
26A
330
1F
100
AcDbEntity
  8
0
  6
Continuous
 62
     7
370
    15
100
AcDbLine
 10
243.5252749511
 20
180.0728322258
 30
0.0
 11
243.4493833372
 21
182.8821183434
 31
0.0
  0
ARC
  5
26B
330
1F
100
AcDbEntity
  8
0
  6
Continuous
 62
     7
370
    15
100
AcDbCircle
 10
244.3249885358
 20
180.0944408373
 30
0.0
 40
0.8000000000003261
100
AcDbArc
 50
181.5476594415
 51
241.5476594415
  0
ARC
  5
26C
330
1F
100
AcDbEntity
  8
0
  6
Continuous
 62
     7
370
    15
100
AcDbCircle
 10
243.4674188869
 20
178.5118561485
 30
0.0
 40
0.9999999999999942
100
AcDbArc
 50
301.5476594415
 51
61.5476594415
  0
ARC
  5
26D
330
1F
100
AcDbEntity
  8
0
  6
Continuous
 62
     7
370
    15
100
AcDbCircle
 10
244.513834131
 20
176.8074456531
 30
0.0
 40
0.9999999999999963
100
AcDbArc
 50
121.5476594415
 51
241.5477405585
  0
ARC
  5
26E
330
1F
100
AcDbEntity
  8
0
  6
Continuous
 62
     7
370
    15
100
AcDbCircle
 10
243.560981455
 20
175.049016872
 30
0.0
 40
1.000000000000023
100
AcDbArc
 50
301.5475783245
 51
61.5477405585
  0
ARC
  5
26F
330
1F
100
AcDbEntity
  8
0
  6
Continuous
 62
     7
370
    15
100
AcDbCircle
 10
244.6073942861
 20
173.3446048951
 30
0.0
 40
1.00000000000001
100
AcDbArc
 50
121.5475783245
 51
241.5478216755
  0
ARC
  5
270
330
1F
100
AcDbEntity
  8
0
  6
Continuous
 62
     7
370
    15
100
AcDbCircle
 10
243.6545428549
 20
171.5861754396
 30
0.0
 40
0.999999999999996
100
AcDbArc
 50
301.5475783245
 51
61.5477405585
  0
ARC
  5
271
330
1F
100
AcDbEntity
  8
0
  6
Continuous
 62
     7
370
    15
100
AcDbCircle
 10
244.7009556859
 20
169.8817634627
 30
0.0
 40
1.000000000000054
100
AcDbArc
 50
121.5475783245
 51
241.5478216755
  0
ARC
  5
272
330
1F
100
AcDbEntity
  8
0
  6
Continuous
 62
     7
370
    15
100
AcDbCircle
 10
243.7481042547
 20
168.1233340072
 30
0.0
 40
1.000000000000011
100
AcDbArc
 50
301.5475783245
 51
61.5477405585
  0
ARC
  5
273
330
1F
100
AcDbEntity
  8
0
  6
Continuous
 62
     7
370
    15
100
AcDbCircle
 10
244.7945170858
 20
166.4189220303
 30
0.0
 40
1.000000000000015
100
AcDbArc
 50
121.5475783245
 51
241.5478216755
  0
ARC
  5
274
330
1F
100
AcDbEntity
  8
0
  6
Continuous
 62
     7
370
    15
100
AcDbCircle
 10
243.8416656546
 20
164.6604925748
 30
0.0
 40
0.999999999999996
100
AcDbArc
 50
301.5475783245
 51
61.5477405585
  0
ARC
  5
275
330
1F
100
AcDbEntity
  8
0
  6
Continuous
 62
     7
370
    15
100
AcDbCircle
 10
244.8880784856
 20
162.9560805979
 30
0.0
 40
1.00000000000001
100
AcDbArc
 50
121.5475783245
 51
241.5478216755
  0
ARC
  5
276
330
1F
100
AcDbEntity
  8
0
  6
Continuous
 62
     7
370
    15
100
AcDbCircle
 10
243.9352270544
 20
161.1976511424
 30
0.0
 40
0.999999999999996
100
AcDbArc
 50
301.5475783245
 51
61.5477405585
  0
ARC
  5
277
330
1F
100
AcDbEntity
  8
0
  6
Continuous
 62
     7
370
    15
100
AcDbCircle
 10
244.9816398855
 20
159.4932391655
 30
0.0
 40
1.00000000000001
100
AcDbArc
 50
121.5475783245
 51
241.5478216755
  0
ARC
  5
278
330
1F
100
AcDbEntity
  8
0
  6
Continuous
 62
     7
370
    15
100
AcDbCircle
 10
244.0287884543
 20
157.7348097099
 30
0.0
 40
0.9999999999999599
100
AcDbArc
 50
301.5473439867
 51
61.5477405585
  0
ARC
  5
279
330
1F
100
AcDbEntity
  8
0
  6
Continuous
 62
     7
370
    15
100
AcDbCircle
 10
244.9705537283
 20
156.2008350789
 30
0.0
 40
0.8000000000000508
100
AcDbArc
 50
121.5473439867
 51
181.5476594415
  0
LINE
  5
27A
330
1F
100
AcDbEntity
  8
0
  6
Continuous
 62
     7
370
    15
100
AcDbLine
 10
244.2418121883
 20
153.5524309864
 30
0.0
 11
244.1708528587
 21
156.1792225829
 31
0.0
  0
ARC
  5
27B
330
1F
100
AcDbEntity
  8
0
  6
Continuous
 62
     7
370
    15
100
AcDbCircle
 10
246.4410145007
 20
153.6118561485
 30
0.0
 40
2.200000000000009
100
AcDbArc
 50
181.5476594415
 51
270.0
  0
LINE
  5
27C
330
1F
100
AcDbEntity
  8
0
  6
Continuous
 62
     7
370
    15
100
AcDbLine
 10
248.9582830259
 20
151.4118493786
 30
0.0
 11
246.4410149643
 21
151.4118493786
 31
0.0
  0
ARC
  5
27D
330
1F
100
AcDbEntity
  8
0
  6
Continuous
 62
     7
370
    15
100
AcDbCircle
 10
248.9582894436
 20
153.6118561485
 30
0.0
 40
2.200000000000037
100
AcDbArc
 50
270.0
 51
358.4523405585
  0
LINE
  5
27E
330
1F
100
AcDbEntity
  8
0
  6
Continuous
 62
     7
370
    15
100
AcDbLine
 10
251.1816852876
 20
154.4478119603
 30
0.0
 11
251.1574858018
 21
153.5524309864
 31
0.0
  0
ARC
  5
27F
330
1F
100
AcDbEntity
  8
0
  6
Continuous
 62
     7
370
    15
100
AcDbCircle
 10
250.3819701193
 20
154.4694139924
 30
0.0
 40
0.8000000000008558
100
AcDbArc
 50
358.4523405585
 51
58.4526785457
  0
ARC
  5
280
330
1F
100
AcDbEntity
  8
0
  6
Continuous
 62
     7
370
    15
100
AcDbCircle
 10
251.3237347901
 20
156.0033889937
 30
0.0
 40
1.00000000000001
100
AcDbArc
 50
118.4522594415
 51
238.4526785457
  0
ARC
  5
281
330
1F
100
AcDbEntity
  8
0
  6
Continuous
 62
     7
370
    15
100
AcDbCircle
 10
250.3708833589
 20
157.7618184493
 30
0.0
 40
1.00000000000002
100
AcDbArc
 50
298.4521783245
 51
58.4524216755
  0
ARC
  5
282
330
1F
100
AcDbEntity
  8
0
  6
Continuous
 62
     7
370
    15
100
AcDbCircle
 10
251.41729619
 20
159.4662304262
 30
0.0
 40
0.9999999999999963
100
AcDbArc
 50
118.4522594415
 51
238.4524216755
  0
ARC
  5
283
330
1F
100
AcDbEntity
  8
0
  6
Continuous
 62
     7
370
    15
100
AcDbCircle
 10
250.4644447588
 20
161.2246598817
 30
0.0
 40
1.000000000000011
100
AcDbArc
 50
298.4521783245
 51
58.4524216755
  0
ARC
  5
284
330
1F
100
AcDbEntity
  8
0
  6
Continuous
 62
     7
370
    15
100
AcDbCircle
 10
251.5108575898
 20
162.9290718586
 30
0.0
 40
0.9999999999999905
100
AcDbArc
 50
118.4522594415
 51
238.4524216755
  0
ARC
  5
285
330
1F
100
AcDbEntity
  8
0
  6
Continuous
 62
     7
370
    15
100
AcDbCircle
 10
250.5580061586
 20
164.6875013141
 30
0.0
 40
1.000000000000012
100
AcDbArc
 50
298.4521783245
 51
58.4524216755
  0
ARC
  5
286
330
1F
100
AcDbEntity
  8
0
  6
Continuous
 62
     7
370
    15
100
AcDbCircle
 10
251.6044189897
 20
166.391913291
 30
0.0
 40
1.00000000000005
100
AcDbArc
 50
118.4522594415
 51
238.4524216755
  0
ARC
  5
287
330
1F
100
AcDbEntity
  8
0
  6
Continuous
 62
     7
370
    15
100
AcDbCircle
 10
250.6515675584
 20
168.1503427465
 30
0.0
 40
0.9999999999999662
100
AcDbArc
 50
298.4521783245
 51
58.4524216755
  0
ARC
  5
288
330
1F
100
AcDbEntity
  8
0
  6
Continuous
 62
     7
370
    15
100
AcDbCircle
 10
251.6979803895
 20
169.8547547234
 30
0.0
 40
1.00000000000001
100
AcDbArc
 50
118.4522594415
 51
238.4524216755
  0
ARC
  5
289
330
1F
100
AcDbEntity
  8
0
  6
Continuous
 62
     7
370
    15
100
AcDbCircle
 10
250.7451289583
 20
171.6131841789
 30
0.0
 40
1.00000000000002
100
AcDbArc
 50
298.4521783245
 51
58.4524216755
  0
ARC
  5
28A
330
1F
100
AcDbEntity
  8
0
  6
Continuous
 62
     7
370
    15
100
AcDbCircle
 10
251.7915417894
 20
173.3175961558
 30
0.0
 40
1.000000000000015
100
AcDbArc
 50
118.4522594415
 51
238.4524216755
  0
ARC
  5
28B
330
1F
100
AcDbEntity
  8
0
  6
Continuous
 62
     7
370
    15
100
AcDbCircle
 10
250.8386903581
 20
175.0760256114
 30
0.0
 40
1.000000000000023
100
AcDbArc
 50
298.4521783245
 51
58.4524216755
  0
ARC
  5
28C
330
1F
100
AcDbEntity
  8
0
  6
Continuous
 62
     7
370
    15
100
AcDbCircle
 10
251.8851031892
 20
176.7804375883
 30
0.0
 40
1.00000000000001
100
AcDbArc
 50
118.4522594415
 51
238.4524216755
  0
ARC
  5
28D
330
1F
100
AcDbEntity
  8
0
  6
Continuous
 62
     7
370
    15
100
AcDbCircle
 10
250.9322505132
 20
178.5388663693
 30
0.0
 40
0.9999999999999963
100
AcDbArc
 50
298.4522594415
 51
17.6405363837
  0
ARC
  5
28E
330
1F
100
AcDbEntity
  8
0
  6
Continuous
 62
     7
370
    15
100
AcDbCircle
 10
252.6476082215
 20
179.0843459132
 30
0.0
 40
0.8000000000003176
100
AcDbArc
 50
178.4523405584
 51
197.6405363836
  0
LINE
  5
28F
330
1F
100
AcDbEntity
  8
0
  6
Continuous
 62
     7
370
    15
100
AcDbLine
 10
251.9499295541
 20
182.8821183434
 30
0.0
 11
251.8479013034
 21
179.1059554806
 31
0.0
  0
ARC
  5
290
330
1F
100
AcDbEntity
  8
0
  6
Continuous
 62
     7
370
    15
100
AcDbCircle
 10
252.6996519722
 20
182.8618561485
 30
0.0
 40
0.7500000000000003
100
AcDbArc
 50
1.5476594415
 51
178.4523405585
  0
LINE
  5
291
330
1F
100
AcDbEntity
  8
0
  6
Continuous
 62
     7
370
    15
100
AcDbLine
 10
253.5252803155
 20
180.0728322258
 30
0.0
 11
253.4493738004
 21
182.8821183434
 31
0.0
  0
ARC
  5
292
330
1F
100
AcDbEntity
  8
0
  6
Continuous
 62
     7
370
    15
100
AcDbCircle
 10
254.3249885358
 20
180.0944408373
 30
0.0
 40
0.8000000000003261
100
AcDbArc
 50
181.5476594415
 51
241.5476594415
  0
ARC
  5
293
330
1F
100
AcDbEntity
  8
0
  6
Continuous
 62
     7
370
    15
100
AcDbCircle
 10
253.4674188869
 20
178.5118561485
 30
0.0
 40
1.000000000000009
100
AcDbArc
 50
301.5476594415
 51
61.5476594415
  0
ARC
  5
294
330
1F
100
AcDbEntity
  8
0
  6
Continuous
 62
     7
370
    15
100
AcDbCircle
 10
254.513834131
 20
176.8074456531
 30
0.0
 40
0.9999999999999963
100
AcDbArc
 50
121.5476594415
 51
241.5477405585
  0
ARC
  5
295
330
1F
100
AcDbEntity
  8
0
  6
Continuous
 62
     7
370
    15
100
AcDbCircle
 10
253.560981455
 20
175.049016872
 30
0.0
 40
1.00000000000001
100
AcDbArc
 50
301.5475783245
 51
61.5477405585
  0
ARC
  5
296
330
1F
100
AcDbEntity
  8
0
  6
Continuous
 62
     7
370
    15
100
AcDbCircle
 10
254.6073942861
 20
173.3446048951
 30
0.0
 40
0.9999999999999961
100
AcDbArc
 50
121.5475783245
 51
241.5478216755
  0
ARC
  5
297
330
1F
100
AcDbEntity
  8
0
  6
Continuous
 62
     7
370
    15
100
AcDbCircle
 10
253.6545428549
 20
171.5861754396
 30
0.0
 40
1.000000000000026
100
AcDbArc
 50
301.5475783245
 51
61.5477405585
  0
ARC
  5
298
330
1F
100
AcDbEntity
  8
0
  6
Continuous
 62
     7
370
    15
100
AcDbCircle
 10
254.7009556859
 20
169.8817634627
 30
0.0
 40
1.000000000000039
100
AcDbArc
 50
121.5475783245
 51
241.5478216755
  0
ARC
  5
299
330
1F
100
AcDbEntity
  8
0
  6
Continuous
 62
     7
370
    15
100
AcDbCircle
 10
253.7481042547
 20
168.1233340072
 30
0.0
 40
1.00000000000005
100
AcDbArc
 50
301.5475783245
 51
61.5477405585
  0
ARC
  5
29A
330
1F
100
AcDbEntity
  8
0
  6
Continuous
 62
     7
370
    15
100
AcDbCircle
 10
254.7945170858
 20
166.4189220303
 30
0.0
 40
0.9999999999999981
100
AcDbArc
 50
121.5475783245
 51
241.5478216755
  0
ARC
  5
29B
330
1F
100
AcDbEntity
  8
0
  6
Continuous
 62
     7
370
    15
100
AcDbCircle
 10
253.8416656546
 20
164.6604925748
 30
0.0
 40
0.999999999999996
100
AcDbArc
 50
301.5475783245
 51
61.5477405585
  0
ARC
  5
29C
330
1F
100
AcDbEntity
  8
0
  6
Continuous
 62
     7
370
    15
100
AcDbCircle
 10
254.8880784856
 20
162.9560805979
 30
0.0
 40
1.00000000000001
100
AcDbArc
 50
121.5475783245
 51
241.5478216755
  0
ARC
  5
29D
330
1F
100
AcDbEntity
  8
0
  6
Continuous
 62
     7
370
    15
100
AcDbCircle
 10
253.9352270544
 20
161.1976511424
 30
0.0
 40
0.999999999999996
100
AcDbArc
 50
301.5475783245
 51
61.5477405585
  0
ARC
  5
29E
330
1F
100
AcDbEntity
  8
0
  6
Continuous
 62
     7
370
    15
100
AcDbCircle
 10
254.9816398855
 20
159.4932391655
 30
0.0
 40
0.9999999999999961
100
AcDbArc
 50
121.5475783245
 51
241.5478216755
  0
ARC
  5
29F
330
1F
100
AcDbEntity
  8
0
  6
Continuous
 62
     7
370
    15
100
AcDbCircle
 10
254.0287884543
 20
157.7348097099
 30
0.0
 40
0.9999999999999745
100
AcDbArc
 50
301.5473439867
 51
61.5477405585
  0
ARC
  5
2A0
330
1F
100
AcDbEntity
  8
0
  6
Continuous
 62
     7
370
    15
100
AcDbCircle
 10
254.9705537283
 20
156.2008350789
 30
0.0
 40
0.8000000000000359
100
AcDbArc
 50
121.5473439867
 51
181.5476594415
  0
LINE
  5
2A1
330
1F
100
AcDbEntity
  8
0
  6
Continuous
 62
     7
370
    15
100
AcDbLine
 10
254.2418175527
 20
153.5524309864
 30
0.0
 11
254.170843322
 21
156.1792225829
 31
0.0
  0
ARC
  5
2A2
330
1F
100
AcDbEntity
  8
0
  6
Continuous
 62
     7
370
    15
100
AcDbCircle
 10
256.4410145007
 20
153.6118561485
 30
0.0
 40
2.200000000000094
100
AcDbArc
 50
181.5476594415
 51
270.0
  0
LINE
  5
2A3
330
1F
100
AcDbEntity
  8
0
  6
Continuous
 62
     7
370
    15
100
AcDbLine
 10
258.9582883903
 20
151.4118493786
 30
0.0
 11
256.4410203287
 21
151.4118493786
 31
0.0
  0
ARC
  5
2A4
330
1F
100
AcDbEntity
  8
0
  6
Continuous
 62
     7
370
    15
100
AcDbCircle
 10
258.9582894436
 20
153.6118561485
 30
0.0
 40
2.199999999999989
100
AcDbArc
 50
270.0
 51
358.4523405585
  0
LINE
  5
2A5
330
1F
100
AcDbEntity
  8
0
  6
Continuous
 62
     7
370
    15
100
AcDbLine
 10
261.1816757509
 20
154.4478119603
 30
0.0
 11
261.1574911663
 21
153.5524309864
 31
0.0
  0
ARC
  5
2A6
330
1F
100
AcDbEntity
  8
0
  6
Continuous
 62
     7
370
    15
100
AcDbCircle
 10
260.3819701193
 20
154.4694139924
 30
0.0
 40
0.8000000000008274
100
AcDbArc
 50
358.4523405585
 51
58.4526785457
  0
ARC
  5
2A7
330
1F
100
AcDbEntity
  8
0
  6
Continuous
 62
     7
370
    15
100
AcDbCircle
 10
261.3237347901
 20
156.0033889937
 30
0.0
 40
0.9999999999999828
100
AcDbArc
 50
118.4522594415
 51
238.4526785457
  0
ARC
  5
2A8
330
1F
100
AcDbEntity
  8
0
  6
Continuous
 62
     7
370
    15
100
AcDbCircle
 10
260.3708833589
 20
157.7618184493
 30
0.0
 40
1.000000000000035
100
AcDbArc
 50
298.4521783245
 51
58.4524216755
  0
ARC
  5
2A9
330
1F
100
AcDbEntity
  8
0
  6
Continuous
 62
     7
370
    15
100
AcDbCircle
 10
261.41729619
 20
159.4662304262
 30
0.0
 40
0.9999999999999828
100
AcDbArc
 50
118.4522594415
 51
238.4524216755
  0
ARC
  5
2AA
330
1F
100
AcDbEntity
  8
0
  6
Continuous
 62
     7
370
    15
100
AcDbCircle
 10
260.4644447588
 20
161.2246598817
 30
0.0
 40
0.9999999999999867
100
AcDbArc
 50
298.4521783245
 51
58.4524216755
  0
ARC
  5
2AB
330
1F
100
AcDbEntity
  8
0
  6
Continuous
 62
     7
370
    15
100
AcDbCircle
 10
261.5108575898
 20
162.9290718586
 30
0.0
 40
1.000000000000035
100
AcDbArc
 50
118.4522594415
 51
238.4524216755
  0
ARC
  5
2AC
330
1F
100
AcDbEntity
  8
0
  6
Continuous
 62
     7
370
    15
100
AcDbCircle
 10
260.5580061586
 20
164.6875013141
 30
0.0
 40
0.9999999999999846
100
AcDbArc
 50
298.4521783245
 51
58.4524216755
  0
ARC
  5
2AD
330
1F
100
AcDbEntity
  8
0
  6
Continuous
 62
     7
370
    15
100
AcDbCircle
 10
261.6044189897
 20
166.391913291
 30
0.0
 40
1.000000000000065
100
AcDbArc
 50
118.4522594415
 51
238.4524216755
  0
ARC
  5
2AE
330
1F
100
AcDbEntity
  8
0
  6
Continuous
 62
     7
370
    15
100
AcDbCircle
 10
260.6515675584
 20
168.1503427465
 30
0.0
 40
0.9999999999999811
100
AcDbArc
 50
298.4521783245
 51
58.4524216755
  0
ARC
  5
2AF
330
1F
100
AcDbEntity
  8
0
  6
Continuous
 62
     7
370
    15
100
AcDbCircle
 10
261.6979803895
 20
169.8547547234
 30
0.0
 40
0.9999999999999828
100
AcDbArc
 50
118.4522594415
 51
238.4524216755
  0
ARC
  5
2B0
330
1F
100
AcDbEntity
  8
0
  6
Continuous
 62
     7
370
    15
100
AcDbCircle
 10
260.7451289583
 20
171.6131841789
 30
0.0
 40
1.000000000000065
100
AcDbArc
 50
298.4521783245
 51
58.4524216755
  0
ARC
  5
2B1
330
1F
100
AcDbEntity
  8
0
  6
Continuous
 62
     7
370
    15
100
AcDbCircle
 10
261.7915417894
 20
173.3175961558
 30
0.0
 40
0.9999999999999999
100
AcDbArc
 50
118.4522594415
 51
238.4524216755
  0
ARC
  5
2B2
330
1F
100
AcDbEntity
  8
0
  6
Continuous
 62
     7
370
    15
100
AcDbCircle
 10
260.8386903581
 20
175.0760256114
 30
0.0
 40
1.000000000000037
100
AcDbArc
 50
298.4521783245
 51
58.4524216755
  0
ARC
  5
2B3
330
1F
100
AcDbEntity
  8
0
  6
Continuous
 62
     7
370
    15
100
AcDbCircle
 10
261.8851031892
 20
176.7804375883
 30
0.0
 40
1.000000000000011
100
AcDbArc
 50
118.4522594415
 51
238.4524216755
  0
ARC
  5
2B4
330
1F
100
AcDbEntity
  8
0
  6
Continuous
 62
     7
370
    15
100
AcDbCircle
 10
260.9322505132
 20
178.5388663693
 30
0.0
 40
1.00000000000001
100
AcDbArc
 50
298.4522594415
 51
17.6405363837
  0
ARC
  5
2B5
330
1F
100
AcDbEntity
  8
0
  6
Continuous
 62
     7
370
    15
100
AcDbCircle
 10
262.6476082215
 20
179.0843459132
 30
0.0
 40
0.8000000000002891
100
AcDbArc
 50
178.4523405584
 51
197.6405363836
  0
LINE
  5
2B6
330
1F
100
AcDbEntity
  8
0
  6
Continuous
 62
     7
370
    15
100
AcDbLine
 10
261.9499200174
 20
182.8821183434
 30
0.0
 11
261.8479066679
 21
179.1059554806
 31
0.0
  0
ARC
  5
2B7
330
1F
100
AcDbEntity
  8
0
  6
Continuous
 62
     7
370
    15
100
AcDbCircle
 10
262.6996519722
 20
182.8618561485
 30
0.0
 40
0.7500000000000279
100
AcDbArc
 50
1.5476594415
 51
178.4523405585
  0
LINE
  5
2B8
330
1F
100
AcDbEntity
  8
0
  6
Continuous
 62
     7
370
    15
100
AcDbLine
 10
263.52528568
 20
180.0728322258
 30
0.0
 11
263.4493791648
 21
182.8821183434
 31
0.0
  0
ARC
  5
2B9
330
1F
100
AcDbEntity
  8
0
  6
Continuous
 62
     7
370
    15
100
AcDbCircle
 10
264.3249885358
 20
180.0944408373
 30
0.0
 40
0.8000000000002976
100
AcDbArc
 50
181.5476594415
 51
241.5476594415
  0
ARC
  5
2BA
330
1F
100
AcDbEntity
  8
0
  6
Continuous
 62
     7
370
    15
100
AcDbCircle
 10
263.4674188869
 20
178.5118561485
 30
0.0
 40
1.000000000000039
100
AcDbArc
 50
301.5476594415
 51
61.5476594415
  0
ARC
  5
2BB
330
1F
100
AcDbEntity
  8
0
  6
Continuous
 62
     7
370
    15
100
AcDbCircle
 10
264.513834131
 20
176.8074456531
 30
0.0
 40
1.00000000000001
100
AcDbArc
 50
121.5476594415
 51
241.5477405585
  0
ARC
  5
2BC
330
1F
100
AcDbEntity
  8
0
  6
Continuous
 62
     7
370
    15
100
AcDbCircle
 10
263.560981455
 20
175.049016872
 30
0.0
 40
1.00000000000001
100
AcDbArc
 50
301.5475783245
 51
61.5477405585
  0
ARC
  5
2BD
330
1F
100
AcDbEntity
  8
0
  6
Continuous
 62
     7
370
    15
100
AcDbCircle
 10
264.6073942861
 20
173.3446048951
 30
0.0
 40
1.00000000000001
100
AcDbArc
 50
121.5475783245
 51
241.5478216755
  0
ARC
  5
2BE
330
1F
100
AcDbEntity
  8
0
  6
Continuous
 62
     7
370
    15
100
AcDbCircle
 10
263.6545428549
 20
171.5861754396
 30
0.0
 40
1.000000000000011
100
AcDbArc
 50
301.5475783245
 51
61.5477405585
  0
ARC
  5
2BF
330
1F
100
AcDbEntity
  8
0
  6
Continuous
 62
     7
370
    15
100
AcDbCircle
 10
264.7009556859
 20
169.8817634627
 30
0.0
 40
1.000000000000054
100
AcDbArc
 50
121.5475783245
 51
241.5478216755
  0
ARC
  5
2C0
330
1F
100
AcDbEntity
  8
0
  6
Continuous
 62
     7
370
    15
100
AcDbCircle
 10
263.7481042547
 20
168.1233340072
 30
0.0
 40
1.000000000000011
100
AcDbArc
 50
301.5475783245
 51
61.5477405585
  0
ARC
  5
2C1
330
1F
100
AcDbEntity
  8
0
  6
Continuous
 62
     7
370
    15
100
AcDbCircle
 10
264.7945170858
 20
166.4189220303
 30
0.0
 40
0.9999999999999999
100
AcDbArc
 50
121.5475783245
 51
241.5478216755
  0
ARC
  5
2C2
330
1F
100
AcDbEntity
  8
0
  6
Continuous
 62
     7
370
    15
100
AcDbCircle
 10
263.8416656546
 20
164.6604925748
 30
0.0
 40
1.000000000000011
100
AcDbArc
 50
301.5475783245
 51
61.5477405585
  0
ARC
  5
2C3
330
1F
100
AcDbEntity
  8
0
  6
Continuous
 62
     7
370
    15
100
AcDbCircle
 10
264.8880784856
 20
162.9560805979
 30
0.0
 40
1.00000000000001
100
AcDbArc
 50
121.5475783245
 51
241.5478216755
  0
ARC
  5
2C4
330
1F
100
AcDbEntity
  8
0
  6
Continuous
 62
     7
370
    15
100
AcDbCircle
 10
263.9352270544
 20
161.1976511424
 30
0.0
 40
0.9999999999999849
100
AcDbArc
 50
301.5475783245
 51
61.5477405585
  0
ARC
  5
2C5
330
1F
100
AcDbEntity
  8
0
  6
Continuous
 62
     7
370
    15
100
AcDbCircle
 10
264.9816398855
 20
159.4932391655
 30
0.0
 40
1.00000000000001
100
AcDbArc
 50
121.5475783245
 51
241.5478216755
  0
ARC
  5
2C6
330
1F
100
AcDbEntity
  8
0
  6
Continuous
 62
     7
370
    15
100
AcDbCircle
 10
264.0287884543
 20
157.7348097099
 30
0.0
 40
0.9999999999999599
100
AcDbArc
 50
301.5473439867
 51
61.5477405585
  0
ARC
  5
2C7
330
1F
100
AcDbEntity
  8
0
  6
Continuous
 62
     7
370
    15
100
AcDbCircle
 10
264.9705537283
 20
156.2008350789
 30
0.0
 40
0.8000000000000508
100
AcDbArc
 50
121.5473439867
 51
181.5476594415
  0
LINE
  5
2C8
330
1F
100
AcDbEntity
  8
0
  6
Continuous
 62
     7
370
    15
100
AcDbLine
 10
264.2418229171
 20
153.5524309864
 30
0.0
 11
264.1708486864
 21
156.1792225829
 31
0.0
  0
ARC
  5
2C9
330
1F
100
AcDbEntity
  8
0
  6
Continuous
 62
     7
370
    15
100
AcDbCircle
 10
266.4410145007
 20
153.6118561485
 30
0.0
 40
2.200000000000094
100
AcDbArc
 50
181.5476594415
 51
270.0
  0
LINE
  5
2CA
330
1F
100
AcDbEntity
  8
0
  6
Continuous
 62
     7
370
    15
100
AcDbLine
 10
268.9582937547
 20
151.4118493786
 30
0.0
 11
266.4410107919
 21
151.4118493786
 31
0.0
  0
ARC
  5
2CB
330
1F
100
AcDbEntity
  8
0
  6
Continuous
 62
     7
370
    15
100
AcDbCircle
 10
268.9582894436
 20
153.6118561485
 30
0.0
 40
2.199999999999989
100
AcDbArc
 50
270.0
 51
358.4523405585
  0
LINE
  5
2CC
330
1F
100
AcDbEntity
  8
0
  6
Continuous
 62
     7
370
    15
100
AcDbLine
 10
271.1816811153
 20
154.4478119603
 30
0.0
 11
271.1574816295
 21
153.5524309864
 31
0.0
  0
ARC
  5
2CD
330
1F
100
AcDbEntity
  8
0
  6
Continuous
 62
     7
370
    15
100
AcDbCircle
 10
270.3819701193
 20
154.4694139924
 30
0.0
 40
0.8000000000009411
100
AcDbArc
 50
358.4523405585
 51
58.4526785457
  0
ARC
  5
2CE
330
1F
100
AcDbEntity
  8
0
  6
Continuous
 62
     7
370
    15
100
AcDbCircle
 10
271.3237347901
 20
156.0033889937
 30
0.0
 40
0.9999999999999828
100
AcDbArc
 50
118.4522594415
 51
238.4526785457
  0
ARC
  5
2CF
330
1F
100
AcDbEntity
  8
0
  6
Continuous
 62
     7
370
    15
100
AcDbCircle
 10
270.3708833589
 20
157.7618184493
 30
0.0
 40
1.000000000000035
100
AcDbArc
 50
298.4521783245
 51
58.4524216755
  0
ARC
  5
2D0
330
1F
100
AcDbEntity
  8
0
  6
Continuous
 62
     7
370
    15
100
AcDbCircle
 10
271.41729619
 20
159.4662304262
 30
0.0
 40
1.000000000000005
100
AcDbArc
 50
118.4522594415
 51
238.4524216755
  0
ARC
  5
2D1
330
1F
100
AcDbEntity
  8
0
  6
Continuous
 62
     7
370
    15
100
AcDbCircle
 10
270.4644447588
 20
161.2246598817
 30
0.0
 40
1.000000000000011
100
AcDbArc
 50
298.4521783245
 51
58.4524216755
  0
ARC
  5
2D2
330
1F
100
AcDbEntity
  8
0
  6
Continuous
 62
     7
370
    15
100
AcDbCircle
 10
271.5108575898
 20
162.9290718586
 30
0.0
 40
1.000000000000005
100
AcDbArc
 50
118.4522594415
 51
238.4524216755
  0
ARC
  5
2D3
330
1F
100
AcDbEntity
  8
0
  6
Continuous
 62
     7
370
    15
100
AcDbCircle
 10
270.5580061586
 20
164.6875013141
 30
0.0
 40
1.000000000000012
100
AcDbArc
 50
298.4521783245
 51
58.4524216755
  0
ARC
  5
2D4
330
1F
100
AcDbEntity
  8
0
  6
Continuous
 62
     7
370
    15
100
AcDbCircle
 10
271.6044189897
 20
166.391913291
 30
0.0
 40
1.000000000000064
100
AcDbArc
 50
118.4522594415
 51
238.4524216755
  0
ARC
  5
2D5
330
1F
100
AcDbEntity
  8
0
  6
Continuous
 62
     7
370
    15
100
AcDbCircle
 10
270.6515675584
 20
168.1503427465
 30
0.0
 40
0.9999999999999514
100
AcDbArc
 50
298.4521783245
 51
58.4524216755
  0
ARC
  5
2D6
330
1F
100
AcDbEntity
  8
0
  6
Continuous
 62
     7
370
    15
100
AcDbCircle
 10
271.6979803895
 20
169.8547547234
 30
0.0
 40
0.9999999999999828
100
AcDbArc
 50
118.4522594415
 51
238.4524216755
  0
ARC
  5
2D7
330
1F
100
AcDbEntity
  8
0
  6
Continuous
 62
     7
370
    15
100
AcDbCircle
 10
270.7451289583
 20
171.6131841789
 30
0.0
 40
1.000000000000035
100
AcDbArc
 50
298.4521783245
 51
58.4524216755
  0
ARC
  5
2D8
330
1F
100
AcDbEntity
  8
0
  6
Continuous
 62
     7
370
    15
100
AcDbCircle
 10
271.7915417894
 20
173.3175961558
 30
0.0
 40
1.00000000000003
100
AcDbArc
 50
118.4522594415
 51
238.4524216755
  0
ARC
  5
2D9
330
1F
100
AcDbEntity
  8
0
  6
Continuous
 62
     7
370
    15
100
AcDbCircle
 10
270.8386903581
 20
175.0760256114
 30
0.0
 40
1.000000000000037
100
AcDbArc
 50
298.4521783245
 51
58.4524216755
  0
ARC
  5
2DA
330
1F
100
AcDbEntity
  8
0
  6
Continuous
 62
     7
370
    15
100
AcDbCircle
 10
271.8851031892
 20
176.7804375883
 30
0.0
 40
1.00000000000001
100
AcDbArc
 50
118.4522594415
 51
238.4524216755
  0
ARC
  5
2DB
330
1F
100
AcDbEntity
  8
0
  6
Continuous
 62
     7
370
    15
100
AcDbCircle
 10
270.9322505132
 20
178.5388663693
 30
0.0
 40
1.000000000000038
100
AcDbArc
 50
298.4522594415
 51
17.6405363837
  0
ARC
  5
2DC
330
1F
100
AcDbEntity
  8
0
  6
Continuous
 62
     7
370
    15
100
AcDbCircle
 10
272.6476082215
 20
179.0843459132
 30
0.0
 40
0.8000000000002891
100
AcDbArc
 50
178.4523405584
 51
197.6405363836
  0
LINE
  5
2DD
330
1F
100
AcDbEntity
  8
0
  6
Continuous
 62
     7
370
    15
100
AcDbLine
 10
271.9499253818
 20
182.8821183434
 30
0.0
 11
271.8478971311
 21
179.1059554806
 31
0.0
  0
ARC
  5
2DE
330
1F
100
AcDbEntity
  8
0
  6
Continuous
 62
     7
370
    15
100
AcDbCircle
 10
272.6996519722
 20
182.8618561485
 30
0.0
 40
0.7500000000000279
100
AcDbArc
 50
1.5476594415
 51
178.4523405585
  0
LINE
  5
2DF
330
1F
100
AcDbEntity
  8
0
  6
Continuous
 62
     7
370
    15
100
AcDbLine
 10
273.5252761432
 20
180.0728322258
 30
0.0
 11
273.4493845293
 21
182.8821183434
 31
0.0
  0
ARC
  5
2E0
330
1F
100
AcDbEntity
  8
0
  6
Continuous
 62
     7
370
    15
100
AcDbCircle
 10
274.3249885358
 20
180.0944408373
 30
0.0
 40
0.8000000000002407
100
AcDbArc
 50
181.5476594415
 51
241.5476594415
  0
ARC
  5
2E1
330
1F
100
AcDbEntity
  8
0
  6
Continuous
 62
     7
370
    15
100
AcDbCircle
 10
273.4674188869
 20
178.5118561485
 30
0.0
 40
1.000000000000039
100
AcDbArc
 50
301.5476594415
 51
61.5476594415
  0
ARC
  5
2E2
330
1F
100
AcDbEntity
  8
0
  6
Continuous
 62
     7
370
    15
100
AcDbCircle
 10
274.513834131
 20
176.8074456531
 30
0.0
 40
1.00000000000001
100
AcDbArc
 50
121.5476594415
 51
241.5477405585
  0
ARC
  5
2E3
330
1F
100
AcDbEntity
  8
0
  6
Continuous
 62
     7
370
    15
100
AcDbCircle
 10
273.560981455
 20
175.049016872
 30
0.0
 40
1.000000000000011
100
AcDbArc
 50
301.5475783245
 51
61.5477405585
  0
ARC
  5
2E4
330
1F
100
AcDbEntity
  8
0
  6
Continuous
 62
     7
370
    15
100
AcDbCircle
 10
274.6073942861
 20
173.3446048951
 30
0.0
 40
1.000000000000037
100
AcDbArc
 50
121.5475783245
 51
241.5478216755
  0
ARC
  5
2E5
330
1F
100
AcDbEntity
  8
0
  6
Continuous
 62
     7
370
    15
100
AcDbCircle
 10
273.6545428549
 20
171.5861754396
 30
0.0
 40
0.9999999999999811
100
AcDbArc
 50
301.5475783245
 51
61.5477405585
  0
ARC
  5
2E6
330
1F
100
AcDbEntity
  8
0
  6
Continuous
 62
     7
370
    15
100
AcDbCircle
 10
274.7009556859
 20
169.8817634627
 30
0.0
 40
1.000000000000083
100
AcDbArc
 50
121.5475783245
 51
241.5478216755
  0
ARC
  5
2E7
330
1F
100
AcDbEntity
  8
0
  6
Continuous
 62
     7
370
    15
100
AcDbCircle
 10
273.7481042547
 20
168.1233340072
 30
0.0
 40
1.000000000000011
100
AcDbArc
 50
301.5475783245
 51
61.5477405585
  0
ARC
  5
2E8
330
1F
100
AcDbEntity
  8
0
  6
Continuous
 62
     7
370
    15
100
AcDbCircle
 10
274.7945170858
 20
166.4189220303
 30
0.0
 40
1.00000000000003
100
AcDbArc
 50
121.5475783245
 51
241.5478216755
  0
ARC
  5
2E9
330
1F
100
AcDbEntity
  8
0
  6
Continuous
 62
     7
370
    15
100
AcDbCircle
 10
273.8416656546
 20
164.6604925748
 30
0.0
 40
0.9999999999999849
100
AcDbArc
 50
301.5475783245
 51
61.5477405585
  0
ARC
  5
2EA
330
1F
100
AcDbEntity
  8
0
  6
Continuous
 62
     7
370
    15
100
AcDbCircle
 10
274.8880784856
 20
162.9560805979
 30
0.0
 40
0.9999999999999756
100
AcDbArc
 50
121.5475783245
 51
241.5478216755
  0
ARC
  5
2EB
330
1F
100
AcDbEntity
  8
0
  6
Continuous
 62
     7
370
    15
100
AcDbCircle
 10
273.9352270544
 20
161.1976511424
 30
0.0
 40
1.000000000000012
100
AcDbArc
 50
301.5475783245
 51
61.5477405585
  0
ARC
  5
2EC
330
1F
100
AcDbEntity
  8
0
  6
Continuous
 62
     7
370
    15
100
AcDbCircle
 10
274.9816398855
 20
159.4932391655
 30
0.0
 40
1.000000000000037
100
AcDbArc
 50
121.5475783245
 51
241.5478216755
  0
ARC
  5
2ED
330
1F
100
AcDbEntity
  8
0
  6
Continuous
 62
     7
370
    15
100
AcDbCircle
 10
274.0287884543
 20
157.7348097099
 30
0.0
 40
0.9999999999999596
100
AcDbArc
 50
301.5473439867
 51
61.5477405585
  0
ARC
  5
2EE
330
1F
100
AcDbEntity
  8
0
  6
Continuous
 62
     7
370
    15
100
AcDbCircle
 10
274.9705537283
 20
156.2008350789
 30
0.0
 40
0.8000000000000508
100
AcDbArc
 50
121.5473439867
 51
181.5476594415
  0
LINE
  5
2EF
330
1F
100
AcDbEntity
  8
0
  6
Continuous
 62
     7
370
    15
100
AcDbLine
 10
274.2418133804
 20
153.5524309864
 30
0.0
 11
274.1708391496
 21
156.1792225829
 31
0.0
  0
ARC
  5
2F0
330
1F
100
AcDbEntity
  8
0
  6
Continuous
 62
     7
370
    15
100
AcDbCircle
 10
276.4410145007
 20
153.6118561485
 30
0.0
 40
2.200000000000038
100
AcDbArc
 50
181.5476594415
 51
270.0
  0
LINE
  5
2F1
330
1F
100
AcDbEntity
  8
0
  6
Continuous
 62
     7
370
    15
100
AcDbLine
 10
278.958284218
 20
151.4118493786
 30
0.0
 11
276.4410161563
 21
151.4118493786
 31
0.0
  0
ARC
  5
2F2
330
1F
100
AcDbEntity
  8
0
  6
Continuous
 62
     7
370
    15
100
AcDbCircle
 10
278.9582894436
 20
153.6118561485
 30
0.0
 40
2.199999999999989
100
AcDbArc
 50
270.0
 51
358.4523405585
  0
LINE
  5
2F3
330
1F
100
AcDbEntity
  8
0
  6
Continuous
 62
     7
370
    15
100
AcDbLine
 10
281.1816715786
 20
154.4478119603
 30
0.0
 11
281.1574869939
 21
153.5524309864
 31
0.0
  0
ARC
  5
2F4
330
1F
100
AcDbEntity
  8
0
  6
Continuous
 62
     7
370
    15
100
AcDbCircle
 10
280.3819701193
 20
154.4694139924
 30
0.0
 40
0.8000000000008274
100
AcDbArc
 50
358.4523405585
 51
58.4526785457
  0
ARC
  5
2F5
330
1F
100
AcDbEntity
  8
0
  6
Continuous
 62
     7
370
    15
100
AcDbCircle
 10
281.3237347901
 20
156.0033889937
 30
0.0
 40
1.00000000000001
100
AcDbArc
 50
118.4522594415
 51
238.4526785457
  0
ARC
  5
2F6
330
1F
100
AcDbEntity
  8
0
  6
Continuous
 62
     7
370
    15
100
AcDbCircle
 10
280.3708833589
 20
157.7618184493
 30
0.0
 40
1.000000000000005
100
AcDbArc
 50
298.4521783245
 51
58.4524216755
  0
ARC
  5
2F7
330
1F
100
AcDbEntity
  8
0
  6
Continuous
 62
     7
370
    15
100
AcDbCircle
 10
281.41729619
 20
159.4662304262
 30
0.0
 40
1.000000000000005
100
AcDbArc
 50
118.4522594415
 51
238.4524216755
  0
ARC
  5
2F8
330
1F
100
AcDbEntity
  8
0
  6
Continuous
 62
     7
370
    15
100
AcDbCircle
 10
280.4644447588
 20
161.2246598817
 30
0.0
 40
1.000000000000011
100
AcDbArc
 50
298.4521783245
 51
58.4524216755
  0
ARC
  5
2F9
330
1F
100
AcDbEntity
  8
0
  6
Continuous
 62
     7
370
    15
100
AcDbCircle
 10
281.5108575898
 20
162.9290718586
 30
0.0
 40
1.00000000000001
100
AcDbArc
 50
118.4522594415
 51
238.4524216755
  0
ARC
  5
2FA
330
1F
100
AcDbEntity
  8
0
  6
Continuous
 62
     7
370
    15
100
AcDbCircle
 10
280.5580061586
 20
164.6875013141
 30
0.0
 40
0.9999999999999846
100
AcDbArc
 50
298.4521783245
 51
58.4524216755
  0
ARC
  5
2FB
330
1F
100
AcDbEntity
  8
0
  6
Continuous
 62
     7
370
    15
100
AcDbCircle
 10
281.6044189897
 20
166.391913291
 30
0.0
 40
1.000000000000035
100
AcDbArc
 50
118.4522594415
 51
238.4524216755
  0
ARC
  5
2FC
330
1F
100
AcDbEntity
  8
0
  6
Continuous
 62
     7
370
    15
100
AcDbCircle
 10
280.6515675584
 20
168.1503427465
 30
0.0
 40
0.9999999999999811
100
AcDbArc
 50
298.4521783245
 51
58.4524216755
  0
ARC
  5
2FD
330
1F
100
AcDbEntity
  8
0
  6
Continuous
 62
     7
370
    15
100
AcDbCircle
 10
281.6979803895
 20
169.8547547234
 30
0.0
 40
1.00000000000001
100
AcDbArc
 50
118.4522594415
 51
238.4524216755
  0
ARC
  5
2FE
330
1F
100
AcDbEntity
  8
0
  6
Continuous
 62
     7
370
    15
100
AcDbCircle
 10
280.7451289583
 20
171.6131841789
 30
0.0
 40
1.000000000000005
100
AcDbArc
 50
298.4521783245
 51
58.4524216755
  0
ARC
  5
2FF
330
1F
100
AcDbEntity
  8
0
  6
Continuous
 62
     7
370
    15
100
AcDbCircle
 10
281.7915417894
 20
173.3175961558
 30
0.0
 40
1.00000000000003
100
AcDbArc
 50
118.4522594415
 51
238.4524216755
  0
ARC
  5
300
330
1F
100
AcDbEntity
  8
0
  6
Continuous
 62
     7
370
    15
100
AcDbCircle
 10
280.8386903581
 20
175.0760256114
 30
0.0
 40
1.000000000000037
100
AcDbArc
 50
298.4521783245
 51
58.4524216755
  0
ARC
  5
301
330
1F
100
AcDbEntity
  8
0
  6
Continuous
 62
     7
370
    15
100
AcDbCircle
 10
281.8851031892
 20
176.7804375883
 30
0.0
 40
1.000000000000037
100
AcDbArc
 50
118.4522594415
 51
238.4524216755
  0
ARC
  5
302
330
1F
100
AcDbEntity
  8
0
  6
Continuous
 62
     7
370
    15
100
AcDbCircle
 10
280.9322505132
 20
178.5388663693
 30
0.0
 40
1.000000000000038
100
AcDbArc
 50
298.4522594415
 51
17.6405363837
  0
ARC
  5
303
330
1F
100
AcDbEntity
  8
0
  6
Continuous
 62
     7
370
    15
100
AcDbCircle
 10
282.6476082215
 20
179.0843459132
 30
0.0
 40
0.800000000000346
100
AcDbArc
 50
178.4523405584
 51
197.6405363836
  0
LINE
  5
304
330
1F
100
AcDbEntity
  8
0
  6
Continuous
 62
     7
370
    15
100
AcDbLine
 10
281.9499307462
 20
182.8821183434
 30
0.0
 11
281.8479024955
 21
179.1059554806
 31
0.0
  0
ARC
  5
305
330
1F
100
AcDbEntity
  8
0
  6
Continuous
 62
     7
370
    15
100
AcDbCircle
 10
282.6996519722
 20
182.8618561485
 30
0.0
 40
0.7500000000000288
100
AcDbArc
 50
1.5476594415
 51
178.4523405585
  0
LINE
  5
306
330
1F
100
AcDbEntity
  8
0
  6
Continuous
 62
     7
370
    15
100
AcDbLine
 10
283.5252815076
 20
180.0728322258
 30
0.0
 11
283.4493749925
 21
182.8821183434
 31
0.0
  0
ARC
  5
307
330
1F
100
AcDbEntity
  8
0
  6
Continuous
 62
     7
370
    15
100
AcDbCircle
 10
284.3249885358
 20
180.0944408373
 30
0.0
 40
0.8000000000002976
100
AcDbArc
 50
181.5476594415
 51
241.5476594415
  0
ARC
  5
308
330
1F
100
AcDbEntity
  8
0
  6
Continuous
 62
     7
370
    15
100
AcDbCircle
 10
283.4674188869
 20
178.5118561485
 30
0.0
 40
0.9999999999999793
100
AcDbArc
 50
301.5476594415
 51
61.5476594415
  0
ARC
  5
309
330
1F
100
AcDbEntity
  8
0
  6
Continuous
 62
     7
370
    15
100
AcDbCircle
 10
284.513834131
 20
176.8074456531
 30
0.0
 40
1.000000000000009
100
AcDbArc
 50
121.5476594415
 51
241.5477405585
  0
ARC
  5
30A
330
1F
100
AcDbEntity
  8
0
  6
Continuous
 62
     7
370
    15
100
AcDbCircle
 10
283.560981455
 20
175.049016872
 30
0.0
 40
1.000000000000064
100
AcDbArc
 50
301.5475783245
 51
61.5477405585
  0
ARC
  5
30B
330
1F
100
AcDbEntity
  8
0
  6
Continuous
 62
     7
370
    15
100
AcDbCircle
 10
284.6073942861
 20
173.3446048951
 30
0.0
 40
1.000000000000037
100
AcDbArc
 50
121.5475783245
 51
241.5478216755
  0
ARC
  5
30C
330
1F
100
AcDbEntity
  8
0
  6
Continuous
 62
     7
370
    15
100
AcDbCircle
 10
283.6545428549
 20
171.5861754396
 30
0.0
 40
0.9999999999999811
100
AcDbArc
 50
301.5475783245
 51
61.5477405585
  0
ARC
  5
30D
330
1F
100
AcDbEntity
  8
0
  6
Continuous
 62
     7
370
    15
100
AcDbCircle
 10
284.7009556859
 20
169.8817634627
 30
0.0
 40
1.000000000000054
100
AcDbArc
 50
121.5475783245
 51
241.5478216755
  0
ARC
  5
30E
330
1F
100
AcDbEntity
  8
0
  6
Continuous
 62
     7
370
    15
100
AcDbCircle
 10
283.7481042547
 20
168.1233340072
 30
0.0
 40
1.000000000000041
100
AcDbArc
 50
301.5475783245
 51
61.5477405585
  0
ARC
  5
30F
330
1F
100
AcDbEntity
  8
0
  6
Continuous
 62
     7
370
    15
100
AcDbCircle
 10
284.7945170858
 20
166.4189220303
 30
0.0
 40
1.00000000000003
100
AcDbArc
 50
121.5475783245
 51
241.5478216755
  0
ARC
  5
310
330
1F
100
AcDbEntity
  8
0
  6
Continuous
 62
     7
370
    15
100
AcDbCircle
 10
283.8416656546
 20
164.6604925748
 30
0.0
 40
0.9999999999999578
100
AcDbArc
 50
301.5475783245
 51
61.5477405585
  0
ARC
  5
311
330
1F
100
AcDbEntity
  8
0
  6
Continuous
 62
     7
370
    15
100
AcDbCircle
 10
284.8880784856
 20
162.9560805979
 30
0.0
 40
0.9999999999999756
100
AcDbArc
 50
121.5475783245
 51
241.5478216755
  0
ARC
  5
312
330
1F
100
AcDbEntity
  8
0
  6
Continuous
 62
     7
370
    15
100
AcDbCircle
 10
283.9352270544
 20
161.1976511424
 30
0.0
 40
1.000000000000041
100
AcDbArc
 50
301.5475783245
 51
61.5477405585
  0
ARC
  5
313
330
1F
100
AcDbEntity
  8
0
  6
Continuous
 62
     7
370
    15
100
AcDbCircle
 10
284.9816398855
 20
159.4932391655
 30
0.0
 40
1.000000000000037
100
AcDbArc
 50
121.5475783245
 51
241.5478216755
  0
ARC
  5
314
330
1F
100
AcDbEntity
  8
0
  6
Continuous
 62
     7
370
    15
100
AcDbCircle
 10
284.0287884543
 20
157.7348097099
 30
0.0
 40
0.9999999999999596
100
AcDbArc
 50
301.5473439867
 51
61.5477405585
  0
ARC
  5
315
330
1F
100
AcDbEntity
  8
0
  6
Continuous
 62
     7
370
    15
100
AcDbCircle
 10
284.9705537283
 20
156.2008350789
 30
0.0
 40
0.8000000000000508
100
AcDbArc
 50
121.5473439867
 51
181.5476594415
  0
LINE
  5
316
330
1F
100
AcDbEntity
  8
0
  6
Continuous
 62
     7
370
    15
100
AcDbLine
 10
284.2418187448
 20
153.5524309864
 30
0.0
 11
284.170844514
 21
156.1792225829
 31
0.0
  0
ARC
  5
317
330
1F
100
AcDbEntity
  8
0
  6
Continuous
 62
     7
370
    15
100
AcDbCircle
 10
286.4410145007
 20
153.6118561485
 30
0.0
 40
2.199999999999989
100
AcDbArc
 50
181.5476594415
 51
270.0
  0
LINE
  5
318
330
1F
100
AcDbEntity
  8
0
  6
Continuous
 62
     7
370
    15
100
AcDbLine
 10
290.6602853128
 20
151.4118493786
 30
0.0
 11
286.4410215208
 21
151.4118493786
 31
0.0
  0
ARC
  5
319
330
1F
100
AcDbEntity
  8
0
  6
Continuous
 62
     7
370
    15
100
AcDbCircle
 10
290.6602834813
 20
153.6118561485
 30
0.0
 40
2.200000000000017
100
AcDbArc
 50
270.0
 51
358.3989819978
  0
LINE
  5
31A
330
1F
100
AcDbEntity
  8
0
  6
Continuous
 62
     7
370
    15
100
AcDbLine
 10
292.9028206655
 20
155.1032544365
 30
0.0
 11
292.8594284841
 21
153.5503895274
 31
0.0
  0
ARC
  5
31B
330
1F
100
AcDbEntity
  8
0
  6
Continuous
 62
     7
370
    15
100
AcDbCircle
 10
293.9024374202
 20
155.0753186416
 30
0.0
 40
1.000000000000007
100
AcDbArc
 50
121.765994967
 51
178.3989819978
  0
ARC
  5
31C
330
1F
100
AcDbEntity
  8
0
  6
Continuous
 62
     7
370
    15
100
AcDbCircle
 10
292.8495348371
 20
156.7757292245
 30
0.0
 40
1.000000000000007
100
AcDbArc
 50
301.765994967
 51
55.0319690285
  0
ARC
  5
31D
330
1F
100
AcDbEntity
  8
0
  6
Continuous
 62
     7
370
    15
100
AcDbCircle
 10
293.9957734152
 20
158.414673129
 30
0.0
 40
1.000000000000002
100
AcDbArc
 50
121.765994967
 51
235.0319690285
  0
ARC
  5
31E
330
1F
100
AcDbEntity
  8
0
  6
Continuous
 62
     7
370
    15
100
AcDbCircle
 10
292.9428708321
 20
160.1150837119
 30
0.0
 40
0.9999999999999921
100
AcDbArc
 50
301.765994967
 51
55.0319690285
  0
ARC
  5
31F
330
1F
100
AcDbEntity
  8
0
  6
Continuous
 62
     7
370
    15
100
AcDbCircle
 10
294.0891094102
 20
161.7540276163
 30
0.0
 40
0.9999999999999688
100
AcDbArc
 50
121.765994967
 51
235.0319690285
  0
ARC
  5
320
330
1F
100
AcDbEntity
  8
0
  6
Continuous
 62
     7
370
    15
100
AcDbCircle
 10
293.036206827
 20
163.4544381992
 30
0.0
 40
1.000000000000002
100
AcDbArc
 50
301.765994967
 51
55.0319690285
  0
ARC
  5
321
330
1F
100
AcDbEntity
  8
0
  6
Continuous
 62
     7
370
    15
100
AcDbCircle
 10
294.1824454052
 20
165.0933821036
 30
0.0
 40
1.000000000000025
100
AcDbArc
 50
121.765994967
 51
235.0319690285
  0
ARC
  5
322
330
1F
100
AcDbEntity
  8
0
  6
Continuous
 62
     7
370
    15
100
AcDbCircle
 10
293.129542822
 20
166.7937926865
 30
0.0
 40
0.9999999999999828
100
AcDbArc
 50
301.765994967
 51
55.0319690285
  0
ARC
  5
323
330
1F
100
AcDbEntity
  8
0
  6
Continuous
 62
     7
370
    15
100
AcDbCircle
 10
294.2757814002
 20
168.432736591
 30
0.0
 40
1.000000000000001
100
AcDbArc
 50
121.765994967
 51
235.0319690285
  0
ARC
  5
324
330
1F
100
AcDbEntity
  8
0
  6
Continuous
 62
     7
370
    15
100
AcDbCircle
 10
293.222878817
 20
170.1331471738
 30
0.0
 40
1.000000000000007
100
AcDbArc
 50
301.765994967
 51
55.0319690285
  0
ARC
  5
325
330
1F
100
AcDbEntity
  8
0
  6
Continuous
 62
     7
370
    15
100
AcDbCircle
 10
294.3691173952
 20
171.7720910783
 30
0.0
 40
1.000000000000007
100
AcDbArc
 50
121.765994967
 51
235.0319690285
  0
ARC
  5
326
330
1F
100
AcDbEntity
  8
0
  6
Continuous
 62
     7
370
    15
100
AcDbCircle
 10
293.316214812
 20
173.4725016612
 30
0.0
 40
1.000000000000026
100
AcDbArc
 50
301.765994967
 51
55.0319690285
  0
ARC
  5
327
330
1F
100
AcDbEntity
  8
0
  6
Continuous
 62
     7
370
    15
100
AcDbCircle
 10
294.4624533902
 20
175.1114455656
 30
0.0
 40
0.9999999999999688
100
AcDbArc
 50
121.765994967
 51
235.0319690285
  0
ARC
  5
328
330
1F
100
AcDbEntity
  8
0
  6
Continuous
 62
     7
370
    15
100
AcDbCircle
 10
293.409550807
 20
176.8118561485
 30
0.0
 40
1.000000000000037
100
AcDbArc
 50
301.765994967
 51
58.3989819978
  0
ARC
  5
329
330
1F
100
AcDbEntity
  8
0
  6
Continuous
 62
     7
370
    15
100
AcDbCircle
 10
294.3527526771
 20
178.3449478719
 30
0.0
 40
0.7999999999999668
100
AcDbArc
 50
178.3989819978
 51
238.3989819978
  0
LINE
  5
32A
330
1F
100
AcDbEntity
  8
0
  6
Continuous
 62
     7
370
    15
100
AcDbLine
 10
293.6860704013
 20
183.1258268347
 30
0.0
 11
293.5530626365
 21
178.3673049202
 31
0.0
  0
ARC
  5
32B
330
1F
100
AcDbEntity
  8
0
  6
Continuous
 62
     7
370
    15
100
AcDbCircle
 10
294.1858720837
 20
183.1118561485
 30
0.0
 40
0.5
100
AcDbArc
 50
90.0
 51
178.3989819978
  0
LINE
  5
32C
330
1F
100
AcDbEntity
  8
0
  6
Continuous
 62
     7
370
    15
100
AcDbLine
 10
297.1996450016
 20
183.6118580094
 30
0.0
 11
294.1858702489
 21
183.6118580094
 31
0.0
  0
ARC
  5
32D
330
1F
100
AcDbEntity
  8
0
  6
Continuous
 62
     7
370
    15
100
AcDbCircle
 10
297.1996519722
 20
183.1118561485
 30
0.0
 40
0.5
100
AcDbArc
 50
0.0
 51
90.0
  0
LINE
  5
32E
330
1F
100
AcDbEntity
  8
0
  6
Continuous
 62
     7
370
    15
100
AcDbLine
 10
297.6996534654
 20
144.1118599167
 30
0.0
 11
297.6996534654
 21
183.1118495455
 31
0.0
  0
ARC
  5
32F
330
1F
100
AcDbEntity
  8
0
  6
Continuous
 62
     7
370
    15
100
AcDbCircle
 10
297.1996519722
 20
144.1118561485
 30
0.0
 40
0.5
100
AcDbArc
 50
270.0
 51
0.0
  0
LINE
  5
330
330
1F
100
AcDbEntity
  8
0
  6
Continuous
 62
     7
370
    15
100
AcDbLine
 10
98.1996514985
 20
143.6118514529
 30
0.0
 11
297.1996450016
 21
143.6118514529
 31
0.0
  0
ARC
  5
331
330
1F
100
AcDbEntity
  8
0
  6
Continuous
 62
     7
370
    15
100
AcDbCircle
 10
98.1996519722
 20
144.1118561485
 30
0.0
 40
0.5
100
AcDbArc
 50
180.0
 51
270.0
  0
DIMENSION
  5
332
330
1F
100
AcDbEntity
  8
0
  6
Continuous
 62
     7
370
     0
100
AcDbDimension
  2
_D
 10
97.6996519722
 20
190.925005906
 30
0.0
 11
99.6019874846
 21
190.925005906
 31
0.0
 70
   160
  1
<>
 71
     2
 42
-1.0
  3
SLDDIMSTYLE0
100
AcDbAlignedDimension
 13
101.71323667
 23
183.1258258481
 33
0.0
 14
97.6996519722
 24
183.1118561485
 34
0.0
100
AcDbRotatedDimension
  0
DIMENSION
  5
340
330
1F
100
AcDbEntity
  8
0
  6
Continuous
 62
     7
370
     0
100
AcDbDimension
  2
_D_1
 10
87.6996519722
 20
143.6118561485
 30
0.0
 11
87.6996519722
 21
164.2542365201
 31
0.0
 70
   160
  1
<>
 71
     2
 42
-1.0
  3
SLDDIMSTYLE1
100
AcDbAlignedDimension
 13
98.1996519722
 23
183.6118561485
 33
0.0
 14
98.1996519722
 24
143.6118561485
 34
0.0
 50
90.0
100
AcDbRotatedDimension
  0
DIMENSION
  5
34B
330
1F
100
AcDbEntity
  8
0
  6
Continuous
 62
     7
370
     0
100
AcDbDimension
  2
_D_2
 10
307.6996519722
 20
143.6118561485
 30
0.0
 11
307.6996519722
 21
161.7616397574
 31
0.0
 70
   160
  1
<>
 71
     2
 42
-1.0
  3
SLDDIMSTYLE2
100
AcDbAlignedDimension
 13
290.6602834813
 23
151.4118561485
 33
0.0
 14
297.1996519722
 24
143.6118561485
 34
0.0
 50
90.0
100
AcDbRotatedDimension
  0
DIMENSION
  5
358
330
1F
100
AcDbEntity
  8
0
  6
Continuous
 62
     7
370
     0
100
AcDbDimension
  2
_D_3
 10
297.6996519722
 20
121.6118561485
 30
0.0
 11
200.5644076896
 21
121.6118561485
 31
0.0
 70
   160
  1
<>
 71
     2
 42
-1.0
  3
SLDDIMSTYLE1
100
AcDbAlignedDimension
 13
97.6996519722
 23
144.1118561485
 33
0.0
 14
297.6996519722
 24
144.1118561485
 34
0.0
100
AcDbRotatedDimension
  0
ENDSEC
  0
SECTION
  2
OBJECTS
  0
DICTIONARY
  5
C
330
0
100
AcDbDictionary
281
     1
  3
ACAD_GROUP
350
D
  3
ACAD_LAYOUT
350
1A
  3
ACAD_MLINESTYLE
350
17
  3
ACAD_PLOTSETTINGS
350
19
  3
ACAD_PLOTSTYLENAME
350
E
  0
DICTIONARY
  5
D
102
{ACAD_REACTORS
330
C
102
}
330
C
100
AcDbDictionary
281
     1
  0
DICTIONARY
  5
1A
102
{ACAD_REACTORS
330
C
102
}
330
C
100
AcDbDictionary
281
     1
  3
Layout1
350
1E
  3
Layout2
350
26
  3
Model
350
22
  0
DICTIONARY
  5
17
102
{ACAD_REACTORS
330
C
102
}
330
C
100
AcDbDictionary
281
     1
  3
Standard
350
18
  0
DICTIONARY
  5
19
102
{ACAD_REACTORS
330
C
102
}
330
C
100
AcDbDictionary
281
     1
  0
ACDBDICTIONARYWDFLT
  5
E
102
{ACAD_REACTORS
330
C
102
}
330
C
100
AcDbDictionary
281
     1
  3
Normal
350
F
100
AcDbDictionaryWithDefault
340
F
  0
LAYOUT
  5
1E
102
{ACAD_REACTORS
330
1A
102
}
330
1A
100
AcDbPlotSettings
  1

  2
none_device
  4

  6

 40
0.0
 41
0.0
 42
0.0
 43
0.0
 44
0.0
 45
0.0
 46
0.0
 47
0.0
 48
0.0
 49
0.0
140
0.0
141
0.0
142
1.0
143
1.0
 70
   688
 72
     0
 73
     0
 74
     5
  7

 75
    16
147
1.0
148
0.0
149
0.0
100
AcDbLayout
  1
Layout1
 70
     1
 71
     1
 10
0.0
 20
0.0
 11
420.0
 21
297.0
 12
0.0
 22
0.0
 32
0.0
 14
1.0000000000E+20
 24
1.0000000000E+20
 34
1.0000000000E+20
 15
-1.0000000000E+20
 25
-1.0000000000E+20
 35
-1.0000000000E+20
146
0.0
 13
0.0
 23
0.0
 33
0.0
 16
1.0
 26
0.0
 36
0.0
 17
0.0
 27
1.0
 37
0.0
 76
     0
330
1B
  0
LAYOUT
  5
26
102
{ACAD_REACTORS
330
1A
102
}
330
1A
100
AcDbPlotSettings
  1

  2
none_device
  4

  6

 40
0.0
 41
0.0
 42
0.0
 43
0.0
 44
0.0
 45
0.0
 46
0.0
 47
0.0
 48
0.0
 49
0.0
140
0.0
141
0.0
142
1.0
143
1.0
 70
   688
 72
     0
 73
     0
 74
     5
  7

 75
    16
147
1.0
148
0.0
149
0.0
100
AcDbLayout
  1
Layout2
 70
     1
 71
     2
 10
0.0
 20
0.0
 11
0.0
 21
0.0
 12
0.0
 22
0.0
 32
0.0
 14
0.0
 24
0.0
 34
0.0
 15
0.0
 25
0.0
 35
0.0
146
0.0
 13
0.0
 23
0.0
 33
0.0
 16
1.0
 26
0.0
 36
0.0
 17
0.0
 27
1.0
 37
0.0
 76
     0
330
23
  0
LAYOUT
  5
22
102
{ACAD_REACTORS
330
1A
102
}
330
1A
100
AcDbPlotSettings
  1

  2
none_device
  4

  6

 40
0.0
 41
0.0
 42
0.0
 43
0.0
 44
0.0
 45
0.0
 46
0.0
 47
0.0
 48
0.0
 49
0.0
140
0.0
141
0.0
142
1.0
143
1.0
 70
  1712
 72
     0
 73
     0
 74
     0
  7

 75
     0
147
1.0
148
0.0
149
0.0
100
AcDbLayout
  1
Model
 70
     1
 71
     0
 10
0.0
 20
0.0
 11
420.0
 21
297.0
 12
0.0
 22
0.0
 32
0.0
 14
0.0
 24
0.0
 34
0.0
 15
420.0
 25
297.0
 35
0.0
146
0.0
 13
0.0
 23
0.0
 33
0.0
 16
1.0
 26
0.0
 36
0.0
 17
0.0
 27
1.0
 37
0.0
 76
     0
330
1F
331
29
  0
MLINESTYLE
  5
18
102
{ACAD_REACTORS
330
17
102
}
330
17
100
AcDbMlineStyle
  2
Standard
 70
     0
  3

 62
   256
 51
90.0
 52
90.0
 71
     2
 49
0.5
 62
   256
  6
BYLAYER
 49
-0.5
 62
   256
  6
BYLAYER
  0
ACDBPLACEHOLDER
  5
F
102
{ACAD_REACTORS
330
E
102
}
330
E
  0
ENDSEC
  0
EOF
