  0
SECTION
  2
HEADER
  9
$ACADVER
  1
AC1015
  9
$ACADMAINTVER
 70
     6
  9
$DWGCODEPAGE
  3
ANSI_1252
  9
$INSBASE
 10
0.0
 20
0.0
 30
0.0
  9
$EXTMIN
 10
0.0
 20
0.0
 30
0.0
  9
$EXTMAX
 10
420.0
 20
297.0
 30
0.0
  9
$LIMMIN
 10
0.0
 20
0.0
  9
$LIMMAX
 10
420.0
 20
297.0
  9
$ORTHOMODE
 70
     0
  9
$REGENMODE
 70
     1
  9
$FILLMODE
 70
     1
  9
$QTEXTMODE
 70
     0
  9
$MIRRTEXT
 70
     1
  9
$LTSCALE
 40
1.0
  9
$ATTMODE
 70
     1
  9
$TEXTSIZE
 40
3.5
  9
$TRACEWID
 40
1.0
  9
$TEXTSTYLE
  7
Standard
  9
$CLAYER
  8
0
  9
$CELTYPE
  6
ByLayer
  9
$CECOLOR
 62
   256
  9
$CELTSCALE
 40
1.0
  9
$DISPSILH
 70
     0
  9
$DIMSCALE
 40
1.0
  9
$DIMASZ
 40
3.302
  9
$DIMEXO
 40
1.0
  9
$DIMDLI
 40
3.75
  9
$DIMRND
 40
0.0
  9
$DIMDLE
 40
0.0
  9
$DIMEXE
 40
1.0
  9
$DIMTP
 40
0.0
  9
$DIMTM
 40
0.0
  9
$DIMTXT
 40
3.5
  9
$DIMCEN
 40
2.5
  9
$DIMTSZ
 40
0.0
  9
$DIMTOL
 70
     0
  9
$DIMLIM
 70
     0
  9
$DIMTIH
 70
     1
  9
$DIMTOH
 70
     1
  9
$DIMSE1
 70
     0
  9
$DIMSE2
 70
     0
  9
$DIMTAD
 70
     1
  9
$DIMZIN
 70
     0
  9
$DIMBLK
  1

  9
$DIMASO
 70
     1
  9
$DIMSHO
 70
     1
  9
$DIMPOST
  1

  9
$DIMAPOST
  1

  9
$DIMALT
 70
     0
  9
$DIMALTD
 70
     3
  9
$DIMALTF
 40
0.0393700787
  9
$DIMLFAC
 40
2.0
  9
$DIMTOFL
 70
     1
  9
$DIMTVP
 40
0.0
  9
$DIMTIX
 70
     0
  9
$DIMSOXD
 70
     0
  9
$DIMSAH
 70
     0
  9
$DIMBLK1
  1

  9
$DIMBLK2
  1

  9
$DIMSTYLE
  2
ISO-25
  9
$DIMCLRD
 70
     0
  9
$DIMCLRE
 70
     0
  9
$DIMCLRT
 70
     0
  9
$DIMTFAC
 40
1.0
  9
$DIMGAP
 40
1.524
  9
$DIMJUST
 70
     0
  9
$DIMSD1
 70
     0
  9
$DIMSD2
 70
     0
  9
$DIMTOLJ
 70
     0
  9
$DIMTZIN
 70
     0
  9
$DIMALTZ
 70
     0
  9
$DIMALTTZ
 70
     0
  9
$DIMUPT
 70
     0
  9
$DIMDEC
 70
     2
  9
$DIMTDEC
 70
     2
  9
$DIMALTU
 70
     2
  9
$DIMALTTD
 70
     3
  9
$DIMTXSTY
  7
Standard
  9
$DIMAUNIT
 70
     0
  9
$DIMADEC
 70
     2
  9
$DIMALTRND
 40
0.0
  9
$DIMAZIN
 70
     0
  9
$DIMDSEP
 70
    44
  9
$DIMATFIT
 70
     3
  9
$DIMFRAC
 70
     0
  9
$DIMLDRBLK
  1

  9
$DIMLUNIT
 70
     2
  9
$DIMLWD
 70
    -2
  9
$DIMLWE
 70
    -2
  9
$DIMTMOVE
 70
     0
  9
$LUNITS
 70
     2
  9
$LUPREC
 70
     2
  9
$SKETCHINC
 40
1.0
  9
$FILLETRAD
 40
10.0
  9
$AUNITS
 70
     0
  9
$AUPREC
 70
     2
  9
$MENU
  1
.
  9
$ELEVATION
 40
0.0
  9
$PELEVATION
 40
0.0
  9
$THICKNESS
 40
0.0
  9
$LIMCHECK
 70
     0
  9
$CHAMFERA
 40
10.0
  9
$CHAMFERB
 40
10.0
  9
$CHAMFERC
 40
20.0
  9
$CHAMFERD
 40
0.0
  9
$SKPOLY
 70
     0
  9
$TDCREATE
 40
2456457.830677928
  9
$TDUCREATE
 40
2456457.747344595
  9
$TDUPDATE
 40
2456457.830678507
  9
$TDUUPDATE
 40
2456457.747345174
  9
$TDINDWG
 40
0.0000000116
  9
$TDUSRTIMER
 40
0.0000000116
  9
$USRTIMER
 70
     1
  9
$ANGBASE
 50
0.0
  9
$ANGDIR
 70
     0
  9
$PDMODE
 70
     0
  9
$PDSIZE
 40
-1.0
  9
$PLINEWID
 40
0.0
  9
$SPLFRAME
 70
     0
  9
$SPLINETYPE
 70
     6
  9
$SPLINESEGS
 70
     8
  9
$HANDSEED
  5
2BD
  9
$SURFTAB1
 70
     6
  9
$SURFTAB2
 70
     6
  9
$SURFTYPE
 70
     6
  9
$SURFU
 70
     6
  9
$SURFV
 70
     6
  9
$UCSBASE
  2

  9
$UCSNAME
  2

  9
$UCSORG
 10
0.0
 20
0.0
 30
0.0
  9
$UCSXDIR
 10
1.0
 20
0.0
 30
0.0
  9
$UCSYDIR
 10
0.0
 20
1.0
 30
0.0
  9
$UCSORTHOREF
  2

  9
$UCSORTHOVIEW
 70
     0
  9
$UCSORGTOP
 10
0.0
 20
0.0
 30
0.0
  9
$UCSORGBOTTOM
 10
0.0
 20
0.0
 30
0.0
  9
$UCSORGLEFT
 10
0.0
 20
0.0
 30
0.0
  9
$UCSORGRIGHT
 10
0.0
 20
0.0
 30
0.0
  9
$UCSORGFRONT
 10
0.0
 20
0.0
 30
0.0
  9
$UCSORGBACK
 10
0.0
 20
0.0
 30
0.0
  9
$PUCSBASE
  2

  9
$PUCSNAME
  2

  9
$PUCSORG
 10
0.0
 20
0.0
 30
0.0
  9
$PUCSXDIR
 10
1.0
 20
0.0
 30
0.0
  9
$PUCSYDIR
 10
0.0
 20
1.0
 30
0.0
  9
$PUCSORTHOREF
  2

  9
$PUCSORTHOVIEW
 70
     0
  9
$PUCSORGTOP
 10
0.0
 20
0.0
 30
0.0
  9
$PUCSORGBOTTOM
 10
0.0
 20
0.0
 30
0.0
  9
$PUCSORGLEFT
 10
0.0
 20
0.0
 30
0.0
  9
$PUCSORGRIGHT
 10
0.0
 20
0.0
 30
0.0
  9
$PUCSORGFRONT
 10
0.0
 20
0.0
 30
0.0
  9
$PUCSORGBACK
 10
0.0
 20
0.0
 30
0.0
  9
$USERI1
 70
     0
  9
$USERI2
 70
     0
  9
$USERI3
 70
     0
  9
$USERI4
 70
     0
  9
$USERI5
 70
     0
  9
$USERR1
 40
0.0
  9
$USERR2
 40
0.0
  9
$USERR3
 40
0.0
  9
$USERR4
 40
0.0
  9
$USERR5
 40
0.0
  9
$WORLDVIEW
 70
     1
  9
$SHADEDGE
 70
     3
  9
$SHADEDIF
 70
    70
  9
$TILEMODE
 70
     1
  9
$MAXACTVP
 70
    64
  9
$PINSBASE
 10
0.0
 20
0.0
 30
0.0
  9
$PLIMCHECK
 70
     0
  9
$PEXTMIN
 10
1.0000000000E+20
 20
1.0000000000E+20
 30
1.0000000000E+20
  9
$PEXTMAX
 10
-1.0000000000E+20
 20
-1.0000000000E+20
 30
-1.0000000000E+20
  9
$PLIMMIN
 10
0.0
 20
0.0
  9
$PLIMMAX
 10
420.0
 20
297.0
  9
$UNITMODE
 70
     0
  9
$VISRETAIN
 70
     1
  9
$PLINEGEN
 70
     0
  9
$PSLTSCALE
 70
     1
  9
$TREEDEPTH
 70
  3020
  9
$CMLSTYLE
  2
Standard
  9
$CMLJUST
 70
     0
  9
$CMLSCALE
 40
20.0
  9
$PROXYGRAPHICS
 70
     1
  9
$MEASUREMENT
 70
     1
  9
$CELWEIGHT
370
    -1
  9
$ENDCAPS
280
     0
  9
$JOINSTYLE
280
     0
  9
$LWDISPLAY
290
     1
  9
$INSUNITS
 70
     4
  9
$HYPERLINKBASE
  1

  9
$STYLESHEET
  1

  9
$XEDIT
290
     1
  9
$CEPSNTYPE
380
     0
  9
$PSTYLEMODE
290
     1
  9
$FINGERPRINTGUID
  2
{4DFB29DB-E169-48AC-9D0E-8AEFBD7943F9}
  9
$VERSIONGUID
  2
{FAEB1C32-E019-11D5-929B-00C0DF256EC4}
  9
$EXTNAMES
290
     1
  9
$PSVPSCALE
 40
0.0
  9
$OLESTARTUP
290
     0
  0
ENDSEC
  0
SECTION
  2
CLASSES
  0
CLASS
  1
ACDBDICTIONARYWDFLT
  2
AcDbDictionaryWithDefault
  3
ObjectDBX Classes
 90
        0
280
     0
281
     0
  0
CLASS
  1
VISUALSTYLE
  2
AcDbVisualStyle
  3
ObjectDBX Classes
 90
     4095
280
     0
281
     0
  0
CLASS
  1
MATERIAL
  2
AcDbMaterial
  3
ObjectDBX Classes
 90
     1153
280
     0
281
     0
  0
CLASS
  1
ACDBPLACEHOLDER
  2
AcDbPlaceHolder
  3
ObjectDBX Classes
 90
        0
280
     0
281
     0
  0
CLASS
  1
LAYOUT
  2
AcDbLayout
  3
ObjectDBX Classes
 90
        0
280
     0
281
     0
  0
ENDSEC
  0
SECTION
  2
TABLES
  0
TABLE
  2
VPORT
  5
8
330
0
100
AcDbSymbolTable
 70
     1
  0
VPORT
  5
29
330
8
100
AcDbSymbolTableRecord
100
AcDbViewportTableRecord
  2
*Active
 70
     0
 10
0.0
 20
0.0
 11
1.0
 21
1.0
 12
210.0
 22
148.5
 13
0.0
 23
0.0
 14
10.0
 24
10.0
 15
10.0
 25
10.0
 16
0.0
 26
0.0
 36
1.0
 17
0.0
 27
0.0
 37
0.0
 40
297.0
 41
1.4141414141
 42
50.0
 43
0.0
 44
0.0
 50
0.0
 51
0.0
 71
     0
 72
  2000
 73
     1
 74
     3
 75
     0
 76
     0
 77
     0
 78
     0
281
     0
 65
     1
110
0.0
120
0.0
130
0.0
111
1.0
121
0.0
131
0.0
112
0.0
122
1.0
132
0.0
 79
     0
146
0.0
  0
ENDTAB
  0
TABLE
  2
LTYPE
  5
5
330
0
100
AcDbSymbolTable
 70
     6
  0
LTYPE
  5
14
330
5
100
AcDbSymbolTableRecord
100
AcDbLinetypeTableRecord
  2
ByBlock
 70
     0
  3

 72
    65
 73
     0
 40
0.0
  0
LTYPE
  5
15
330
5
100
AcDbSymbolTableRecord
100
AcDbLinetypeTableRecord
  2
ByLayer
 70
     0
  3

 72
    65
 73
     0
 40
0.0
  0
LTYPE
  5
16
330
5
100
AcDbSymbolTableRecord
100
AcDbLinetypeTableRecord
  2
Continuous
 70
     0
  3
Solid line
 72
    65
 73
     0
 40
0.0
  0
LTYPE
  5
3F
330
5
100
AcDbSymbolTableRecord
100
AcDbLinetypeTableRecord
  2
HIDDEN
 70
     0
  3
Hidden __ __ __ __ __ __ __ __ __ __ __ __ __ __
 72
    65
 73
     2
 40
1.905
 49
1.27
 74
     0
 49
-0.635
 74
     0
  0
LTYPE
  5
40
330
5
100
AcDbSymbolTableRecord
100
AcDbLinetypeTableRecord
  2
PHANTOM
 70
     0
  3
Phantom ______  __  __  ______  __  __  ______
 72
    65
 73
     6
 40
12.7
 49
6.35
 74
     0
 49
-1.27
 74
     0
 49
1.27
 74
     0
 49
-1.27
 74
     0
 49
1.27
 74
     0
 49
-1.27
 74
     0
  0
LTYPE
  5
41
330
5
100
AcDbSymbolTableRecord
100
AcDbLinetypeTableRecord
  2
CENTER
 70
     0
  3
Center ____ _ ____ _ ____ _ ____ _ ____ _ ____
 72
    65
 73
     4
 40
10.16
 49
6.35
 74
     0
 49
-1.27
 74
     0
 49
1.27
 74
     0
 49
-1.27
 74
     0
  0
LTYPE
  5
42
330
5
100
AcDbSymbolTableRecord
100
AcDbLinetypeTableRecord
  2
CENTERX2
 70
     0
  3
Center (2x) ________  __  ________  __  _____
 72
    65
 73
     4
 40
20.32
 49
12.7
 74
     0
 49
-2.54
 74
     0
 49
2.54
 74
     0
 49
-2.54
 74
     0
  0
LTYPE
  5
43
330
5
100
AcDbSymbolTableRecord
100
AcDbLinetypeTableRecord
  2
DOT2
 70
     0
  3
Dot (.5x) ........................................
 72
    65
 73
     2
 40
0.635
 49
0.0
 74
     0
 49
-0.635
 74
     0
  0
ENDTAB
  0
TABLE
  2
LAYER
  5
2
330
0
100
AcDbSymbolTable
 70
     1
  0
LAYER
  5
10
330
2
100
AcDbSymbolTableRecord
100
AcDbLayerTableRecord
  2
0
 70
     0
 62
     7
  6
Continuous
370
    -3
390
F
  0
ENDTAB
  0
TABLE
  2
STYLE
  5
3
330
0
100
AcDbSymbolTable
 70
     2
  0
STYLE
  5
11
330
3
100
AcDbSymbolTableRecord
100
AcDbTextStyleTableRecord
  2
Standard
 70
     0
 40
0.0
 41
1.0
 50
0.0
 71
     0
 42
3.5
  3
txt
  4

  0
STYLE
  5
28F
330
3
100
AcDbSymbolTableRecord
100
AcDbTextStyleTableRecord
  2
SLDTEXTSTYLE0
 70
     0
 40
0.0
 41
0.75
 50
0.0
 71
     0
 42
0.2
  3
TXT
  4

  0
ENDTAB
  0
TABLE
  2
VIEW
  5
6
330
0
100
AcDbSymbolTable
 70
     0
  0
ENDTAB
  0
TABLE
  2
UCS
  5
7
330
0
100
AcDbSymbolTable
 70
     0
  0
ENDTAB
  0
TABLE
  2
APPID
  5
9
330
0
100
AcDbSymbolTable
 70
     1
  0
APPID
  5
12
330
9
100
AcDbSymbolTableRecord
100
AcDbRegAppTableRecord
  2
ACAD
 70
     0
  0
ENDTAB
  0
TABLE
  2
DIMSTYLE
  5
A
330
0
100
AcDbSymbolTable
 70
     3
100
AcDbDimStyleTable
  0
DIMSTYLE
105
27
330
A
100
AcDbSymbolTableRecord
100
AcDbDimStyleTableRecord
  2
ISO-25
 70
     0
 41
2.5
 42
0.625
 43
3.75
 44
1.25
 73
     0
 74
     0
 77
     1
 78
     8
140
2.5
141
2.5
143
0.0393700787
147
0.625
171
     3
172
     1
178
     0
271
     2
272
     2
274
     3
278
    44
283
     0
284
     8
340
11
  0
DIMSTYLE
105
290
102
{ACAD_REACTORS
330
28E
330
2A7
102
}
330
A
100
AcDbSymbolTableRecord
100
AcDbDimStyleTableRecord
  2
SLDDIMSTYLE0
 70
     0
 41
3.302
 44
0.0
 45
0.000000001
 73
     0
 74
     0
 77
     1
 78
    12
 79
     3
140
3.5
147
0.875
173
     1
178
     0
271
     2
272
     2
276
     2
284
    12
340
28F
  0
DIMSTYLE
105
29B
102
{ACAD_REACTORS
330
29A
330
2B1
102
}
330
A
100
AcDbSymbolTableRecord
100
AcDbDimStyleTableRecord
  2
SLDDIMSTYLE1
 70
     0
 41
3.302
 44
0.0
 45
0.000000001
 73
     0
 74
     0
 77
     1
 78
    12
 79
     3
140
3.5
147
0.875
172
     1
173
     1
178
     0
271
     2
272
     2
276
     2
284
    12
289
     0
340
28F
  0
ENDTAB
  0
TABLE
  2
BLOCK_RECORD
  5
1
330
0
100
AcDbSymbolTable
 70
     5
  0
BLOCK_RECORD
  5
1F
330
1
100
AcDbSymbolTableRecord
100
AcDbBlockTableRecord
  2
*Model_Space
340
22
  0
BLOCK_RECORD
  5
1B
330
1
100
AcDbSymbolTableRecord
100
AcDbBlockTableRecord
  2
*Paper_Space
340
1E
  0
BLOCK_RECORD
  5
23
330
1
100
AcDbSymbolTableRecord
100
AcDbBlockTableRecord
  2
*Paper_Space0
340
26
  0
BLOCK_RECORD
  5
291
330
1
100
AcDbSymbolTableRecord
100
AcDbBlockTableRecord
  2
_D
340
0
  0
BLOCK_RECORD
  5
29C
330
1
100
AcDbSymbolTableRecord
100
AcDbBlockTableRecord
  2
_D_1
340
0
  0
BLOCK_RECORD
  5
2A8
330
1
100
AcDbSymbolTableRecord
100
AcDbBlockTableRecord
  2
_D_2
340
0
  0
BLOCK_RECORD
  5
2B2
330
1
100
AcDbSymbolTableRecord
100
AcDbBlockTableRecord
  2
_D_3
340
0
  0
ENDTAB
  0
ENDSEC
  0
SECTION
  2
BLOCKS
  0
BLOCK
  5
20
330
1F
100
AcDbEntity
  8
0
100
AcDbBlockBegin
  2
*Model_Space
 70
     0
 10
0.0
 20
0.0
 30
0.0
  3
*Model_Space
  1

  0
ENDBLK
  5
21
330
1F
100
AcDbEntity
  8
0
100
AcDbBlockEnd
  0
BLOCK
  5
1C
330
1B
100
AcDbEntity
 67
     1
  8
0
100
AcDbBlockBegin
  2
*Paper_Space
 70
     0
 10
0.0
 20
0.0
 30
0.0
  3
*Paper_Space
  1

  0
ENDBLK
  5
1D
330
1B
100
AcDbEntity
 67
     1
  8
0
100
AcDbBlockEnd
  0
BLOCK
  5
24
330
23
100
AcDbEntity
  8
0
100
AcDbBlockBegin
  2
*Paper_Space0
 70
     0
 10
0.0
 20
0.0
 30
0.0
  3
*Paper_Space0
  1

  0
ENDBLK
  5
25
330
23
100
AcDbEntity
  8
0
100
AcDbBlockEnd
  0
BLOCK
  5
292
330
291
100
AcDbEntity
  8
0
100
AcDbBlockBegin
  2
_D
 70
     0
 10
0.0
 20
0.0
 30
0.0
  3
_D
  1

  0
SOLID
  5
294
330
291
100
AcDbEntity
  8
0
  6
Continuous
 62
     7
370
     0
100
AcDbTrace
 10
100.9016166617
 20
161.3913689095
 30
0.0
 11
100.3936166617
 21
158.0893689095
 31
0.0
 12
101.4096166617
 22
158.0893689095
 32
0.0
 13
101.4096166617
 23
158.0893689095
 33
0.0
  0
SOLID
  5
295
330
291
100
AcDbEntity
  8
0
  6
Continuous
 62
     7
370
     0
100
AcDbTrace
 10
100.9016166617
 20
131.3913689095
 30
0.0
 11
101.4096166617
 21
134.6933689095
 31
0.0
 12
100.3936166617
 22
134.6933689095
 32
0.0
 13
100.3936166617
 23
134.6933689095
 33
0.0
  0
LINE
  5
296
330
291
100
AcDbEntity
  8
0
  6
Continuous
 62
     7
370
     0
100
AcDbLine
 10
113.7428074246
 20
161.3913689095
 30
0.0
 11
99.9016166617
 21
161.3913689095
 31
0.0
  0
LINE
  5
297
330
291
100
AcDbEntity
  8
0
  6
Continuous
 62
     7
370
     0
100
AcDbLine
 10
113.7428074246
 20
131.3913689095
 30
0.0
 11
99.9016166617
 21
131.3913689095
 31
0.0
  0
LINE
  5
298
330
291
100
AcDbEntity
  8
0
  6
Continuous
 62
     7
370
     0
100
AcDbLine
 10
100.9016166617
 20
161.3913689095
 30
0.0
 11
100.9016166617
 21
131.3913689095
 31
0.0
  0
MTEXT
  5
299
330
291
100
AcDbEntity
  8
0
  6
Continuous
 62
     7
370
     0
100
AcDbMText
 10
96.3898797471
 20
142.507465012
 30
-49.9
 40
3.5
 41
0.0
 71
     1
 72
     1
  1
30
  7
SLDTEXTSTYLE0
 11
-3.491481338843133E-15
 21
1.0
 31
0.0
 73
     1
 44
1.0
  0
ENDBLK
  5
293
330
291
100
AcDbEntity
  8
0
100
AcDbBlockEnd
  0
BLOCK
  5
29D
330
29C
100
AcDbEntity
  8
0
100
AcDbBlockBegin
  2
_D_1
 70
     0
 10
0.0
 20
0.0
 30
0.0
  3
_D_1
  1

  0
SOLID
  5
29F
330
29C
100
AcDbEntity
  8
0
  6
Continuous
 62
     7
370
     0
100
AcDbTrace
 10
114.2428074246
 20
167.1236329912
 30
0.0
 11
110.9408074246
 21
167.6316329912
 31
0.0
 12
110.9408074246
 22
166.6156329912
 32
0.0
 13
110.9408074246
 23
166.6156329912
 33
0.0
  0
SOLID
  5
2A0
330
29C
100
AcDbEntity
  8
0
  6
Continuous
 62
     7
370
     0
100
AcDbTrace
 10
118.2428074246
 20
167.1236329912
 30
0.0
 11
121.5448074246
 21
166.6156329912
 31
0.0
 12
121.5448074246
 22
167.6316329912
 32
0.0
 13
121.5448074246
 23
167.6316329912
 33
0.0
  0
LINE
  5
2A1
330
29C
100
AcDbEntity
  8
0
  6
Continuous
 62
     7
370
     0
100
AcDbLine
 10
114.2428074246
 20
161.8913689095
 30
0.0
 11
114.2428074246
 21
168.1236329912
 31
0.0
  0
LINE
  5
2A2
330
29C
100
AcDbEntity
  8
0
  6
Continuous
 62
     7
370
     0
100
AcDbLine
 10
118.2428074246
 20
161.8913689095
 30
0.0
 11
118.2428074246
 21
168.1236329912
 31
0.0
  0
LINE
  5
2A3
330
29C
100
AcDbEntity
  8
0
  6
Continuous
 62
     7
370
     0
100
AcDbLine
 10
114.2428074246
 20
167.1236329912
 30
0.0
 11
107.8928074246
 21
167.1236329912
 31
0.0
  0
LINE
  5
2A4
330
29C
100
AcDbEntity
  8
0
  6
Continuous
 62
     7
370
     0
100
AcDbLine
 10
114.2428074246
 20
167.1236329912
 30
0.0
 11
118.2428074246
 21
167.1236329912
 31
0.0
  0
LINE
  5
2A5
330
29C
100
AcDbEntity
  8
0
  6
Continuous
 62
     7
370
     0
100
AcDbLine
 10
118.2428074246
 20
167.1236329912
 30
0.0
 11
124.5928074246
 21
167.1236329912
 31
0.0
  0
MTEXT
  5
2A6
330
29C
100
AcDbEntity
  8
0
  6
Continuous
 62
     7
370
     0
100
AcDbMText
 10
113.4739028452
 20
171.6353699058
 30
-49.9
 40
3.5
 41
0.0
 71
     1
 72
     1
  1
4
  7
SLDTEXTSTYLE0
 73
     1
 44
1.0
  0
ENDBLK
  5
29E
330
29C
100
AcDbEntity
  8
0
100
AcDbBlockEnd
  0
BLOCK
  5
2A9
330
2A8
100
AcDbEntity
  8
0
100
AcDbBlockBegin
  2
_D_2
 70
     0
 10
0.0
 20
0.0
 30
0.0
  3
_D_2
  1

  0
SOLID
  5
2AB
330
2A8
100
AcDbEntity
  8
0
  6
Continuous
 62
     7
370
     0
100
AcDbTrace
 10
114.2428074246
 20
112.9096907361
 30
0.0
 11
117.5448074246
 21
112.4016907361
 31
0.0
 12
117.5448074246
 22
113.4176907361
 32
0.0
 13
117.5448074246
 23
113.4176907361
 33
0.0
  0
SOLID
  5
2AC
330
2A8
100
AcDbEntity
  8
0
  6
Continuous
 62
     7
370
     0
100
AcDbTrace
 10
302.2428074246
 20
112.9096907361
 30
0.0
 11
298.9408074246
 21
113.4176907361
 31
0.0
 12
298.9408074246
 22
112.4016907361
 32
0.0
 13
298.9408074246
 23
112.4016907361
 33
0.0
  0
LINE
  5
2AD
330
2A8
100
AcDbEntity
  8
0
  6
Continuous
 62
     7
370
     0
100
AcDbLine
 10
114.2428074246
 20
130.8913689095
 30
0.0
 11
114.2428074246
 21
111.9096907361
 31
0.0
  0
LINE
  5
2AE
330
2A8
100
AcDbEntity
  8
0
  6
Continuous
 62
     7
370
     0
100
AcDbLine
 10
302.2428074246
 20
130.8913689095
 30
0.0
 11
302.2428074246
 21
111.9096907361
 31
0.0
  0
LINE
  5
2AF
330
2A8
100
AcDbEntity
  8
0
  6
Continuous
 62
     7
370
     0
100
AcDbLine
 10
114.2428074246
 20
112.9096907361
 30
0.0
 11
302.2428074246
 21
112.9096907361
 31
0.0
  0
MTEXT
  5
2B0
330
2A8
100
AcDbEntity
  8
0
  6
Continuous
 62
     7
370
     0
100
AcDbMText
 10
204.6833579176
 20
117.4214276507
 30
-49.9
 40
3.5
 41
0.0
 71
     1
 72
     1
  1
188
  7
SLDTEXTSTYLE0
 73
     1
 44
1.0
  0
ENDBLK
  5
2AA
330
2A8
100
AcDbEntity
  8
0
100
AcDbBlockEnd
  0
BLOCK
  5
2B3
330
2B2
100
AcDbEntity
  8
0
100
AcDbBlockBegin
  2
_D_3
 70
     0
 10
0.0
 20
0.0
 30
0.0
  3
_D_3
  1

  0
SOLID
  5
2B5
330
2B2
100
AcDbEntity
  8
0
  6
Continuous
 62
     7
370
     0
100
AcDbTrace
 10
312.2428074246
 20
131.3913689095
 30
0.0
 11
311.7348074246
 21
128.0893689095
 31
0.0
 12
312.7508074246
 22
128.0893689095
 32
0.0
 13
312.7508074246
 23
128.0893689095
 33
0.0
  0
SOLID
  5
2B6
330
2B2
100
AcDbEntity
  8
0
  6
Continuous
 62
     7
370
     0
100
AcDbTrace
 10
312.2428074246
 20
139.3913689095
 30
0.0
 11
312.7508074246
 21
142.6933689095
 31
0.0
 12
311.7348074246
 22
142.6933689095
 32
0.0
 13
311.7348074246
 23
142.6933689095
 33
0.0
  0
LINE
  5
2B7
330
2B2
100
AcDbEntity
  8
0
  6
Continuous
 62
     7
370
     0
100
AcDbLine
 10
302.7428074246
 20
131.3913689095
 30
0.0
 11
313.2428074246
 21
131.3913689095
 31
0.0
  0
LINE
  5
2B8
330
2B2
100
AcDbEntity
  8
0
  6
Continuous
 62
     7
370
     0
100
AcDbLine
 10
298.7428074246
 20
139.3913689095
 30
0.0
 11
313.2428074246
 21
139.3913689095
 31
0.0
  0
LINE
  5
2B9
330
2B2
100
AcDbEntity
  8
0
  6
Continuous
 62
     7
370
     0
100
AcDbLine
 10
312.2428074246
 20
131.3913689095
 30
0.0
 11
312.2428074246
 21
125.0413689095
 31
0.0
  0
LINE
  5
2BA
330
2B2
100
AcDbEntity
  8
0
  6
Continuous
 62
     7
370
     0
100
AcDbLine
 10
312.2428074246
 20
131.3913689095
 30
0.0
 11
312.2428074246
 21
139.3913689095
 31
0.0
  0
LINE
  5
2BB
330
2B2
100
AcDbEntity
  8
0
  6
Continuous
 62
     7
370
     0
100
AcDbLine
 10
312.2428074246
 20
139.3913689095
 30
0.0
 11
312.2428074246
 21
145.7413689095
 31
0.0
  0
MTEXT
  5
2BC
330
2B2
100
AcDbEntity
  8
0
  6
Continuous
 62
     7
370
     0
100
AcDbMText
 10
307.73107051
 20
132.742987416
 30
-49.9
 40
3.5
 41
0.0
 71
     1
 72
     1
  1
8
  7
SLDTEXTSTYLE0
 11
3.391901413832837E-15
 21
1.0
 31
0.0
 73
     1
 44
1.0
  0
ENDBLK
  5
2B4
330
2B2
100
AcDbEntity
  8
0
100
AcDbBlockEnd
  0
ENDSEC
  0
SECTION
  2
ENTITIES
  0
LINE
  5
44
330
1F
100
AcDbEntity
  8
0
  6
Continuous
 62
     7
370
    15
100
AcDbLine
 10
114.742805377
 20
131.3913721428
 30
0.0
 11
301.7428043637
 21
131.3913721428
 31
0.0
  0
ARC
  5
45
330
1F
100
AcDbEntity
  8
0
  6
Continuous
 62
     7
370
    15
100
AcDbCircle
 10
114.7428074246
 20
131.8913689095
 30
0.0
 40
0.5
100
AcDbArc
 50
180.0
 51
270.0
  0
LINE
  5
46
330
1F
100
AcDbEntity
  8
0
  6
Continuous
 62
     7
370
    15
100
AcDbLine
 10
114.2428043637
 20
160.8913723216
 30
0.0
 11
114.2428043637
 21
131.8913657055
 31
0.0
  0
ARC
  5
47
330
1F
100
AcDbEntity
  8
0
  6
Continuous
 62
     7
370
    15
100
AcDbCircle
 10
114.7428074246
 20
160.8913689095
 30
0.0
 40
0.5
100
AcDbArc
 50
90.0
 51
180.0
  0
LINE
  5
48
330
1F
100
AcDbEntity
  8
0
  6
Continuous
 62
     7
370
    15
100
AcDbLine
 10
117.7428040061
 20
161.3913658843
 30
0.0
 11
114.742805377
 21
161.3913658843
 31
0.0
  0
ARC
  5
49
330
1F
100
AcDbEntity
  8
0
  6
Continuous
 62
     7
370
    15
100
AcDbCircle
 10
117.7428074246
 20
160.8913689095
 30
0.0
 40
0.5
100
AcDbArc
 50
0.0
 51
90.0
  0
LINE
  5
4A
330
1F
100
AcDbEntity
  8
0
  6
Continuous
 62
     7
370
    15
100
AcDbLine
 10
118.2428050193
 20
139.8913670168
 30
0.0
 11
118.2428050193
 21
160.8913723216
 31
0.0
  0
ARC
  5
4B
330
1F
100
AcDbEntity
  8
0
  6
Continuous
 62
     7
370
    15
100
AcDbCircle
 10
118.7428074246
 20
139.8913689095
 30
0.0
 40
0.5
100
AcDbArc
 50
180.0
 51
270.0
  0
LINE
  5
4C
330
1F
100
AcDbEntity
  8
0
  6
Continuous
 62
     7
370
    15
100
AcDbLine
 10
125.963662878
 20
139.3913660035
 30
0.0
 11
118.7428060326
 21
139.3913660035
 31
0.0
  0
ARC
  5
4D
330
1F
100
AcDbEntity
  8
0
  6
Continuous
 62
     7
370
    15
100
AcDbCircle
 10
125.9636612717
 20
139.8913689095
 30
0.0
 40
0.5
100
AcDbArc
 50
270.0
 51
357.559798795
  0
LINE
  5
4E
330
1F
100
AcDbEntity
  8
0
  6
Continuous
 62
     7
370
    15
100
AcDbLine
 10
126.6219812784
 20
143.5958999977
 30
0.0
 11
126.4632094059
 21
139.870080708
 31
0.0
  0
ARC
  5
4F
330
1F
100
AcDbEntity
  8
0
  6
Continuous
 62
     7
370
    15
100
AcDbCircle
 10
129.4194458079
 20
143.4766853391
 30
0.0
 40
2.799999999999972
100
AcDbArc
 50
162.2009132142
 51
177.559798795
  0
ARC
  5
50
330
1F
100
AcDbEntity
  8
0
  6
Continuous
 62
     7
370
    15
100
AcDbCircle
 10
124.0874939241
 20
145.1884940632
 30
0.0
 40
2.80000000000007
100
AcDbArc
 50
342.2009132142
 51
12.9186843758
  0
ARC
  5
51
330
1F
100
AcDbEntity
  8
0
  6
Continuous
 62
     7
370
    15
100
AcDbCircle
 10
129.545748626
 20
146.4404747375
 30
0.0
 40
2.799999999999919
100
AcDbArc
 50
162.2009132142
 51
192.9186843758
  0
ARC
  5
52
330
1F
100
AcDbEntity
  8
0
  6
Continuous
 62
     7
370
    15
100
AcDbCircle
 10
124.2137967422
 20
148.1522834617
 30
0.0
 40
2.800000000000043
100
AcDbArc
 50
342.2009132142
 51
12.9186843758
  0
ARC
  5
53
330
1F
100
AcDbEntity
  8
0
  6
Continuous
 62
     7
370
    15
100
AcDbCircle
 10
129.6720514441
 20
149.4042641359
 30
0.0
 40
2.799999999999967
100
AcDbArc
 50
162.2009132142
 51
192.9186843758
  0
ARC
  5
54
330
1F
100
AcDbEntity
  8
0
  6
Continuous
 62
     7
370
    15
100
AcDbCircle
 10
124.3400995602
 20
151.1160728601
 30
0.0
 40
2.800000000000035
100
AcDbArc
 50
342.2009132142
 51
12.9186843758
  0
ARC
  5
55
330
1F
100
AcDbEntity
  8
0
  6
Continuous
 62
     7
370
    15
100
AcDbCircle
 10
129.7983542622
 20
152.3680535343
 30
0.0
 40
2.799999999999975
100
AcDbArc
 50
162.2009132142
 51
192.9186843758
  0
ARC
  5
56
330
1F
100
AcDbEntity
  8
0
  6
Continuous
 62
     7
370
    15
100
AcDbCircle
 10
124.4664023783
 20
154.0798622585
 30
0.0
 40
2.800000000000063
100
AcDbArc
 50
342.2009132142
 51
12.9186843758
  0
ARC
  5
57
330
1F
100
AcDbEntity
  8
0
  6
Continuous
 62
     7
370
    15
100
AcDbCircle
 10
129.9246570803
 20
155.3318429327
 30
0.0
 40
2.800000000000022
100
AcDbArc
 50
162.2009132142
 51
192.9186843758
  0
ARC
  5
58
330
1F
100
AcDbEntity
  8
0
  6
Continuous
 62
     7
370
    15
100
AcDbCircle
 10
124.5927051964
 20
157.0436516569
 30
0.0
 40
2.800000000000018
100
AcDbArc
 50
342.2009132142
 51
12.9186843758
  0
ARC
  5
59
330
1F
100
AcDbEntity
  8
0
  6
Continuous
 62
     7
370
    15
100
AcDbCircle
 10
130.0509598984
 20
158.2956323311
 30
0.0
 40
2.800000000000725
100
AcDbArc
 50
177.559798795
 51
192.9186843758
  0
LINE
  5
5A
330
1F
100
AcDbEntity
  8
0
  6
Continuous
 62
     7
370
    15
100
AcDbLine
 10
127.3436221632
 20
160.5296913371
 30
0.0
 11
127.2534999403
 21
158.4148440347
 31
0.0
  0
ARC
  5
5B
330
1F
100
AcDbEntity
  8
0
  6
Continuous
 62
     7
370
    15
100
AcDbCircle
 10
128.2428074246
 20
160.4913689095
 30
0.0
 40
0.9000000000000045
100
AcDbArc
 50
2.440201205
 51
177.559798795
  0
LINE
  5
5C
330
1F
100
AcDbEntity
  8
0
  6
Continuous
 62
     7
370
    15
100
AcDbLine
 10
129.2321133766
 20
158.4148440347
 30
0.0
 11
129.1419911537
 21
160.5296913371
 31
0.0
  0
ARC
  5
5D
330
1F
100
AcDbEntity
  8
0
  6
Continuous
 62
     7
370
    15
100
AcDbCircle
 10
126.4346549508
 20
158.2956323311
 30
0.0
 40
2.799999999999964
100
AcDbArc
 50
347.0813156242
 51
2.4402012051
  0
ARC
  5
5E
330
1F
100
AcDbEntity
  8
0
  6
Continuous
 62
     7
370
    15
100
AcDbCircle
 10
131.8929096528
 20
157.0436516569
 30
0.0
 40
2.799999999999999
100
AcDbArc
 50
167.0813156242
 51
197.7990867858
  0
ARC
  5
5F
330
1F
100
AcDbEntity
  8
0
  6
Continuous
 62
     7
370
    15
100
AcDbCircle
 10
126.5609577689
 20
155.3318429327
 30
0.0
 40
2.800000000000056
100
AcDbArc
 50
347.0813156242
 51
17.7990867858
  0
ARC
  5
60
330
1F
100
AcDbEntity
  8
0
  6
Continuous
 62
     7
370
    15
100
AcDbCircle
 10
132.0192124708
 20
154.0798622585
 30
0.0
 40
2.800000000000002
100
AcDbArc
 50
167.0813156242
 51
197.7990867858
  0
ARC
  5
61
330
1F
100
AcDbEntity
  8
0
  6
Continuous
 62
     7
370
    15
100
AcDbCircle
 10
126.687260587
 20
152.3680535343
 30
0.0
 40
2.800000000000016
100
AcDbArc
 50
347.0813156242
 51
17.7990867858
  0
ARC
  5
62
330
1F
100
AcDbEntity
  8
0
  6
Continuous
 62
     7
370
    15
100
AcDbCircle
 10
132.1455152889
 20
151.1160728601
 30
0.0
 40
2.800000000000008
100
AcDbArc
 50
167.0813156242
 51
197.7990867858
  0
ARC
  5
63
330
1F
100
AcDbEntity
  8
0
  6
Continuous
 62
     7
370
    15
100
AcDbCircle
 10
126.8135634051
 20
149.4042641359
 30
0.0
 40
2.799999999999987
100
AcDbArc
 50
347.0813156242
 51
17.7990867858
  0
ARC
  5
64
330
1F
100
AcDbEntity
  8
0
  6
Continuous
 62
     7
370
    15
100
AcDbCircle
 10
132.271818107
 20
148.1522834617
 30
0.0
 40
2.799999999999995
100
AcDbArc
 50
167.0813156242
 51
197.7990867858
  0
ARC
  5
65
330
1F
100
AcDbEntity
  8
0
  6
Continuous
 62
     7
370
    15
100
AcDbCircle
 10
126.9398662232
 20
146.4404747375
 30
0.0
 40
2.799999999999995
100
AcDbArc
 50
347.0813156242
 51
17.7990867858
  0
ARC
  5
66
330
1F
100
AcDbEntity
  8
0
  6
Continuous
 62
     7
370
    15
100
AcDbCircle
 10
132.3981209251
 20
145.1884940632
 30
0.0
 40
2.79999999999998
100
AcDbArc
 50
167.0813156242
 51
197.7990867858
  0
ARC
  5
67
330
1F
100
AcDbEntity
  8
0
  6
Continuous
 62
     7
370
    15
100
AcDbCircle
 10
127.0661690413
 20
143.4766853391
 30
0.0
 40
2.800000000000043
100
AcDbArc
 50
2.440201205
 51
17.7990867858
  0
LINE
  5
68
330
1F
100
AcDbEntity
  8
0
  6
Continuous
 62
     7
370
    15
100
AcDbLine
 10
130.0224039111
 20
139.870080708
 30
0.0
 11
129.8636320385
 21
143.5958999977
 31
0.0
  0
ARC
  5
69
330
1F
100
AcDbEntity
  8
0
  6
Continuous
 62
     7
370
    15
100
AcDbCircle
 10
130.5219535775
 20
139.8913689095
 30
0.0
 40
0.5
100
AcDbArc
 50
182.440201205
 51
270.0
  0
LINE
  5
6A
330
1F
100
AcDbEntity
  8
0
  6
Continuous
 62
     7
370
    15
100
AcDbLine
 10
134.8525482568
 20
139.3913660035
 30
0.0
 11
130.5219504389
 21
139.3913660035
 31
0.0
  0
ARC
  5
6B
330
1F
100
AcDbEntity
  8
0
  6
Continuous
 62
     7
370
    15
100
AcDbCircle
 10
134.8525501605
 20
139.8913689095
 30
0.0
 40
0.5000000000000022
100
AcDbArc
 50
270.0
 51
357.559798795
  0
LINE
  5
6C
330
1F
100
AcDbEntity
  8
0
  6
Continuous
 62
     7
370
    15
100
AcDbLine
 10
135.5108741078
 20
143.5958999977
 30
0.0
 11
135.3520947847
 21
139.870080708
 31
0.0
  0
ARC
  5
6D
330
1F
100
AcDbEntity
  8
0
  6
Continuous
 62
     7
370
    15
100
AcDbCircle
 10
138.3083346968
 20
143.4766853391
 30
0.0
 40
2.799999999999958
100
AcDbArc
 50
162.2009132142
 51
177.559798795
  0
ARC
  5
6E
330
1F
100
AcDbEntity
  8
0
  6
Continuous
 62
     7
370
    15
100
AcDbCircle
 10
132.9763828129
 20
145.1884940632
 30
0.0
 40
2.800000000000042
100
AcDbArc
 50
342.2009132142
 51
12.9186843758
  0
ARC
  5
6F
330
1F
100
AcDbEntity
  8
0
  6
Continuous
 62
     7
370
    15
100
AcDbCircle
 10
138.4346375149
 20
146.4404747375
 30
0.0
 40
2.799999999999961
100
AcDbArc
 50
162.2009132142
 51
192.9186843758
  0
ARC
  5
70
330
1F
100
AcDbEntity
  8
0
  6
Continuous
 62
     7
370
    15
100
AcDbCircle
 10
133.102685631
 20
148.1522834617
 30
0.0
 40
2.800000000000029
100
AcDbArc
 50
342.2009132142
 51
12.9186843758
  0
ARC
  5
71
330
1F
100
AcDbEntity
  8
0
  6
Continuous
 62
     7
370
    15
100
AcDbCircle
 10
138.560940333
 20
149.4042641359
 30
0.0
 40
2.799999999999995
100
AcDbArc
 50
162.2009132142
 51
192.9186843758
  0
ARC
  5
72
330
1F
100
AcDbEntity
  8
0
  6
Continuous
 62
     7
370
    15
100
AcDbCircle
 10
133.2289884491
 20
151.1160728601
 30
0.0
 40
2.800000000000035
100
AcDbArc
 50
342.2009132142
 51
12.9186843758
  0
ARC
  5
73
330
1F
100
AcDbEntity
  8
0
  6
Continuous
 62
     7
370
    15
100
AcDbCircle
 10
138.6872431511
 20
152.3680535343
 30
0.0
 40
2.799999999999933
100
AcDbArc
 50
162.2009132142
 51
192.9186843758
  0
ARC
  5
74
330
1F
100
AcDbEntity
  8
0
  6
Continuous
 62
     7
370
    15
100
AcDbCircle
 10
133.3552912672
 20
154.0798622585
 30
0.0
 40
2.800000000000063
100
AcDbArc
 50
342.2009132142
 51
12.9186843758
  0
ARC
  5
75
330
1F
100
AcDbEntity
  8
0
  6
Continuous
 62
     7
370
    15
100
AcDbCircle
 10
138.8135459692
 20
155.3318429327
 30
0.0
 40
2.800000000000035
100
AcDbArc
 50
162.2009132142
 51
192.9186843758
  0
ARC
  5
76
330
1F
100
AcDbEntity
  8
0
  6
Continuous
 62
     7
370
    15
100
AcDbCircle
 10
133.4815940853
 20
157.0436516569
 30
0.0
 40
2.800000000000045
100
AcDbArc
 50
342.2009132142
 51
12.9186843758
  0
ARC
  5
77
330
1F
100
AcDbEntity
  8
0
  6
Continuous
 62
     7
370
    15
100
AcDbCircle
 10
138.9398487873
 20
158.2956323311
 30
0.0
 40
2.800000000000753
100
AcDbArc
 50
177.559798795
 51
192.9186843758
  0
LINE
  5
78
330
1F
100
AcDbEntity
  8
0
  6
Continuous
 62
     7
370
    15
100
AcDbLine
 10
136.2325149927
 20
160.5296913371
 30
0.0
 11
136.1423853192
 21
158.4148440347
 31
0.0
  0
ARC
  5
79
330
1F
100
AcDbEntity
  8
0
  6
Continuous
 62
     7
370
    15
100
AcDbCircle
 10
137.1316963135
 20
160.4913689095
 30
0.0
 40
0.8999999999999915
100
AcDbArc
 50
2.440201205
 51
177.559798795
  0
LINE
  5
7A
330
1F
100
AcDbEntity
  8
0
  6
Continuous
 62
     7
370
    15
100
AcDbLine
 10
138.121006206
 20
158.4148440347
 30
0.0
 11
138.0308765325
 21
160.5296913371
 31
0.0
  0
ARC
  5
7B
330
1F
100
AcDbEntity
  8
0
  6
Continuous
 62
     7
370
    15
100
AcDbCircle
 10
135.3235438397
 20
158.2956323311
 30
0.0
 40
2.799999999999964
100
AcDbArc
 50
347.0813156242
 51
2.4402012051
  0
ARC
  5
7C
330
1F
100
AcDbEntity
  8
0
  6
Continuous
 62
     7
370
    15
100
AcDbCircle
 10
140.7817985416
 20
157.0436516569
 30
0.0
 40
2.799999999999999
100
AcDbArc
 50
167.0813156242
 51
197.7990867858
  0
ARC
  5
7D
330
1F
100
AcDbEntity
  8
0
  6
Continuous
 62
     7
370
    15
100
AcDbCircle
 10
135.4498466578
 20
155.3318429327
 30
0.0
 40
2.800000000000097
100
AcDbArc
 50
347.0813156242
 51
17.7990867858
  0
ARC
  5
7E
330
1F
100
AcDbEntity
  8
0
  6
Continuous
 62
     7
370
    15
100
AcDbCircle
 10
140.9081013597
 20
154.0798622585
 30
0.0
 40
2.799999999999974
100
AcDbArc
 50
167.0813156242
 51
197.7990867858
  0
ARC
  5
7F
330
1F
100
AcDbEntity
  8
0
  6
Continuous
 62
     7
370
    15
100
AcDbCircle
 10
135.5761494759
 20
152.3680535343
 30
0.0
 40
2.799999999999989
100
AcDbArc
 50
347.0813156242
 51
17.7990867858
  0
ARC
  5
80
330
1F
100
AcDbEntity
  8
0
  6
Continuous
 62
     7
370
    15
100
AcDbCircle
 10
141.0344041778
 20
151.1160728601
 30
0.0
 40
2.800000000000008
100
AcDbArc
 50
167.0813156242
 51
197.7990867858
  0
ARC
  5
81
330
1F
100
AcDbEntity
  8
0
  6
Continuous
 62
     7
370
    15
100
AcDbCircle
 10
135.702452294
 20
149.4042641359
 30
0.0
 40
2.799999999999974
100
AcDbArc
 50
347.0813156242
 51
17.7990867858
  0
ARC
  5
82
330
1F
100
AcDbEntity
  8
0
  6
Continuous
 62
     7
370
    15
100
AcDbCircle
 10
141.1607069959
 20
148.1522834617
 30
0.0
 40
2.799999999999995
100
AcDbArc
 50
167.0813156242
 51
197.7990867858
  0
ARC
  5
83
330
1F
100
AcDbEntity
  8
0
  6
Continuous
 62
     7
370
    15
100
AcDbCircle
 10
135.8287551121
 20
146.4404747375
 30
0.0
 40
2.799999999999995
100
AcDbArc
 50
347.0813156242
 51
17.7990867858
  0
ARC
  5
84
330
1F
100
AcDbEntity
  8
0
  6
Continuous
 62
     7
370
    15
100
AcDbCircle
 10
141.287009814
 20
145.1884940632
 30
0.0
 40
2.800000000000008
100
AcDbArc
 50
167.0813156242
 51
197.7990867858
  0
ARC
  5
85
330
1F
100
AcDbEntity
  8
0
  6
Continuous
 62
     7
370
    15
100
AcDbCircle
 10
135.9550579302
 20
143.4766853391
 30
0.0
 40
2.800000000000043
100
AcDbArc
 50
2.440201205
 51
17.7990867858
  0
LINE
  5
86
330
1F
100
AcDbEntity
  8
0
  6
Continuous
 62
     7
370
    15
100
AcDbLine
 10
138.9112967405
 20
139.870080708
 30
0.0
 11
138.7525174174
 21
143.5958999977
 31
0.0
  0
ARC
  5
87
330
1F
100
AcDbEntity
  8
0
  6
Continuous
 62
     7
370
    15
100
AcDbCircle
 10
139.4108424664
 20
139.8913689095
 30
0.0
 40
0.5
100
AcDbArc
 50
182.440201205
 51
270.0
  0
LINE
  5
88
330
1F
100
AcDbEntity
  8
0
  6
Continuous
 62
     7
370
    15
100
AcDbLine
 10
143.7414410862
 20
139.3913660035
 30
0.0
 11
139.4108432683
 21
139.3913660035
 31
0.0
  0
ARC
  5
89
330
1F
100
AcDbEntity
  8
0
  6
Continuous
 62
     7
370
    15
100
AcDbCircle
 10
143.7414390494
 20
139.8913689095
 30
0.0
 40
0.5000000000000306
100
AcDbArc
 50
270.0
 51
357.559798795
  0
LINE
  5
8A
330
1F
100
AcDbEntity
  8
0
  6
Continuous
 62
     7
370
    15
100
AcDbLine
 10
144.3997594866
 20
143.5958999977
 30
0.0
 11
144.2409876141
 21
139.870080708
 31
0.0
  0
ARC
  5
8B
330
1F
100
AcDbEntity
  8
0
  6
Continuous
 62
     7
370
    15
100
AcDbCircle
 10
147.1972235857
 20
143.4766853391
 30
0.0
 40
2.799999999999958
100
AcDbArc
 50
162.2009132142
 51
177.559798795
  0
ARC
  5
8C
330
1F
100
AcDbEntity
  8
0
  6
Continuous
 62
     7
370
    15
100
AcDbCircle
 10
141.8652717018
 20
145.1884940632
 30
0.0
 40
2.800000000000042
100
AcDbArc
 50
342.2009132142
 51
12.9186843758
  0
ARC
  5
8D
330
1F
100
AcDbEntity
  8
0
  6
Continuous
 62
     7
370
    15
100
AcDbCircle
 10
147.3235264038
 20
146.4404747375
 30
0.0
 40
2.799999999999961
100
AcDbArc
 50
162.2009132142
 51
192.9186843758
  0
ARC
  5
8E
330
1F
100
AcDbEntity
  8
0
  6
Continuous
 62
     7
370
    15
100
AcDbCircle
 10
141.9915745199
 20
148.1522834617
 30
0.0
 40
2.80000000000001
100
AcDbArc
 50
342.2009132142
 51
12.9186843758
  0
ARC
  5
8F
330
1F
100
AcDbEntity
  8
0
  6
Continuous
 62
     7
370
    15
100
AcDbCircle
 10
147.4498292219
 20
149.4042641359
 30
0.0
 40
2.799999999999995
100
AcDbArc
 50
162.2009132142
 51
192.9186843758
  0
ARC
  5
90
330
1F
100
AcDbEntity
  8
0
  6
Continuous
 62
     7
370
    15
100
AcDbCircle
 10
142.117877338
 20
151.1160728601
 30
0.0
 40
2.800000000000063
100
AcDbArc
 50
342.2009132142
 51
12.9186843758
  0
ARC
  5
91
330
1F
100
AcDbEntity
  8
0
  6
Continuous
 62
     7
370
    15
100
AcDbCircle
 10
147.57613204
 20
152.3680535343
 30
0.0
 40
2.799999999999965
100
AcDbArc
 50
162.2009132142
 51
192.9186843758
  0
ARC
  5
92
330
1F
100
AcDbEntity
  8
0
  6
Continuous
 62
     7
370
    15
100
AcDbCircle
 10
142.2441801561
 20
154.0798622585
 30
0.0
 40
2.800000000000063
100
AcDbArc
 50
342.2009132142
 51
12.9186843758
  0
ARC
  5
93
330
1F
100
AcDbEntity
  8
0
  6
Continuous
 62
     7
370
    15
100
AcDbCircle
 10
147.7024348581
 20
155.3318429327
 30
0.0
 40
2.800000000000008
100
AcDbArc
 50
162.2009132142
 51
192.9186843758
  0
ARC
  5
94
330
1F
100
AcDbEntity
  8
0
  6
Continuous
 62
     7
370
    15
100
AcDbCircle
 10
142.3704829742
 20
157.0436516569
 30
0.0
 40
2.800000000000018
100
AcDbArc
 50
342.2009132142
 51
12.9186843758
  0
ARC
  5
95
330
1F
100
AcDbEntity
  8
0
  6
Continuous
 62
     7
370
    15
100
AcDbCircle
 10
147.8287376762
 20
158.2956323311
 30
0.0
 40
2.800000000000753
100
AcDbArc
 50
177.559798795
 51
192.9186843758
  0
LINE
  5
96
330
1F
100
AcDbEntity
  8
0
  6
Continuous
 62
     7
370
    15
100
AcDbLine
 10
145.1214003715
 20
160.5296913371
 30
0.0
 11
145.0312781486
 21
158.4148440347
 31
0.0
  0
ARC
  5
97
330
1F
100
AcDbEntity
  8
0
  6
Continuous
 62
     7
370
    15
100
AcDbCircle
 10
146.0205852024
 20
160.4913689095
 30
0.0
 40
0.9000000000000187
100
AcDbArc
 50
2.440201205
 51
177.559798795
  0
LINE
  5
98
330
1F
100
AcDbEntity
  8
0
  6
Continuous
 62
     7
370
    15
100
AcDbLine
 10
147.0098915848
 20
158.4148440347
 30
0.0
 11
146.9197693619
 21
160.5296913371
 31
0.0
  0
ARC
  5
99
330
1F
100
AcDbEntity
  8
0
  6
Continuous
 62
     7
370
    15
100
AcDbCircle
 10
144.2124327286
 20
158.2956323311
 30
0.0
 40
2.79999999999998
100
AcDbArc
 50
347.0813156242
 51
2.4402012051
  0
ARC
  5
9A
330
1F
100
AcDbEntity
  8
0
  6
Continuous
 62
     7
370
    15
100
AcDbCircle
 10
149.6706874305
 20
157.0436516569
 30
0.0
 40
2.799999999999972
100
AcDbArc
 50
167.0813156242
 51
197.7990867858
  0
ARC
  5
9B
330
1F
100
AcDbEntity
  8
0
  6
Continuous
 62
     7
370
    15
100
AcDbCircle
 10
144.3387355467
 20
155.3318429327
 30
0.0
 40
2.800000000000097
100
AcDbArc
 50
347.0813156242
 51
17.7990867858
  0
ARC
  5
9C
330
1F
100
AcDbEntity
  8
0
  6
Continuous
 62
     7
370
    15
100
AcDbCircle
 10
149.7969902486
 20
154.0798622585
 30
0.0
 40
2.800000000000002
100
AcDbArc
 50
167.0813156242
 51
197.7990867858
  0
ARC
  5
9D
330
1F
100
AcDbEntity
  8
0
  6
Continuous
 62
     7
370
    15
100
AcDbCircle
 10
144.4650383648
 20
152.3680535343
 30
0.0
 40
2.799999999999992
100
AcDbArc
 50
347.0813156242
 51
17.7990867858
  0
ARC
  5
9E
330
1F
100
AcDbEntity
  8
0
  6
Continuous
 62
     7
370
    15
100
AcDbCircle
 10
149.9232930667
 20
151.1160728601
 30
0.0
 40
2.800000000000008
100
AcDbArc
 50
167.0813156242
 51
197.7990867858
  0
ARC
  5
9F
330
1F
100
AcDbEntity
  8
0
  6
Continuous
 62
     7
370
    15
100
AcDbCircle
 10
144.5913411829
 20
149.4042641359
 30
0.0
 40
2.800000000000002
100
AcDbArc
 50
347.0813156242
 51
17.7990867858
  0
ARC
  5
A0
330
1F
100
AcDbEntity
  8
0
  6
Continuous
 62
     7
370
    15
100
AcDbCircle
 10
150.0495958848
 20
148.1522834617
 30
0.0
 40
2.799999999999967
100
AcDbArc
 50
167.0813156242
 51
197.7990867858
  0
ARC
  5
A1
330
1F
100
AcDbEntity
  8
0
  6
Continuous
 62
     7
370
    15
100
AcDbCircle
 10
144.717644001
 20
146.4404747375
 30
0.0
 40
2.799999999999995
100
AcDbArc
 50
347.0813156242
 51
17.7990867858
  0
ARC
  5
A2
330
1F
100
AcDbEntity
  8
0
  6
Continuous
 62
     7
370
    15
100
AcDbCircle
 10
150.1758987029
 20
145.1884940632
 30
0.0
 40
2.800000000000008
100
AcDbArc
 50
167.0813156242
 51
197.7990867858
  0
ARC
  5
A3
330
1F
100
AcDbEntity
  8
0
  6
Continuous
 62
     7
370
    15
100
AcDbCircle
 10
144.843946819
 20
143.4766853391
 30
0.0
 40
2.800000000000043
100
AcDbArc
 50
2.440201205
 51
17.7990867858
  0
LINE
  5
A4
330
1F
100
AcDbEntity
  8
0
  6
Continuous
 62
     7
370
    15
100
AcDbLine
 10
147.8001821193
 20
139.870080708
 30
0.0
 11
147.6414102468
 21
143.5958999977
 31
0.0
  0
ARC
  5
A5
330
1F
100
AcDbEntity
  8
0
  6
Continuous
 62
     7
370
    15
100
AcDbCircle
 10
148.2997313553
 20
139.8913689095
 30
0.0
 40
0.5000000000000022
100
AcDbArc
 50
182.440201205
 51
270.0
  0
LINE
  5
A6
330
1F
100
AcDbEntity
  8
0
  6
Continuous
 62
     7
370
    15
100
AcDbLine
 10
152.6303264651
 20
139.3913660035
 30
0.0
 11
148.2997286472
 21
139.3913660035
 31
0.0
  0
ARC
  5
A7
330
1F
100
AcDbEntity
  8
0
  6
Continuous
 62
     7
370
    15
100
AcDbCircle
 10
152.6303279383
 20
139.8913689095
 30
0.0
 40
0.5000000000000022
100
AcDbArc
 50
270.0
 51
357.559798795
  0
LINE
  5
A8
330
1F
100
AcDbEntity
  8
0
  6
Continuous
 62
     7
370
    15
100
AcDbLine
 10
153.288652316
 20
143.5958999977
 30
0.0
 11
153.1298729929
 21
139.870080708
 31
0.0
  0
ARC
  5
A9
330
1F
100
AcDbEntity
  8
0
  6
Continuous
 62
     7
370
    15
100
AcDbCircle
 10
156.0861124746
 20
143.4766853391
 30
0.0
 40
2.800000000000015
100
AcDbArc
 50
162.2009132142
 51
177.559798795
  0
ARC
  5
AA
330
1F
100
AcDbEntity
  8
0
  6
Continuous
 62
     7
370
    15
100
AcDbCircle
 10
150.7541605907
 20
145.1884940632
 30
0.0
 40
2.80000000000007
100
AcDbArc
 50
342.2009132142
 51
12.9186843758
  0
ARC
  5
AB
330
1F
100
AcDbEntity
  8
0
  6
Continuous
 62
     7
370
    15
100
AcDbCircle
 10
156.2124152927
 20
146.4404747375
 30
0.0
 40
2.799999999999961
100
AcDbArc
 50
162.2009132142
 51
192.9186843758
  0
ARC
  5
AC
330
1F
100
AcDbEntity
  8
0
  6
Continuous
 62
     7
370
    15
100
AcDbCircle
 10
150.8804634088
 20
148.1522834617
 30
0.0
 40
2.800000000000029
100
AcDbArc
 50
342.2009132142
 51
12.9186843758
  0
ARC
  5
AD
330
1F
100
AcDbEntity
  8
0
  6
Continuous
 62
     7
370
    15
100
AcDbCircle
 10
156.3387181108
 20
149.4042641359
 30
0.0
 40
2.799999999999939
100
AcDbArc
 50
162.2009132142
 51
192.9186843758
  0
ARC
  5
AE
330
1F
100
AcDbEntity
  8
0
  6
Continuous
 62
     7
370
    15
100
AcDbCircle
 10
151.0067662269
 20
151.1160728601
 30
0.0
 40
2.800000000000063
100
AcDbArc
 50
342.2009132142
 51
12.9186843758
  0
ARC
  5
AF
330
1F
100
AcDbEntity
  8
0
  6
Continuous
 62
     7
370
    15
100
AcDbCircle
 10
156.4650209289
 20
152.3680535343
 30
0.0
 40
2.799999999999961
100
AcDbArc
 50
162.2009132142
 51
192.9186843758
  0
ARC
  5
B0
330
1F
100
AcDbEntity
  8
0
  6
Continuous
 62
     7
370
    15
100
AcDbCircle
 10
151.133069045
 20
154.0798622585
 30
0.0
 40
2.800000000000063
100
AcDbArc
 50
342.2009132142
 51
12.9186843758
  0
ARC
  5
B1
330
1F
100
AcDbEntity
  8
0
  6
Continuous
 62
     7
370
    15
100
AcDbCircle
 10
156.591323747
 20
155.3318429327
 30
0.0
 40
2.800000000000008
100
AcDbArc
 50
162.2009132142
 51
192.9186843758
  0
ARC
  5
B2
330
1F
100
AcDbEntity
  8
0
  6
Continuous
 62
     7
370
    15
100
AcDbCircle
 10
151.2593718631
 20
157.0436516569
 30
0.0
 40
2.799999999999991
100
AcDbArc
 50
342.2009132142
 51
12.9186843758
  0
ARC
  5
B3
330
1F
100
AcDbEntity
  8
0
  6
Continuous
 62
     7
370
    15
100
AcDbCircle
 10
156.7176265651
 20
158.2956323311
 30
0.0
 40
2.800000000000753
100
AcDbArc
 50
177.559798795
 51
192.9186843758
  0
LINE
  5
B4
330
1F
100
AcDbEntity
  8
0
  6
Continuous
 62
     7
370
    15
100
AcDbLine
 10
154.0102932009
 20
160.5296913371
 30
0.0
 11
153.9201635274
 21
158.4148440347
 31
0.0
  0
ARC
  5
B5
330
1F
100
AcDbEntity
  8
0
  6
Continuous
 62
     7
370
    15
100
AcDbCircle
 10
154.9094740913
 20
160.4913689095
 30
0.0
 40
0.9000000000000187
100
AcDbArc
 50
2.440201205
 51
177.559798795
  0
LINE
  5
B6
330
1F
100
AcDbEntity
  8
0
  6
Continuous
 62
     7
370
    15
100
AcDbLine
 10
155.8987844142
 20
158.4148440347
 30
0.0
 11
155.8086547408
 21
160.5296913371
 31
0.0
  0
ARC
  5
B7
330
1F
100
AcDbEntity
  8
0
  6
Continuous
 62
     7
370
    15
100
AcDbCircle
 10
153.1013216175
 20
158.2956323311
 30
0.0
 40
2.800000000000007
100
AcDbArc
 50
347.0813156242
 51
2.4402012051
  0
ARC
  5
B8
330
1F
100
AcDbEntity
  8
0
  6
Continuous
 62
     7
370
    15
100
AcDbCircle
 10
158.5595763194
 20
157.0436516569
 30
0.0
 40
2.799999999999999
100
AcDbArc
 50
167.0813156242
 51
197.7990867858
  0
ARC
  5
B9
330
1F
100
AcDbEntity
  8
0
  6
Continuous
 62
     7
370
    15
100
AcDbCircle
 10
153.2276244356
 20
155.3318429327
 30
0.0
 40
2.80000000000007
100
AcDbArc
 50
347.0813156242
 51
17.7990867858
  0
ARC
  5
BA
330
1F
100
AcDbEntity
  8
0
  6
Continuous
 62
     7
370
    15
100
AcDbCircle
 10
158.6858791375
 20
154.0798622585
 30
0.0
 40
2.800000000000002
100
AcDbArc
 50
167.0813156242
 51
197.7990867858
  0
ARC
  5
BB
330
1F
100
AcDbEntity
  8
0
  6
Continuous
 62
     7
370
    15
100
AcDbCircle
 10
153.3539272537
 20
152.3680535343
 30
0.0
 40
2.799999999999965
100
AcDbArc
 50
347.0813156242
 51
17.7990867858
  0
ARC
  5
BC
330
1F
100
AcDbEntity
  8
0
  6
Continuous
 62
     7
370
    15
100
AcDbCircle
 10
158.8121819556
 20
151.1160728601
 30
0.0
 40
2.800000000000008
100
AcDbArc
 50
167.0813156242
 51
197.7990867858
  0
ARC
  5
BD
330
1F
100
AcDbEntity
  8
0
  6
Continuous
 62
     7
370
    15
100
AcDbCircle
 10
153.4802300717
 20
149.4042641359
 30
0.0
 40
2.800000000000002
100
AcDbArc
 50
347.0813156242
 51
17.7990867858
  0
ARC
  5
BE
330
1F
100
AcDbEntity
  8
0
  6
Continuous
 62
     7
370
    15
100
AcDbCircle
 10
158.9384847737
 20
148.1522834617
 30
0.0
 40
2.799999999999995
100
AcDbArc
 50
167.0813156242
 51
197.7990867858
  0
ARC
  5
BF
330
1F
100
AcDbEntity
  8
0
  6
Continuous
 62
     7
370
    15
100
AcDbCircle
 10
153.6065328898
 20
146.4404747375
 30
0.0
 40
2.799999999999995
100
AcDbArc
 50
347.0813156242
 51
17.7990867858
  0
ARC
  5
C0
330
1F
100
AcDbEntity
  8
0
  6
Continuous
 62
     7
370
    15
100
AcDbCircle
 10
159.0647875918
 20
145.1884940632
 30
0.0
 40
2.800000000000008
100
AcDbArc
 50
167.0813156242
 51
197.7990867858
  0
ARC
  5
C1
330
1F
100
AcDbEntity
  8
0
  6
Continuous
 62
     7
370
    15
100
AcDbCircle
 10
153.7328357079
 20
143.4766853391
 30
0.0
 40
2.800000000000015
100
AcDbArc
 50
2.440201205
 51
17.7990867858
  0
LINE
  5
C2
330
1F
100
AcDbEntity
  8
0
  6
Continuous
 62
     7
370
    15
100
AcDbLine
 10
156.6890749487
 20
139.870080708
 30
0.0
 11
156.5302956256
 21
143.5958999977
 31
0.0
  0
ARC
  5
C3
330
1F
100
AcDbEntity
  8
0
  6
Continuous
 62
     7
370
    15
100
AcDbCircle
 10
157.1886202442
 20
139.8913689095
 30
0.0
 40
0.5000000000000306
100
AcDbArc
 50
182.440201205
 51
270.0
  0
LINE
  5
C4
330
1F
100
AcDbEntity
  8
0
  6
Continuous
 62
     7
370
    15
100
AcDbLine
 10
161.5192192945
 20
139.3913660035
 30
0.0
 11
157.1886214766
 21
139.3913660035
 31
0.0
  0
ARC
  5
C5
330
1F
100
AcDbEntity
  8
0
  6
Continuous
 62
     7
370
    15
100
AcDbCircle
 10
161.5192168272
 20
139.8913689095
 30
0.0
 40
0.5000000000000022
100
AcDbArc
 50
270.0
 51
357.559798795
  0
LINE
  5
C6
330
1F
100
AcDbEntity
  8
0
  6
Continuous
 62
     7
370
    15
100
AcDbLine
 10
162.1775376949
 20
143.5958999977
 30
0.0
 11
162.0187658224
 21
139.870080708
 31
0.0
  0
ARC
  5
C7
330
1F
100
AcDbEntity
  8
0
  6
Continuous
 62
     7
370
    15
100
AcDbCircle
 10
164.9750013635
 20
143.4766853391
 30
0.0
 40
2.800000000000015
100
AcDbArc
 50
162.2009132142
 51
177.559798795
  0
ARC
  5
C8
330
1F
100
AcDbEntity
  8
0
  6
Continuous
 62
     7
370
    15
100
AcDbCircle
 10
159.6430494796
 20
145.1884940632
 30
0.0
 40
2.800000000000014
100
AcDbArc
 50
342.2009132142
 51
12.9186843758
  0
ARC
  5
C9
330
1F
100
AcDbEntity
  8
0
  6
Continuous
 62
     7
370
    15
100
AcDbCircle
 10
165.1013041816
 20
146.4404747375
 30
0.0
 40
2.799999999999989
100
AcDbArc
 50
162.2009132142
 51
192.9186843758
  0
ARC
  5
CA
330
1F
100
AcDbEntity
  8
0
  6
Continuous
 62
     7
370
    15
100
AcDbCircle
 10
159.7693522977
 20
148.1522834617
 30
0.0
 40
2.800000000000057
100
AcDbArc
 50
342.2009132142
 51
12.9186843758
  0
ARC
  5
CB
330
1F
100
AcDbEntity
  8
0
  6
Continuous
 62
     7
370
    15
100
AcDbCircle
 10
165.2276069997
 20
149.4042641359
 30
0.0
 40
2.799999999999967
100
AcDbArc
 50
162.2009132142
 51
192.9186843758
  0
ARC
  5
CC
330
1F
100
AcDbEntity
  8
0
  6
Continuous
 62
     7
370
    15
100
AcDbCircle
 10
159.8956551158
 20
151.1160728601
 30
0.0
 40
2.800000000000063
100
AcDbArc
 50
342.2009132142
 51
12.9186843758
  0
ARC
  5
CD
330
1F
100
AcDbEntity
  8
0
  6
Continuous
 62
     7
370
    15
100
AcDbCircle
 10
165.3539098178
 20
152.3680535343
 30
0.0
 40
2.799999999999933
100
AcDbArc
 50
162.2009132142
 51
192.9186843758
  0
ARC
  5
CE
330
1F
100
AcDbEntity
  8
0
  6
Continuous
 62
     7
370
    15
100
AcDbCircle
 10
160.0219579339
 20
154.0798622585
 30
0.0
 40
2.800000000000035
100
AcDbArc
 50
342.2009132142
 51
12.9186843758
  0
ARC
  5
CF
330
1F
100
AcDbEntity
  8
0
  6
Continuous
 62
     7
370
    15
100
AcDbCircle
 10
165.4802126359
 20
155.3318429327
 30
0.0
 40
2.800000000000008
100
AcDbArc
 50
162.2009132142
 51
192.9186843758
  0
ARC
  5
D0
330
1F
100
AcDbEntity
  8
0
  6
Continuous
 62
     7
370
    15
100
AcDbCircle
 10
160.148260752
 20
157.0436516569
 30
0.0
 40
2.800000000000018
100
AcDbArc
 50
342.2009132142
 51
12.9186843758
  0
ARC
  5
D1
330
1F
100
AcDbEntity
  8
0
  6
Continuous
 62
     7
370
    15
100
AcDbCircle
 10
165.6065154539
 20
158.2956323311
 30
0.0
 40
2.800000000000781
100
AcDbArc
 50
177.559798795
 51
192.9186843758
  0
LINE
  5
D2
330
1F
100
AcDbEntity
  8
0
  6
Continuous
 62
     7
370
    15
100
AcDbLine
 10
162.8991785798
 20
160.5296913371
 30
0.0
 11
162.8090563569
 21
158.4148440347
 31
0.0
  0
ARC
  5
D3
330
1F
100
AcDbEntity
  8
0
  6
Continuous
 62
     7
370
    15
100
AcDbCircle
 10
163.7983629801
 20
160.4913689095
 30
0.0
 40
0.9000000000000471
100
AcDbArc
 50
2.440201205
 51
177.559798795
  0
LINE
  5
D4
330
1F
100
AcDbEntity
  8
0
  6
Continuous
 62
     7
370
    15
100
AcDbLine
 10
164.7876697931
 20
158.4148440347
 30
0.0
 11
164.6975475702
 21
160.5296913371
 31
0.0
  0
ARC
  5
D5
330
1F
100
AcDbEntity
  8
0
  6
Continuous
 62
     7
370
    15
100
AcDbCircle
 10
161.9902105064
 20
158.2956323311
 30
0.0
 40
2.79999999999998
100
AcDbArc
 50
347.0813156242
 51
2.4402012051
  0
ARC
  5
D6
330
1F
100
AcDbEntity
  8
0
  6
Continuous
 62
     7
370
    15
100
AcDbCircle
 10
167.4484652083
 20
157.0436516569
 30
0.0
 40
2.799999999999999
100
AcDbArc
 50
167.0813156242
 51
197.7990867858
  0
ARC
  5
D7
330
1F
100
AcDbEntity
  8
0
  6
Continuous
 62
     7
370
    15
100
AcDbCircle
 10
162.1165133244
 20
155.3318429327
 30
0.0
 40
2.80000000000007
100
AcDbArc
 50
347.0813156242
 51
17.7990867858
  0
ARC
  5
D8
330
1F
100
AcDbEntity
  8
0
  6
Continuous
 62
     7
370
    15
100
AcDbCircle
 10
167.5747680264
 20
154.0798622585
 30
0.0
 40
2.800000000000029
100
AcDbArc
 50
167.0813156242
 51
197.7990867858
  0
ARC
  5
D9
330
1F
100
AcDbEntity
  8
0
  6
Continuous
 62
     7
370
    15
100
AcDbCircle
 10
162.2428161425
 20
152.3680535343
 30
0.0
 40
2.799999999999989
100
AcDbArc
 50
347.0813156242
 51
17.7990867858
  0
ARC
  5
DA
330
1F
100
AcDbEntity
  8
0
  6
Continuous
 62
     7
370
    15
100
AcDbCircle
 10
167.7010708445
 20
151.1160728601
 30
0.0
 40
2.79999999999998
100
AcDbArc
 50
167.0813156242
 51
197.7990867858
  0
ARC
  5
DB
330
1F
100
AcDbEntity
  8
0
  6
Continuous
 62
     7
370
    15
100
AcDbCircle
 10
162.3691189606
 20
149.4042641359
 30
0.0
 40
2.800000000000002
100
AcDbArc
 50
347.0813156242
 51
17.7990867858
  0
ARC
  5
DC
330
1F
100
AcDbEntity
  8
0
  6
Continuous
 62
     7
370
    15
100
AcDbCircle
 10
167.8273736626
 20
148.1522834617
 30
0.0
 40
2.799999999999995
100
AcDbArc
 50
167.0813156242
 51
197.7990867858
  0
ARC
  5
DD
330
1F
100
AcDbEntity
  8
0
  6
Continuous
 62
     7
370
    15
100
AcDbCircle
 10
162.4954217787
 20
146.4404747375
 30
0.0
 40
2.800000000000022
100
AcDbArc
 50
347.0813156242
 51
17.7990867858
  0
ARC
  5
DE
330
1F
100
AcDbEntity
  8
0
  6
Continuous
 62
     7
370
    15
100
AcDbCircle
 10
167.9536764807
 20
145.1884940632
 30
0.0
 40
2.79999999999998
100
AcDbArc
 50
167.0813156242
 51
197.7990867858
  0
ARC
  5
DF
330
1F
100
AcDbEntity
  8
0
  6
Continuous
 62
     7
370
    15
100
AcDbCircle
 10
162.6217245968
 20
143.4766853391
 30
0.0
 40
2.800000000000043
100
AcDbArc
 50
2.440201205
 51
17.7990867858
  0
LINE
  5
E0
330
1F
100
AcDbEntity
  8
0
  6
Continuous
 62
     7
370
    15
100
AcDbLine
 10
165.5779603276
 20
139.870080708
 30
0.0
 11
165.4191884551
 21
143.5958999977
 31
0.0
  0
ARC
  5
E1
330
1F
100
AcDbEntity
  8
0
  6
Continuous
 62
     7
370
    15
100
AcDbCircle
 10
166.0775091331
 20
139.8913689095
 30
0.0
 40
0.5000000000000022
100
AcDbArc
 50
182.440201205
 51
270.0
  0
LINE
  5
E2
330
1F
100
AcDbEntity
  8
0
  6
Continuous
 62
     7
370
    15
100
AcDbLine
 10
170.4081121239
 20
139.3913660035
 30
0.0
 11
166.0775068554
 21
139.3913660035
 31
0.0
  0
ARC
  5
E3
330
1F
100
AcDbEntity
  8
0
  6
Continuous
 62
     7
370
    15
100
AcDbCircle
 10
170.4081057161
 20
139.8913689095
 30
0.0
 40
0.5
100
AcDbArc
 50
270.0
 51
357.559798795
  0
LINE
  5
E4
330
1F
100
AcDbEntity
  8
0
  6
Continuous
 62
     7
370
    15
100
AcDbLine
 10
171.0664305243
 20
143.5958999977
 30
0.0
 11
170.9076586518
 21
139.870080708
 31
0.0
  0
ARC
  5
E5
330
1F
100
AcDbEntity
  8
0
  6
Continuous
 62
     7
370
    15
100
AcDbCircle
 10
173.8638902524
 20
143.4766853391
 30
0.0
 40
2.799999999999986
100
AcDbArc
 50
162.2009132142
 51
177.559798795
  0
ARC
  5
E6
330
1F
100
AcDbEntity
  8
0
  6
Continuous
 62
     7
370
    15
100
AcDbCircle
 10
168.5319383685
 20
145.1884940632
 30
0.0
 40
2.800000000000014
100
AcDbArc
 50
342.2009132142
 51
12.9186843758
  0
ARC
  5
E7
330
1F
100
AcDbEntity
  8
0
  6
Continuous
 62
     7
370
    15
100
AcDbCircle
 10
173.9901930705
 20
146.4404747375
 30
0.0
 40
2.799999999999961
100
AcDbArc
 50
162.2009132142
 51
192.9186843758
  0
ARC
  5
E8
330
1F
100
AcDbEntity
  8
0
  6
Continuous
 62
     7
370
    15
100
AcDbCircle
 10
168.6582411866
 20
148.1522834617
 30
0.0
 40
2.800000000000029
100
AcDbArc
 50
342.2009132142
 51
12.9186843758
  0
ARC
  5
E9
330
1F
100
AcDbEntity
  8
0
  6
Continuous
 62
     7
370
    15
100
AcDbCircle
 10
174.1164958886
 20
149.4042641359
 30
0.0
 40
2.799999999999967
100
AcDbArc
 50
162.2009132142
 51
192.9186843758
  0
ARC
  5
EA
330
1F
100
AcDbEntity
  8
0
  6
Continuous
 62
     7
370
    15
100
AcDbCircle
 10
168.7845440047
 20
151.1160728601
 30
0.0
 40
2.800000000000063
100
AcDbArc
 50
342.2009132142
 51
12.9186843758
  0
ARC
  5
EB
330
1F
100
AcDbEntity
  8
0
  6
Continuous
 62
     7
370
    15
100
AcDbCircle
 10
174.2427987066
 20
152.3680535343
 30
0.0
 40
2.799999999999961
100
AcDbArc
 50
162.2009132142
 51
192.9186843758
  0
ARC
  5
EC
330
1F
100
AcDbEntity
  8
0
  6
Continuous
 62
     7
370
    15
100
AcDbCircle
 10
168.9108468228
 20
154.0798622585
 30
0.0
 40
2.800000000000063
100
AcDbArc
 50
342.2009132142
 51
12.9186843758
  0
ARC
  5
ED
330
1F
100
AcDbEntity
  8
0
  6
Continuous
 62
     7
370
    15
100
AcDbCircle
 10
174.3691015247
 20
155.3318429327
 30
0.0
 40
2.79999999999998
100
AcDbArc
 50
162.2009132142
 51
192.9186843758
  0
ARC
  5
EE
330
1F
100
AcDbEntity
  8
0
  6
Continuous
 62
     7
370
    15
100
AcDbCircle
 10
169.0371496409
 20
157.0436516569
 30
0.0
 40
2.800000000000018
100
AcDbArc
 50
342.2009132142
 51
12.9186843758
  0
ARC
  5
EF
330
1F
100
AcDbEntity
  8
0
  6
Continuous
 62
     7
370
    15
100
AcDbCircle
 10
174.4954043428
 20
158.2956323311
 30
0.0
 40
2.800000000000753
100
AcDbArc
 50
177.559798795
 51
192.9186843758
  0
LINE
  5
F0
330
1F
100
AcDbEntity
  8
0
  6
Continuous
 62
     7
370
    15
100
AcDbLine
 10
171.7880639586
 20
160.5296913371
 30
0.0
 11
171.6979417357
 21
158.4148440347
 31
0.0
  0
ARC
  5
F1
330
1F
100
AcDbEntity
  8
0
  6
Continuous
 62
     7
370
    15
100
AcDbCircle
 10
172.687251869
 20
160.4913689095
 30
0.0
 40
0.8999999999999915
100
AcDbArc
 50
2.440201205
 51
177.559798795
  0
LINE
  5
F2
330
1F
100
AcDbEntity
  8
0
  6
Continuous
 62
     7
370
    15
100
AcDbLine
 10
173.6765626225
 20
158.4148440347
 30
0.0
 11
173.5864403996
 21
160.5296913371
 31
0.0
  0
ARC
  5
F3
330
1F
100
AcDbEntity
  8
0
  6
Continuous
 62
     7
370
    15
100
AcDbCircle
 10
170.8790993952
 20
158.2956323311
 30
0.0
 40
2.799999999999993
100
AcDbArc
 50
347.0813156242
 51
2.4402012051
  0
ARC
  5
F4
330
1F
100
AcDbEntity
  8
0
  6
Continuous
 62
     7
370
    15
100
AcDbCircle
 10
176.3373540972
 20
157.0436516569
 30
0.0
 40
2.799999999999999
100
AcDbArc
 50
167.0813156242
 51
197.7990867858
  0
ARC
  5
F5
330
1F
100
AcDbEntity
  8
0
  6
Continuous
 62
     7
370
    15
100
AcDbCircle
 10
171.0054022133
 20
155.3318429327
 30
0.0
 40
2.800000000000042
100
AcDbArc
 50
347.0813156242
 51
17.7990867858
  0
ARC
  5
F6
330
1F
100
AcDbEntity
  8
0
  6
Continuous
 62
     7
370
    15
100
AcDbCircle
 10
176.4636569153
 20
154.0798622585
 30
0.0
 40
2.800000000000002
100
AcDbArc
 50
167.0813156242
 51
197.7990867858
  0
ARC
  5
F7
330
1F
100
AcDbEntity
  8
0
  6
Continuous
 62
     7
370
    15
100
AcDbCircle
 10
171.1317050314
 20
152.3680535343
 30
0.0
 40
2.799999999999989
100
AcDbArc
 50
347.0813156242
 51
17.7990867858
  0
ARC
  5
F8
330
1F
100
AcDbEntity
  8
0
  6
Continuous
 62
     7
370
    15
100
AcDbCircle
 10
176.5899597334
 20
151.1160728601
 30
0.0
 40
2.800000000000008
100
AcDbArc
 50
167.0813156242
 51
197.7990867858
  0
ARC
  5
F9
330
1F
100
AcDbEntity
  8
0
  6
Continuous
 62
     7
370
    15
100
AcDbCircle
 10
171.2580078495
 20
149.4042641359
 30
0.0
 40
2.800000000000002
100
AcDbArc
 50
347.0813156242
 51
17.7990867858
  0
ARC
  5
FA
330
1F
100
AcDbEntity
  8
0
  6
Continuous
 62
     7
370
    15
100
AcDbCircle
 10
176.7162625515
 20
148.1522834617
 30
0.0
 40
2.800000000000022
100
AcDbArc
 50
167.0813156242
 51
197.7990867858
  0
ARC
  5
FB
330
1F
100
AcDbEntity
  8
0
  6
Continuous
 62
     7
370
    15
100
AcDbCircle
 10
171.3843106676
 20
146.4404747375
 30
0.0
 40
2.799999999999967
100
AcDbArc
 50
347.0813156242
 51
17.7990867858
  0
ARC
  5
FC
330
1F
100
AcDbEntity
  8
0
  6
Continuous
 62
     7
370
    15
100
AcDbCircle
 10
176.8425653696
 20
145.1884940632
 30
0.0
 40
2.800000000000008
100
AcDbArc
 50
167.0813156242
 51
197.7990867858
  0
ARC
  5
FD
330
1F
100
AcDbEntity
  8
0
  6
Continuous
 62
     7
370
    15
100
AcDbCircle
 10
171.5106134857
 20
143.4766853391
 30
0.0
 40
2.800000000000043
100
AcDbArc
 50
2.440201205
 51
17.7990867858
  0
LINE
  5
FE
330
1F
100
AcDbEntity
  8
0
  6
Continuous
 62
     7
370
    15
100
AcDbLine
 10
174.4668457064
 20
139.870080708
 30
0.0
 11
174.3080738339
 21
143.5958999977
 31
0.0
  0
ARC
  5
FF
330
1F
100
AcDbEntity
  8
0
  6
Continuous
 62
     7
370
    15
100
AcDbCircle
 10
174.966398022
 20
139.8913689095
 30
0.0
 40
0.5000000000000022
100
AcDbArc
 50
182.440201205
 51
270.0
  0
LINE
  5
100
330
1F
100
AcDbEntity
  8
0
  6
Continuous
 62
     7
370
    15
100
AcDbLine
 10
179.2969975028
 20
139.3913660035
 30
0.0
 11
174.9663922343
 21
139.3913660035
 31
0.0
  0
ARC
  5
101
330
1F
100
AcDbEntity
  8
0
  6
Continuous
 62
     7
370
    15
100
AcDbCircle
 10
179.296994605
 20
139.8913689095
 30
0.0
 40
0.5000000000000022
100
AcDbArc
 50
270.0
 51
357.559798795
  0
LINE
  5
102
330
1F
100
AcDbEntity
  8
0
  6
Continuous
 62
     7
370
    15
100
AcDbLine
 10
179.9553159031
 20
143.5958999977
 30
0.0
 11
179.7965440306
 21
139.870080708
 31
0.0
  0
ARC
  5
103
330
1F
100
AcDbEntity
  8
0
  6
Continuous
 62
     7
370
    15
100
AcDbCircle
 10
182.7527791413
 20
143.4766853391
 30
0.0
 40
2.799999999999958
100
AcDbArc
 50
162.2009132142
 51
177.559798795
  0
ARC
  5
104
330
1F
100
AcDbEntity
  8
0
  6
Continuous
 62
     7
370
    15
100
AcDbCircle
 10
177.4208272574
 20
145.1884940632
 30
0.0
 40
2.800000000000042
100
AcDbArc
 50
342.2009132142
 51
12.9186843758
  0
ARC
  5
105
330
1F
100
AcDbEntity
  8
0
  6
Continuous
 62
     7
370
    15
100
AcDbCircle
 10
182.8790819593
 20
146.4404747375
 30
0.0
 40
2.799999999999961
100
AcDbArc
 50
162.2009132142
 51
192.9186843758
  0
ARC
  5
106
330
1F
100
AcDbEntity
  8
0
  6
Continuous
 62
     7
370
    15
100
AcDbCircle
 10
177.5471300755
 20
148.1522834617
 30
0.0
 40
2.800000000000057
100
AcDbArc
 50
342.2009132142
 51
12.9186843758
  0
ARC
  5
107
330
1F
100
AcDbEntity
  8
0
  6
Continuous
 62
     7
370
    15
100
AcDbCircle
 10
183.0053847774
 20
149.4042641359
 30
0.0
 40
2.799999999999967
100
AcDbArc
 50
162.2009132142
 51
192.9186843758
  0
ARC
  5
108
330
1F
100
AcDbEntity
  8
0
  6
Continuous
 62
     7
370
    15
100
AcDbCircle
 10
177.6734328936
 20
151.1160728601
 30
0.0
 40
2.800000000000035
100
AcDbArc
 50
342.2009132142
 51
12.9186843758
  0
ARC
  5
109
330
1F
100
AcDbEntity
  8
0
  6
Continuous
 62
     7
370
    15
100
AcDbCircle
 10
183.1316875955
 20
152.3680535343
 30
0.0
 40
2.799999999999933
100
AcDbArc
 50
162.2009132142
 51
192.9186843758
  0
ARC
  5
10A
330
1F
100
AcDbEntity
  8
0
  6
Continuous
 62
     7
370
    15
100
AcDbCircle
 10
177.7997357117
 20
154.0798622585
 30
0.0
 40
2.800000000000063
100
AcDbArc
 50
342.2009132142
 51
12.9186843758
  0
ARC
  5
10B
330
1F
100
AcDbEntity
  8
0
  6
Continuous
 62
     7
370
    15
100
AcDbCircle
 10
183.2579904136
 20
155.3318429327
 30
0.0
 40
2.800000000000008
100
AcDbArc
 50
162.2009132142
 51
192.9186843758
  0
ARC
  5
10C
330
1F
100
AcDbEntity
  8
0
  6
Continuous
 62
     7
370
    15
100
AcDbCircle
 10
177.9260385298
 20
157.0436516569
 30
0.0
 40
2.800000000000018
100
AcDbArc
 50
342.2009132142
 51
12.9186843758
  0
ARC
  5
10D
330
1F
100
AcDbEntity
  8
0
  6
Continuous
 62
     7
370
    15
100
AcDbCircle
 10
183.3842932317
 20
158.2956323311
 30
0.0
 40
2.800000000000753
100
AcDbArc
 50
177.559798795
 51
192.9186843758
  0
LINE
  5
10E
330
1F
100
AcDbEntity
  8
0
  6
Continuous
 62
     7
370
    15
100
AcDbLine
 10
180.6769642386
 20
160.5296913371
 30
0.0
 11
180.5868271145
 21
158.4148440347
 31
0.0
  0
ARC
  5
10F
330
1F
100
AcDbEntity
  8
0
  6
Continuous
 62
     7
370
    15
100
AcDbCircle
 10
181.5761407579
 20
160.4913689095
 30
0.0
 40
0.8999999999999915
100
AcDbArc
 50
2.440201205
 51
177.559798795
  0
LINE
  5
110
330
1F
100
AcDbEntity
  8
0
  6
Continuous
 62
     7
370
    15
100
AcDbLine
 10
182.5654480013
 20
158.4148440347
 30
0.0
 11
182.4753257784
 21
160.5296913371
 31
0.0
  0
ARC
  5
111
330
1F
100
AcDbEntity
  8
0
  6
Continuous
 62
     7
370
    15
100
AcDbCircle
 10
179.7679882841
 20
158.2956323311
 30
0.0
 40
2.79999999999998
100
AcDbArc
 50
347.0813156242
 51
2.4402012051
  0
ARC
  5
112
330
1F
100
AcDbEntity
  8
0
  6
Continuous
 62
     7
370
    15
100
AcDbCircle
 10
185.2262429861
 20
157.0436516569
 30
0.0
 40
2.799999999999999
100
AcDbArc
 50
167.0813156242
 51
197.7990867858
  0
ARC
  5
113
330
1F
100
AcDbEntity
  8
0
  6
Continuous
 62
     7
370
    15
100
AcDbCircle
 10
179.8942911022
 20
155.3318429327
 30
0.0
 40
2.80000000000007
100
AcDbArc
 50
347.0813156242
 51
17.7990867858
  0
ARC
  5
114
330
1F
100
AcDbEntity
  8
0
  6
Continuous
 62
     7
370
    15
100
AcDbCircle
 10
185.3525458042
 20
154.0798622585
 30
0.0
 40
2.799999999999974
100
AcDbArc
 50
167.0813156242
 51
197.7990867858
  0
ARC
  5
115
330
1F
100
AcDbEntity
  8
0
  6
Continuous
 62
     7
370
    15
100
AcDbCircle
 10
180.0205939203
 20
152.3680535343
 30
0.0
 40
2.800000000000016
100
AcDbArc
 50
347.0813156242
 51
17.7990867858
  0
ARC
  5
116
330
1F
100
AcDbEntity
  8
0
  6
Continuous
 62
     7
370
    15
100
AcDbCircle
 10
185.4788486223
 20
151.1160728601
 30
0.0
 40
2.800000000000008
100
AcDbArc
 50
167.0813156242
 51
197.7990867858
  0
ARC
  5
117
330
1F
100
AcDbEntity
  8
0
  6
Continuous
 62
     7
370
    15
100
AcDbCircle
 10
180.1468967384
 20
149.4042641359
 30
0.0
 40
2.800000000000002
100
AcDbArc
 50
347.0813156242
 51
17.7990867858
  0
ARC
  5
118
330
1F
100
AcDbEntity
  8
0
  6
Continuous
 62
     7
370
    15
100
AcDbCircle
 10
185.6051514404
 20
148.1522834617
 30
0.0
 40
2.799999999999995
100
AcDbArc
 50
167.0813156242
 51
197.7990867858
  0
ARC
  5
119
330
1F
100
AcDbEntity
  8
0
  6
Continuous
 62
     7
370
    15
100
AcDbCircle
 10
180.2731995565
 20
146.4404747375
 30
0.0
 40
2.799999999999995
100
AcDbArc
 50
347.0813156242
 51
17.7990867858
  0
ARC
  5
11A
330
1F
100
AcDbEntity
  8
0
  6
Continuous
 62
     7
370
    15
100
AcDbCircle
 10
185.7314542585
 20
145.1884940632
 30
0.0
 40
2.79999999999998
100
AcDbArc
 50
167.0813156242
 51
197.7990867858
  0
ARC
  5
11B
330
1F
100
AcDbEntity
  8
0
  6
Continuous
 62
     7
370
    15
100
AcDbCircle
 10
180.3995023746
 20
143.4766853391
 30
0.0
 40
2.800000000000071
100
AcDbArc
 50
2.440201205
 51
17.7990867858
  0
LINE
  5
11C
330
1F
100
AcDbEntity
  8
0
  6
Continuous
 62
     7
370
    15
100
AcDbLine
 10
183.3557459864
 20
139.870080708
 30
0.0
 11
183.1969592127
 21
143.5958999977
 31
0.0
  0
ARC
  5
11D
330
1F
100
AcDbEntity
  8
0
  6
Continuous
 62
     7
370
    15
100
AcDbCircle
 10
183.8552869109
 20
139.8913689095
 30
0.0
 40
0.5
100
AcDbArc
 50
182.440201205
 51
270.0
  0
LINE
  5
11E
330
1F
100
AcDbEntity
  8
0
  6
Continuous
 62
     7
370
    15
100
AcDbLine
 10
188.1858828816
 20
139.3913660035
 30
0.0
 11
183.8552925143
 21
139.3913660035
 31
0.0
  0
ARC
  5
11F
330
1F
100
AcDbEntity
  8
0
  6
Continuous
 62
     7
370
    15
100
AcDbCircle
 10
188.1858834939
 20
139.8913689095
 30
0.0
 40
0.5000000000000306
100
AcDbArc
 50
270.0
 51
357.559798795
  0
LINE
  5
120
330
1F
100
AcDbEntity
  8
0
  6
Continuous
 62
     7
370
    15
100
AcDbLine
 10
188.844201282
 20
143.5958999977
 30
0.0
 11
188.6854294095
 21
139.870080708
 31
0.0
  0
ARC
  5
121
330
1F
100
AcDbEntity
  8
0
  6
Continuous
 62
     7
370
    15
100
AcDbCircle
 10
191.6416680301
 20
143.4766853391
 30
0.0
 40
2.799999999999958
100
AcDbArc
 50
162.2009132142
 51
177.559798795
  0
ARC
  5
122
330
1F
100
AcDbEntity
  8
0
  6
Continuous
 62
     7
370
    15
100
AcDbCircle
 10
186.3097161463
 20
145.1884940632
 30
0.0
 40
2.800000000000042
100
AcDbArc
 50
342.2009132142
 51
12.9186843758
  0
ARC
  5
123
330
1F
100
AcDbEntity
  8
0
  6
Continuous
 62
     7
370
    15
100
AcDbCircle
 10
191.7679708482
 20
146.4404747375
 30
0.0
 40
2.799999999999961
100
AcDbArc
 50
162.2009132142
 51
192.9186843758
  0
ARC
  5
124
330
1F
100
AcDbEntity
  8
0
  6
Continuous
 62
     7
370
    15
100
AcDbCircle
 10
186.4360189644
 20
148.1522834617
 30
0.0
 40
2.800000000000057
100
AcDbArc
 50
342.2009132142
 51
12.9186843758
  0
ARC
  5
125
330
1F
100
AcDbEntity
  8
0
  6
Continuous
 62
     7
370
    15
100
AcDbCircle
 10
191.8942736663
 20
149.4042641359
 30
0.0
 40
2.799999999999967
100
AcDbArc
 50
162.2009132142
 51
192.9186843758
  0
ARC
  5
126
330
1F
100
AcDbEntity
  8
0
  6
Continuous
 62
     7
370
    15
100
AcDbCircle
 10
186.5623217825
 20
151.1160728601
 30
0.0
 40
2.800000000000035
100
AcDbArc
 50
342.2009132142
 51
12.9186843758
  0
ARC
  5
127
330
1F
100
AcDbEntity
  8
0
  6
Continuous
 62
     7
370
    15
100
AcDbCircle
 10
192.0205764844
 20
152.3680535343
 30
0.0
 40
2.799999999999933
100
AcDbArc
 50
162.2009132142
 51
192.9186843758
  0
ARC
  5
128
330
1F
100
AcDbEntity
  8
0
  6
Continuous
 62
     7
370
    15
100
AcDbCircle
 10
186.6886246006
 20
154.0798622585
 30
0.0
 40
2.800000000000091
100
AcDbArc
 50
342.2009132142
 51
12.9186843758
  0
ARC
  5
129
330
1F
100
AcDbEntity
  8
0
  6
Continuous
 62
     7
370
    15
100
AcDbCircle
 10
192.1468793025
 20
155.3318429327
 30
0.0
 40
2.800000000000008
100
AcDbArc
 50
162.2009132142
 51
192.9186843758
  0
ARC
  5
12A
330
1F
100
AcDbEntity
  8
0
  6
Continuous
 62
     7
370
    15
100
AcDbCircle
 10
186.8149274187
 20
157.0436516569
 30
0.0
 40
2.800000000000018
100
AcDbArc
 50
342.2009132142
 51
12.9186843758
  0
ARC
  5
12B
330
1F
100
AcDbEntity
  8
0
  6
Continuous
 62
     7
370
    15
100
AcDbCircle
 10
192.2731821206
 20
158.2956323311
 30
0.0
 40
2.800000000000781
100
AcDbArc
 50
177.559798795
 51
192.9186843758
  0
LINE
  5
12C
330
1F
100
AcDbEntity
  8
0
  6
Continuous
 62
     7
370
    15
100
AcDbLine
 10
189.5658496174
 20
160.5296913371
 30
0.0
 11
189.4757273945
 21
158.4148440347
 31
0.0
  0
ARC
  5
12D
330
1F
100
AcDbEntity
  8
0
  6
Continuous
 62
     7
370
    15
100
AcDbCircle
 10
190.4650296468
 20
160.4913689095
 30
0.0
 40
0.8999999999999915
100
AcDbArc
 50
2.440201205
 51
177.559798795
  0
LINE
  5
12E
330
1F
100
AcDbEntity
  8
0
  6
Continuous
 62
     7
370
    15
100
AcDbLine
 10
191.4543333802
 20
158.4148440347
 30
0.0
 11
191.3642111573
 21
160.5296913371
 31
0.0
  0
ARC
  5
12F
330
1F
100
AcDbEntity
  8
0
  6
Continuous
 62
     7
370
    15
100
AcDbCircle
 10
188.656877173
 20
158.2956323311
 30
0.0
 40
2.800000000000007
100
AcDbArc
 50
347.0813156242
 51
2.4402012051
  0
ARC
  5
130
330
1F
100
AcDbEntity
  8
0
  6
Continuous
 62
     7
370
    15
100
AcDbCircle
 10
194.115131875
 20
157.0436516569
 30
0.0
 40
2.799999999999972
100
AcDbArc
 50
167.0813156242
 51
197.7990867858
  0
ARC
  5
131
330
1F
100
AcDbEntity
  8
0
  6
Continuous
 62
     7
370
    15
100
AcDbCircle
 10
188.7831799911
 20
155.3318429327
 30
0.0
 40
2.80000000000007
100
AcDbArc
 50
347.0813156242
 51
17.7990867858
  0
ARC
  5
132
330
1F
100
AcDbEntity
  8
0
  6
Continuous
 62
     7
370
    15
100
AcDbCircle
 10
194.2414346931
 20
154.0798622585
 30
0.0
 40
2.800000000000002
100
AcDbArc
 50
167.0813156242
 51
197.7990867858
  0
ARC
  5
133
330
1F
100
AcDbEntity
  8
0
  6
Continuous
 62
     7
370
    15
100
AcDbCircle
 10
188.9094828092
 20
152.3680535343
 30
0.0
 40
2.800000000000016
100
AcDbArc
 50
347.0813156242
 51
17.7990867858
  0
ARC
  5
134
330
1F
100
AcDbEntity
  8
0
  6
Continuous
 62
     7
370
    15
100
AcDbCircle
 10
194.3677375112
 20
151.1160728601
 30
0.0
 40
2.800000000000008
100
AcDbArc
 50
167.0813156242
 51
197.7990867858
  0
ARC
  5
135
330
1F
100
AcDbEntity
  8
0
  6
Continuous
 62
     7
370
    15
100
AcDbCircle
 10
189.0357856273
 20
149.4042641359
 30
0.0
 40
2.799999999999974
100
AcDbArc
 50
347.0813156242
 51
17.7990867858
  0
ARC
  5
136
330
1F
100
AcDbEntity
  8
0
  6
Continuous
 62
     7
370
    15
100
AcDbCircle
 10
194.4940403293
 20
148.1522834617
 30
0.0
 40
2.799999999999995
100
AcDbArc
 50
167.0813156242
 51
197.7990867858
  0
ARC
  5
137
330
1F
100
AcDbEntity
  8
0
  6
Continuous
 62
     7
370
    15
100
AcDbCircle
 10
189.1620884454
 20
146.4404747375
 30
0.0
 40
2.799999999999995
100
AcDbArc
 50
347.0813156242
 51
17.7990867858
  0
ARC
  5
138
330
1F
100
AcDbEntity
  8
0
  6
Continuous
 62
     7
370
    15
100
AcDbCircle
 10
194.6203431473
 20
145.1884940632
 30
0.0
 40
2.800000000000008
100
AcDbArc
 50
167.0813156242
 51
197.7990867858
  0
ARC
  5
139
330
1F
100
AcDbEntity
  8
0
  6
Continuous
 62
     7
370
    15
100
AcDbCircle
 10
189.2883912635
 20
143.4766853391
 30
0.0
 40
2.800000000000071
100
AcDbArc
 50
2.440201205
 51
17.7990867858
  0
LINE
  5
13A
330
1F
100
AcDbEntity
  8
0
  6
Continuous
 62
     7
370
    15
100
AcDbLine
 10
192.2446313653
 20
139.870080708
 30
0.0
 11
192.0858594927
 21
143.5958999977
 31
0.0
  0
ARC
  5
13B
330
1F
100
AcDbEntity
  8
0
  6
Continuous
 62
     7
370
    15
100
AcDbCircle
 10
192.7441757998
 20
139.8913689095
 30
0.0
 40
0.5
100
AcDbArc
 50
182.440201205
 51
270.0
  0
LINE
  5
13C
330
1F
100
AcDbEntity
  8
0
  6
Continuous
 62
     7
370
    15
100
AcDbLine
 10
197.0747682604
 20
139.3913660035
 30
0.0
 11
192.7441778931
 21
139.3913660035
 31
0.0
  0
ARC
  5
13D
330
1F
100
AcDbEntity
  8
0
  6
Continuous
 62
     7
370
    15
100
AcDbCircle
 10
197.0747723828
 20
139.8913689095
 30
0.0
 40
0.5000000000000306
100
AcDbArc
 50
270.0
 51
357.559798795
  0
LINE
  5
13E
330
1F
100
AcDbEntity
  8
0
  6
Continuous
 62
     7
370
    15
100
AcDbLine
 10
197.733101562
 20
143.5958999977
 30
0.0
 11
197.5743147883
 21
139.870080708
 31
0.0
  0
ARC
  5
13F
330
1F
100
AcDbEntity
  8
0
  6
Continuous
 62
     7
370
    15
100
AcDbCircle
 10
200.530556919
 20
143.4766853391
 30
0.0
 40
2.799999999999958
100
AcDbArc
 50
162.2009132142
 51
177.559798795
  0
ARC
  5
140
330
1F
100
AcDbEntity
  8
0
  6
Continuous
 62
     7
370
    15
100
AcDbCircle
 10
195.1986050352
 20
145.1884940632
 30
0.0
 40
2.80000000000007
100
AcDbArc
 50
342.2009132142
 51
12.9186843758
  0
ARC
  5
141
330
1F
100
AcDbEntity
  8
0
  6
Continuous
 62
     7
370
    15
100
AcDbCircle
 10
200.6568597371
 20
146.4404747375
 30
0.0
 40
2.799999999999961
100
AcDbArc
 50
162.2009132142
 51
192.9186843758
  0
ARC
  5
142
330
1F
100
AcDbEntity
  8
0
  6
Continuous
 62
     7
370
    15
100
AcDbCircle
 10
195.3249078533
 20
148.1522834617
 30
0.0
 40
2.800000000000029
100
AcDbArc
 50
342.2009132142
 51
12.9186843758
  0
ARC
  5
143
330
1F
100
AcDbEntity
  8
0
  6
Continuous
 62
     7
370
    15
100
AcDbCircle
 10
200.7831625552
 20
149.4042641359
 30
0.0
 40
2.799999999999939
100
AcDbArc
 50
162.2009132142
 51
192.9186843758
  0
ARC
  5
144
330
1F
100
AcDbEntity
  8
0
  6
Continuous
 62
     7
370
    15
100
AcDbCircle
 10
195.4512106714
 20
151.1160728601
 30
0.0
 40
2.800000000000035
100
AcDbArc
 50
342.2009132142
 51
12.9186843758
  0
ARC
  5
145
330
1F
100
AcDbEntity
  8
0
  6
Continuous
 62
     7
370
    15
100
AcDbCircle
 10
200.9094653733
 20
152.3680535343
 30
0.0
 40
2.799999999999961
100
AcDbArc
 50
162.2009132142
 51
192.9186843758
  0
ARC
  5
146
330
1F
100
AcDbEntity
  8
0
  6
Continuous
 62
     7
370
    15
100
AcDbCircle
 10
195.5775134895
 20
154.0798622585
 30
0.0
 40
2.800000000000063
100
AcDbArc
 50
342.2009132142
 51
12.9186843758
  0
ARC
  5
147
330
1F
100
AcDbEntity
  8
0
  6
Continuous
 62
     7
370
    15
100
AcDbCircle
 10
201.0357681914
 20
155.3318429327
 30
0.0
 40
2.800000000000035
100
AcDbArc
 50
162.2009132142
 51
192.9186843758
  0
ARC
  5
148
330
1F
100
AcDbEntity
  8
0
  6
Continuous
 62
     7
370
    15
100
AcDbCircle
 10
195.7038163075
 20
157.0436516569
 30
0.0
 40
2.799999999999991
100
AcDbArc
 50
342.2009132142
 51
12.9186843758
  0
ARC
  5
149
330
1F
100
AcDbEntity
  8
0
  6
Continuous
 62
     7
370
    15
100
AcDbCircle
 10
201.1620710095
 20
158.2956323311
 30
0.0
 40
2.800000000000753
100
AcDbArc
 50
177.559798795
 51
192.9186843758
  0
LINE
  5
14A
330
1F
100
AcDbEntity
  8
0
  6
Continuous
 62
     7
370
    15
100
AcDbLine
 10
198.4547349963
 20
160.5296913371
 30
0.0
 11
198.3646127734
 21
158.4148440347
 31
0.0
  0
ARC
  5
14B
330
1F
100
AcDbEntity
  8
0
  6
Continuous
 62
     7
370
    15
100
AcDbCircle
 10
199.3539185357
 20
160.4913689095
 30
0.0
 40
0.8999999999999915
100
AcDbArc
 50
2.440201205
 51
177.559798795
  0
LINE
  5
14C
330
1F
100
AcDbEntity
  8
0
  6
Continuous
 62
     7
370
    15
100
AcDbLine
 10
200.3432336602
 20
158.4148440347
 30
0.0
 11
200.2530965361
 21
160.5296913371
 31
0.0
  0
ARC
  5
14D
330
1F
100
AcDbEntity
  8
0
  6
Continuous
 62
     7
370
    15
100
AcDbCircle
 10
197.5457660619
 20
158.2956323311
 30
0.0
 40
2.800000000000007
100
AcDbArc
 50
347.0813156242
 51
2.4402012051
  0
ARC
  5
14E
330
1F
100
AcDbEntity
  8
0
  6
Continuous
 62
     7
370
    15
100
AcDbCircle
 10
203.0040207639
 20
157.0436516569
 30
0.0
 40
2.799999999999972
100
AcDbArc
 50
167.0813156242
 51
197.7990867858
  0
ARC
  5
14F
330
1F
100
AcDbEntity
  8
0
  6
Continuous
 62
     7
370
    15
100
AcDbCircle
 10
197.67206888
 20
155.3318429327
 30
0.0
 40
2.800000000000097
100
AcDbArc
 50
347.0813156242
 51
17.7990867858
  0
ARC
  5
150
330
1F
100
AcDbEntity
  8
0
  6
Continuous
 62
     7
370
    15
100
AcDbCircle
 10
203.130323582
 20
154.0798622585
 30
0.0
 40
2.800000000000002
100
AcDbArc
 50
167.0813156242
 51
197.7990867858
  0
ARC
  5
151
330
1F
100
AcDbEntity
  8
0
  6
Continuous
 62
     7
370
    15
100
AcDbCircle
 10
197.7983716981
 20
152.3680535343
 30
0.0
 40
2.799999999999989
100
AcDbArc
 50
347.0813156242
 51
17.7990867858
  0
ARC
  5
152
330
1F
100
AcDbEntity
  8
0
  6
Continuous
 62
     7
370
    15
100
AcDbCircle
 10
203.2566264001
 20
151.1160728601
 30
0.0
 40
2.800000000000035
100
AcDbArc
 50
167.0813156242
 51
197.7990867858
  0
ARC
  5
153
330
1F
100
AcDbEntity
  8
0
  6
Continuous
 62
     7
370
    15
100
AcDbCircle
 10
197.9246745162
 20
149.4042641359
 30
0.0
 40
2.800000000000002
100
AcDbArc
 50
347.0813156242
 51
17.7990867858
  0
ARC
  5
154
330
1F
100
AcDbEntity
  8
0
  6
Continuous
 62
     7
370
    15
100
AcDbCircle
 10
203.3829292181
 20
148.1522834617
 30
0.0
 40
2.799999999999967
100
AcDbArc
 50
167.0813156242
 51
197.7990867858
  0
ARC
  5
155
330
1F
100
AcDbEntity
  8
0
  6
Continuous
 62
     7
370
    15
100
AcDbCircle
 10
198.0509773343
 20
146.4404747375
 30
0.0
 40
2.800000000000022
100
AcDbArc
 50
347.0813156242
 51
17.7990867858
  0
ARC
  5
156
330
1F
100
AcDbEntity
  8
0
  6
Continuous
 62
     7
370
    15
100
AcDbCircle
 10
203.5092320362
 20
145.1884940632
 30
0.0
 40
2.800000000000008
100
AcDbArc
 50
167.0813156242
 51
197.7990867858
  0
ARC
  5
157
330
1F
100
AcDbEntity
  8
0
  6
Continuous
 62
     7
370
    15
100
AcDbCircle
 10
198.1772801524
 20
143.4766853391
 30
0.0
 40
2.800000000000015
100
AcDbArc
 50
2.440201205
 51
17.7990867858
  0
LINE
  5
158
330
1F
100
AcDbEntity
  8
0
  6
Continuous
 62
     7
370
    15
100
AcDbLine
 10
201.1335167441
 20
139.870080708
 30
0.0
 11
200.9747448716
 21
143.5958999977
 31
0.0
  0
ARC
  5
159
330
1F
100
AcDbEntity
  8
0
  6
Continuous
 62
     7
370
    15
100
AcDbCircle
 10
201.6330646886
 20
139.8913689095
 30
0.0
 40
0.5000000000000306
100
AcDbArc
 50
182.440201205
 51
270.0
  0
LINE
  5
15A
330
1F
100
AcDbEntity
  8
0
  6
Continuous
 62
     7
370
    15
100
AcDbLine
 10
205.9636685404
 20
139.3913660035
 30
0.0
 11
201.633063272
 21
139.3913660035
 31
0.0
  0
ARC
  5
15B
330
1F
100
AcDbEntity
  8
0
  6
Continuous
 62
     7
370
    15
100
AcDbCircle
 10
205.9636612717
 20
139.8913689095
 30
0.0
 40
0.5000000000000022
100
AcDbArc
 50
270.0
 51
357.559798795
  0
LINE
  5
15C
330
1F
100
AcDbEntity
  8
0
  6
Continuous
 62
     7
370
    15
100
AcDbLine
 10
206.6219869408
 20
143.5958999977
 30
0.0
 11
206.4632150683
 21
139.870080708
 31
0.0
  0
ARC
  5
15D
330
1F
100
AcDbEntity
  8
0
  6
Continuous
 62
     7
370
    15
100
AcDbCircle
 10
209.4194458079
 20
143.4766853391
 30
0.0
 40
2.799999999999986
100
AcDbArc
 50
162.2009132142
 51
177.559798795
  0
ARC
  5
15E
330
1F
100
AcDbEntity
  8
0
  6
Continuous
 62
     7
370
    15
100
AcDbCircle
 10
204.0874939241
 20
145.1884940632
 30
0.0
 40
2.80000000000007
100
AcDbArc
 50
342.2009132142
 51
12.9186843758
  0
ARC
  5
15F
330
1F
100
AcDbEntity
  8
0
  6
Continuous
 62
     7
370
    15
100
AcDbCircle
 10
209.545748626
 20
146.4404747375
 30
0.0
 40
2.799999999999961
100
AcDbArc
 50
162.2009132142
 51
192.9186843758
  0
ARC
  5
160
330
1F
100
AcDbEntity
  8
0
  6
Continuous
 62
     7
370
    15
100
AcDbCircle
 10
204.2137967422
 20
148.1522834617
 30
0.0
 40
2.800000000000029
100
AcDbArc
 50
342.2009132142
 51
12.9186843758
  0
ARC
  5
161
330
1F
100
AcDbEntity
  8
0
  6
Continuous
 62
     7
370
    15
100
AcDbCircle
 10
209.6720514441
 20
149.4042641359
 30
0.0
 40
2.799999999999939
100
AcDbArc
 50
162.2009132142
 51
192.9186843758
  0
ARC
  5
162
330
1F
100
AcDbEntity
  8
0
  6
Continuous
 62
     7
370
    15
100
AcDbCircle
 10
204.3400995602
 20
151.1160728601
 30
0.0
 40
2.800000000000063
100
AcDbArc
 50
342.2009132142
 51
12.9186843758
  0
ARC
  5
163
330
1F
100
AcDbEntity
  8
0
  6
Continuous
 62
     7
370
    15
100
AcDbCircle
 10
209.7983542622
 20
152.3680535343
 30
0.0
 40
2.799999999999961
100
AcDbArc
 50
162.2009132142
 51
192.9186843758
  0
ARC
  5
164
330
1F
100
AcDbEntity
  8
0
  6
Continuous
 62
     7
370
    15
100
AcDbCircle
 10
204.4664023783
 20
154.0798622585
 30
0.0
 40
2.800000000000063
100
AcDbArc
 50
342.2009132142
 51
12.9186843758
  0
ARC
  5
165
330
1F
100
AcDbEntity
  8
0
  6
Continuous
 62
     7
370
    15
100
AcDbCircle
 10
209.9246570803
 20
155.3318429327
 30
0.0
 40
2.800000000000035
100
AcDbArc
 50
162.2009132142
 51
192.9186843758
  0
ARC
  5
166
330
1F
100
AcDbEntity
  8
0
  6
Continuous
 62
     7
370
    15
100
AcDbCircle
 10
204.5927051964
 20
157.0436516569
 30
0.0
 40
2.799999999999991
100
AcDbArc
 50
342.2009132142
 51
12.9186843758
  0
ARC
  5
167
330
1F
100
AcDbEntity
  8
0
  6
Continuous
 62
     7
370
    15
100
AcDbCircle
 10
210.0509598984
 20
158.2956323311
 30
0.0
 40
2.800000000000753
100
AcDbArc
 50
177.559798795
 51
192.9186843758
  0
LINE
  5
168
330
1F
100
AcDbEntity
  8
0
  6
Continuous
 62
     7
370
    15
100
AcDbLine
 10
207.3436203751
 20
160.5296913371
 30
0.0
 11
207.2534981522
 21
158.4148440347
 31
0.0
  0
ARC
  5
169
330
1F
100
AcDbEntity
  8
0
  6
Continuous
 62
     7
370
    15
100
AcDbCircle
 10
208.2428074246
 20
160.4913689095
 30
0.0
 40
0.9000000000000187
100
AcDbArc
 50
2.440201205
 51
177.559798795
  0
LINE
  5
16A
330
1F
100
AcDbEntity
  8
0
  6
Continuous
 62
     7
370
    15
100
AcDbLine
 10
209.232119039
 20
158.4148440347
 30
0.0
 11
209.1419968161
 21
160.5296913371
 31
0.0
  0
ARC
  5
16B
330
1F
100
AcDbEntity
  8
0
  6
Continuous
 62
     7
370
    15
100
AcDbCircle
 10
206.4346549508
 20
158.2956323311
 30
0.0
 40
2.800000000000384
100
AcDbArc
 50
347.0813156242
 51
2.440201205
  0
ARC
  5
16C
330
1F
100
AcDbEntity
  8
0
  6
Continuous
 62
     7
370
    15
100
AcDbCircle
 10
211.8929096528
 20
157.0436516569
 30
0.0
 40
2.799999999999999
100
AcDbArc
 50
167.0813156242
 51
197.7990867858
  0
ARC
  5
16D
330
1F
100
AcDbEntity
  8
0
  6
Continuous
 62
     7
370
    15
100
AcDbCircle
 10
206.5609577689
 20
155.3318429327
 30
0.0
 40
2.800000000000097
100
AcDbArc
 50
347.0813156242
 51
17.7990867858
  0
ARC
  5
16E
330
1F
100
AcDbEntity
  8
0
  6
Continuous
 62
     7
370
    15
100
AcDbCircle
 10
212.0192124708
 20
154.0798622585
 30
0.0
 40
2.800000000000002
100
AcDbArc
 50
167.0813156242
 51
197.7990867858
  0
ARC
  5
16F
330
1F
100
AcDbEntity
  8
0
  6
Continuous
 62
     7
370
    15
100
AcDbCircle
 10
206.687260587
 20
152.3680535343
 30
0.0
 40
2.799999999999961
100
AcDbArc
 50
347.0813156242
 51
17.7990867858
  0
ARC
  5
170
330
1F
100
AcDbEntity
  8
0
  6
Continuous
 62
     7
370
    15
100
AcDbCircle
 10
212.1455152889
 20
151.1160728601
 30
0.0
 40
2.800000000000008
100
AcDbArc
 50
167.0813156242
 51
197.7990867858
  0
ARC
  5
171
330
1F
100
AcDbEntity
  8
0
  6
Continuous
 62
     7
370
    15
100
AcDbCircle
 10
206.8135634051
 20
149.4042641359
 30
0.0
 40
2.800000000000002
100
AcDbArc
 50
347.0813156242
 51
17.7990867858
  0
ARC
  5
172
330
1F
100
AcDbEntity
  8
0
  6
Continuous
 62
     7
370
    15
100
AcDbCircle
 10
212.271818107
 20
148.1522834617
 30
0.0
 40
2.80000000000001
100
AcDbArc
 50
167.0813156242
 51
197.7990867858
  0
ARC
  5
173
330
1F
100
AcDbEntity
  8
0
  6
Continuous
 62
     7
370
    15
100
AcDbCircle
 10
206.9398662232
 20
146.4404747375
 30
0.0
 40
2.799999999999995
100
AcDbArc
 50
347.0813156242
 51
17.7990867858
  0
ARC
  5
174
330
1F
100
AcDbEntity
  8
0
  6
Continuous
 62
     7
370
    15
100
AcDbCircle
 10
212.3981209251
 20
145.1884940632
 30
0.0
 40
2.800000000000035
100
AcDbArc
 50
167.0813156242
 51
197.7990867858
  0
ARC
  5
175
330
1F
100
AcDbEntity
  8
0
  6
Continuous
 62
     7
370
    15
100
AcDbCircle
 10
207.0661690413
 20
143.4766853391
 30
0.0
 40
2.800000000000015
100
AcDbArc
 50
2.440201205
 51
17.7990867858
  0
LINE
  5
176
330
1F
100
AcDbEntity
  8
0
  6
Continuous
 62
     7
370
    15
100
AcDbLine
 10
210.0224021229
 20
139.870080708
 30
0.0
 11
209.8636302504
 21
143.5958999977
 31
0.0
  0
ARC
  5
177
330
1F
100
AcDbEntity
  8
0
  6
Continuous
 62
     7
370
    15
100
AcDbCircle
 10
210.5219535775
 20
139.8913689095
 30
0.0
 40
0.5000000000004547
100
AcDbArc
 50
182.440201205
 51
270.0000000004
  0
LINE
  5
178
330
1F
100
AcDbEntity
  8
0
  6
Continuous
 62
     7
370
    15
100
AcDbLine
 10
214.8525539193
 20
139.3913660035
 30
0.0
 11
210.5219486508
 21
139.3913660035
 31
0.0
  0
ARC
  5
179
330
1F
100
AcDbEntity
  8
0
  6
Continuous
 62
     7
370
    15
100
AcDbCircle
 10
214.8525501605
 20
139.8913689095
 30
0.0
 40
0.5
100
AcDbArc
 50
270.0
 51
357.559798795
  0
LINE
  5
17A
330
1F
100
AcDbEntity
  8
0
  6
Continuous
 62
     7
370
    15
100
AcDbLine
 10
215.5108723197
 20
143.5958999977
 30
0.0
 11
215.3521004471
 21
139.870080708
 31
0.0
  0
ARC
  5
17B
330
1F
100
AcDbEntity
  8
0
  6
Continuous
 62
     7
370
    15
100
AcDbCircle
 10
218.3083346968
 20
143.4766853391
 30
0.0
 40
2.799999999999986
100
AcDbArc
 50
162.2009132142
 51
177.559798795
  0
ARC
  5
17C
330
1F
100
AcDbEntity
  8
0
  6
Continuous
 62
     7
370
    15
100
AcDbCircle
 10
212.976382813
 20
145.1884940632
 30
0.0
 40
2.800000000000003
100
AcDbArc
 50
342.2009132142
 51
12.9186843758
  0
ARC
  5
17D
330
1F
100
AcDbEntity
  8
0
  6
Continuous
 62
     7
370
    15
100
AcDbCircle
 10
218.4346375149
 20
146.4404747375
 30
0.0
 40
2.800000000001343
100
AcDbArc
 50
162.2009132142
 51
192.9186843758
  0
ARC
  5
17E
330
1F
100
AcDbEntity
  8
0
  6
Continuous
 62
     7
370
    15
100
AcDbCircle
 10
213.102685631
 20
148.1522834617
 30
0.0
 40
2.799999999998606
100
AcDbArc
 50
342.2009132142
 51
12.9186843759
  0
ARC
  5
17F
330
1F
100
AcDbEntity
  8
0
  6
Continuous
 62
     7
370
    15
100
AcDbCircle
 10
218.560940333
 20
149.4042641359
 30
0.0
 40
2.799999999999967
100
AcDbArc
 50
162.2009132142
 51
192.9186843758
  0
ARC
  5
180
330
1F
100
AcDbEntity
  8
0
  6
Continuous
 62
     7
370
    15
100
AcDbCircle
 10
213.2289884491
 20
151.1160728601
 30
0.0
 40
2.800000000000063
100
AcDbArc
 50
342.2009132142
 51
12.9186843758
  0
ARC
  5
181
330
1F
100
AcDbEntity
  8
0
  6
Continuous
 62
     7
370
    15
100
AcDbCircle
 10
218.6872431511
 20
152.3680535343
 30
0.0
 40
2.799999999999961
100
AcDbArc
 50
162.2009132142
 51
192.9186843758
  0
ARC
  5
182
330
1F
100
AcDbEntity
  8
0
  6
Continuous
 62
     7
370
    15
100
AcDbCircle
 10
213.3552912672
 20
154.0798622585
 30
0.0
 40
2.800000000000035
100
AcDbArc
 50
342.2009132142
 51
12.9186843758
  0
ARC
  5
183
330
1F
100
AcDbEntity
  8
0
  6
Continuous
 62
     7
370
    15
100
AcDbCircle
 10
218.8135459692
 20
155.3318429327
 30
0.0
 40
2.800000000000008
100
AcDbArc
 50
162.2009132142
 51
192.9186843758
  0
ARC
  5
184
330
1F
100
AcDbEntity
  8
0
  6
Continuous
 62
     7
370
    15
100
AcDbCircle
 10
213.4815940853
 20
157.0436516569
 30
0.0
 40
2.799999999999991
100
AcDbArc
 50
342.2009132142
 51
12.9186843758
  0
ARC
  5
185
330
1F
100
AcDbEntity
  8
0
  6
Continuous
 62
     7
370
    15
100
AcDbCircle
 10
218.9398487873
 20
158.2956323311
 30
0.0
 40
2.800000000000021
100
AcDbArc
 50
177.5597987949
 51
192.9186843758
  0
LINE
  5
186
330
1F
100
AcDbEntity
  8
0
  6
Continuous
 62
     7
370
    15
100
AcDbLine
 10
216.2325057539
 20
160.5296913371
 30
0.0
 11
216.142383531
 21
158.4148440347
 31
0.0
  0
ARC
  5
187
330
1F
100
AcDbEntity
  8
0
  6
Continuous
 62
     7
370
    15
100
AcDbCircle
 10
217.1316963135
 20
160.4913689095
 30
0.0
 40
0.8999999999999915
100
AcDbArc
 50
2.440201205
 51
177.559798795
  0
LINE
  5
188
330
1F
100
AcDbEntity
  8
0
  6
Continuous
 62
     7
370
    15
100
AcDbLine
 10
218.1210044178
 20
158.4148440347
 30
0.0
 11
218.0308821949
 21
160.5296913371
 31
0.0
  0
ARC
  5
189
330
1F
100
AcDbEntity
  8
0
  6
Continuous
 62
     7
370
    15
100
AcDbCircle
 10
215.3235438397
 20
158.2956323311
 30
0.0
 40
2.800000000000356
100
AcDbArc
 50
347.0813156242
 51
2.440201205
  0
ARC
  5
18A
330
1F
100
AcDbEntity
  8
0
  6
Continuous
 62
     7
370
    15
100
AcDbCircle
 10
220.7817985416
 20
157.0436516569
 30
0.0
 40
2.799999999999999
100
AcDbArc
 50
167.0813156242
 51
197.7990867858
  0
ARC
  5
18B
330
1F
100
AcDbEntity
  8
0
  6
Continuous
 62
     7
370
    15
100
AcDbCircle
 10
215.4498466578
 20
155.3318429327
 30
0.0
 40
2.80000000000007
100
AcDbArc
 50
347.0813156242
 51
17.7990867858
  0
ARC
  5
18C
330
1F
100
AcDbEntity
  8
0
  6
Continuous
 62
     7
370
    15
100
AcDbCircle
 10
220.9081013597
 20
154.0798622585
 30
0.0
 40
2.800000000000029
100
AcDbArc
 50
167.0813156242
 51
197.7990867858
  0
ARC
  5
18D
330
1F
100
AcDbEntity
  8
0
  6
Continuous
 62
     7
370
    15
100
AcDbCircle
 10
215.5761494759
 20
152.3680535343
 30
0.0
 40
2.799999999999989
100
AcDbArc
 50
347.0813156242
 51
17.7990867858
  0
ARC
  5
18E
330
1F
100
AcDbEntity
  8
0
  6
Continuous
 62
     7
370
    15
100
AcDbCircle
 10
221.0344041778
 20
151.1160728601
 30
0.0
 40
2.79999999999998
100
AcDbArc
 50
167.0813156242
 51
197.7990867858
  0
ARC
  5
18F
330
1F
100
AcDbEntity
  8
0
  6
Continuous
 62
     7
370
    15
100
AcDbCircle
 10
215.702452294
 20
149.4042641359
 30
0.0
 40
2.800000000000029
100
AcDbArc
 50
347.0813156242
 51
17.7990867858
  0
ARC
  5
190
330
1F
100
AcDbEntity
  8
0
  6
Continuous
 62
     7
370
    15
100
AcDbCircle
 10
221.1607069959
 20
148.1522834617
 30
0.0
 40
2.799999999999995
100
AcDbArc
 50
167.0813156242
 51
197.7990867858
  0
ARC
  5
191
330
1F
100
AcDbEntity
  8
0
  6
Continuous
 62
     7
370
    15
100
AcDbCircle
 10
215.8287551121
 20
146.4404747375
 30
0.0
 40
2.799999999999995
100
AcDbArc
 50
347.0813156242
 51
17.7990867858
  0
ARC
  5
192
330
1F
100
AcDbEntity
  8
0
  6
Continuous
 62
     7
370
    15
100
AcDbCircle
 10
221.287009814
 20
145.1884940632
 30
0.0
 40
2.800000000000008
100
AcDbArc
 50
167.0813156242
 51
197.7990867858
  0
ARC
  5
193
330
1F
100
AcDbEntity
  8
0
  6
Continuous
 62
     7
370
    15
100
AcDbCircle
 10
215.9550579302
 20
143.4766853391
 30
0.0
 40
2.800000000000015
100
AcDbArc
 50
2.440201205
 51
17.7990867858
  0
LINE
  5
194
330
1F
100
AcDbEntity
  8
0
  6
Continuous
 62
     7
370
    15
100
AcDbLine
 10
218.9113024029
 20
139.870080708
 30
0.0
 11
218.7525156292
 21
143.5958999977
 31
0.0
  0
ARC
  5
195
330
1F
100
AcDbEntity
  8
0
  6
Continuous
 62
     7
370
    15
100
AcDbCircle
 10
219.4108424664
 20
139.8913689095
 30
0.0
 40
0.5000000000000022
100
AcDbArc
 50
182.440201205
 51
270.0
  0
LINE
  5
196
330
1F
100
AcDbEntity
  8
0
  6
Continuous
 62
     7
370
    15
100
AcDbLine
 10
223.7414392981
 20
139.3913660035
 30
0.0
 11
219.4108489308
 21
139.3913660035
 31
0.0
  0
ARC
  5
197
330
1F
100
AcDbEntity
  8
0
  6
Continuous
 62
     7
370
    15
100
AcDbCircle
 10
223.7414390494
 20
139.8913689095
 30
0.0
 40
0.5
100
AcDbArc
 50
270.0
 51
357.559798795
  0
LINE
  5
198
330
1F
100
AcDbEntity
  8
0
  6
Continuous
 62
     7
370
    15
100
AcDbLine
 10
224.3997576985
 20
143.5958999977
 30
0.0
 11
224.240985826
 21
139.870080708
 31
0.0
  0
ARC
  5
199
330
1F
100
AcDbEntity
  8
0
  6
Continuous
 62
     7
370
    15
100
AcDbCircle
 10
227.1972235857
 20
143.4766853391
 30
0.0
 40
2.799999999999986
100
AcDbArc
 50
162.2009132142
 51
177.559798795
  0
ARC
  5
19A
330
1F
100
AcDbEntity
  8
0
  6
Continuous
 62
     7
370
    15
100
AcDbCircle
 10
221.8652717018
 20
145.1884940632
 30
0.0
 40
2.800000000000042
100
AcDbArc
 50
342.2009132142
 51
12.9186843758
  0
ARC
  5
19B
330
1F
100
AcDbEntity
  8
0
  6
Continuous
 62
     7
370
    15
100
AcDbCircle
 10
227.3235264038
 20
146.4404747375
 30
0.0
 40
2.799999999999933
100
AcDbArc
 50
162.2009132142
 51
192.9186843758
  0
ARC
  5
19C
330
1F
100
AcDbEntity
  8
0
  6
Continuous
 62
     7
370
    15
100
AcDbCircle
 10
221.9915745199
 20
148.1522834617
 30
0.0
 40
2.800000000000029
100
AcDbArc
 50
342.2009132142
 51
12.9186843758
  0
ARC
  5
19D
330
1F
100
AcDbEntity
  8
0
  6
Continuous
 62
     7
370
    15
100
AcDbCircle
 10
227.4498292219
 20
149.4042641359
 30
0.0
 40
2.799999999999967
100
AcDbArc
 50
162.2009132142
 51
192.9186843758
  0
ARC
  5
19E
330
1F
100
AcDbEntity
  8
0
  6
Continuous
 62
     7
370
    15
100
AcDbCircle
 10
222.117877338
 20
151.1160728601
 30
0.0
 40
2.800000000000063
100
AcDbArc
 50
342.2009132142
 51
12.9186843758
  0
ARC
  5
19F
330
1F
100
AcDbEntity
  8
0
  6
Continuous
 62
     7
370
    15
100
AcDbCircle
 10
227.57613204
 20
152.3680535343
 30
0.0
 40
2.799999999999961
100
AcDbArc
 50
162.2009132142
 51
192.9186843758
  0
ARC
  5
1A0
330
1F
100
AcDbEntity
  8
0
  6
Continuous
 62
     7
370
    15
100
AcDbCircle
 10
222.2441801561
 20
154.0798622585
 30
0.0
 40
2.800000000000063
100
AcDbArc
 50
342.2009132142
 51
12.9186843758
  0
ARC
  5
1A1
330
1F
100
AcDbEntity
  8
0
  6
Continuous
 62
     7
370
    15
100
AcDbCircle
 10
227.7024348581
 20
155.3318429327
 30
0.0
 40
2.79999999999998
100
AcDbArc
 50
162.2009132142
 51
192.9186843758
  0
ARC
  5
1A2
330
1F
100
AcDbEntity
  8
0
  6
Continuous
 62
     7
370
    15
100
AcDbCircle
 10
222.3704829742
 20
157.0436516569
 30
0.0
 40
2.800000000000018
100
AcDbArc
 50
342.2009132142
 51
12.9186843758
  0
ARC
  5
1A3
330
1F
100
AcDbEntity
  8
0
  6
Continuous
 62
     7
370
    15
100
AcDbCircle
 10
227.8287376762
 20
158.2956323311
 30
0.0
 40
2.799999999999993
100
AcDbArc
 50
177.5597987949
 51
192.9186843758
  0
LINE
  5
1A4
330
1F
100
AcDbEntity
  8
0
  6
Continuous
 62
     7
370
    15
100
AcDbLine
 10
225.1214060339
 20
160.5296913371
 30
0.0
 11
225.031283811
 21
158.4148440347
 31
0.0
  0
ARC
  5
1A5
330
1F
100
AcDbEntity
  8
0
  6
Continuous
 62
     7
370
    15
100
AcDbCircle
 10
226.0205852024
 20
160.4913689095
 30
0.0
 40
0.9000000000000187
100
AcDbArc
 50
2.440201205
 51
177.559798795
  0
LINE
  5
1A6
330
1F
100
AcDbEntity
  8
0
  6
Continuous
 62
     7
370
    15
100
AcDbLine
 10
227.0098897967
 20
158.4148440347
 30
0.0
 11
226.9197675738
 21
160.5296913371
 31
0.0
  0
ARC
  5
1A7
330
1F
100
AcDbEntity
  8
0
  6
Continuous
 62
     7
370
    15
100
AcDbCircle
 10
224.2124327286
 20
158.2956323311
 30
0.0
 40
2.800000000000356
100
AcDbArc
 50
347.0813156242
 51
2.440201205
  0
ARC
  5
1A8
330
1F
100
AcDbEntity
  8
0
  6
Continuous
 62
     7
370
    15
100
AcDbCircle
 10
229.6706874305
 20
157.0436516569
 30
0.0
 40
2.799999999999999
100
AcDbArc
 50
167.0813156242
 51
197.7990867858
  0
ARC
  5
1A9
330
1F
100
AcDbEntity
  8
0
  6
Continuous
 62
     7
370
    15
100
AcDbCircle
 10
224.3387355467
 20
155.3318429327
 30
0.0
 40
2.800000000000042
100
AcDbArc
 50
347.0813156242
 51
17.7990867858
  0
ARC
  5
1AA
330
1F
100
AcDbEntity
  8
0
  6
Continuous
 62
     7
370
    15
100
AcDbCircle
 10
229.7969902486
 20
154.0798622585
 30
0.0
 40
2.800000000000002
100
AcDbArc
 50
167.0813156242
 51
197.7990867858
  0
ARC
  5
1AB
330
1F
100
AcDbEntity
  8
0
  6
Continuous
 62
     7
370
    15
100
AcDbCircle
 10
224.4650383648
 20
152.3680535343
 30
0.0
 40
2.799999999999989
100
AcDbArc
 50
347.0813156242
 51
17.7990867858
  0
ARC
  5
1AC
330
1F
100
AcDbEntity
  8
0
  6
Continuous
 62
     7
370
    15
100
AcDbCircle
 10
229.9232930667
 20
151.1160728601
 30
0.0
 40
2.800000000000008
100
AcDbArc
 50
167.0813156242
 51
197.7990867858
  0
ARC
  5
1AD
330
1F
100
AcDbEntity
  8
0
  6
Continuous
 62
     7
370
    15
100
AcDbCircle
 10
224.5913411829
 20
149.4042641359
 30
0.0
 40
2.800000000000029
100
AcDbArc
 50
347.0813156242
 51
17.7990867858
  0
ARC
  5
1AE
330
1F
100
AcDbEntity
  8
0
  6
Continuous
 62
     7
370
    15
100
AcDbCircle
 10
230.0495958848
 20
148.1522834617
 30
0.0
 40
2.799999999999995
100
AcDbArc
 50
167.0813156242
 51
197.7990867858
  0
ARC
  5
1AF
330
1F
100
AcDbEntity
  8
0
  6
Continuous
 62
     7
370
    15
100
AcDbCircle
 10
224.717644001
 20
146.4404747375
 30
0.0
 40
2.799999999999967
100
AcDbArc
 50
347.0813156242
 51
17.7990867858
  0
ARC
  5
1B0
330
1F
100
AcDbEntity
  8
0
  6
Continuous
 62
     7
370
    15
100
AcDbCircle
 10
230.1758987029
 20
145.1884940632
 30
0.0
 40
2.800000000000008
100
AcDbArc
 50
167.0813156242
 51
197.7990867858
  0
ARC
  5
1B1
330
1F
100
AcDbEntity
  8
0
  6
Continuous
 62
     7
370
    15
100
AcDbCircle
 10
224.843946819
 20
143.4766853391
 30
0.0
 40
2.800000000000043
100
AcDbArc
 50
2.440201205
 51
17.7990867858
  0
LINE
  5
1B2
330
1F
100
AcDbEntity
  8
0
  6
Continuous
 62
     7
370
    15
100
AcDbLine
 10
227.8001877818
 20
139.870080708
 30
0.0
 11
227.6414010081
 21
143.5958999977
 31
0.0
  0
ARC
  5
1B3
330
1F
100
AcDbEntity
  8
0
  6
Continuous
 62
     7
370
    15
100
AcDbCircle
 10
228.2997313553
 20
139.8913689095
 30
0.0
 40
0.5000000000000022
100
AcDbArc
 50
182.440201205
 51
270.0
  0
LINE
  5
1B4
330
1F
100
AcDbEntity
  8
0
  6
Continuous
 62
     7
370
    15
100
AcDbLine
 10
232.6303246769
 20
139.3913660035
 30
0.0
 11
228.2997343096
 21
139.3913660035
 31
0.0
  0
ARC
  5
1B5
330
1F
100
AcDbEntity
  8
0
  6
Continuous
 62
     7
370
    15
100
AcDbCircle
 10
232.6303279383
 20
139.8913689095
 30
0.0
 40
0.5
100
AcDbArc
 50
270.0
 51
357.559798795
  0
LINE
  5
1B6
330
1F
100
AcDbEntity
  8
0
  6
Continuous
 62
     7
370
    15
100
AcDbLine
 10
233.2886579785
 20
143.5958999977
 30
0.0
 11
233.1298712048
 21
139.870080708
 31
0.0
  0
ARC
  5
1B7
330
1F
100
AcDbEntity
  8
0
  6
Continuous
 62
     7
370
    15
100
AcDbCircle
 10
236.0861124746
 20
143.4766853391
 30
0.0
 40
2.799999999999958
100
AcDbArc
 50
162.2009132142
 51
177.559798795
  0
ARC
  5
1B8
330
1F
100
AcDbEntity
  8
0
  6
Continuous
 62
     7
370
    15
100
AcDbCircle
 10
230.7541605907
 20
145.1884940632
 30
0.0
 40
2.80000000000007
100
AcDbArc
 50
342.2009132142
 51
12.9186843758
  0
ARC
  5
1B9
330
1F
100
AcDbEntity
  8
0
  6
Continuous
 62
     7
370
    15
100
AcDbCircle
 10
236.2124152927
 20
146.4404747375
 30
0.0
 40
2.799999999999938
100
AcDbArc
 50
162.2009132142
 51
192.9186843758
  0
ARC
  5
1BA
330
1F
100
AcDbEntity
  8
0
  6
Continuous
 62
     7
370
    15
100
AcDbCircle
 10
230.8804634088
 20
148.1522834617
 30
0.0
 40
2.800000000000057
100
AcDbArc
 50
342.2009132142
 51
12.9186843758
  0
ARC
  5
1BB
330
1F
100
AcDbEntity
  8
0
  6
Continuous
 62
     7
370
    15
100
AcDbCircle
 10
236.3387181108
 20
149.4042641359
 30
0.0
 40
2.799999999999967
100
AcDbArc
 50
162.2009132142
 51
192.9186843758
  0
ARC
  5
1BC
330
1F
100
AcDbEntity
  8
0
  6
Continuous
 62
     7
370
    15
100
AcDbCircle
 10
231.0067662269
 20
151.1160728601
 30
0.0
 40
2.800000000000035
100
AcDbArc
 50
342.2009132142
 51
12.9186843758
  0
ARC
  5
1BD
330
1F
100
AcDbEntity
  8
0
  6
Continuous
 62
     7
370
    15
100
AcDbCircle
 10
236.4650209289
 20
152.3680535343
 30
0.0
 40
2.799999999999933
100
AcDbArc
 50
162.2009132142
 51
192.9186843758
  0
ARC
  5
1BE
330
1F
100
AcDbEntity
  8
0
  6
Continuous
 62
     7
370
    15
100
AcDbCircle
 10
231.133069045
 20
154.0798622585
 30
0.0
 40
2.800000000000063
100
AcDbArc
 50
342.2009132142
 51
12.9186843758
  0
ARC
  5
1BF
330
1F
100
AcDbEntity
  8
0
  6
Continuous
 62
     7
370
    15
100
AcDbCircle
 10
236.591323747
 20
155.3318429327
 30
0.0
 40
2.800000000000008
100
AcDbArc
 50
162.2009132142
 51
192.9186843758
  0
ARC
  5
1C0
330
1F
100
AcDbEntity
  8
0
  6
Continuous
 62
     7
370
    15
100
AcDbCircle
 10
231.2593718631
 20
157.0436516569
 30
0.0
 40
2.800000000000018
100
AcDbArc
 50
342.2009132142
 51
12.9186843758
  0
ARC
  5
1C1
330
1F
100
AcDbEntity
  8
0
  6
Continuous
 62
     7
370
    15
100
AcDbCircle
 10
236.7176265651
 20
158.2956323311
 30
0.0
 40
2.79999999999998
100
AcDbArc
 50
177.5597987949
 51
192.9186843758
  0
LINE
  5
1C2
330
1F
100
AcDbEntity
  8
0
  6
Continuous
 62
     7
370
    15
100
AcDbLine
 10
234.0102914128
 20
160.5296913371
 30
0.0
 11
233.9201691899
 21
158.4148440347
 31
0.0
  0
ARC
  5
1C3
330
1F
100
AcDbEntity
  8
0
  6
Continuous
 62
     7
370
    15
100
AcDbCircle
 10
234.9094740913
 20
160.4913689095
 30
0.0
 40
0.8999999999999915
100
AcDbArc
 50
2.440201205
 51
177.559798795
  0
LINE
  5
1C4
330
1F
100
AcDbEntity
  8
0
  6
Continuous
 62
     7
370
    15
100
AcDbLine
 10
235.8987751755
 20
158.4148440347
 30
0.0
 11
235.8086529526
 21
160.5296913371
 31
0.0
  0
ARC
  5
1C5
330
1F
100
AcDbEntity
  8
0
  6
Continuous
 62
     7
370
    15
100
AcDbCircle
 10
233.1013216175
 20
158.2956323311
 30
0.0
 40
2.800000000000356
100
AcDbArc
 50
347.0813156242
 51
2.440201205
  0
ARC
  5
1C6
330
1F
100
AcDbEntity
  8
0
  6
Continuous
 62
     7
370
    15
100
AcDbCircle
 10
238.5595763194
 20
157.0436516569
 30
0.0
 40
2.799999999999999
100
AcDbArc
 50
167.0813156242
 51
197.7990867858
  0
ARC
  5
1C7
330
1F
100
AcDbEntity
  8
0
  6
Continuous
 62
     7
370
    15
100
AcDbCircle
 10
233.2276244356
 20
155.3318429327
 30
0.0
 40
2.80000000000007
100
AcDbArc
 50
347.0813156242
 51
17.7990867858
  0
ARC
  5
1C8
330
1F
100
AcDbEntity
  8
0
  6
Continuous
 62
     7
370
    15
100
AcDbCircle
 10
238.6858791375
 20
154.0798622585
 30
0.0
 40
2.799999999999974
100
AcDbArc
 50
167.0813156242
 51
197.7990867858
  0
ARC
  5
1C9
330
1F
100
AcDbEntity
  8
0
  6
Continuous
 62
     7
370
    15
100
AcDbCircle
 10
233.3539272537
 20
152.3680535343
 30
0.0
 40
2.799999999999989
100
AcDbArc
 50
347.0813156242
 51
17.7990867858
  0
ARC
  5
1CA
330
1F
100
AcDbEntity
  8
0
  6
Continuous
 62
     7
370
    15
100
AcDbCircle
 10
238.8121819556
 20
151.1160728601
 30
0.0
 40
2.800000000000008
100
AcDbArc
 50
167.0813156242
 51
197.7990867858
  0
ARC
  5
1CB
330
1F
100
AcDbEntity
  8
0
  6
Continuous
 62
     7
370
    15
100
AcDbCircle
 10
233.4802300717
 20
149.4042641359
 30
0.0
 40
2.800000000000002
100
AcDbArc
 50
347.0813156242
 51
17.7990867858
  0
ARC
  5
1CC
330
1F
100
AcDbEntity
  8
0
  6
Continuous
 62
     7
370
    15
100
AcDbCircle
 10
238.9384847737
 20
148.1522834617
 30
0.0
 40
2.800000000000022
100
AcDbArc
 50
167.0813156242
 51
197.7990867858
  0
ARC
  5
1CD
330
1F
100
AcDbEntity
  8
0
  6
Continuous
 62
     7
370
    15
100
AcDbCircle
 10
233.6065328898
 20
146.4404747375
 30
0.0
 40
2.799999999999995
100
AcDbArc
 50
347.0813156242
 51
17.7990867858
  0
ARC
  5
1CE
330
1F
100
AcDbEntity
  8
0
  6
Continuous
 62
     7
370
    15
100
AcDbCircle
 10
239.0647875918
 20
145.1884940632
 30
0.0
 40
2.79999999999998
100
AcDbArc
 50
167.0813156242
 51
197.7990867858
  0
ARC
  5
1CF
330
1F
100
AcDbEntity
  8
0
  6
Continuous
 62
     7
370
    15
100
AcDbCircle
 10
233.7328357079
 20
143.4766853391
 30
0.0
 40
2.800000000000071
100
AcDbArc
 50
2.440201205
 51
17.7990867858
  0
LINE
  5
1D0
330
1F
100
AcDbEntity
  8
0
  6
Continuous
 62
     7
370
    15
100
AcDbLine
 10
236.6890731606
 20
139.870080708
 30
0.0
 11
236.5303012881
 21
143.5958999977
 31
0.0
  0
ARC
  5
1D1
330
1F
100
AcDbEntity
  8
0
  6
Continuous
 62
     7
370
    15
100
AcDbCircle
 10
237.1886202442
 20
139.8913689095
 30
0.0
 40
0.5
100
AcDbArc
 50
182.440201205
 51
270.0
  0
LINE
  5
1D2
330
1F
100
AcDbEntity
  8
0
  6
Continuous
 62
     7
370
    15
100
AcDbLine
 10
241.5192100558
 20
139.3913660035
 30
0.0
 11
237.1886196885
 21
139.3913660035
 31
0.0
  0
ARC
  5
1D3
330
1F
100
AcDbEntity
  8
0
  6
Continuous
 62
     7
370
    15
100
AcDbCircle
 10
241.5192168272
 20
139.8913689095
 30
0.0
 40
0.5000000000000306
100
AcDbArc
 50
270.0
 51
357.559798795
  0
LINE
  5
1D4
330
1F
100
AcDbEntity
  8
0
  6
Continuous
 62
     7
370
    15
100
AcDbLine
 10
242.1775433573
 20
143.5958999977
 30
0.0
 11
242.0187565836
 21
139.870080708
 31
0.0
  0
ARC
  5
1D5
330
1F
100
AcDbEntity
  8
0
  6
Continuous
 62
     7
370
    15
100
AcDbCircle
 10
244.9750013635
 20
143.4766853391
 30
0.0
 40
2.799999999999958
100
AcDbArc
 50
162.2009132142
 51
177.559798795
  0
ARC
  5
1D6
330
1F
100
AcDbEntity
  8
0
  6
Continuous
 62
     7
370
    15
100
AcDbCircle
 10
239.6430494796
 20
145.1884940632
 30
0.0
 40
2.80000000000007
100
AcDbArc
 50
342.2009132142
 51
12.9186843758
  0
ARC
  5
1D7
330
1F
100
AcDbEntity
  8
0
  6
Continuous
 62
     7
370
    15
100
AcDbCircle
 10
245.1013041816
 20
146.4404747375
 30
0.0
 40
2.799999999999933
100
AcDbArc
 50
162.2009132142
 51
192.9186843758
  0
ARC
  5
1D8
330
1F
100
AcDbEntity
  8
0
  6
Continuous
 62
     7
370
    15
100
AcDbCircle
 10
239.7693522977
 20
148.1522834617
 30
0.0
 40
2.800000000000057
100
AcDbArc
 50
342.2009132142
 51
12.9186843758
  0
ARC
  5
1D9
330
1F
100
AcDbEntity
  8
0
  6
Continuous
 62
     7
370
    15
100
AcDbCircle
 10
245.2276069997
 20
149.4042641359
 30
0.0
 40
2.799999999999967
100
AcDbArc
 50
162.2009132142
 51
192.9186843758
  0
ARC
  5
1DA
330
1F
100
AcDbEntity
  8
0
  6
Continuous
 62
     7
370
    15
100
AcDbCircle
 10
239.8956551158
 20
151.1160728601
 30
0.0
 40
2.800000000000035
100
AcDbArc
 50
342.2009132142
 51
12.9186843758
  0
ARC
  5
1DB
330
1F
100
AcDbEntity
  8
0
  6
Continuous
 62
     7
370
    15
100
AcDbCircle
 10
245.3539098178
 20
152.3680535343
 30
0.0
 40
2.799999999999933
100
AcDbArc
 50
162.2009132142
 51
192.9186843758
  0
ARC
  5
1DC
330
1F
100
AcDbEntity
  8
0
  6
Continuous
 62
     7
370
    15
100
AcDbCircle
 10
240.0219579339
 20
154.0798622585
 30
0.0
 40
2.800000000000091
100
AcDbArc
 50
342.2009132142
 51
12.9186843758
  0
ARC
  5
1DD
330
1F
100
AcDbEntity
  8
0
  6
Continuous
 62
     7
370
    15
100
AcDbCircle
 10
245.4802126359
 20
155.3318429327
 30
0.0
 40
2.800000000000008
100
AcDbArc
 50
162.2009132142
 51
192.9186843758
  0
ARC
  5
1DE
330
1F
100
AcDbEntity
  8
0
  6
Continuous
 62
     7
370
    15
100
AcDbCircle
 10
240.148260752
 20
157.0436516569
 30
0.0
 40
2.800000000000018
100
AcDbArc
 50
342.2009132142
 51
12.9186843758
  0
ARC
  5
1DF
330
1F
100
AcDbEntity
  8
0
  6
Continuous
 62
     7
370
    15
100
AcDbCircle
 10
245.6065154539
 20
158.2956323311
 30
0.0
 40
2.800000000000007
100
AcDbArc
 50
177.5597987949
 51
192.9186843758
  0
LINE
  5
1E0
330
1F
100
AcDbEntity
  8
0
  6
Continuous
 62
     7
370
    15
100
AcDbLine
 10
242.8991767916
 20
160.5296913371
 30
0.0
 11
242.8090545687
 21
158.4148440347
 31
0.0
  0
ARC
  5
1E1
330
1F
100
AcDbEntity
  8
0
  6
Continuous
 62
     7
370
    15
100
AcDbCircle
 10
243.7983629801
 20
160.4913689095
 30
0.0
 40
0.8999999999999915
100
AcDbArc
 50
2.440201205
 51
177.559798795
  0
LINE
  5
1E2
330
1F
100
AcDbEntity
  8
0
  6
Continuous
 62
     7
370
    15
100
AcDbLine
 10
244.7876754555
 20
158.4148440347
 30
0.0
 11
244.6975532326
 21
160.5296913371
 31
0.0
  0
ARC
  5
1E3
330
1F
100
AcDbEntity
  8
0
  6
Continuous
 62
     7
370
    15
100
AcDbCircle
 10
241.9902105064
 20
158.2956323311
 30
0.0
 40
2.800000000000384
100
AcDbArc
 50
347.0813156242
 51
2.440201205
  0
ARC
  5
1E4
330
1F
100
AcDbEntity
  8
0
  6
Continuous
 62
     7
370
    15
100
AcDbCircle
 10
247.4484652083
 20
157.0436516569
 30
0.0
 40
2.799999999999972
100
AcDbArc
 50
167.0813156242
 51
197.7990867858
  0
ARC
  5
1E5
330
1F
100
AcDbEntity
  8
0
  6
Continuous
 62
     7
370
    15
100
AcDbCircle
 10
242.1165133244
 20
155.3318429327
 30
0.0
 40
2.80000000000007
100
AcDbArc
 50
347.0813156242
 51
17.7990867858
  0
ARC
  5
1E6
330
1F
100
AcDbEntity
  8
0
  6
Continuous
 62
     7
370
    15
100
AcDbCircle
 10
247.5747680264
 20
154.0798622585
 30
0.0
 40
2.800000000000002
100
AcDbArc
 50
167.0813156242
 51
197.7990867858
  0
ARC
  5
1E7
330
1F
100
AcDbEntity
  8
0
  6
Continuous
 62
     7
370
    15
100
AcDbCircle
 10
242.2428161425
 20
152.3680535343
 30
0.0
 40
2.800000000000016
100
AcDbArc
 50
347.0813156242
 51
17.7990867858
  0
ARC
  5
1E8
330
1F
100
AcDbEntity
  8
0
  6
Continuous
 62
     7
370
    15
100
AcDbCircle
 10
247.7010708445
 20
151.1160728601
 30
0.0
 40
2.800000000000008
100
AcDbArc
 50
167.0813156242
 51
197.7990867858
  0
ARC
  5
1E9
330
1F
100
AcDbEntity
  8
0
  6
Continuous
 62
     7
370
    15
100
AcDbCircle
 10
242.3691189606
 20
149.4042641359
 30
0.0
 40
2.799999999999974
100
AcDbArc
 50
347.0813156242
 51
17.7990867858
  0
ARC
  5
1EA
330
1F
100
AcDbEntity
  8
0
  6
Continuous
 62
     7
370
    15
100
AcDbCircle
 10
247.8273736626
 20
148.1522834617
 30
0.0
 40
2.799999999999995
100
AcDbArc
 50
167.0813156242
 51
197.7990867858
  0
ARC
  5
1EB
330
1F
100
AcDbEntity
  8
0
  6
Continuous
 62
     7
370
    15
100
AcDbCircle
 10
242.4954217787
 20
146.4404747375
 30
0.0
 40
2.799999999999995
100
AcDbArc
 50
347.0813156242
 51
17.7990867858
  0
ARC
  5
1EC
330
1F
100
AcDbEntity
  8
0
  6
Continuous
 62
     7
370
    15
100
AcDbCircle
 10
247.9536764807
 20
145.1884940632
 30
0.0
 40
2.800000000000008
100
AcDbArc
 50
167.0813156242
 51
197.7990867858
  0
ARC
  5
1ED
330
1F
100
AcDbEntity
  8
0
  6
Continuous
 62
     7
370
    15
100
AcDbCircle
 10
242.6217245968
 20
143.4766853391
 30
0.0
 40
2.800000000000071
100
AcDbArc
 50
2.440201205
 51
17.7990867858
  0
LINE
  5
1EE
330
1F
100
AcDbEntity
  8
0
  6
Continuous
 62
     7
370
    15
100
AcDbLine
 10
245.5779585394
 20
139.870080708
 30
0.0
 11
245.4191866669
 21
143.5958999977
 31
0.0
  0
ARC
  5
1EF
330
1F
100
AcDbEntity
  8
0
  6
Continuous
 62
     7
370
    15
100
AcDbCircle
 10
246.0775091331
 20
139.8913689095
 30
0.0
 40
0.5
100
AcDbArc
 50
182.440201205
 51
270.0
  0
LINE
  5
1F0
330
1F
100
AcDbEntity
  8
0
  6
Continuous
 62
     7
370
    15
100
AcDbLine
 10
250.4081103358
 20
139.3913660035
 30
0.0
 11
246.0775050673
 21
139.3913660035
 31
0.0
  0
ARC
  5
1F1
330
1F
100
AcDbEntity
  8
0
  6
Continuous
 62
     7
370
    15
100
AcDbCircle
 10
250.4081057161
 20
139.8913689095
 30
0.0
 40
0.5000000000000591
100
AcDbArc
 50
270.0
 51
357.559798795
  0
LINE
  5
1F2
330
1F
100
AcDbEntity
  8
0
  6
Continuous
 62
     7
370
    15
100
AcDbLine
 10
251.0664287362
 20
143.5958999977
 30
0.0
 11
250.9076568636
 21
139.870080708
 31
0.0
  0
ARC
  5
1F3
330
1F
100
AcDbEntity
  8
0
  6
Continuous
 62
     7
370
    15
100
AcDbCircle
 10
253.8638902524
 20
143.4766853391
 30
0.0
 40
2.79999999999993
100
AcDbArc
 50
162.2009132142
 51
177.559798795
  0
ARC
  5
1F4
330
1F
100
AcDbEntity
  8
0
  6
Continuous
 62
     7
370
    15
100
AcDbCircle
 10
248.5319383685
 20
145.1884940632
 30
0.0
 40
2.800000000000097
100
AcDbArc
 50
342.2009132142
 51
12.9186843758
  0
ARC
  5
1F5
330
1F
100
AcDbEntity
  8
0
  6
Continuous
 62
     7
370
    15
100
AcDbCircle
 10
253.9901930705
 20
146.4404747375
 30
0.0
 40
2.799999999999933
100
AcDbArc
 50
162.2009132142
 51
192.9186843758
  0
ARC
  5
1F6
330
1F
100
AcDbEntity
  8
0
  6
Continuous
 62
     7
370
    15
100
AcDbCircle
 10
248.6582411866
 20
148.1522834617
 30
0.0
 40
2.800000000000057
100
AcDbArc
 50
342.2009132142
 51
12.9186843758
  0
ARC
  5
1F7
330
1F
100
AcDbEntity
  8
0
  6
Continuous
 62
     7
370
    15
100
AcDbCircle
 10
254.1164958886
 20
149.4042641359
 30
0.0
 40
2.799999999999939
100
AcDbArc
 50
162.2009132142
 51
192.9186843758
  0
ARC
  5
1F8
330
1F
100
AcDbEntity
  8
0
  6
Continuous
 62
     7
370
    15
100
AcDbCircle
 10
248.7845440047
 20
151.1160728601
 30
0.0
 40
2.800000000000035
100
AcDbArc
 50
342.2009132142
 51
12.9186843758
  0
ARC
  5
1F9
330
1F
100
AcDbEntity
  8
0
  6
Continuous
 62
     7
370
    15
100
AcDbCircle
 10
254.2427987066
 20
152.3680535343
 30
0.0
 40
2.799999999999933
100
AcDbArc
 50
162.2009132142
 51
192.9186843758
  0
ARC
  5
1FA
330
1F
100
AcDbEntity
  8
0
  6
Continuous
 62
     7
370
    15
100
AcDbCircle
 10
248.9108468228
 20
154.0798622585
 30
0.0
 40
2.800000000000063
100
AcDbArc
 50
342.2009132142
 51
12.9186843758
  0
ARC
  5
1FB
330
1F
100
AcDbEntity
  8
0
  6
Continuous
 62
     7
370
    15
100
AcDbCircle
 10
254.3691015247
 20
155.3318429327
 30
0.0
 40
2.800000000000008
100
AcDbArc
 50
162.2009132142
 51
192.9186843758
  0
ARC
  5
1FC
330
1F
100
AcDbEntity
  8
0
  6
Continuous
 62
     7
370
    15
100
AcDbCircle
 10
249.0371496409
 20
157.0436516569
 30
0.0
 40
2.799999999999964
100
AcDbArc
 50
342.2009132142
 51
12.9186843758
  0
ARC
  5
1FD
330
1F
100
AcDbEntity
  8
0
  6
Continuous
 62
     7
370
    15
100
AcDbCircle
 10
254.4954043428
 20
158.2956323311
 30
0.0
 40
2.800000000000035
100
AcDbArc
 50
177.5597987949
 51
192.9186843758
  0
LINE
  5
1FE
330
1F
100
AcDbEntity
  8
0
  6
Continuous
 62
     7
370
    15
100
AcDbLine
 10
251.7880621705
 20
160.5296913371
 30
0.0
 11
251.6979399476
 21
158.4148440347
 31
0.0
  0
ARC
  5
1FF
330
1F
100
AcDbEntity
  8
0
  6
Continuous
 62
     7
370
    15
100
AcDbCircle
 10
252.687251869
 20
160.4913689095
 30
0.0
 40
0.8999999999999915
100
AcDbArc
 50
2.440201205
 51
177.559798795
  0
LINE
  5
200
330
1F
100
AcDbEntity
  8
0
  6
Continuous
 62
     7
370
    15
100
AcDbLine
 10
253.6765608344
 20
158.4148440347
 30
0.0
 11
253.5864386115
 21
160.5296913371
 31
0.0
  0
ARC
  5
201
330
1F
100
AcDbEntity
  8
0
  6
Continuous
 62
     7
370
    15
100
AcDbCircle
 10
250.8790993952
 20
158.2956323311
 30
0.0
 40
2.800000000000356
100
AcDbArc
 50
347.0813156242
 51
2.440201205
  0
ARC
  5
202
330
1F
100
AcDbEntity
  8
0
  6
Continuous
 62
     7
370
    15
100
AcDbCircle
 10
256.3373540972
 20
157.0436516569
 30
0.0
 40
2.799999999999972
100
AcDbArc
 50
167.0813156242
 51
197.7990867858
  0
ARC
  5
203
330
1F
100
AcDbEntity
  8
0
  6
Continuous
 62
     7
370
    15
100
AcDbCircle
 10
251.0054022133
 20
155.3318429327
 30
0.0
 40
2.80000000000007
100
AcDbArc
 50
347.0813156242
 51
17.7990867858
  0
ARC
  5
204
330
1F
100
AcDbEntity
  8
0
  6
Continuous
 62
     7
370
    15
100
AcDbCircle
 10
256.4636569153
 20
154.0798622585
 30
0.0
 40
2.799999999999983
100
AcDbArc
 50
167.0813156242
 51
197.7990867858
  0
ARC
  5
205
330
1F
100
AcDbEntity
  8
0
  6
Continuous
 62
     7
370
    15
100
AcDbCircle
 10
251.1317050314
 20
152.3680535343
 30
0.0
 40
2.799999999999989
100
AcDbArc
 50
347.0813156242
 51
17.7990867858
  0
ARC
  5
206
330
1F
100
AcDbEntity
  8
0
  6
Continuous
 62
     7
370
    15
100
AcDbCircle
 10
256.5899597334
 20
151.1160728601
 30
0.0
 40
2.800000000000091
100
AcDbArc
 50
167.0813156242
 51
197.7990867858
  0
ARC
  5
207
330
1F
100
AcDbEntity
  8
0
  6
Continuous
 62
     7
370
    15
100
AcDbCircle
 10
251.2580078495
 20
149.4042641359
 30
0.0
 40
2.800000000000002
100
AcDbArc
 50
347.0813156242
 51
17.7990867858
  0
ARC
  5
208
330
1F
100
AcDbEntity
  8
0
  6
Continuous
 62
     7
370
    15
100
AcDbCircle
 10
256.7162625515
 20
148.1522834617
 30
0.0
 40
2.799999999999983
100
AcDbArc
 50
167.0813156242
 51
197.7990867858
  0
ARC
  5
209
330
1F
100
AcDbEntity
  8
0
  6
Continuous
 62
     7
370
    15
100
AcDbCircle
 10
251.3843106676
 20
146.4404747375
 30
0.0
 40
2.80000000000005
100
AcDbArc
 50
347.0813156242
 51
17.7990867858
  0
ARC
  5
20A
330
1F
100
AcDbEntity
  8
0
  6
Continuous
 62
     7
370
    15
100
AcDbCircle
 10
256.8425653696
 20
145.1884940632
 30
0.0
 40
2.800000000000008
100
AcDbArc
 50
167.0813156242
 51
197.7990867858
  0
ARC
  5
20B
330
1F
100
AcDbEntity
  8
0
  6
Continuous
 62
     7
370
    15
100
AcDbCircle
 10
251.5106134857
 20
143.4766853391
 30
0.0
 40
2.799999999999986
100
AcDbArc
 50
2.440201205
 51
17.7990867858
  0
LINE
  5
20C
330
1F
100
AcDbEntity
  8
0
  6
Continuous
 62
     7
370
    15
100
AcDbLine
 10
254.4668588194
 20
139.870080708
 30
0.0
 11
254.3080720458
 21
143.5958999977
 31
0.0
  0
ARC
  5
20D
330
1F
100
AcDbEntity
  8
0
  6
Continuous
 62
     7
370
    15
100
AcDbCircle
 10
254.966398022
 20
139.8913689095
 30
0.0
 40
0.5000000000000591
100
AcDbArc
 50
182.440201205
 51
270.0
  0
LINE
  5
20E
330
1F
100
AcDbEntity
  8
0
  6
Continuous
 62
     7
370
    15
100
AcDbLine
 10
259.2969957146
 20
139.3913660035
 30
0.0
 11
254.9664053473
 21
139.3913660035
 31
0.0
  0
ARC
  5
20F
330
1F
100
AcDbEntity
  8
0
  6
Continuous
 62
     7
370
    15
100
AcDbCircle
 10
259.296994605
 20
139.8913689095
 30
0.0
 40
0.5
100
AcDbArc
 50
270.0
 51
357.559798795
  0
LINE
  5
210
330
1F
100
AcDbEntity
  8
0
  6
Continuous
 62
     7
370
    15
100
AcDbLine
 10
259.955314115
 20
143.5958999977
 30
0.0
 11
259.7965422425
 21
139.870080708
 31
0.0
  0
ARC
  5
211
330
1F
100
AcDbEntity
  8
0
  6
Continuous
 62
     7
370
    15
100
AcDbCircle
 10
262.7527791413
 20
143.4766853391
 30
0.0
 40
2.799999999999986
100
AcDbArc
 50
162.2009132142
 51
177.559798795
  0
ARC
  5
212
330
1F
100
AcDbEntity
  8
0
  6
Continuous
 62
     7
370
    15
100
AcDbCircle
 10
257.4208272574
 20
145.1884940632
 30
0.0
 40
2.800000000000042
100
AcDbArc
 50
342.2009132142
 51
12.9186843758
  0
ARC
  5
213
330
1F
100
AcDbEntity
  8
0
  6
Continuous
 62
     7
370
    15
100
AcDbCircle
 10
262.8790819593
 20
146.4404747375
 30
0.0
 40
2.799999999999961
100
AcDbArc
 50
162.2009132142
 51
192.9186843758
  0
ARC
  5
214
330
1F
100
AcDbEntity
  8
0
  6
Continuous
 62
     7
370
    15
100
AcDbCircle
 10
257.5471300755
 20
148.1522834617
 30
0.0
 40
2.800000000000085
100
AcDbArc
 50
342.2009132142
 51
12.9186843758
  0
ARC
  5
215
330
1F
100
AcDbEntity
  8
0
  6
Continuous
 62
     7
370
    15
100
AcDbCircle
 10
263.0053847774
 20
149.4042641359
 30
0.0
 40
2.799999999999912
100
AcDbArc
 50
162.2009132142
 51
192.9186843758
  0
ARC
  5
216
330
1F
100
AcDbEntity
  8
0
  6
Continuous
 62
     7
370
    15
100
AcDbCircle
 10
257.6734328936
 20
151.1160728601
 30
0.0
 40
2.80000000000001
100
AcDbArc
 50
342.2009132142
 51
12.9186843758
  0
ARC
  5
217
330
1F
100
AcDbEntity
  8
0
  6
Continuous
 62
     7
370
    15
100
AcDbCircle
 10
263.1316875955
 20
152.3680535343
 30
0.0
 40
2.800000000000016
100
AcDbArc
 50
162.2009132142
 51
192.9186843758
  0
ARC
  5
218
330
1F
100
AcDbEntity
  8
0
  6
Continuous
 62
     7
370
    15
100
AcDbCircle
 10
257.7997357117
 20
154.0798622585
 30
0.0
 40
2.800000000000035
100
AcDbArc
 50
342.2009132142
 51
12.9186843758
  0
ARC
  5
219
330
1F
100
AcDbEntity
  8
0
  6
Continuous
 62
     7
370
    15
100
AcDbCircle
 10
263.2579904136
 20
155.3318429327
 30
0.0
 40
2.800000000000091
100
AcDbArc
 50
162.2009132142
 51
192.9186843758
  0
ARC
  5
21A
330
1F
100
AcDbEntity
  8
0
  6
Continuous
 62
     7
370
    15
100
AcDbCircle
 10
257.9260385298
 20
157.0436516569
 30
0.0
 40
2.800000000000027
100
AcDbArc
 50
342.2009132142
 51
12.9186843758
  0
ARC
  5
21B
330
1F
100
AcDbEntity
  8
0
  6
Continuous
 62
     7
370
    15
100
AcDbCircle
 10
263.3842932317
 20
158.2956323311
 30
0.0
 40
2.799999999999993
100
AcDbArc
 50
177.5597987949
 51
192.9186843758
  0
LINE
  5
21C
330
1F
100
AcDbEntity
  8
0
  6
Continuous
 62
     7
370
    15
100
AcDbLine
 10
260.6769624505
 20
160.5296913371
 30
0.0
 11
260.5868253264
 21
158.4148440347
 31
0.0
  0
ARC
  5
21D
330
1F
100
AcDbEntity
  8
0
  6
Continuous
 62
     7
370
    15
100
AcDbCircle
 10
261.5761407579
 20
160.4913689095
 30
0.0
 40
0.9000000000000199
100
AcDbArc
 50
2.440201205
 51
177.559798795
  0
LINE
  5
21E
330
1F
100
AcDbEntity
  8
0
  6
Continuous
 62
     7
370
    15
100
AcDbLine
 10
262.5654462132
 20
158.4148440347
 30
0.0
 11
262.4753239903
 21
160.5296913371
 31
0.0
  0
ARC
  5
21F
330
1F
100
AcDbEntity
  8
0
  6
Continuous
 62
     7
370
    15
100
AcDbCircle
 10
259.7679882841
 20
158.2956323311
 30
0.0
 40
2.800000000000384
100
AcDbArc
 50
347.0813156242
 51
2.440201205
  0
ARC
  5
220
330
1F
100
AcDbEntity
  8
0
  6
Continuous
 62
     7
370
    15
100
AcDbCircle
 10
265.2262429861
 20
157.0436516569
 30
0.0
 40
2.800000000000027
100
AcDbArc
 50
167.0813156242
 51
197.7990867858
  0
ARC
  5
221
330
1F
100
AcDbEntity
  8
0
  6
Continuous
 62
     7
370
    15
100
AcDbCircle
 10
259.8942911022
 20
155.3318429327
 30
0.0
 40
2.800000000000042
100
AcDbArc
 50
347.0813156242
 51
17.7990867858
  0
ARC
  5
222
330
1F
100
AcDbEntity
  8
0
  6
Continuous
 62
     7
370
    15
100
AcDbCircle
 10
265.3525458042
 20
154.0798622585
 30
0.0
 40
2.800000000000029
100
AcDbArc
 50
167.0813156242
 51
197.7990867858
  0
ARC
  5
223
330
1F
100
AcDbEntity
  8
0
  6
Continuous
 62
     7
370
    15
100
AcDbCircle
 10
260.0205939203
 20
152.3680535343
 30
0.0
 40
2.800000000000016
100
AcDbArc
 50
347.0813156242
 51
17.7990867858
  0
ARC
  5
224
330
1F
100
AcDbEntity
  8
0
  6
Continuous
 62
     7
370
    15
100
AcDbCircle
 10
265.4788486223
 20
151.1160728601
 30
0.0
 40
2.79999999999998
100
AcDbArc
 50
167.0813156242
 51
197.7990867858
  0
ARC
  5
225
330
1F
100
AcDbEntity
  8
0
  6
Continuous
 62
     7
370
    15
100
AcDbCircle
 10
260.1468967384
 20
149.4042641359
 30
0.0
 40
2.799999999999974
100
AcDbArc
 50
347.0813156242
 51
17.7990867858
  0
ARC
  5
226
330
1F
100
AcDbEntity
  8
0
  6
Continuous
 62
     7
370
    15
100
AcDbCircle
 10
265.6051514404
 20
148.1522834617
 30
0.0
 40
2.800000000000022
100
AcDbArc
 50
167.0813156242
 51
197.7990867858
  0
ARC
  5
227
330
1F
100
AcDbEntity
  8
0
  6
Continuous
 62
     7
370
    15
100
AcDbCircle
 10
260.2731995565
 20
146.4404747375
 30
0.0
 40
2.799999999999912
100
AcDbArc
 50
347.0813156242
 51
17.7990867858
  0
ARC
  5
228
330
1F
100
AcDbEntity
  8
0
  6
Continuous
 62
     7
370
    15
100
AcDbCircle
 10
265.7314542585
 20
145.1884940632
 30
0.0
 40
2.800000000000035
100
AcDbArc
 50
167.0813156242
 51
197.7990867858
  0
ARC
  5
229
330
1F
100
AcDbEntity
  8
0
  6
Continuous
 62
     7
370
    15
100
AcDbCircle
 10
260.3995023746
 20
143.4766853391
 30
0.0
 40
2.8000000000001
100
AcDbArc
 50
2.440201205
 51
17.7990867858
  0
LINE
  5
22A
330
1F
100
AcDbEntity
  8
0
  6
Continuous
 62
     7
370
    15
100
AcDbLine
 10
263.3557441983
 20
139.870080708
 30
0.0
 11
263.1969574246
 21
143.5958999977
 31
0.0
  0
ARC
  5
22B
330
1F
100
AcDbEntity
  8
0
  6
Continuous
 62
     7
370
    15
100
AcDbCircle
 10
263.8552869109
 20
139.8913689095
 30
0.0
 40
0.5
100
AcDbArc
 50
182.440201205
 51
270.0
  0
LINE
  5
22C
330
1F
100
AcDbEntity
  8
0
  6
Continuous
 62
     7
370
    15
100
AcDbLine
 10
268.1858810935
 20
139.3913660035
 30
0.0
 11
263.8552907261
 21
139.3913660035
 31
0.0
  0
ARC
  5
22D
330
1F
100
AcDbEntity
  8
0
  6
Continuous
 62
     7
370
    15
100
AcDbCircle
 10
268.1858834939
 20
139.8913689095
 30
0.0
 40
0.5000000000000306
100
AcDbArc
 50
270.0
 51
357.559798795
  0
LINE
  5
22E
330
1F
100
AcDbEntity
  8
0
  6
Continuous
 62
     7
370
    15
100
AcDbLine
 10
268.844214395
 20
143.5958999977
 30
0.0
 11
268.6854276213
 21
139.870080708
 31
0.0
  0
ARC
  5
22F
330
1F
100
AcDbEntity
  8
0
  6
Continuous
 62
     7
370
    15
100
AcDbCircle
 10
271.6416680301
 20
143.4766853391
 30
0.0
 40
2.79999999999993
100
AcDbArc
 50
162.2009132142
 51
177.559798795
  0
ARC
  5
230
330
1F
100
AcDbEntity
  8
0
  6
Continuous
 62
     7
370
    15
100
AcDbCircle
 10
266.3097161463
 20
145.1884940632
 30
0.0
 40
2.800000000000097
100
AcDbArc
 50
342.2009132142
 51
12.9186843758
  0
ARC
  5
231
330
1F
100
AcDbEntity
  8
0
  6
Continuous
 62
     7
370
    15
100
AcDbCircle
 10
271.7679708482
 20
146.4404747375
 30
0.0
 40
2.799999999999906
100
AcDbArc
 50
162.2009132142
 51
192.9186843758
  0
ARC
  5
232
330
1F
100
AcDbEntity
  8
0
  6
Continuous
 62
     7
370
    15
100
AcDbCircle
 10
266.4360189644
 20
148.1522834617
 30
0.0
 40
2.80000000000001
100
AcDbArc
 50
342.2009132142
 51
12.9186843758
  0
ARC
  5
233
330
1F
100
AcDbEntity
  8
0
  6
Continuous
 62
     7
370
    15
100
AcDbCircle
 10
271.8942736663
 20
149.4042641359
 30
0.0
 40
2.800000000000022
100
AcDbArc
 50
162.2009132142
 51
192.9186843758
  0
ARC
  5
234
330
1F
100
AcDbEntity
  8
0
  6
Continuous
 62
     7
370
    15
100
AcDbCircle
 10
266.5623217825
 20
151.1160728601
 30
0.0
 40
2.800000000000035
100
AcDbArc
 50
342.2009132142
 51
12.9186843758
  0
ARC
  5
235
330
1F
100
AcDbEntity
  8
0
  6
Continuous
 62
     7
370
    15
100
AcDbCircle
 10
272.0205764844
 20
152.3680535343
 30
0.0
 40
2.799999999999906
100
AcDbArc
 50
162.2009132142
 51
192.9186843758
  0
ARC
  5
236
330
1F
100
AcDbEntity
  8
0
  6
Continuous
 62
     7
370
    15
100
AcDbCircle
 10
266.6886246006
 20
154.0798622585
 30
0.0
 40
2.800000000000091
100
AcDbArc
 50
342.2009132142
 51
12.9186843758
  0
ARC
  5
237
330
1F
100
AcDbEntity
  8
0
  6
Continuous
 62
     7
370
    15
100
AcDbCircle
 10
272.1468793025
 20
155.3318429327
 30
0.0
 40
2.79999999999998
100
AcDbArc
 50
162.2009132142
 51
192.9186843758
  0
ARC
  5
238
330
1F
100
AcDbEntity
  8
0
  6
Continuous
 62
     7
370
    15
100
AcDbCircle
 10
266.8149274187
 20
157.0436516569
 30
0.0
 40
2.800000000000018
100
AcDbArc
 50
342.2009132142
 51
12.9186843758
  0
ARC
  5
239
330
1F
100
AcDbEntity
  8
0
  6
Continuous
 62
     7
370
    15
100
AcDbCircle
 10
272.2731821206
 20
158.2956323311
 30
0.0
 40
2.800000000000063
100
AcDbArc
 50
177.5597987949
 51
192.9186843758
  0
LINE
  5
23A
330
1F
100
AcDbEntity
  8
0
  6
Continuous
 62
     7
370
    15
100
AcDbLine
 10
269.5658478293
 20
160.5296913371
 30
0.0
 11
269.4757256064
 21
158.4148440347
 31
0.0
  0
ARC
  5
23B
330
1F
100
AcDbEntity
  8
0
  6
Continuous
 62
     7
370
    15
100
AcDbCircle
 10
270.4650296468
 20
160.4913689095
 30
0.0
 40
0.9000000000000187
100
AcDbArc
 50
2.440201205
 51
177.559798795
  0
LINE
  5
23C
330
1F
100
AcDbEntity
  8
0
  6
Continuous
 62
     7
370
    15
100
AcDbLine
 10
271.454331592
 20
158.4148440347
 30
0.0
 11
271.3642093691
 21
160.5296913371
 31
0.0
  0
ARC
  5
23D
330
1F
100
AcDbEntity
  8
0
  6
Continuous
 62
     7
370
    15
100
AcDbCircle
 10
268.656877173
 20
158.2956323311
 30
0.0
 40
2.800000000000327
100
AcDbArc
 50
347.0813156242
 51
2.440201205
  0
ARC
  5
23E
330
1F
100
AcDbEntity
  8
0
  6
Continuous
 62
     7
370
    15
100
AcDbCircle
 10
274.115131875
 20
157.0436516569
 30
0.0
 40
2.799999999999972
100
AcDbArc
 50
167.0813156242
 51
197.7990867858
  0
ARC
  5
23F
330
1F
100
AcDbEntity
  8
0
  6
Continuous
 62
     7
370
    15
100
AcDbCircle
 10
268.7831799911
 20
155.3318429327
 30
0.0
 40
2.800000000000097
100
AcDbArc
 50
347.0813156242
 51
17.7990867858
  0
ARC
  5
240
330
1F
100
AcDbEntity
  8
0
  6
Continuous
 62
     7
370
    15
100
AcDbCircle
 10
274.2414346931
 20
154.0798622585
 30
0.0
 40
2.80000000000001
100
AcDbArc
 50
167.0813156242
 51
197.7990867858
  0
ARC
  5
241
330
1F
100
AcDbEntity
  8
0
  6
Continuous
 62
     7
370
    15
100
AcDbCircle
 10
268.9094828092
 20
152.3680535343
 30
0.0
 40
2.799999999999961
100
AcDbArc
 50
347.0813156242
 51
17.7990867858
  0
ARC
  5
242
330
1F
100
AcDbEntity
  8
0
  6
Continuous
 62
     7
370
    15
100
AcDbCircle
 10
274.3677375112
 20
151.1160728601
 30
0.0
 40
2.800000000000035
100
AcDbArc
 50
167.0813156242
 51
197.7990867858
  0
ARC
  5
243
330
1F
100
AcDbEntity
  8
0
  6
Continuous
 62
     7
370
    15
100
AcDbCircle
 10
269.0357856273
 20
149.4042641359
 30
0.0
 40
2.799999999999974
100
AcDbArc
 50
347.0813156242
 51
17.7990867858
  0
ARC
  5
244
330
1F
100
AcDbEntity
  8
0
  6
Continuous
 62
     7
370
    15
100
AcDbCircle
 10
274.4940403293
 20
148.1522834617
 30
0.0
 40
2.799999999999967
100
AcDbArc
 50
167.0813156242
 51
197.7990867858
  0
ARC
  5
245
330
1F
100
AcDbEntity
  8
0
  6
Continuous
 62
     7
370
    15
100
AcDbCircle
 10
269.1620884454
 20
146.4404747375
 30
0.0
 40
2.800000000000078
100
AcDbArc
 50
347.0813156242
 51
17.7990867858
  0
ARC
  5
246
330
1F
100
AcDbEntity
  8
0
  6
Continuous
 62
     7
370
    15
100
AcDbCircle
 10
274.6203431473
 20
145.1884940632
 30
0.0
 40
2.799999999999925
100
AcDbArc
 50
167.0813156242
 51
197.7990867858
  0
ARC
  5
247
330
1F
100
AcDbEntity
  8
0
  6
Continuous
 62
     7
370
    15
100
AcDbCircle
 10
269.2883912635
 20
143.4766853391
 30
0.0
 40
2.799999999999992
100
AcDbArc
 50
2.440201205
 51
17.7990867858
  0
LINE
  5
248
330
1F
100
AcDbEntity
  8
0
  6
Continuous
 62
     7
370
    15
100
AcDbLine
 10
272.2446295771
 20
139.870080708
 30
0.0
 11
272.0858577046
 21
143.5958999977
 31
0.0
  0
ARC
  5
249
330
1F
100
AcDbEntity
  8
0
  6
Continuous
 62
     7
370
    15
100
AcDbCircle
 10
272.7441757998
 20
139.8913689095
 30
0.0
 40
0.5000000000000306
100
AcDbArc
 50
182.440201205
 51
270.0
  0
LINE
  5
24A
330
1F
100
AcDbEntity
  8
0
  6
Continuous
 62
     7
370
    15
100
AcDbLine
 10
277.0747664723
 20
139.3913660035
 30
0.0
 11
272.744176105
 21
139.3913660035
 31
0.0
  0
ARC
  5
24B
330
1F
100
AcDbEntity
  8
0
  6
Continuous
 62
     7
370
    15
100
AcDbCircle
 10
277.0747723828
 20
139.8913689095
 30
0.0
 40
0.5
100
AcDbArc
 50
270.0
 51
357.559798795
  0
LINE
  5
24C
330
1F
100
AcDbEntity
  8
0
  6
Continuous
 62
     7
370
    15
100
AcDbLine
 10
277.7330997738
 20
143.5958999977
 30
0.0
 11
277.5743130002
 21
139.870080708
 31
0.0
  0
ARC
  5
24D
330
1F
100
AcDbEntity
  8
0
  6
Continuous
 62
     7
370
    15
100
AcDbCircle
 10
280.530556919
 20
143.4766853391
 30
0.0
 40
2.799999999999986
100
AcDbArc
 50
162.2009132142
 51
177.559798795
  0
ARC
  5
24E
330
1F
100
AcDbEntity
  8
0
  6
Continuous
 62
     7
370
    15
100
AcDbCircle
 10
275.1986050352
 20
145.1884940632
 30
0.0
 40
2.799999999999986
100
AcDbArc
 50
342.2009132142
 51
12.9186843758
  0
ARC
  5
24F
330
1F
100
AcDbEntity
  8
0
  6
Continuous
 62
     7
370
    15
100
AcDbCircle
 10
280.6568597371
 20
146.4404747375
 30
0.0
 40
2.800000000000016
100
AcDbArc
 50
162.2009132142
 51
192.9186843758
  0
ARC
  5
250
330
1F
100
AcDbEntity
  8
0
  6
Continuous
 62
     7
370
    15
100
AcDbCircle
 10
275.3249078533
 20
148.1522834617
 30
0.0
 40
2.800000000000029
100
AcDbArc
 50
342.2009132142
 51
12.9186843758
  0
ARC
  5
251
330
1F
100
AcDbEntity
  8
0
  6
Continuous
 62
     7
370
    15
100
AcDbCircle
 10
280.7831625552
 20
149.4042641359
 30
0.0
 40
2.799999999999912
100
AcDbArc
 50
162.2009132142
 51
192.9186843758
  0
ARC
  5
252
330
1F
100
AcDbEntity
  8
0
  6
Continuous
 62
     7
370
    15
100
AcDbCircle
 10
275.4512106714
 20
151.1160728601
 30
0.0
 40
2.800000000000091
100
AcDbArc
 50
342.2009132142
 51
12.9186843758
  0
ARC
  5
253
330
1F
100
AcDbEntity
  8
0
  6
Continuous
 62
     7
370
    15
100
AcDbCircle
 10
280.9094653733
 20
152.3680535343
 30
0.0
 40
2.799999999999992
100
AcDbArc
 50
162.2009132142
 51
192.9186843758
  0
ARC
  5
254
330
1F
100
AcDbEntity
  8
0
  6
Continuous
 62
     7
370
    15
100
AcDbCircle
 10
275.5775134895
 20
154.0798622585
 30
0.0
 40
2.800000000000035
100
AcDbArc
 50
342.2009132142
 51
12.9186843758
  0
ARC
  5
255
330
1F
100
AcDbEntity
  8
0
  6
Continuous
 62
     7
370
    15
100
AcDbCircle
 10
281.0357681914
 20
155.3318429327
 30
0.0
 40
2.800000000000035
100
AcDbArc
 50
162.2009132142
 51
192.9186843758
  0
ARC
  5
256
330
1F
100
AcDbEntity
  8
0
  6
Continuous
 62
     7
370
    15
100
AcDbCircle
 10
275.7038163075
 20
157.0436516569
 30
0.0
 40
2.800000000000018
100
AcDbArc
 50
342.2009132142
 51
12.9186843758
  0
ARC
  5
257
330
1F
100
AcDbEntity
  8
0
  6
Continuous
 62
     7
370
    15
100
AcDbCircle
 10
281.1620710095
 20
158.2956323311
 30
0.0
 40
2.799999999999952
100
AcDbArc
 50
177.5597987949
 51
192.9186843758
  0
LINE
  5
258
330
1F
100
AcDbEntity
  8
0
  6
Continuous
 62
     7
370
    15
100
AcDbLine
 10
278.4547332081
 20
160.5296913371
 30
0.0
 11
278.3646109852
 21
158.4148440347
 31
0.0
  0
ARC
  5
259
330
1F
100
AcDbEntity
  8
0
  6
Continuous
 62
     7
370
    15
100
AcDbCircle
 10
279.3539185357
 20
160.4913689095
 30
0.0
 40
0.9000000000000199
100
AcDbArc
 50
2.440201205
 51
177.559798795
  0
LINE
  5
25A
330
1F
100
AcDbEntity
  8
0
  6
Continuous
 62
     7
370
    15
100
AcDbLine
 10
280.343231872
 20
158.4148440347
 30
0.0
 11
280.2531096491
 21
160.5296913371
 31
0.0
  0
ARC
  5
25B
330
1F
100
AcDbEntity
  8
0
  6
Continuous
 62
     7
370
    15
100
AcDbCircle
 10
277.5457660619
 20
158.2956323311
 30
0.0
 40
2.800000000000441
100
AcDbArc
 50
347.0813156242
 51
2.440201205
  0
ARC
  5
25C
330
1F
100
AcDbEntity
  8
0
  6
Continuous
 62
     7
370
    15
100
AcDbCircle
 10
283.0040207639
 20
157.0436516569
 30
0.0
 40
2.799999999999972
100
AcDbArc
 50
167.0813156242
 51
197.7990867858
  0
ARC
  5
25D
330
1F
100
AcDbEntity
  8
0
  6
Continuous
 62
     7
370
    15
100
AcDbCircle
 10
277.67206888
 20
155.3318429327
 30
0.0
 40
2.800000000000042
100
AcDbArc
 50
347.0813156242
 51
17.7990867858
  0
ARC
  5
25E
330
1F
100
AcDbEntity
  8
0
  6
Continuous
 62
     7
370
    15
100
AcDbCircle
 10
283.130323582
 20
154.0798622585
 30
0.0
 40
2.800000000000029
100
AcDbArc
 50
167.0813156242
 51
197.7990867858
  0
ARC
  5
25F
330
1F
100
AcDbEntity
  8
0
  6
Continuous
 62
     7
370
    15
100
AcDbCircle
 10
277.7983716981
 20
152.3680535343
 30
0.0
 40
2.800000000000016
100
AcDbArc
 50
347.0813156242
 51
17.7990867858
  0
ARC
  5
260
330
1F
100
AcDbEntity
  8
0
  6
Continuous
 62
     7
370
    15
100
AcDbCircle
 10
283.2566264001
 20
151.1160728601
 30
0.0
 40
2.79999999999998
100
AcDbArc
 50
167.0813156242
 51
197.7990867858
  0
ARC
  5
261
330
1F
100
AcDbEntity
  8
0
  6
Continuous
 62
     7
370
    15
100
AcDbCircle
 10
277.9246745162
 20
149.4042641359
 30
0.0
 40
2.800000000000085
100
AcDbArc
 50
347.0813156242
 51
17.7990867858
  0
ARC
  5
262
330
1F
100
AcDbEntity
  8
0
  6
Continuous
 62
     7
370
    15
100
AcDbCircle
 10
283.3829292181
 20
148.1522834617
 30
0.0
 40
2.80000000000001
100
AcDbArc
 50
167.0813156242
 51
197.7990867858
  0
ARC
  5
263
330
1F
100
AcDbEntity
  8
0
  6
Continuous
 62
     7
370
    15
100
AcDbCircle
 10
278.0509773343
 20
146.4404747375
 30
0.0
 40
2.799999999999912
100
AcDbArc
 50
347.0813156242
 51
17.7990867858
  0
ARC
  5
264
330
1F
100
AcDbEntity
  8
0
  6
Continuous
 62
     7
370
    15
100
AcDbCircle
 10
283.5092320362
 20
145.1884940632
 30
0.0
 40
2.800000000000091
100
AcDbArc
 50
167.0813156242
 51
197.7990867858
  0
ARC
  5
265
330
1F
100
AcDbEntity
  8
0
  6
Continuous
 62
     7
370
    15
100
AcDbCircle
 10
278.1772801524
 20
143.4766853391
 30
0.0
 40
2.800000000000043
100
AcDbArc
 50
2.440201205
 51
17.7990867858
  0
LINE
  5
266
330
1F
100
AcDbEntity
  8
0
  6
Continuous
 62
     7
370
    15
100
AcDbLine
 10
281.133514956
 20
139.870080708
 30
0.0
 11
280.9747430834
 21
143.5958999977
 31
0.0
  0
ARC
  5
267
330
1F
100
AcDbEntity
  8
0
  6
Continuous
 62
     7
370
    15
100
AcDbCircle
 10
281.6330646886
 20
139.8913689095
 30
0.0
 40
0.5000000000000306
100
AcDbArc
 50
182.440201205
 51
270.0
  0
LINE
  5
268
330
1F
100
AcDbEntity
  8
0
  6
Continuous
 62
     7
370
    15
100
AcDbLine
 10
285.9636667523
 20
139.3913660035
 30
0.0
 11
281.6330614838
 21
139.3913660035
 31
0.0
  0
ARC
  5
269
330
1F
100
AcDbEntity
  8
0
  6
Continuous
 62
     7
370
    15
100
AcDbCircle
 10
285.9636612717
 20
139.8913689095
 30
0.0
 40
0.5
100
AcDbArc
 50
270.0
 51
357.559798795
  0
LINE
  5
26A
330
1F
100
AcDbEntity
  8
0
  6
Continuous
 62
     7
370
    15
100
AcDbLine
 10
286.6219851527
 20
143.5958999977
 30
0.0
 11
286.4632132802
 21
139.870080708
 31
0.0
  0
ARC
  5
26B
330
1F
100
AcDbEntity
  8
0
  6
Continuous
 62
     7
370
    15
100
AcDbCircle
 10
289.4194458079
 20
143.4766853391
 30
0.0
 40
2.799999999999986
100
AcDbArc
 50
162.2009132142
 51
177.559798795
  0
ARC
  5
26C
330
1F
100
AcDbEntity
  8
0
  6
Continuous
 62
     7
370
    15
100
AcDbCircle
 10
284.0874939241
 20
145.1884940632
 30
0.0
 40
2.800000000000097
100
AcDbArc
 50
342.2009132142
 51
12.9186843758
  0
ARC
  5
26D
330
1F
100
AcDbEntity
  8
0
  6
Continuous
 62
     7
370
    15
100
AcDbCircle
 10
289.545748626
 20
146.4404747375
 30
0.0
 40
2.799999999999906
100
AcDbArc
 50
162.2009132142
 51
192.9186843758
  0
ARC
  5
26E
330
1F
100
AcDbEntity
  8
0
  6
Continuous
 62
     7
370
    15
100
AcDbCircle
 10
284.2137967422
 20
148.1522834617
 30
0.0
 40
2.800000000000085
100
AcDbArc
 50
342.2009132142
 51
12.9186843758
  0
ARC
  5
26F
330
1F
100
AcDbEntity
  8
0
  6
Continuous
 62
     7
370
    15
100
AcDbCircle
 10
289.6720514441
 20
149.4042641359
 30
0.0
 40
2.799999999999984
100
AcDbArc
 50
162.2009132142
 51
192.9186843758
  0
ARC
  5
270
330
1F
100
AcDbEntity
  8
0
  6
Continuous
 62
     7
370
    15
100
AcDbCircle
 10
284.3400995602
 20
151.1160728601
 30
0.0
 40
2.800000000000035
100
AcDbArc
 50
342.2009132142
 51
12.9186843758
  0
ARC
  5
271
330
1F
100
AcDbEntity
  8
0
  6
Continuous
 62
     7
370
    15
100
AcDbCircle
 10
289.7983542622
 20
152.3680535343
 30
0.0
 40
2.799999999999961
100
AcDbArc
 50
162.2009132142
 51
192.9186843758
  0
ARC
  5
272
330
1F
100
AcDbEntity
  8
0
  6
Continuous
 62
     7
370
    15
100
AcDbCircle
 10
284.4664023783
 20
154.0798622585
 30
0.0
 40
2.800000000000035
100
AcDbArc
 50
342.2009132142
 51
12.9186843758
  0
ARC
  5
273
330
1F
100
AcDbEntity
  8
0
  6
Continuous
 62
     7
370
    15
100
AcDbCircle
 10
289.9246570803
 20
155.3318429327
 30
0.0
 40
2.79999999999998
100
AcDbArc
 50
162.2009132142
 51
192.9186843758
  0
ARC
  5
274
330
1F
100
AcDbEntity
  8
0
  6
Continuous
 62
     7
370
    15
100
AcDbCircle
 10
284.5927051964
 20
157.0436516569
 30
0.0
 40
2.800000000000027
100
AcDbArc
 50
342.2009132142
 51
12.9186843758
  0
ARC
  5
275
330
1F
100
AcDbEntity
  8
0
  6
Continuous
 62
     7
370
    15
100
AcDbCircle
 10
290.0509598984
 20
158.2956323311
 30
0.0
 40
2.800000000000049
100
AcDbArc
 50
177.5597987949
 51
192.9186843758
  0
LINE
  5
276
330
1F
100
AcDbEntity
  8
0
  6
Continuous
 62
     7
370
    15
100
AcDbLine
 10
287.343618587
 20
160.5296913371
 30
0.0
 11
287.2534963641
 21
158.4148440347
 31
0.0
  0
ARC
  5
277
330
1F
100
AcDbEntity
  8
0
  6
Continuous
 62
     7
370
    15
100
AcDbCircle
 10
288.2428074246
 20
160.4913689095
 30
0.0
 40
0.9000000000000187
100
AcDbArc
 50
2.440201205
 51
177.559798795
  0
LINE
  5
278
330
1F
100
AcDbEntity
  8
0
  6
Continuous
 62
     7
370
    15
100
AcDbLine
 10
289.2321172509
 20
158.4148440347
 30
0.0
 11
289.141995028
 21
160.5296913371
 31
0.0
  0
ARC
  5
279
330
1F
100
AcDbEntity
  8
0
  6
Continuous
 62
     7
370
    15
100
AcDbCircle
 10
286.4346549508
 20
158.2956323311
 30
0.0
 40
2.800000000000327
100
AcDbArc
 50
347.0813156242
 51
2.440201205
  0
ARC
  5
27A
330
1F
100
AcDbEntity
  8
0
  6
Continuous
 62
     7
370
    15
100
AcDbCircle
 10
291.8929096528
 20
157.0436516569
 30
0.0
 40
2.800000000000027
100
AcDbArc
 50
167.0813156242
 51
197.7990867858
  0
ARC
  5
27B
330
1F
100
AcDbEntity
  8
0
  6
Continuous
 62
     7
370
    15
100
AcDbCircle
 10
286.5609577689
 20
155.3318429327
 30
0.0
 40
2.800000000000038
100
AcDbArc
 50
347.0813156242
 51
17.7990867858
  0
ARC
  5
27C
330
1F
100
AcDbEntity
  8
0
  6
Continuous
 62
     7
370
    15
100
AcDbCircle
 10
292.0192124708
 20
154.0798622585
 30
0.0
 40
2.800000000000035
100
AcDbArc
 50
167.0813156242
 51
197.7990867858
  0
ARC
  5
27D
330
1F
100
AcDbEntity
  8
0
  6
Continuous
 62
     7
370
    15
100
AcDbCircle
 10
286.687260587
 20
152.3680535343
 30
0.0
 40
2.799999999999961
100
AcDbArc
 50
347.0813156242
 51
17.7990867858
  0
ARC
  5
27E
330
1F
100
AcDbEntity
  8
0
  6
Continuous
 62
     7
370
    15
100
AcDbCircle
 10
292.1455152889
 20
151.1160728601
 30
0.0
 40
2.800000000000035
100
AcDbArc
 50
167.0813156242
 51
197.7990867858
  0
ARC
  5
27F
330
1F
100
AcDbEntity
  8
0
  6
Continuous
 62
     7
370
    15
100
AcDbCircle
 10
286.8135634051
 20
149.4042641359
 30
0.0
 40
2.799999999999918
100
AcDbArc
 50
347.0813156242
 51
17.7990867858
  0
ARC
  5
280
330
1F
100
AcDbEntity
  8
0
  6
Continuous
 62
     7
370
    15
100
AcDbCircle
 10
292.271818107
 20
148.1522834617
 30
0.0
 40
2.800000000000078
100
AcDbArc
 50
167.0813156242
 51
197.7990867858
  0
ARC
  5
281
330
1F
100
AcDbEntity
  8
0
  6
Continuous
 62
     7
370
    15
100
AcDbCircle
 10
286.9398662232
 20
146.4404747375
 30
0.0
 40
2.800000000000078
100
AcDbArc
 50
347.0813156242
 51
17.7990867858
  0
ARC
  5
282
330
1F
100
AcDbEntity
  8
0
  6
Continuous
 62
     7
370
    15
100
AcDbCircle
 10
292.3981209251
 20
145.1884940632
 30
0.0
 40
2.79999999999998
100
AcDbArc
 50
167.0813156242
 51
197.7990867858
  0
ARC
  5
283
330
1F
100
AcDbEntity
  8
0
  6
Continuous
 62
     7
370
    15
100
AcDbCircle
 10
287.0661690413
 20
143.4766853391
 30
0.0
 40
2.800000000000055
100
AcDbArc
 50
2.440201205
 51
17.7990867858
  0
LINE
  5
284
330
1F
100
AcDbEntity
  8
0
  6
Continuous
 62
     7
370
    15
100
AcDbLine
 10
290.0224003348
 20
139.870080708
 30
0.0
 11
289.8636284623
 21
143.5958999977
 31
0.0
  0
ARC
  5
285
330
1F
100
AcDbEntity
  8
0
  6
Continuous
 62
     7
370
    15
100
AcDbCircle
 10
290.5219535775
 20
139.8913689095
 30
0.0
 40
0.5
100
AcDbArc
 50
182.440201205
 51
270.0
  0
LINE
  5
286
330
1F
100
AcDbEntity
  8
0
  6
Continuous
 62
     7
370
    15
100
AcDbLine
 10
297.7427962574
 20
139.3913660035
 30
0.0
 11
290.5219468627
 21
139.3913660035
 31
0.0
  0
ARC
  5
287
330
1F
100
AcDbEntity
  8
0
  6
Continuous
 62
     7
370
    15
100
AcDbCircle
 10
297.7428074246
 20
139.8913689095
 30
0.0
 40
0.5
100
AcDbArc
 50
270.0
 51
0.0
  0
LINE
  5
288
330
1F
100
AcDbEntity
  8
0
  6
Continuous
 62
     7
370
    15
100
AcDbLine
 10
298.2428196225
 20
160.8913723216
 30
0.0
 11
298.2428196225
 21
139.8913670168
 31
0.0
  0
ARC
  5
289
330
1F
100
AcDbEntity
  8
0
  6
Continuous
 62
     7
370
    15
100
AcDbCircle
 10
298.7428074246
 20
160.8913689095
 30
0.0
 40
0.5
100
AcDbArc
 50
90.0
 51
180.0
  0
LINE
  5
28A
330
1F
100
AcDbEntity
  8
0
  6
Continuous
 62
     7
370
    15
100
AcDbLine
 10
301.7428043637
 20
161.3913658843
 30
0.0
 11
298.7428131852
 21
161.3913658843
 31
0.0
  0
ARC
  5
28B
330
1F
100
AcDbEntity
  8
0
  6
Continuous
 62
     7
370
    15
100
AcDbCircle
 10
301.7428074246
 20
160.8913689095
 30
0.0
 40
0.5
100
AcDbArc
 50
0.0
 51
90.0
  0
LINE
  5
28C
330
1F
100
AcDbEntity
  8
0
  6
Continuous
 62
     7
370
    15
100
AcDbLine
 10
302.2427979264
 20
131.8913657055
 30
0.0
 11
302.2427979264
 21
160.8913723216
 31
0.0
  0
ARC
  5
28D
330
1F
100
AcDbEntity
  8
0
  6
Continuous
 62
     7
370
    15
100
AcDbCircle
 10
301.7428074246
 20
131.8913689095
 30
0.0
 40
0.5
100
AcDbArc
 50
270.0
 51
0.0
  0
DIMENSION
  5
28E
330
1F
100
AcDbEntity
  8
0
  6
Continuous
 62
     7
370
     0
100
AcDbDimension
  2
_D
 10
100.9016166617
 20
131.3913689095
 30
0.0
 11
100.9016166617
 21
146.5154512931
 31
0.0
 70
   160
  1
<>
 71
     2
 42
-1.0
  3
SLDDIMSTYLE0
100
AcDbAlignedDimension
 13
114.7428074246
 23
161.3913689095
 33
0.0
 14
114.7428074246
 24
131.3913689095
 34
0.0
 50
90.0
100
AcDbRotatedDimension
  0
DIMENSION
  5
29A
330
1F
100
AcDbEntity
  8
0
  6
Continuous
 62
     7
370
     0
100
AcDbDimension
  2
_D_1
 10
118.2428074246
 20
167.1236329912
 30
0.0
 11
116.1888334131
 21
167.1236329912
 31
0.0
 70
   160
  1
<>
 71
     2
 42
-1.0
  3
SLDDIMSTYLE1
100
AcDbAlignedDimension
 13
114.2428074246
 23
160.8913689095
 33
0.0
 14
118.2428074246
 24
160.8913689095
 34
0.0
100
AcDbRotatedDimension
  0
DIMENSION
  5
2A7
330
1F
100
AcDbEntity
  8
0
  6
Continuous
 62
     7
370
     0
100
AcDbDimension
  2
_D_2
 10
302.2428074246
 20
112.9096907361
 30
0.0
 11
209.9843994462
 21
112.9096907361
 31
0.0
 70
   160
  1
<>
 71
     2
 42
-1.0
  3
SLDDIMSTYLE0
100
AcDbAlignedDimension
 13
114.2428074246
 23
131.8913689095
 33
0.0
 14
302.2428074246
 24
131.8913689095
 34
0.0
 50
0.0
100
AcDbRotatedDimension
  0
DIMENSION
  5
2B1
330
1F
100
AcDbEntity
  8
0
  6
Continuous
 62
     7
370
     0
100
AcDbDimension
  2
_D_3
 10
312.2428074246
 20
139.3913689095
 30
0.0
 11
312.2428074246
 21
135.4579179839
 31
0.0
 70
   160
  1
<>
 71
     2
 42
-1.0
  3
SLDDIMSTYLE1
100
AcDbAlignedDimension
 13
301.7428074246
 23
131.3913689095
 33
0.0
 14
297.7428074246
 24
139.3913689095
 34
0.0
 50
90.0
100
AcDbRotatedDimension
  0
ENDSEC
  0
SECTION
  2
OBJECTS
  0
DICTIONARY
  5
C
330
0
100
AcDbDictionary
281
     1
  3
ACAD_GROUP
350
D
  3
ACAD_LAYOUT
350
1A
  3
ACAD_MLINESTYLE
350
17
  3
ACAD_PLOTSETTINGS
350
19
  3
ACAD_PLOTSTYLENAME
350
E
  0
DICTIONARY
  5
D
102
{ACAD_REACTORS
330
C
102
}
330
C
100
AcDbDictionary
281
     1
  0
DICTIONARY
  5
1A
102
{ACAD_REACTORS
330
C
102
}
330
C
100
AcDbDictionary
281
     1
  3
Layout1
350
1E
  3
Layout2
350
26
  3
Model
350
22
  0
DICTIONARY
  5
17
102
{ACAD_REACTORS
330
C
102
}
330
C
100
AcDbDictionary
281
     1
  3
Standard
350
18
  0
DICTIONARY
  5
19
102
{ACAD_REACTORS
330
C
102
}
330
C
100
AcDbDictionary
281
     1
  0
ACDBDICTIONARYWDFLT
  5
E
102
{ACAD_REACTORS
330
C
102
}
330
C
100
AcDbDictionary
281
     1
  3
Normal
350
F
100
AcDbDictionaryWithDefault
340
F
  0
LAYOUT
  5
1E
102
{ACAD_REACTORS
330
1A
102
}
330
1A
100
AcDbPlotSettings
  1

  2
none_device
  4

  6

 40
0.0
 41
0.0
 42
0.0
 43
0.0
 44
0.0
 45
0.0
 46
0.0
 47
0.0
 48
0.0
 49
0.0
140
0.0
141
0.0
142
1.0
143
1.0
 70
   688
 72
     0
 73
     0
 74
     5
  7

 75
    16
147
1.0
148
0.0
149
0.0
100
AcDbLayout
  1
Layout1
 70
     1
 71
     1
 10
0.0
 20
0.0
 11
420.0
 21
297.0
 12
0.0
 22
0.0
 32
0.0
 14
1.0000000000E+20
 24
1.0000000000E+20
 34
1.0000000000E+20
 15
-1.0000000000E+20
 25
-1.0000000000E+20
 35
-1.0000000000E+20
146
0.0
 13
0.0
 23
0.0
 33
0.0
 16
1.0
 26
0.0
 36
0.0
 17
0.0
 27
1.0
 37
0.0
 76
     0
330
1B
  0
LAYOUT
  5
26
102
{ACAD_REACTORS
330
1A
102
}
330
1A
100
AcDbPlotSettings
  1

  2
none_device
  4

  6

 40
0.0
 41
0.0
 42
0.0
 43
0.0
 44
0.0
 45
0.0
 46
0.0
 47
0.0
 48
0.0
 49
0.0
140
0.0
141
0.0
142
1.0
143
1.0
 70
   688
 72
     0
 73
     0
 74
     5
  7

 75
    16
147
1.0
148
0.0
149
0.0
100
AcDbLayout
  1
Layout2
 70
     1
 71
     2
 10
0.0
 20
0.0
 11
0.0
 21
0.0
 12
0.0
 22
0.0
 32
0.0
 14
0.0
 24
0.0
 34
0.0
 15
0.0
 25
0.0
 35
0.0
146
0.0
 13
0.0
 23
0.0
 33
0.0
 16
1.0
 26
0.0
 36
0.0
 17
0.0
 27
1.0
 37
0.0
 76
     0
330
23
  0
LAYOUT
  5
22
102
{ACAD_REACTORS
330
1A
102
}
330
1A
100
AcDbPlotSettings
  1

  2
none_device
  4

  6

 40
0.0
 41
0.0
 42
0.0
 43
0.0
 44
0.0
 45
0.0
 46
0.0
 47
0.0
 48
0.0
 49
0.0
140
0.0
141
0.0
142
1.0
143
1.0
 70
  1712
 72
     0
 73
     0
 74
     0
  7

 75
     0
147
1.0
148
0.0
149
0.0
100
AcDbLayout
  1
Model
 70
     1
 71
     0
 10
0.0
 20
0.0
 11
420.0
 21
297.0
 12
0.0
 22
0.0
 32
0.0
 14
0.0
 24
0.0
 34
0.0
 15
420.0
 25
297.0
 35
0.0
146
0.0
 13
0.0
 23
0.0
 33
0.0
 16
1.0
 26
0.0
 36
0.0
 17
0.0
 27
1.0
 37
0.0
 76
     0
330
1F
331
29
  0
MLINESTYLE
  5
18
102
{ACAD_REACTORS
330
17
102
}
330
17
100
AcDbMlineStyle
  2
Standard
 70
     0
  3

 62
   256
 51
90.0
 52
90.0
 71
     2
 49
0.5
 62
   256
  6
BYLAYER
 49
-0.5
 62
   256
  6
BYLAYER
  0
ACDBPLACEHOLDER
  5
F
102
{ACAD_REACTORS
330
E
102
}
330
E
  0
ENDSEC
  0
EOF
